osu file format v14

[General]
AudioFilename: audio.mp3
AudioLeadIn: 0
PreviewTime: 62222
Countdown: 0
SampleSet: Soft
StackLeniency: 0.7
Mode: 3
LetterboxInBreaks: 0
SpecialStyle: 0
WidescreenStoryboard: 1

[Editor]
Bookmarks: 823,10669,20515,30361,32823,33284,42669,52515,57438,62361,77130,95592,105438,106669,116823,117746,127592,137438
DistanceSpacing: 0.4
BeatDivisor: 4
GridSize: 32
TimelineZoom: 0.9999992

[Metadata]
Title:Gardens Under A Spring Sky
TitleUnicode:Gardens Under A Spring Sky
Artist:Fractal Dreamers
ArtistUnicode:Fractal Dreamers
Creator:_Kobii
Version:Easy
Source:osu!
Tags:mappers' guild quest monolithia helblinde skymuted faputa blocko scotty drum n bass dnb instrumental piano
BeatmapID:2262011
BeatmapSetID:1080892

[Difficulty]
HPDrainRate:6.5
CircleSize:7
OverallDifficulty:6.5
ApproachRate:5
SliderMultiplier:1.4
SliderTickRate:1

[Events]
//Background and Video events
0,0,"wallpaperflare.com_wallpaper.jpg",0,0
//Break Periods
//Storyboard Layer 0 (Background)
//Storyboard Layer 1 (Fail)
//Storyboard Layer 2 (Pass)
//Storyboard Layer 3 (Foreground)
//Storyboard Layer 4 (Overlay)
//Storyboard Sound Samples
Sample,61145,0,"hihat 2.wav",70
Sample,99915,0,"hihat 2.wav",70

[TimingPoints]
-4085,307.692307692308,4,2,1,50,1,0
222,-100,4,2,1,25,0,0
10684,-100,4,2,1,35,0,0
20530,-100,4,2,1,50,0,0
62376,-100,4,2,1,50,0,1
77145,-100,4,2,1,50,0,0
106684,-100,4,2,1,50,0,1
116530,-100,4,2,1,50,0,0
116849,307.692307692308,4,2,1,50,1,8
116849,-100,4,2,1,50,0,0
117772,307.692307692308,4,2,1,50,1,0
117772,-100,4,2,1,50,0,0
127607,307.692307692308,4,2,1,50,1,0
127607,-100,4,2,1,50,0,0

[HitObjects]
36,192,222,5,0,0:0:0:0:
182,192,376,1,0,0:0:0:0:
329,192,530,1,0,0:0:0:0:
329,192,838,1,0,0:0:0:0:
109,192,1145,1,0,0:0:0:0:
402,192,1453,1,0,0:0:0:0:
36,192,2684,1,0,0:0:0:0:
182,192,2838,1,0,0:0:0:0:
329,192,2991,1,0,0:0:0:0:
329,192,3299,1,0,0:0:0:0:
109,192,3607,1,0,0:0:0:0:
402,192,3915,1,0,0:0:0:0:
109,192,5145,1,0,0:0:0:0:
256,192,5299,1,0,0:0:0:0:
475,192,5453,1,0,0:0:0:0:
475,192,5761,1,0,0:0:0:0:
329,192,6376,1,0,0:0:0:0:
182,192,6991,1,0,0:0:0:0:
36,192,7607,1,0,0:0:0:0:
36,192,8222,1,0,0:0:0:0:
256,192,9145,1,0,0:0:0:0:
256,192,9453,1,0,0:0:0:0:
36,192,10068,1,0,0:0:0:0:
182,192,10222,1,0,0:0:0:0:
329,192,10376,1,0,0:0:0:0:
256,192,10684,1,0,0:0:0:70:crash.wav
475,192,10684,1,0,0:0:0:0:
182,192,11915,1,0,0:0:0:0:
402,192,11915,1,0,0:0:0:0:
182,192,12838,1,0,0:0:0:0:
109,192,13145,1,0,0:0:0:0:
329,192,13145,1,0,0:0:0:0:
402,192,13761,1,0,0:0:0:0:
36,192,14376,1,0,0:0:0:0:
256,192,14376,1,0,0:0:0:0:
182,192,14991,1,0,0:0:0:0:
256,192,15145,1,0,0:0:0:0:
329,192,15299,1,0,0:0:0:0:
182,192,15607,1,0,0:0:0:0:
402,192,15607,1,0,0:0:0:0:
256,192,16222,1,0,0:0:0:0:
109,192,16838,1,0,0:0:0:0:
329,192,16838,1,0,0:0:0:0:
182,192,17453,1,0,0:0:0:0:
36,192,18068,128,0,19299:0:0:0:0:
182,192,18068,1,0,0:0:0:0:
329,192,18376,1,0,0:0:0:0:
329,192,18991,1,0,0:0:0:0:
329,192,19299,1,0,0:0:0:0:
109,192,19607,1,0,0:0:0:0:
256,192,19915,1,0,0:0:0:0:
402,192,20222,1,0,0:0:0:0:
182,192,20530,1,0,0:0:0:70:kick.wav
475,192,20838,1,0,0:0:0:70:snare 1.wav
182,192,21299,1,0,0:0:0:70:kick.wav
475,192,21453,1,0,0:0:0:70:snare 2.wav
36,192,21761,1,0,0:0:0:70:kick.wav
329,192,22068,1,0,0:0:0:70:snare 1.wav
402,192,22376,128,0,22684:0:0:0:70:hihat 2.wav
109,192,22684,128,0,22991:0:0:0:70:snare 2.wav
329,192,22991,1,0,0:0:0:70:kick.wav
36,192,23299,1,0,0:0:0:70:snare 1.wav
329,192,23761,1,0,0:0:0:70:kick.wav
36,192,23915,1,0,0:0:0:70:snare 2.wav
475,192,24222,1,0,0:0:0:70:kick.wav
182,192,24530,1,0,0:0:0:70:snare 1.wav
329,192,24838,128,0,25145:0:0:0:70:kick.wav
36,192,25145,128,0,25453:0:0:0:70:kick.wav
256,192,25453,1,0,0:0:0:70:kick.wav
36,192,25761,1,0,0:0:0:70:snare 1.wav
256,192,26222,1,0,0:0:0:70:kick.wav
36,192,26376,1,0,0:0:0:70:snare 2.wav
256,192,26684,1,0,0:0:0:70:kick.wav
475,192,26991,1,0,0:0:0:70:snare 1.wav
256,192,27299,128,0,27607:0:0:0:70:hihat 2.wav
36,192,27607,128,0,27915:0:0:0:70:snare 2.wav
182,192,27915,128,0,28222:0:0:0:70:kick.wav
36,192,28222,1,0,0:0:0:70:kick.wav
182,192,28376,1,0,0:0:0:70:kick.wav
329,192,28530,128,0,28838:0:0:0:70:kick.wav
182,192,28838,1,0,0:0:0:70:kick.wav
329,192,28991,1,0,0:0:0:70:kick.wav
475,192,29145,128,0,29453:0:0:0:70:kick.wav
256,192,29453,128,0,29761:0:0:0:70:kick.wav
36,192,29761,128,0,30068:0:0:0:70:kick.wav
475,192,30068,128,0,30376:0:0:0:70:kick.wav
256,192,30376,1,0,0:0:0:70:kick.wav
402,192,32838,1,0,0:0:0:0:
256,192,32991,1,0,0:0:0:0:
36,192,33145,1,0,0:0:0:0:
402,192,33299,1,0,0:0:0:0:
256,192,33607,1,0,0:0:0:0:
36,192,33761,1,0,0:0:0:0:
402,192,33915,1,0,0:0:0:0:
402,192,34222,1,0,0:0:0:0:
256,192,34376,1,0,0:0:0:0:
402,192,34530,1,0,0:0:0:0:
182,192,34684,128,0,34991:0:0:0:0:
36,192,34991,128,0,35299:0:0:0:0:
402,192,35299,1,0,0:0:0:0:
256,192,35453,1,0,0:0:0:0:
109,192,35607,1,0,0:0:0:0:
402,192,35761,1,0,0:0:0:0:
256,192,36068,1,0,0:0:0:0:
109,192,36222,1,0,0:0:0:0:
402,192,36376,1,0,0:0:0:0:
182,192,36684,1,0,0:0:0:0:
256,192,36838,1,0,0:0:0:0:
402,192,36991,1,0,0:0:0:0:
329,192,37145,128,0,37453:0:0:0:0:
182,192,37453,128,0,37761:0:0:0:0:
329,192,37761,1,0,0:0:0:0:
36,192,37915,1,0,0:0:0:0:
182,192,38068,1,0,0:0:0:0:
329,192,38222,1,0,0:0:0:0:
182,192,38530,1,0,0:0:0:0:
475,192,38684,1,0,0:0:0:0:
329,192,38838,1,0,0:0:0:0:
329,192,39145,1,0,0:0:0:0:
182,192,39299,1,0,0:0:0:0:
329,192,39453,1,0,0:0:0:0:
109,192,39607,128,0,39915:0:0:0:0:
402,192,39915,128,0,40222:0:0:0:0:
475,192,40222,1,0,0:0:0:0:
182,192,40530,1,0,0:0:0:0:
329,192,40684,1,0,0:0:0:0:
329,192,40991,1,0,0:0:0:0:
182,192,41145,1,0,0:0:0:0:
329,192,41299,1,0,0:0:0:0:
475,192,41453,128,0,42684:0:0:0:0:
36,192,42068,128,0,42684:0:0:0:0:
109,192,42684,1,0,0:0:0:70:kick.wav
256,192,42684,1,0,0:0:0:70:crash.wav
402,192,42991,1,0,0:0:0:70:snare 1.wav
109,192,43453,1,0,0:0:0:70:kick.wav
402,192,43607,1,0,0:0:0:70:snare 2.wav
182,192,43915,1,0,0:0:0:70:kick.wav
329,192,44222,1,0,0:0:0:70:snare 2.wav
402,192,44530,128,0,45145:0:0:0:70:hihat 2.wav
109,192,44838,128,0,45145:0:0:0:70:snare 2.wav
329,192,45145,1,0,0:0:0:70:kick.wav
36,192,45453,1,0,0:0:0:70:snare 1.wav
329,192,45915,1,0,0:0:0:70:kick.wav
36,192,46068,1,0,0:0:0:70:snare 2.wav
182,192,46376,1,0,0:0:0:70:kick.wav
475,192,46684,1,0,0:0:0:70:snare 2.wav
329,192,46991,128,0,47607:0:0:0:70:kick.wav
182,192,47299,128,0,47607:0:0:0:70:kick.wav
36,192,47607,1,0,0:0:0:70:kick.wav
256,192,47915,1,0,0:0:0:70:snare 1.wav
36,192,48376,1,0,0:0:0:70:kick.wav
256,192,48530,1,0,0:0:0:70:snare 2.wav
475,192,48838,1,0,0:0:0:70:kick.wav
256,192,49145,1,0,0:0:0:70:snare 2.wav
36,192,49453,128,0,50068:0:0:0:70:hihat 2.wav
475,192,49761,128,0,50068:0:0:0:70:snare 2.wav
182,192,50068,1,0,0:0:0:70:kick.wav
402,192,50376,1,0,0:0:0:70:snare 1.wav
182,192,50838,1,0,0:0:0:70:kick.wav
402,192,50991,1,0,0:0:0:70:snare 2.wav
182,192,51299,128,0,51607:0:0:0:70:kick.wav
36,192,51607,128,0,51915:0:0:0:70:snare 1.wav
475,192,51915,128,0,52222:0:0:0:70:kick.wav
329,192,52222,128,0,52530:0:0:0:70:kick.wav
182,192,52530,1,0,0:0:0:70:kick.wav
475,192,52530,128,0,53761:0:0:0:70:crash.wav
109,192,53761,1,0,0:0:0:0:
256,192,53761,128,0,54991:0:0:0:0:
36,192,54991,128,0,56222:0:0:0:0:
402,192,54991,1,0,0:0:0:0:
256,192,56222,128,0,57453:0:0:0:70:hihat 1.wav
475,192,56222,1,0,0:0:0:0:
402,192,57453,1,0,0:0:0:70:kick.wav
36,192,57761,1,0,0:0:0:70:hihat 1.wav
109,192,58068,1,0,0:0:0:70:hihat 2.wav
256,192,58222,1,0,0:0:0:70:kick.wav
402,192,58376,1,0,0:0:0:70:hihat 1.wav
256,192,58530,1,0,0:0:0:70:hihat 2.wav
475,192,58684,1,0,0:0:0:70:kick.wav
36,192,58838,128,0,59915:0:0:0:70:kick.wav
256,192,59299,128,0,59915:0:0:0:70:hihat 2.wav
402,192,59915,1,0,0:0:0:70:kick.wav
402,192,60068,1,0,0:0:0:70:kick.wav
109,192,60222,1,0,0:0:0:70:hihat 1.wav
329,192,60684,1,0,0:0:0:70:kick.wav
182,192,60991,1,0,0:0:0:70:hihat 1.wav
402,192,61145,1,0,0:0:0:70:kick.wav
109,192,61453,1,0,0:0:0:70:kick.wav
329,192,61761,1,0,0:0:0:70:kick.wav
182,192,62068,1,0,0:0:0:70:kick.wav
36,192,62376,1,0,0:0:0:70:kick.wav
475,192,62376,1,0,0:0:0:70:crash.wav
329,192,62684,1,0,0:0:0:70:snare 1.wav
109,192,63145,1,0,0:0:0:70:kick.wav
329,192,63299,1,0,0:0:0:70:snare 2.wav
402,192,63607,1,0,0:0:0:70:kick.wav
182,192,63915,1,0,0:0:0:70:snare 1.wav
402,192,64222,128,0,64838:0:0:0:70:hihat 2.wav
256,192,64530,128,0,64838:0:0:0:70:snare 2.wav
109,192,64838,1,0,0:0:0:70:kick.wav
475,192,65145,1,0,0:0:0:70:snare 1.wav
109,192,65607,1,0,0:0:0:70:kick.wav
475,192,65761,1,0,0:0:0:70:snare 2.wav
329,192,66068,128,0,66684:0:0:0:70:kick.wav
182,192,66376,128,0,66684:0:0:0:70:snare 1.wav
402,192,66684,128,0,67299:0:0:0:70:kick.wav
109,192,66991,128,0,67299:0:0:0:70:kick.wav
256,192,67299,1,0,0:0:0:70:kick.wav
475,192,67607,1,0,0:0:0:70:snare 1.wav
256,192,68068,1,0,0:0:0:70:kick.wav
475,192,68222,1,0,0:0:0:70:snare 2.wav
182,192,68530,128,0,69145:0:0:0:70:kick.wav
36,192,68838,128,0,69145:0:0:0:70:snare 1.wav
329,192,69145,128,0,69761:0:0:0:70:hihat 2.wav
475,192,69453,128,0,69761:0:0:0:70:snare 2.wav
36,192,69761,1,0,0:0:0:70:kick.wav
329,192,70068,1,0,0:0:0:70:snare 1.wav
36,192,70530,1,0,0:0:0:70:kick.wav
329,192,70684,1,0,0:0:0:70:snare 2.wav
182,192,70991,1,0,0:0:0:70:kick.wav
475,192,71299,128,0,71607:0:0:0:70:snare 1.wav
256,192,71607,128,0,71915:0:0:0:70:kick.wav
36,192,71915,128,0,72222:0:0:0:70:kick.wav
402,192,72222,1,0,0:0:0:70:kick.wav
182,192,72530,1,0,0:0:0:70:snare 1.wav
402,192,72991,1,0,0:0:0:70:kick.wav
182,192,73145,1,0,0:0:0:70:snare 2.wav
109,192,73453,1,0,0:0:0:70:kick.wav
329,192,73761,1,0,0:0:0:70:snare 1.wav
109,192,74222,1,0,0:0:0:70:kick.wav
329,192,74376,1,0,0:0:0:70:snare 2.wav
36,192,74684,1,0,0:0:0:70:kick.wav
402,192,74991,1,0,0:0:0:70:snare 1.wav
36,192,75453,1,0,0:0:0:70:kick.wav
402,192,75607,1,0,0:0:0:70:snare 2.wav
475,192,75915,128,0,76530:0:0:0:70:kick.wav
329,192,76222,128,0,76530:0:0:0:70:snare 1.wav
36,192,76530,128,0,77145:0:0:0:70:kick.wav
182,192,76838,128,0,77145:0:0:0:70:kick.wav
402,192,77145,1,0,0:0:0:70:kick.wav
475,192,77145,1,0,0:0:0:0:
182,192,77453,1,0,0:0:0:0:
329,192,77761,1,0,0:0:0:0:
182,192,77915,1,0,0:0:0:0:
109,192,78222,1,0,0:0:0:0:
329,192,78376,1,0,0:0:0:0:
402,192,78376,1,0,0:0:0:0:
182,192,78530,1,0,0:0:0:0:
329,192,78684,1,0,0:0:0:0:
475,192,78838,1,0,0:0:0:0:
109,192,79145,1,0,0:0:0:0:
402,192,79299,1,0,0:0:0:0:
109,192,79453,1,0,0:0:0:0:
256,192,79607,1,0,0:0:0:0:
329,192,79607,1,0,0:0:0:0:
475,192,80068,1,0,0:0:0:0:
109,192,80530,1,0,0:0:0:0:
256,192,80838,1,0,0:0:0:0:
475,192,80991,1,0,0:0:0:0:
256,192,81145,1,0,0:0:0:0:
36,192,81299,1,0,0:0:0:0:
256,192,81761,1,0,0:0:0:0:
182,192,82068,1,0,0:0:0:0:
329,192,82068,1,0,0:0:0:0:
402,192,82376,1,0,0:0:0:0:
329,192,82530,1,0,0:0:0:0:
109,192,82838,1,0,0:0:0:0:
182,192,82991,1,0,0:0:0:0:
109,192,83299,1,0,0:0:0:0:
256,192,83299,1,0,0:0:0:0:
329,192,83453,1,0,0:0:0:0:
182,192,83607,1,0,0:0:0:0:
36,192,83761,1,0,0:0:0:0:
402,192,83915,128,0,84222:0:0:0:0:
109,192,84222,128,0,84530:0:0:0:0:
329,192,84530,1,0,0:0:0:0:
475,192,84530,1,0,0:0:0:0:
109,192,84838,1,0,0:0:0:0:
475,192,84991,1,0,0:0:0:0:
475,192,85453,1,0,0:0:0:0:
109,192,86222,1,0,0:0:0:0:
329,192,86376,128,0,86991:0:0:0:0:
182,192,86684,128,0,86991:0:0:0:0:
36,192,86991,1,0,0:0:0:0:
475,192,86991,1,0,0:0:0:0:
256,192,87453,1,0,0:0:0:0:
475,192,87915,1,0,0:0:0:0:
36,192,88222,1,0,0:0:0:0:
256,192,88222,1,0,0:0:0:0:
182,192,88684,1,0,0:0:0:0:
475,192,88838,128,0,89453:0:0:0:0:
329,192,89145,128,0,89453:0:0:0:0:
36,192,89453,1,0,0:0:0:0:
109,192,89453,1,0,0:0:0:0:
475,192,89915,1,0,0:0:0:0:
109,192,90376,1,0,0:0:0:0:
402,192,90684,1,0,0:0:0:0:
109,192,91145,1,0,0:0:0:0:
256,192,91299,128,0,91915:0:0:0:0:
402,192,91607,128,0,91915:0:0:0:0:
36,192,91915,1,0,0:0:0:0:
109,192,91915,1,0,0:0:0:0:
182,192,92530,1,0,0:0:0:0:
329,192,92684,1,0,0:0:0:0:
182,192,92838,1,0,0:0:0:0:
36,192,92991,1,0,0:0:0:0:
402,192,93145,1,0,0:0:0:0:
475,192,93145,1,0,0:0:0:0:
182,192,93453,1,0,0:0:0:0:
329,192,93761,1,0,0:0:0:0:
475,192,94068,1,0,0:0:0:0:
475,192,94376,128,0,95453:0:0:0:0:
36,192,95607,1,0,0:0:0:70:kick.wav
329,192,95607,1,0,0:0:0:70:crash.wav
475,192,95915,1,0,0:0:0:70:snare 1.wav
256,192,96222,128,0,96838:0:0:0:70:kick.wav
109,192,96530,128,0,96838:0:0:0:70:snare 2.wav
475,192,96838,1,0,0:0:0:70:kick.wav
182,192,97145,1,0,0:0:0:70:snare 1.wav
475,192,97453,128,0,98068:0:0:0:70:hihat 2.wav
256,192,97761,1,0,0:0:0:70:snare 2.wav
109,192,98068,1,0,0:0:0:70:kick.wav
475,192,98376,1,0,0:0:0:70:snare 1.wav
182,192,98530,128,0,99299:0:0:0:70:hihat 2.wav
329,192,98838,1,0,0:0:0:70:kick.wav
475,192,98991,1,0,0:0:0:70:snare 2.wav
36,192,99299,1,0,0:0:0:70:kick.wav
329,192,99607,1,0,0:0:0:70:snare 1.wav
256,192,99915,128,0,100530:0:0:0:70:snare 2.wav
36,192,100222,128,0,100530:0:0:0:70:snare 2.wav
182,192,100530,1,0,0:0:0:70:kick.wav
475,192,100530,1,0,0:0:0:0:
36,192,100838,1,0,0:0:0:70:snare 1.wav
402,192,101145,128,0,101761:0:0:0:70:hihat 2.wav
256,192,101453,128,0,101761:0:0:0:70:snare 2.wav
109,192,101761,1,0,0:0:0:70:kick.wav
329,192,101991,1,0,0:0:0:70:hihat 1.wav
36,192,102376,128,0,102991:0:0:0:70:snare 2.wav
329,192,102684,128,0,102991:0:0:0:70:snare 2.wav
109,192,102991,1,0,0:0:0:70:kick.wav
475,192,103299,1,0,0:0:0:70:snare 1.wav
329,192,103453,128,0,104222:0:0:0:70:hihat 2.wav
36,192,103607,1,0,0:0:0:70:snare 2.wav
475,192,103915,1,0,0:0:0:70:snare 2.wav
109,192,104222,1,0,0:0:0:70:kick.wav
329,192,104453,1,0,0:0:0:70:kick.wav
109,192,104684,1,0,0:0:0:70:kick.wav
402,192,104838,128,0,105453:0:0:0:70:hihat 1.wav
256,192,105145,128,0,105453:0:0:0:70:kick.wav
36,192,105453,128,0,105761:0:0:0:70:kick.wav
182,192,105761,128,0,106068:0:0:0:0:
329,192,106068,128,0,106376:0:0:0:0:
475,192,106376,128,0,106684:0:0:0:0:
36,192,106684,1,0,0:0:0:70:kick.wav
256,192,106684,1,0,0:0:0:70:crash.wav
475,192,106991,1,0,0:0:0:70:snare 1.wav
109,192,107299,1,0,0:0:0:70:hihat 2.wav
329,192,107607,1,0,0:0:0:70:snare 2.wav
109,192,107915,1,0,0:0:0:70:kick.wav
402,192,108222,1,0,0:0:0:70:snare 1.wav
109,192,108530,1,0,0:0:0:70:hihat 2.wav
475,192,108838,128,0,109145:0:0:0:70:snare 2.wav
329,192,109145,1,0,0:0:0:70:kick.wav
36,192,109453,1,0,0:0:0:70:snare 1.wav
329,192,109761,1,0,0:0:0:70:hihat 2.wav
109,192,110068,1,0,0:0:0:70:snare 2.wav
329,192,110376,128,0,110991:0:0:0:70:kick.wav
109,192,110684,128,0,110991:0:0:0:70:snare 1.wav
402,192,110991,128,0,111607:0:0:0:70:kick.wav
182,192,111299,128,0,111607:0:0:0:70:kick.wav
329,192,111607,1,0,0:0:0:70:kick.wav
36,192,111915,1,0,0:0:0:70:snare 1.wav
329,192,112222,1,0,0:0:0:70:hihat 2.wav
109,192,112530,1,0,0:0:0:70:snare 2.wav
182,192,112838,1,0,0:0:0:70:kick.wav
475,192,113145,1,0,0:0:0:70:snare 1.wav
256,192,113453,128,0,114068:0:0:0:70:hihat 2.wav
36,192,113761,128,0,114068:0:0:0:70:snare 2.wav
182,192,114068,1,0,0:0:0:70:kick.wav
475,192,114376,1,0,0:0:0:70:snare 1.wav
182,192,114684,1,0,0:0:0:70:hihat 2.wav
402,192,114991,1,0,0:0:0:70:snare 2.wav
256,192,115299,1,0,0:0:0:70:kick.wav
36,192,115607,1,0,0:0:0:70:snare 1.wav
329,192,115915,128,0,116530:0:0:0:70:kick.wav
182,192,116222,128,0,116530:0:0:0:70:kick.wav
36,192,116530,1,0,0:0:0:70:kick.wav
475,192,116530,1,0,0:0:0:0:
109,192,116849,1,0,0:0:0:0:
182,192,117156,1,0,0:0:0:0:
256,192,117464,1,0,0:0:0:0:
475,192,117772,1,0,0:0:0:0:
475,192,118233,128,0,119925:0:0:0:0:
402,192,119925,1,0,0:0:0:0:
329,192,120233,1,0,0:0:0:0:
329,192,120695,128,0,122387:0:0:0:0:
256,192,122387,1,0,0:0:0:0:
182,192,122695,1,0,0:0:0:0:
182,192,123156,128,0,124848:0:0:0:0:
36,192,124848,1,0,0:0:0:0:
256,192,125156,1,0,0:0:0:0:
256,192,125618,128,0,127607:0:0:0:0:
109,192,127607,1,0,0:0:0:70:kick.wav
475,192,127607,1,0,0:0:0:70:crash.wav
402,192,127914,1,0,0:0:0:70:snare 1.wav
109,192,128376,1,0,0:0:0:70:kick.wav
402,192,128530,1,0,0:0:0:70:snare 2.wav
182,192,128837,1,0,0:0:0:70:kick.wav
329,192,129145,1,0,0:0:0:70:snare 2.wav
402,192,129453,128,0,130068:0:0:0:70:hihat 2.wav
109,192,129760,128,0,130068:0:0:0:70:snare 2.wav
329,192,130068,1,0,0:0:0:70:kick.wav
36,192,130376,1,0,0:0:0:70:snare 1.wav
329,192,130837,1,0,0:0:0:70:kick.wav
36,192,130991,1,0,0:0:0:70:snare 2.wav
182,192,131299,1,0,0:0:0:70:kick.wav
475,192,131607,1,0,0:0:0:70:snare 2.wav
329,192,131914,128,0,132530:0:0:0:70:kick.wav
182,192,132222,128,0,132530:0:0:0:70:kick.wav
36,192,132530,1,0,0:0:0:70:kick.wav
256,192,132837,1,0,0:0:0:70:snare 1.wav
36,192,133299,1,0,0:0:0:70:kick.wav
256,192,133453,1,0,0:0:0:70:snare 2.wav
475,192,133760,1,0,0:0:0:70:kick.wav
256,192,134068,1,0,0:0:0:70:snare 2.wav
36,192,134376,128,0,134991:0:0:0:70:hihat 2.wav
475,192,134683,128,0,134991:0:0:0:70:snare 2.wav
182,192,134991,1,0,0:0:0:70:kick.wav
475,192,135299,1,0,0:0:0:70:snare 1.wav
182,192,135760,1,0,0:0:0:70:kick.wav
402,192,135914,1,0,0:0:0:70:snare 2.wav
329,192,136222,1,0,0:0:0:70:kick.wav
36,192,136530,1,0,0:0:0:70:snare 1.wav
402,192,136837,1,0,0:0:0:70:kick.wav
109,192,137145,1,0,0:0:0:70:kick.wav
256,192,137453,1,0,0:0:0:70:kick.wav
402,192,137453,1,0,0:0:0:70:crash.wav
