osu file format v14

[General]
AudioFilename: audio.mp3
AudioLeadIn: 0
PreviewTime: 61900
Countdown: 0
SampleSet: Soft
StackLeniency: 0.7
Mode: 0
LetterboxInBreaks: 0
EpilepsyWarning: 1
WidescreenStoryboard: 1

[Editor]
Bookmarks: 65285,73131
DistanceSpacing: 1
BeatDivisor: 4
GridSize: 16
TimelineZoom: 1.9

[Metadata]
Title:Gardens Under A Spring Sky
TitleUnicode:Gardens Under A Spring Sky
Artist:Fractal Dreamers
ArtistUnicode:Fractal Dreamers
Creator:_Epreus
Version:Normal
Source:
Tags:instrumental electronic neoskylove osu! -tatsuo thiev Kirylln august depzdai sersh4nt monolithia featured artist fa helblinde artcore skymuted affirmation af
BeatmapID:2016039
BeatmapSetID:962862

[Difficulty]
HPDrainRate:3
CircleSize:3.6
OverallDifficulty:4
ApproachRate:5
SliderMultiplier:1
SliderTickRate:1

[Events]
//Background and Video events
0,0,"ablobwobBG.jpg",0,0
//Break Periods
2,52716,56239
2,77331,85777
2,117747,126393
//Storyboard Layer 0 (Background)
//Storyboard Layer 1 (Fail)
//Storyboard Layer 2 (Pass)
//Storyboard Layer 3 (Foreground)
//Storyboard Layer 4 (Overlay)
//Storyboard Sound Samples

[TimingPoints]
824,307.692307692308,4,2,0,35,1,0
10670,-100,4,2,0,35,0,0
20516,-100,4,2,2,75,0,1
20824,-100,4,2,2,75,0,1
30362,-100,4,2,2,35,0,0
32824,-100,4,2,2,35,0,0
33285,-100,4,2,0,45,0,0
42670,-90.9090909090909,4,2,2,65,0,0
57439,-100,4,2,2,55,0,0
62362,-90.9090909090909,4,2,2,80,0,1
77131,-90.9090909090909,4,2,2,80,0,0
86977,-100,4,2,0,45,0,0
95593,-90.9090909090909,4,2,2,75,0,0
106670,-90.9090909090909,4,2,2,75,0,1
116824,-100,4,2,2,35,0,0
117747,-100,4,2,0,15,0,0
125131,-100,4,2,0,20,0,0
125439,-100,4,2,0,25,0,0
125747,-100,4,2,0,30,0,0
126054,-100,4,2,0,35,0,0
126362,-100,4,2,0,40,0,0
126670,-100,4,2,0,45,0,0
126977,-100,4,2,0,55,0,0
127285,-100,4,2,0,65,0,0
127593,-100,4,2,2,75,0,0
127747,-100,4,2,2,75,0,0

[Colours]
Combo1 : 192,192,192
Combo2 : 128,255,255
Combo3 : 98,176,255

[HitObjects]
52,67,10670,6,0,P|116:56|166:72,1,100,6|2,0:2|0:2,0:0:0:0:
220,133,11285,2,0,P|284:144|334:128,1,100,2|2,0:2|0:2,0:0:0:0:
404,86,11900,2,0,P|372:142|367:228,1,150,2|0,0:2|0:2,0:0:0:0:
392,269,12516,2,0,L|285:257,1,100,2|2,0:2|0:2,0:0:0:0:
192,249,13131,6,0,P|126:296|-2:282,2,200,2|2|2,0:2|0:2|0:2,0:0:0:0:
151,157,14670,1,2,0:2:0:0:
194,67,14977,2,0,L|180:4,2,50,2|0|2,0:2|0:2|0:2,0:0:0:0:
273,128,15593,6,0,P|360:131|446:51,2,200,2|2|2,0:2|0:2|0:2,0:0:0:0:
220,213,17131,1,2,0:2:0:0:
257,305,17439,2,0,L|361:293,1,100,2|2,0:2|0:2,0:0:0:0:
444,341,18054,6,0,P|392:291|418:211,1,150,2|0,0:2|0:0,0:0:0:0:
453,201,18670,2,0,L|464:101,2,100,2|2|2,0:2|0:2|0:2,0:0:0:0:
510,282,19593,1,0,0:2:0:0:
324,201,20516,6,0,L|265:213,1,50,6|0,1:2|0:2,0:0:0:0:
226,223,20824,1,10,0:2:0:0:
226,223,20977,2,0,P|169:200|118:206,1,100,0|0,0:2|1:2,0:0:0:0:
89,229,21439,2,0,L|78:336,2,100,10|2|10,0:2|1:2|0:2,0:0:0:0:
59,133,22362,2,0,B|95:102|95:102|161:97,1,100,2|8,1:2|0:2,0:0:0:0:
238,139,22977,6,0,P|307:147|377:87,1,150,6|0,1:2|0:2,0:0:0:0:
387,54,23593,2,0,P|444:58|481:82,1,100,2|10,0:2|0:2,0:0:0:0:
504,177,24208,1,2,1:2:0:0:
430,244,24516,2,0,P|438:294|458:358,2,100,10|2|2,0:2|1:2|1:2,0:0:0:0:
340,199,25439,6,0,P|316:232|246:253,1,100,6|10,1:2|0:2,0:0:0:0:
215,235,25900,2,0,P|136:222|87:280,1,150,0|10,0:2|0:2,0:0:0:0:
15,334,26670,2,0,P|18:274|4:216,1,100,2|10,1:2|0:2,0:0:0:0:
39,194,27131,1,0,0:2:0:0:
39,194,27285,2,0,B|31:147|31:147|44:92,1,100,2|10,1:2|0:2,0:0:0:0:
130,46,27900,6,0,B|216:24|191:85|280:69,1,150,6|0,1:2|1:2,0:0:0:0:
320,53,28516,2,0,P|366:87|411:97,1,100,2|2,1:2|1:2,0:0:0:0:
504,73,29131,2,0,P|482:148|480:273,1,200,2|2,1:2|1:2,0:0:0:0:
310,376,30362,6,0,B|274:238|274:238|326:171|326:171|277:-7,1,400,6|0,0:2|0:0,0:0:0:0:
90,52,32824,6,0,P|102:81|106:110,1,50,0|0,0:2|0:2,0:0:0:0:
87,145,33131,1,0,0:2:0:0:
87,145,33285,2,0,P|63:203|55:261,1,100,2|2,0:2|0:2,0:0:0:0:
156,237,33900,2,0,P|176:282|186:331,2,100,2|2|2,0:2|0:2|0:2,0:0:0:0:
180,192,34670,2,0,P|227:207|277:212,1,100,2|2,0:2|0:2,0:0:0:0:
360,157,35285,6,0,P|373:193|371:221,1,50,2|2,0:2|0:2,0:0:0:0:
357,252,35593,1,2,0:2:0:0:
357,252,35747,2,0,P|385:309|434:333,1,100,2|2,0:2|0:2,0:0:0:0:
462,313,36208,1,2,0:2:0:0:
462,313,36362,2,0,P|469:242|490:202,1,100,2|2,0:2|0:2,0:0:0:0:
464,168,36824,2,0,P|457:97|436:57,2,100,2|2|0,0:2|0:2|0:0,0:0:0:0:
372,126,37747,6,0,P|317:105|306:102,1,50,2|2,0:2|0:2,0:0:0:0:
279,126,38054,1,2,0:2:0:0:
279,126,38208,2,0,P|212:125|165:59,1,150,2|2,0:2|0:2,0:0:0:0:
188,17,38824,2,0,L|76:2,1,100,2|2,0:2|0:2,0:0:0:0:
47,32,39285,2,0,P|57:88|56:152,1,100,2|2,0:2|0:2,0:0:0:0:
29,227,39900,1,2,0:2:0:0:
83,310,40208,5,2,0:2:0:0:
256,192,40516,12,2,42054,0:2:0:0:
217,363,42670,6,0,L|207:303,1,55.0000016784668,6|0,1:2|0:2,0:0:0:0:
178,262,42977,1,10,0:2:0:0:
178,262,43131,2,0,L|198:142,1,110.000003356934,0|0,0:2|1:2,0:0:0:0:
178,44,43747,2,0,B|266:23|250:98|343:79,1,165.000005035401,0|10,0:2|0:2,0:0:0:0:
432,127,44516,2,0,P|448:179|447:196,1,55.0000016784668,2|0,0:2|1:2,0:0:0:0:
470,229,44824,2,0,P|418:245|401:244,1,55.0000016784668,10|0,0:2|0:2,0:0:0:0:
367,264,45131,6,0,L|247:248,1,110.000003356934,6|10,1:2|0:2,0:0:0:0:
202,244,45593,1,0,0:2:0:0:
154,343,45900,2,0,L|99:350,1,55.0000016784668,0|10,1:2|0:2,0:0:0:0:
49,325,46208,2,0,P|25:265|36:208,1,110.000003356934,0|0,0:2|0:2,0:0:0:0:
71,183,46670,1,10,0:0:0:0:
74,75,46977,2,0,B|161:48|142:115|235:92,1,165.000005035401,2|0,1:2|1:2,0:0:0:0:
281,67,47593,6,0,P|328:93|400:106,1,110.000003356934,6|10,1:2|0:2,0:0:0:0:
487,72,48208,2,0,L|481:8,2,55.0000016784668,2|0|10,0:2|1:2|0:2,0:0:0:0:
492,127,48670,2,0,P|445:154|398:210,1,110.000003356934,0|0,0:2|0:2,0:0:0:0:
388,247,49131,2,0,P|410:300|420:375,2,110.000003356934,10|10|10,0:2|0:2|0:2,0:0:0:0:
279,266,50054,6,0,P|240:273|160:227,1,110.000003356934,6|10,1:2|0:2,0:0:0:0:
148,140,50670,2,0,P|141:102|151:72,1,55.0000016784668,2|0,0:2|1:2,0:0:0:0:
158,33,50977,1,10,0:2:0:0:
259,74,51285,2,0,B|295:85|295:85|369:63,1,110.000003356934,2|10,1:2|0:2,0:0:0:0:
405,166,51900,2,0,B|474:145|474:145|510:156,1,110.000003356934,2|2,1:2|1:2,0:0:0:0:
476,261,52516,5,6,1:2:0:0:
96,332,57439,6,0,P|112:287|109:223,1,100,4|8,1:2|0:2,0:0:0:0:
78,140,58054,2,0,P|48:151|25:155,2,50,8|0|8,0:2|1:2|0:2,0:0:0:0:
117,108,58516,2,0,P|157:96|219:128,1,100,0|0,0:2|0:2,0:0:0:0:
244,152,58977,2,0,P|291:138|353:129,2,100,8|0|8,0:2|1:2|0:2,0:0:0:0:
185,232,59900,6,0,P|241:280|370:274,2,200,0|0|0,1:2|1:2|1:2,0:0:0:0:
315,104,62362,6,0,L|305:37,2,55.0000016784668,6|0|10,1:2|1:2|0:2,0:0:0:0:
282,148,62824,2,0,P|246:160|164:135,1,110.000003356934,0|0,0:2|1:2,0:0:0:0:
143,101,63285,2,0,P|111:107|87:123,1,55.0000016784668,10|0,0:2|0:2,0:0:0:0:
61,165,63593,2,0,P|79:218|81:289,1,110.000003356934,2|10,1:2|0:2,0:0:0:0:
170,338,64208,1,2,1:2:0:0:
266,284,64516,1,10,0:2:0:0:
361,338,64824,6,0,P|374:294|305:186,1,165.000005035401,6|8,1:2|0:2,0:0:0:0:
270,173,65439,2,0,P|292:98|294:49,1,110.000003356934,2|10,0:2|0:2,0:0:0:0:
192,24,66054,1,2,1:2:0:0:
103,89,66362,2,0,P|44:74|-7:71,2,110.000003356934,10|2|2,0:2|1:2|1:2,0:0:0:0:
183,163,67285,6,0,P|209:182|243:188,1,55.0000016784668,6|0,1:2|0:2,0:0:0:0:
276,156,67593,1,10,0:2:0:0:
276,156,67747,2,0,P|351:143|407:217,1,165.000005035401,0|10,0:2|0:2,0:0:0:0:
375,310,68516,2,0,P|316:293|266:289,1,110.000003356934,2|10,1:2|0:2,0:0:0:0:
180,356,69131,2,0,P|121:373|71:377,1,110.000003356934,2|10,1:2|0:2,0:0:0:0:
28,275,69747,6,0,P|42:227|42:209,1,55.0000016784668,6|0,1:2|0:2,0:0:0:0:
35,167,70054,1,10,0:2:0:0:
35,167,70208,2,0,P|36:119|100:71,1,110.000003356934,0|0,0:2|1:2,0:0:0:0:
131,65,70670,2,0,L|254:52,2,110.000003356934,10|2|10,0:2|1:2|0:2,0:0:0:0:
209,141,71593,2,0,L|274:148,1,55.0000016784668,2|8,1:2|0:2,0:0:0:0:
310,117,71900,2,0,L|364:111,1,55.0000016784668,2|0,1:2|1:2,0:0:0:0:
412,138,72208,6,0,P|438:119|456:41,2,110.000003356934,6|10|2,1:2|0:2|0:2,0:0:0:0:
386,186,72977,1,0,1:2:0:0:
410,293,73285,2,0,P|373:274|283:258,1,110.000003356934,0|0,0:2|0:2,0:0:0:0:
256,282,73747,2,0,P|211:273|191:258,1,55.0000016784668,10|0,0:2|0:2,0:0:0:0:
159,236,74054,2,0,P|161:178|149:122,1,110.000003356934,2|10,0:2|0:2,0:0:0:0:
80,41,74670,6,0,L|198:19,1,110.000003356934,6|10,1:2|0:2,0:0:0:0:
227,59,75131,2,0,L|281:69,1,55.0000016784668,0|2,0:2|0:2,0:0:0:0:
336,74,75439,1,0,1:2:0:0:
416,149,75747,2,0,P|371:192|354:292,1,165.000005035401,0|10,1:2|0:2,0:0:0:0:
442,355,76516,2,0,P|459:317|449:243,2,110.000003356934,2|2|2,1:2|1:2|1:2,0:0:0:0:
76,185,86977,6,0,P|60:260|59:340,2,150,2|2|2,0:2|0:2|0:2,0:0:0:0:
154,122,88208,2,0,B|250:100|228:193|344:171,1,200,2|2,0:2|0:2,0:0:0:0:
431,134,89131,1,2,0:2:0:0:
493,212,89439,6,0,P|474:280|396:308,2,150,2|2|2,0:2|0:2|0:2,0:0:0:0:
431,134,90670,1,2,0:2:0:0:
291,80,91131,2,0,L|287:22,2,50,2|2|2,0:2|0:2|0:2,0:0:0:0:
257,117,91593,2,0,L|253:166,1,50,2|2,0:2|0:2,0:0:0:0:
247,216,91900,6,0,P|201:205|130:197,2,100,2|2|2,0:2|0:2|0:2,0:0:0:0:
374,370,93131,2,0,P|420:359|491:351,1,100,2|2,0:2|0:2,0:0:0:0:
453,253,93747,2,0,P|407:264|336:272,2,100,2|2|0,0:2|0:2|0:2,0:0:0:0:
284,225,95593,6,0,P|276:170|319:122,1,110.000003356934,6|10,1:2|0:2,0:0:0:0:
349,94,96054,1,0,0:2:0:0:
349,94,96208,2,0,L|221:72,1,110.000003356934,2|10,1:2|0:2,0:0:0:0:
131,59,96824,6,0,P|141:110|139:184,1,110.000003356934,2|10,1:2|0:2,0:0:0:0:
109,212,97285,1,0,0:2:0:0:
109,212,97439,2,0,P|105:258|117:284,1,55.0000016784668,2|0,1:2|1:2,0:0:0:0:
152,298,97747,2,0,P|193:278|210:255,1,55.0000016784668,10|0,0:2|1:2,0:0:0:0:
205,218,98054,6,0,P|226:200|252:192,1,55.0000016784668,6|0,1:2|0:2,0:0:0:0:
305,209,98362,2,0,L|427:194,2,110.000003356934,10|2|10,0:2|1:2|0:2,0:0:0:0:
254,111,99285,2,0,P|211:78|141:66,1,110.000003356934,2|10,1:2|0:2,0:0:0:0:
110,94,99747,1,0,0:2:0:0:
110,94,99900,2,0,L|84:209,1,110.000003356934,2|10,1:2|0:2,0:0:0:0:
140,297,100516,6,0,P|199:316|248:299,1,110.000003356934,6|10,1:2|0:2,0:0:0:0:
292,203,101131,2,0,P|344:189|395:208,1,110.000003356934,2|10,1:2|0:2,0:0:0:0:
448,304,101747,2,0,P|432:212|502:109,1,220.000006713867,2|2,1:2|1:2,0:0:0:0:
342,24,102977,6,0,P|308:57|238:67,1,110.000003356934,6|10,1:2|0:2,0:0:0:0:
193,57,103439,1,0,0:2:0:0:
193,57,103593,2,0,P|153:45|127:48,1,55.0000016784668,2|0,1:2|1:2,0:0:0:0:
94,75,103900,1,10,0:2:0:0:
89,184,104208,2,0,P|62:169|2:159,2,82.5000025177003,2|0|0,1:2|1:0|1:2,2:0:0:0:
118,230,104824,2,0,P|178:219|233:192,1,110.000003356934,2|2,1:2|1:2,2:0:0:0:
311,264,105439,1,0,1:0:0:0:
436,120,106670,6,0,P|429:159|423:242,1,110.000003356934,6|10,1:2|0:2,0:0:0:0:
328,285,107285,2,0,P|324:230|315:175,1,110.000003356934,2|10,1:2|0:2,0:0:0:0:
217,124,107900,2,0,P|210:163|204:246,1,110.000003356934,2|10,1:2|0:2,0:0:0:0:
104,280,108516,2,0,P|100:225|91:170,1,110.000003356934,10|10,0:2|0:2,0:0:0:0:
95,57,109131,6,0,P|158:29|257:42,1,165.000005035401,6|0,1:2|0:2,0:0:0:0:
280,86,109747,2,0,L|393:69,1,110.000003356934,2|10,1:2|0:2,0:0:0:0:
485,16,110362,2,0,P|471:58|467:128,1,110.000003356934,2|10,1:2|0:2,0:0:0:0:
478,177,110824,1,0,1:2:0:0:
478,177,110977,2,0,P|492:219|496:289,1,110.000003356934,2|2,1:2|1:2,0:0:0:0:
393,323,111593,6,0,B|285:348|305:232|176:273,1,220.000006713867,6|2,1:2|1:2,0:0:0:0:
146,300,112362,1,0,1:2:0:0:
146,300,112516,2,0,P|91:288|81:288,1,55.0000016784668,10|0,0:2|1:2,0:0:0:0:
44,314,112824,2,0,P|20:244|26:203,1,110.000003356934,2|10,1:2|0:2,0:0:0:0:
129,178,113439,2,0,P|153:108|147:67,1,110.000003356934,2|10,1:2|0:2,0:0:0:0:
54,17,114054,6,0,L|227:35,1,165.000005035401,6|0,1:2|0:2,0:0:0:0:
272,21,114670,2,0,P|297:45|311:118,1,110.000003356934,2|10,1:2|0:2,0:0:0:0:
268,218,115285,2,0,P|306:160|456:176,2,220.000006713867,2|2|6,1:2|1:2|1:2,0:0:0:0:
380,350,127593,6,0,P|390:312|379:281,1,50,6|0,1:2|0:2,0:0:0:0:
371,254,127900,1,10,0:2:0:0:
371,254,128054,2,0,L|264:263,1,100,0|0,0:2|1:2,0:0:0:0:
221,266,128516,1,10,0:2:0:0:
221,266,128670,2,0,P|194:215|198:171,1,100,0|0,0:2|1:2,0:0:0:0:
215,127,129131,2,0,L|104:113,2,100,10|10|10,0:2|0:2|0:2,0:0:0:0:
297,69,130054,6,0,P|347:62|395:91,1,100,6|10,1:2|0:2,0:0:0:0:
422,122,130516,1,0,0:2:0:0:
375,210,130824,2,0,L|317:198,2,50,0|10|0,1:2|0:2|0:2,0:0:0:0:
424,218,131285,2,0,P|449:272|441:333,1,100,2|10,1:2|0:2,0:0:0:0:
357,354,131900,2,0,L|256:337,1,100,2|2,1:2|1:2,0:0:0:0:
160,359,132516,6,0,P|146:331|147:293,1,50,6|0,1:2|0:2,0:0:0:0:
174,272,132824,1,10,0:2:0:0:
174,272,132977,2,0,L|185:155,1,100,0|0,0:2|1:2,0:0:0:0:
180,122,133439,1,10,0:2:0:0:
180,122,133593,2,0,P|292:105|335:122,1,150,0|10,0:2|0:2,0:0:0:0:
395,186,134362,2,0,P|462:171|484:132,1,100,2|10,0:2|0:2,0:0:0:0:
447,53,134977,6,0,P|406:31|295:23,1,150,6|0,1:2|0:2,0:0:0:0:
263,51,135593,2,0,L|155:36,1,100,2|10,0:2|0:2,0:0:0:0:
64,22,136208,2,0,P|82:63|89:130,1,100,2|10,1:2|0:2,0:0:0:0:
64,214,136824,2,0,P|64:248|71:268,1,50,2|8,1:2|0:2,0:0:0:0:
110,290,137131,2,0,L|167:283,2,50,2|0|14,1:2|1:2|0:2,0:0:0:0:
