osu file format v14

[General]
AudioFilename: audio.mp3
AudioLeadIn: 0
PreviewTime: 61900
Countdown: 0
SampleSet: Soft
StackLeniency: 0.7
Mode: 0
LetterboxInBreaks: 0
EpilepsyWarning: 1
WidescreenStoryboard: 1

[Editor]
Bookmarks: 60824,73131
DistanceSpacing: 1.4
BeatDivisor: 4
GridSize: 8
TimelineZoom: 1.9

[Metadata]
Title:Gardens Under A Spring Sky
TitleUnicode:Gardens Under A Spring Sky
Artist:Fractal Dreamers
ArtistUnicode:Fractal Dreamers
Creator:_Epreus
Version:Insane
Source:
Tags:instrumental electronic neoskylove osu! -tatsuo thiev Kirylln august depzdai sersh4nt monolithia featured artist fa helblinde artcore skymuted affirmation af
BeatmapID:2017094
BeatmapSetID:962862

[Difficulty]
HPDrainRate:5
CircleSize:4.5
OverallDifficulty:7.3
ApproachRate:9
SliderMultiplier:1.4
SliderTickRate:1

[Events]
//Background and Video events
0,0,"ablobwobBG.jpg",0,0
//Break Periods
2,30561,32685
2,52715,55608
2,77484,86377
2,117747,126993
//Storyboard Layer 0 (Background)
//Storyboard Layer 1 (Fail)
//Storyboard Layer 2 (Pass)
//Storyboard Layer 3 (Foreground)
//Storyboard Layer 4 (Overlay)
//Storyboard Sound Samples

[TimingPoints]
824,307.692307692308,4,2,0,35,1,0
10670,-133.333333333333,4,2,0,35,0,0
20516,-100,4,2,2,75,0,0
20824,-100,4,2,2,75,0,1
30362,-476.190476190476,4,2,2,35,0,0
32824,-133.333333333333,4,2,2,35,0,0
33285,-111.111111111111,4,2,0,45,0,0
42670,-100,4,2,2,65,0,0
57439,-111.111111111111,4,2,2,55,0,0
62362,-90.9090909090909,4,2,2,80,0,1
62516,-90.9090909090909,4,2,2,80,0,1
77131,-90.9090909090909,4,2,2,80,0,0
86977,-153.846153846153,4,2,0,45,0,0
95593,-90.9090909090909,4,2,2,75,0,0
106670,-90.9090909090909,4,2,2,75,0,1
116824,-133.333333333333,4,2,2,35,0,0
117747,-83.3333333333333,4,2,0,15,0,0
125131,-83.3333333333333,4,2,0,20,0,0
125439,-83.3333333333333,4,2,0,25,0,0
125747,-83.3333333333333,4,2,0,30,0,0
126054,-83.3333333333333,4,2,0,35,0,0
126362,-83.3333333333333,4,2,0,40,0,0
126670,-83.3333333333333,4,2,0,45,0,0
126977,-83.3333333333333,4,2,0,55,0,0
127285,-83.3333333333333,4,2,0,65,0,0
127593,-100,4,2,2,75,0,0
127747,-100,4,2,2,75,0,0

[Colours]
Combo1 : 192,192,192
Combo2 : 128,255,255
Combo3 : 98,176,255

[HitObjects]
71,93,10670,5,6,0:2:0:0:
71,93,10977,2,0,P|79:129|77:165,1,52.5000020027161,2|0,0:2|0:2,0:0:0:0:
51,216,11285,2,0,P|41:256|48:331,1,105.000004005432,2|2,0:2|0:2,0:0:0:0:
195,193,11900,5,2,0:2:0:0:
195,193,12208,2,0,P|235:179|265:181,1,52.5000020027161,2|0,0:2|0:2,0:0:0:0:
311,227,12516,2,0,P|346:235|377:232,1,52.5000020027161,2|0,0:2|0:2,0:0:0:0:
436,202,12824,2,0,P|428:161|451:113,1,78.7500030040742,2|0,0:2|0:0,0:0:0:0:
462,107,13131,5,2,0:2:0:0:
462,107,13439,2,0,P|463:56|456:32,1,52.5000020027161,2|0,0:2|0:2,0:0:0:0:
382,25,13747,2,0,L|264:17,1,105.000004005432,2|2,0:2|0:2,0:0:0:0:
176,144,14362,5,2,0:2:0:0:
176,144,14670,2,0,P|171:189|175:211,1,52.5000020027161,2|0,0:2|0:2,0:0:0:0:
294,198,14977,1,2,0:2:0:0:
231,244,15131,1,0,0:2:0:0:
307,188,15285,2,0,P|339:190|362:198,1,52.5000020027161,2|0,0:2|0:2,0:0:0:0:
425,302,15593,5,2,0:2:0:0:
425,302,15900,2,0,P|419:267|429:242,1,52.5000020027161,2|0,0:2|0:2,0:0:0:0:
484,198,16208,2,0,P|491:158|480:72,1,105.000004005432,2|2,0:2|0:2,0:0:0:0:
404,76,16670,1,0,0:0:0:0:
348,7,16824,5,2,0:2:0:0:
348,7,17131,2,0,P|316:46|297:57,1,52.5000020027161,2|0,0:2|0:2,0:0:0:0:
221,35,17439,2,0,P|238:64|249:155,1,105.000004005432,2|2,0:2|0:2,0:0:0:0:
107,86,18054,5,2,0:2:0:0:
107,86,18362,2,0,P|93:128|95:153,1,52.5000020027161,2|0,0:2|0:0,0:0:0:0:
251,133,18670,5,2,0:2:0:0:
251,133,18978,2,0,P|265:175|263:200,2,52.5000020027161,2|0|2,0:2|0:0|0:2,0:0:0:0:
106,227,20516,6,0,P|116:181|105:137,1,70,6|0,1:2|0:2,0:0:0:0:
80,82,20824,1,10,0:2:0:0:
80,82,20977,2,0,B|156:56|142:111|219:92,1,140,0|0,0:2|1:2,0:0:0:0:
308,35,21439,1,10,0:2:0:0:
308,35,21516,1,0,0:2:0:0:
308,35,21593,2,0,P|303:75|381:132,1,140,0|0,0:2|0:2,0:0:0:0:
416,126,21977,1,0,0:2:0:0:
416,126,22054,2,0,P|403:172|400:220,1,70,10|0,0:2|0:2,0:0:0:0:
466,303,22362,1,2,1:2:0:0:
443,289,22438,1,0,1:2:0:0:
418,281,22515,1,0,1:2:0:0:
392,278,22592,1,8,0:2:0:0:
367,281,22670,2,0,L|285:300,1,70,10|0,0:2|1:2,0:0:0:0:
217,343,22977,5,6,1:2:0:0:
140,255,23131,2,0,P|149:291|142:336,1,70,0|10,0:2|0:2,0:0:0:0:
74,202,23439,2,0,P|79:157|136:75,1,140,0|0,0:2|1:2,0:0:0:0:
209,138,23900,2,0,P|258:127|305:125,1,70,10|0,0:2|0:2,0:0:0:0:
321,141,24131,1,0,0:0:0:0:
321,141,24208,1,2,1:2:0:0:
422,228,24362,2,0,P|387:223|353:215,2,70,0|10|0,0:2|0:2|0:2,0:0:0:0:
500,139,24824,1,2,1:2:0:0:
496,113,24900,1,0,1:2:0:0:
492,87,24977,1,8,0:2:0:0:
489,61,25054,1,0,1:2:0:0:
485,35,25131,2,0,L|477:-17,3,35,2|0|0|0,1:2|1:2|1:2|1:2,0:0:0:0:
414,58,25439,6,0,P|371:60|338:40,1,70,6|0,1:2|0:2,0:0:0:0:
206,38,25747,1,10,0:2:0:0:
277,14,25900,2,0,B|298:99|233:67|257:153,1,140,0|0,0:2|1:2,0:0:0:0:
350,213,26362,2,0,L|340:172,2,35,10|0|0,0:2|0:2|0:2,0:0:0:0:
246,267,26670,6,0,P|205:229|162:221,1,70,2|0,1:2|0:2,0:0:0:0:
168,310,26977,1,10,0:2:0:0:
71,217,27131,1,0,0:2:0:0:
73,199,27207,1,0,0:2:0:0:
75,182,27284,1,2,1:2:0:0:
77,164,27361,1,0,1:2:0:0:
79,147,27438,1,0,1:2:0:0:
81,130,27515,1,8,0:2:0:0:
83,112,27593,2,0,L|74:31,1,70,10|0,0:2|1:2,0:0:0:0:
176,122,27900,5,6,1:2:0:0:
195,105,27976,1,0,0:2:0:0:
220,95,28053,1,8,0:2:0:0:
246,93,28130,1,0,0:2:0:0:
271,100,28208,2,0,P|317:117|352:103,1,70,2|0,1:2|1:2,0:0:0:0:
453,41,28516,5,2,1:2:0:0:
469,60,28592,1,0,0:2:0:0:
479,85,28669,1,8,0:2:0:0:
481,111,28746,1,0,0:2:0:0:
475,136,28824,2,0,P|458:182|472:217,1,70,2|0,1:2|1:2,0:0:0:0:
410,325,29131,6,0,L|402:277,3,35,2|0|0|0,1:2|1:2|1:2|1:2,0:0:0:0:
328,245,29439,2,0,L|322:279,3,35,2|0|0|0,1:2|1:2|1:2|1:2,0:0:0:0:
250,322,29747,1,2,1:2:0:0:
224,328,29823,1,0,1:2:0:0:
198,326,29900,1,0,1:2:0:0:
174,316,29977,1,0,1:2:0:0:
153,300,30054,2,0,L|137:204,2,70,2|0|6,1:2|1:2|0:2,0:0:0:0:
74,72,33285,6,0,P|86:110|93:204,1,125.999996154785,2|2,0:2|0:2,0:0:0:0:
146,265,33747,1,2,0:2:0:0:
219,213,33900,2,0,P|243:154|254:93,1,125.999996154785,2|2,0:2|0:2,0:0:0:0:
139,73,34362,2,0,P|144:103|156:133,1,62.9999980773926,2|2,0:2|0:2,0:0:0:0:
254,93,34670,2,0,L|299:83,7,31.4999990386963,2|2|2|2|2|2|2|2,0:2|0:2|0:2|0:2|0:2|0:2|0:2|0:2,0:0:0:0:
324,121,35285,6,0,P|366:113|401:126,1,62.9999980773926,2|2,0:2|0:2,0:0:0:0:
463,178,35593,1,2,0:2:0:0:
369,242,35747,2,0,L|385:117,1,125.999996154785,2|2,0:2|0:2,0:0:0:0:
463,178,36208,1,2,0:2:0:0:
399,38,36362,2,0,B|327:23|340:79|267:65,1,125.999996154785,2|2,0:2|0:2,0:0:0:0:
180,26,36824,2,0,P|204:69|209:107,1,62.9999980773926,2|2,0:2|0:2,0:0:0:0:
94,125,37131,2,0,P|99:107|109:92,7,31.4999990386963,2|2|2|2|2|2|2|2,0:2|0:2|0:2|0:2|0:2|0:2|0:2|0:2,0:0:0:0:
126,168,37747,6,0,P|141:200|135:256,1,62.9999980773926,2|2,0:2|0:2,0:0:0:0:
53,342,38054,1,2,0:2:0:0:
35,273,38208,2,0,B|102:258|89:312|163:301,1,125.999996154785,2|2,0:2|0:2,0:0:0:0:
225,263,38670,1,2,0:2:0:0:
259,354,38824,2,0,P|263:298|306:230,1,125.999996154785,2|2,0:2|0:2,0:0:0:0:
416,283,39285,2,0,P|376:287|351:283,1,62.9999980773926,2|2,0:2|0:2,0:0:0:0:
294,166,39593,1,2,0:2:0:0:
294,166,39900,1,2,0:2:0:0:
294,166,40208,5,2,0:2:0:0:
256,192,40285,12,2,42362,0:2:0:0:
160,160,42670,6,0,P|208:145|226:116,1,70,6|0,1:2|0:2,0:0:0:0:
81,136,42977,1,10,0:2:0:0:
81,136,43131,2,0,B|85:191|85:191|103:214|103:214|109:278,1,140,0|0,0:2|1:2,0:0:0:0:
33,334,43593,2,0,P|16:328|2:317,2,35,10|0|0,0:2|0:2|0:2,0:0:0:0:
108,269,43900,6,0,P|155:261|185:277,1,70,2|0,1:2|0:2,0:0:0:0:
236,347,44208,1,10,0:2:0:0:
308,276,44362,1,0,0:2:0:0:
308,276,44439,1,0,0:2:0:0:
308,276,44516,2,0,P|296:246|303:229,3,35,2|8|0|8,0:2|0:2|1:2|0:2,0:0:0:0:
319,203,44824,2,0,P|331:173|324:156,3,35,10|0|0|0,0:2|0:2|0:2|0:2,0:0:0:0:
290,125,45131,6,0,P|245:108|223:108,1,70,6|0,1:2|0:2,0:0:0:0:
131,235,45439,1,10,0:2:0:0:
112,161,45593,2,0,B|186:149|168:203|248:191,1,140,0|0,0:2|1:2,0:0:0:0:
286,90,46054,2,0,P|287:107|290:125,2,35,10|0|0,0:2|0:2|0:2,0:0:0:0:
368,189,46362,6,0,P|407:166|446:165,1,70,2|0,1:2|0:2,0:0:0:0:
326,271,46670,2,0,P|291:264|263:245,1,70,10|0,0:2|0:2,0:0:0:0:
241,217,46900,1,8,0:2:0:0:
241,217,46977,2,0,L|245:177,3,35,2|0|8|0,1:2|0:2|0:2|0:2,0:0:0:0:
167,139,47285,2,0,L|170:173,3,35,2|0|0|0,1:2|1:2|1:2|1:2,0:0:0:0:
109,218,47593,6,0,P|74:199|30:193,1,70,6|0,1:2|0:2,0:0:0:0:
81,322,47900,1,10,0:2:0:0:
81,322,48054,2,0,P|170:306|213:271,1,140,0|0,0:2|1:2,0:0:0:0:
244,182,48516,1,10,0:2:0:0:
244,182,48593,1,0,0:2:0:0:
244,182,48670,2,0,B|316:167|296:234|378:220,1,140,0|0,0:2|0:2,0:0:0:0:
452,122,49131,2,0,P|444:163|446:198,1,70,10|0,0:2|0:2,0:0:0:0:
464,222,49362,1,0,0:2:0:0:
464,222,49439,2,0,L|459:266,3,35,10|0|0|8,0:2|0:2|1:2|0:2,0:0:0:0:
491,287,49747,2,0,L|494:321,3,35,10|0|0|8,0:2|0:2|1:2|0:2,0:0:0:0:
451,353,50054,6,0,P|408:347|370:332,1,70,6|0,1:2|0:2,0:0:0:0:
262,250,50362,2,0,P|295:239|329:235,1,70,10|0,0:2|0:2,0:0:0:0:
364,243,50593,1,0,0:2:0:0:
364,243,50670,1,2,0:2:0:0:
322,384,50824,2,0,P|310:348|309:311,1,70,0|10,1:2|0:2,0:0:0:0:
364,243,51131,1,0,0:2:0:0:
208,178,51285,2,0,P|216:232|222:339,2,140,2|10|2,1:2|0:2|1:2,0:0:0:0:
160,107,52054,1,8,0:2:0:0:
198,30,52208,1,2,1:2:0:0:
222,21,52284,1,0,1:2:0:0:
248,22,52361,1,0,1:2:0:0:
272,32,52438,1,0,1:2:0:0:
290,51,52515,5,6,1:2:0:0:
63,146,56208,5,8,0:2:0:0:
90,250,56362,1,0,1:2:0:0:
144,146,56516,2,0,P|117:135|46:142,1,70,8|0,0:2|1:2,0:0:0:0:
185,224,56824,1,8,0:2:0:0:
202,224,56900,1,8,0:2:0:0:
219,223,56977,1,8,1:2:0:0:
236,218,57054,1,8,0:2:0:0:
252,210,57131,2,0,P|279:199|350:206,1,70,8|0,0:2|1:2,0:0:0:0:
364,277,57439,6,0,P|355:230|389:145,1,125.999996154785,4|8,1:2|0:2,0:0:0:0:
378,157,58054,1,8,0:2:0:0:
448,83,58208,2,0,P|411:62|376:60,1,62.9999980773926,0|8,1:2|0:2,0:0:0:0:
290,97,58516,2,0,P|249:119|171:119,1,125.999996154785,0|0,0:2|0:2,0:0:0:0:
68,11,58977,2,0,P|82:55|79:100,1,62.9999980773926,8|0,0:2|1:2,0:0:0:0:
71,99,59208,1,8,0:2:0:0:
71,99,59285,1,0,1:2:0:0:
156,179,59439,2,0,P|159:148|171:119,1,62.9999980773926,0|8,1:2|0:2,0:0:0:0:
51,212,59747,1,0,0:2:0:0:
223,258,59900,6,0,B|296:277|280:218|358:243,1,125.999996154785,0|8,1:2|0:2,0:0:0:0:
415,337,60362,1,0,1:2:0:0:
415,337,60439,1,8,0:2:0:0:
415,337,60516,2,0,P|408:296|416:265,1,62.9999980773926,0|0,1:2|1:2,0:0:0:0:
491,169,60824,2,0,P|495:200|487:230,1,62.9999980773926,8|8,0:2|0:2,0:0:0:0:
256,192,61131,12,8,62054,0:2:0:0:
99,119,62362,5,6,1:2:0:0:
201,243,62516,2,0,P|220:200|210:155,1,77.0000023498536,0|10,1:2|0:2,0:0:0:0:
99,119,62824,1,0,0:2:0:0:
99,119,62900,1,8,0:2:0:0:
99,119,62977,2,0,B|180:138|161:70|255:96,1,154.000004699707,10|10,0:2|0:2,0:0:0:0:
312,162,63439,1,0,0:2:0:0:
427,69,63593,2,0,P|387:53|341:53,1,77.0000023498536,2|0,1:2|0:2,0:0:0:0:
238,179,63900,2,0,P|276:177|312:162,1,77.0000023498536,10|0,0:2|0:2,0:0:0:0:
331,150,64131,1,0,0:2:0:0:
331,150,64208,1,2,1:2:0:0:
386,255,64362,1,0,1:2:0:0:
479,152,64516,2,0,P|428:131|391:133,1,77.0000023498536,10|8,0:2|0:2,0:0:0:0:
386,255,64824,5,6,1:2:0:0:
231,259,64977,2,0,P|282:238|319:240,1,77.0000023498536,0|10,0:2|0:2,0:0:0:0:
204,338,65285,1,8,0:2:0:0:
204,338,65362,1,8,0:2:0:0:
204,338,65439,2,0,P|165:333|131:316,1,77.0000023498536,2|0,0:2|1:2,0:0:0:0:
72,160,65747,2,0,P|87:194|89:233,1,77.0000023498536,10|0,0:2|1:2,0:0:0:0:
71,259,65977,1,0,1:2:0:0:
71,259,66054,2,0,L|22:249,7,38.5000011749268,2|0|0|0|10|0|8|8,1:2|0:2|1:2|1:2|0:2|0:2|0:2|0:2,0:0:0:0:
126,240,66670,2,0,L|89:233,7,38.5000011749268,2|8|8|8|2|0|8|0,1:2|0:2|0:2|0:2|1:2|1:2|0:2|0:2,0:0:0:0:
165,271,67285,6,0,P|213:273|266:242,1,77.0000023498536,6|0,1:2|0:2,0:0:0:0:
339,144,67593,2,0,P|302:132|264:136,1,77.0000023498536,10|0,0:2|0:2,0:0:0:0:
234,160,67824,1,0,0:2:0:0:
234,160,67900,1,2,0:2:0:0:
149,82,68054,2,0,P|156:41|148:-3,2,77.0000023498536,0|10|0,1:2|0:2|0:2,0:0:0:0:
37,153,68516,1,2,1:2:0:0:
37,181,68592,1,0,1:2:0:0:
51,206,68669,1,0,1:2:0:0:
75,222,68746,1,0,1:2:0:0:
104,225,68824,2,0,L|152:208,3,38.5000011749268,10|0|0|0,0:2|1:2|1:2|1:2,0:0:0:0:
186,231,69131,2,0,P|177:274|178:312,1,77.0000023498536,2|0,1:2|1:2,0:0:0:0:
285,369,69439,2,0,P|284:330|276:293,1,77.0000023498536,10|0,0:2|1:2,0:0:0:0:
259,272,69670,1,0,1:2:0:0:
259,272,69747,5,6,1:2:0:0:
303,179,69900,2,0,P|348:188|391:187,1,77.0000023498536,0|10,0:2|0:2,0:0:0:0:
446,68,70208,2,0,B|418:159|482:133|454:227,1,154.000004699707,0|0,0:2|1:2,0:0:0:0:
407,338,70670,1,10,0:2:0:0:
407,338,70747,1,0,0:2:0:0:
407,338,70824,2,0,P|387:296|401:241,1,77.0000023498536,0|2,1:2|1:2,0:0:0:0:
321,107,71130,1,0,0:2:0:0:
321,107,71207,1,0,1:2:0:0:
321,107,71285,2,0,P|321:145|302:178,1,77.0000023498536,10|0,0:2|1:2,0:0:0:0:
270,199,71516,1,0,0:2:0:0:
270,199,71593,2,0,P|236:183|223:183,3,38.5000011749268,2|8|8|0,1:2|0:2|0:2|0:2,0:0:0:0:
191,191,71900,2,0,P|157:207|144:207,3,38.5000011749268,2|0|0|0,1:2|1:2|1:2|1:2,0:0:0:0:
112,190,72208,6,0,P|129:143|121:96,1,77.0000023498536,6|0,1:2|0:2,0:0:0:0:
9,49,72516,2,0,P|9:87|24:122,1,77.0000023498536,10|0,0:2|0:2,0:0:0:0:
40,135,72747,1,0,0:2:0:0:
40,135,72824,1,2,0:2:0:0:
121,38,72977,2,0,P|172:27|197:38,1,77.0000023498536,0|10,1:2|0:2,0:0:0:0:
238,69,73208,2,0,L|282:55,2,38.5000011749268,0|0|0,0:2|0:2|0:0,0:0:0:0:
324,77,73439,6,0,P|305:133|311:242,1,154.000004699707,2|10,1:2|0:2,0:0:0:0:
452,188,73900,1,0,0:2:0:0:
452,188,73977,1,0,0:2:0:0:
452,188,74054,2,0,P|415:174|372:172,1,77.0000023498536,2|0,0:2|1:2,0:0:0:0:
306,226,74362,2,0,P|269:240|226:242,1,77.0000023498536,10|0,0:2|0:2,0:0:0:0:
188,217,74593,1,0,0:2:0:0:
188,217,74670,5,6,1:2:0:0:
224,126,74824,1,0,0:2:0:0:
91,190,74977,2,0,P|115:236|127:345,1,154.000004699707,10|2,0:2|0:2,0:0:0:0:
32,261,75439,1,0,1:2:0:0:
128,336,75593,1,10,0:2:0:0:
146,332,75669,1,0,0:2:0:0:
165,329,75746,1,0,1:2:0:0:
245,221,75900,6,0,L|286:227,3,38.5000011749268,2|0|0|0,1:2|1:2|1:2|1:2,0:0:0:0:
330,283,76208,2,0,L|371:277,3,38.5000011749268,10|0|0|0,0:2|1:2|1:2|1:2,0:0:0:0:
415,221,76516,1,2,1:2:0:0:
424,199,76592,1,0,0:2:0:0:
427,175,76669,1,0,1:2:0:0:
421,152,76746,1,0,0:2:0:0:
408,132,76823,1,2,1:2:0:0:
389,117,76900,1,0,1:2:0:0:
366,110,76977,1,0,1:2:0:0:
342,110,77054,1,0,1:2:0:0:
320,118,77131,6,0,P|281:133|221:118,1,77.0000023498536,2|0,1:2|0:2,0:0:0:0:
0,115,86977,6,0,B|72:96|57:160|140:143,2,136.499993751526,2|2|2,0:2|0:2|0:2,0:0:0:0:
200,148,88208,2,0,P|176:87|113:70,1,136.499993751526,2|2,0:2|0:2,0:0:0:0:
127,145,88824,2,0,L|115:207,1,45.4999979171754,2|2,0:2|0:2,0:0:0:0:
182,234,89131,2,0,L|194:296,1,45.4999979171754,2|2,0:2|0:2,0:0:0:0:
146,344,89439,6,0,P|173:323|279:307,2,136.499993751526,2|2|2,0:2|0:2|0:2,0:0:0:0:
336,362,90670,1,2,0:2:0:0:
336,362,91131,1,2,0:2:0:0:
388,298,91285,2,0,P|400:265|398:236,1,45.4999979171754,2|2,0:2|0:2,0:0:0:0:
340,205,91593,2,0,P|328:172|330:143,1,45.4999979171754,2|2,0:2|0:2,0:0:0:0:
388,99,91900,6,0,P|416:73|479:55,1,90.9999958343508,2|2,0:2|0:2,0:0:0:0:
465,55,92516,1,2,0:2:0:0:
365,5,92670,1,2,0:2:0:0:
291,70,92824,2,0,P|254:79|226:77,1,45.4999979171754,2|2,0:2|0:2,0:0:0:0:
183,21,93131,6,0,P|146:12|118:14,1,45.4999979171754,2|0,0:2|0:0,0:0:0:0:
66,70,93439,2,0,P|79:101|91:171,2,90.9999958343508,2|2|2,0:2|0:2|0:2,0:0:0:0:
256,192,94208,12,0,95439,0:2:0:0:
46,129,95593,5,6,1:2:0:0:
65,277,95824,1,0,0:2:0:0:
65,277,95900,2,0,P|97:247|111:209,1,77.0000023498536,10|0,0:2|0:2,0:0:0:0:
46,129,96208,1,2,1:2:0:0:
59,115,96284,1,0,1:2:0:0:
76,105,96361,1,0,1:2:0:0:
94,99,96438,1,0,0:2:0:0:
113,97,96516,2,0,L|158:91,3,38.5000011749268,10|0|0|0,0:2|1:2|1:2|1:2,0:0:0:0:
196,126,96824,5,2,1:2:0:0:
291,266,97054,1,0,0:2:0:0:
291,266,97131,2,0,P|287:224|304:187,1,77.0000023498536,10|0,0:2|0:2,0:0:0:0:
331,169,97362,1,0,0:2:0:0:
331,169,97439,2,0,L|382:162,3,38.5000011749268,2|0|0|8,1:2|1:2|1:2|0:2,0:0:0:0:
393,127,97747,2,0,L|431:132,3,38.5000011749268,10|0|0|8,0:2|1:2|1:2|0:2,0:0:0:0:
455,85,98054,5,6,1:2:0:0:
276,27,98285,1,0,0:2:0:0:
276,27,98362,2,0,P|276:73|256:117,1,77.0000023498536,10|0,0:2|0:2,0:0:0:0:
128,56,98670,1,2,1:2:0:0:
147,53,98746,1,0,1:2:0:0:
165,57,98823,1,0,1:2:0:0:
182,65,98900,1,0,1:2:0:0:
196,78,98977,1,10,0:2:0:0:
210,91,99053,1,0,1:2:0:0:
227,100,99130,1,8,0:2:0:0:
246,103,99207,1,0,1:2:0:0:
266,103,99285,6,0,P|258:164|266:215,1,77.0000023498536,2|0,1:2|0:2,0:0:0:0:
285,213,99516,1,0,0:2:0:0:
285,213,99593,2,0,L|370:201,1,77.0000023498536,10|0,0:2|0:2,0:0:0:0:
396,197,99824,1,0,0:2:0:0:
396,197,99900,2,0,L|434:202,3,38.5000011749268,2|0|0|8,1:2|1:2|1:2|0:2,0:0:0:0:
414,250,100208,2,0,L|452:255,3,38.5000011749268,10|8|0|8,0:2|0:2|1:2|0:2,0:0:0:0:
432,303,100516,5,6,1:2:0:0:
285,213,100747,1,0,0:2:0:0:
285,213,100824,2,0,P|260:252|229:273,1,77.0000023498536,10|0,0:2|0:2,0:0:0:0:
187,259,101054,1,0,0:2:0:0:
187,259,101131,2,0,L|133:252,3,38.5000011749268,2|0|0|0,1:2|1:2|1:2|0:2,0:0:0:0:
176,185,101439,2,0,L|122:178,3,38.5000011749268,10|8|8|0,0:2|0:2|0:2|1:2,0:0:0:0:
165,111,101747,6,0,P|132:67|126:7,2,115.50000352478,2|0|0,1:2|0:2|0:2,0:0:0:0:
249,74,102362,1,2,1:2:0:0:
267,67,102438,1,0,1:2:0:0:
286,65,102515,1,0,1:2:0:0:
305,68,102592,1,8,0:2:0:0:
323,74,102670,2,0,P|360:83|397:74,1,77.0000023498536,10|8,0:2|0:2,0:0:0:0:
457,138,102977,6,0,P|430:165|419:201,1,77.0000023498536,6|0,1:2|0:2,0:0:0:0:
426,235,103208,1,0,0:2:0:0:
426,235,103285,2,0,L|335:218,1,77.0000023498536,10|0,0:2|0:2,0:0:0:0:
235,266,103593,2,0,L|280:257,3,38.5000011749268,2|0|0|0,1:2|1:2|1:2|1:2,0:0:0:0:
199,200,103900,2,0,L|244:191,3,38.5000011749268,10|8|8|0,0:2|0:2|0:2|1:2,0:0:0:0:
164,132,104208,6,0,L|304:105,2,115.50000352478,2|0|0,1:2|1:2|1:2,0:0:0:0:
91,188,104824,1,2,1:2:0:0:
71,186,104900,1,0,1:2:0:0:
53,180,104977,1,0,1:2:0:0:
38,168,105054,1,0,1:2:0:0:
28,152,105131,2,0,P|19:117|38:75,2,77.0000023498536,10|8|2,0:2|0:2|1:2,0:0:0:0:
257,116,106670,6,0,P|320:86|426:90,2,154.000004699707,6|10|2,1:2|0:2|1:2,0:0:0:0:
262,134,107361,1,0,1:2:0:0:
263,153,107438,1,0,1:2:0:0:
260,172,107515,1,0,0:2:0:0:
254,190,107593,2,0,L|168:175,1,77.0000023498536,10|0,0:2|1:2,0:0:0:0:
102,256,107900,6,0,P|128:204|122:100,2,154.000004699707,2|10|10,1:2|0:2|0:2,0:0:0:0:
92,272,108593,1,0,1:2:0:0:
86,290,108670,1,0,1:2:0:0:
85,309,108747,1,8,0:2:0:0:
87,328,108824,2,0,L|171:338,1,77.0000023498536,10|0,0:2|1:2,0:0:0:0:
226,270,109131,6,0,L|310:260,1,77.0000023498536,6|0,1:2|0:2,0:0:0:0:
345,273,109362,1,0,0:2:0:0:
345,273,109439,2,0,P|362:237|355:174,1,77.0000023498536,10|0,0:2|0:2,0:0:0:0:
334,170,109670,1,0,0:2:0:0:
334,170,109747,2,0,P|317:134|324:71,1,77.0000023498536,2|0,1:2|1:2,0:0:0:0:
394,17,110054,1,10,0:2:0:0:
391,36,110130,1,0,1:2:0:0:
388,55,110207,1,0,1:2:0:0:
315,97,110362,6,0,P|277:97|264:92,3,38.5000011749268,2|0|8|0,1:2|1:2|0:2|1:2,0:0:0:0:
243,71,110670,2,0,P|205:71|192:76,3,38.5000011749268,10|0|0|8,0:2|1:2|1:2|0:2,0:0:0:0:
171,97,110977,2,0,P|133:97|120:92,3,38.5000011749268,2|8|8|0,1:2|0:2|0:2|1:2,0:0:0:0:
99,71,111285,2,0,P|61:71|48:76,3,38.5000011749268,2|0|0|0,1:2|1:2|1:2|1:2,0:0:0:0:
27,97,111593,5,6,1:2:0:0:
77,212,111747,1,0,0:2:0:0:
77,212,111824,1,0,0:0:0:0:
77,212,111900,2,0,P|118:196|156:194,1,77.0000023498536,10|0,0:2|0:2,0:0:0:0:
253,283,112208,1,2,1:2:0:0:
253,283,112285,1,0,1:2:0:0:
253,283,112362,2,0,P|214:279|179:264,2,77.0000023498536,0|10|0,1:2|0:2|1:2,0:0:0:0:
241,168,112824,2,0,L|231:117,7,38.5000011749268,2|0|0|0|10|0|0|0,1:2|1:2|0:2|0:2|0:2|1:2|1:2|0:2,0:0:0:0:
163,79,113439,6,0,L|155:116,1,38.5000011749268,2|0,1:2|1:2,0:0:0:0:
254,40,113593,2,0,L|246:3,1,38.5000011749268,0|0,1:2|1:2,0:0:0:0:
336,89,113747,1,10,0:0:0:0:
362,101,113823,1,0,1:0:0:0:
378,125,113900,1,0,1:0:0:0:
379,153,113977,1,0,1:0:0:0:
366,179,114054,6,0,P|407:188|456:168,1,77.0000023498536,6|0,1:2|0:2,0:0:0:0:
466,158,114285,1,0,0:2:0:0:
466,158,114362,2,0,P|455:100|463:64,1,77.0000023498536,10|0,0:2|0:2,0:0:0:0:
363,30,114670,1,2,1:2:0:0:
346,20,114746,1,0,0:2:0:0:
327,14,114823,1,0,1:2:0:0:
308,12,114900,1,0,0:2:0:0:
289,14,114977,2,0,P|247:19|211:30,1,77.0000023498536,10|0,0:2|1:2,0:0:0:0:
125,111,115285,6,0,P|161:121|200:125,1,77.0000023498536,2|0,1:2|0:2,0:0:0:0:
229,117,115516,1,0,0:2:0:0:
229,117,115593,2,0,P|265:106|304:102,1,77.0000023498536,10|0,0:2|0:2,0:0:0:0:
369,170,115900,1,2,1:2:0:0:
375,187,115976,1,0,1:2:0:0:
377,207,116053,1,8,0:2:0:0:
373,225,116130,1,0,1:2:0:0:
365,243,116207,1,2,1:2:0:0:
352,257,116284,1,0,1:2:0:0:
335,267,116361,1,0,1:2:0:0:
317,272,116438,1,0,1:2:0:0:
298,272,116515,5,6,1:2:0:0:
60,136,127593,6,0,P|71:176|66:217,1,70,6|0,1:2|0:2,0:0:0:0:
17,279,127900,1,10,0:2:0:0:
17,279,128054,2,0,P|50:242|144:254,1,140,0|0,0:2|1:2,0:0:0:0:
192,307,128516,1,10,0:2:0:0:
189,324,128592,1,0,0:2:0:0:
187,341,128669,1,0,0:2:0:0:
249,247,128824,2,0,P|284:232|331:232,1,70,2|0,1:2|1:2,0:0:0:0:
346,255,129054,1,0,1:2:0:0:
346,255,129131,2,0,P|381:270|428:270,1,70,10|0,0:2|1:2,0:0:0:0:
469,193,129439,2,0,L|461:146,3,35,10|0|0|0,0:2|0:2|1:2|1:2,0:0:0:0:
431,130,129747,2,0,L|439:83,3,35,10|0|0|0,0:2|0:2|0:2|0:2,0:0:0:0:
469,67,130054,5,6,1:2:0:0:
376,33,130208,2,0,P|339:28|301:52,1,70,0|10,0:2|0:2,0:0:0:0:
252,143,130516,2,0,P|270:95|252:9,1,140,0|0,0:2|1:2,0:0:0:0:
137,66,130977,2,0,L|172:74,2,35,10|0|0,0:2|0:2|0:2,0:0:0:0:
70,117,131285,2,0,P|85:156|84:200,1,70,2|0,1:2|0:2,0:0:0:0:
0,320,131593,2,0,P|2:285|16:253,1,70,10|0,0:2|1:2,0:0:0:0:
33,239,131824,1,8,0:2:0:0:
33,239,131900,2,0,L|90:255,3,35,2|0|8|0,1:2|1:2|0:2|0:2,0:0:0:0:
86,183,132208,2,0,L|143:199,3,35,2|0|0|0,1:2|1:2|1:2|0:2,0:0:0:0:
164,252,132516,6,0,P|200:256|238:243,1,70,6|0,1:2|0:2,0:0:0:0:
345,148,132824,1,10,0:2:0:0:
301,266,132977,2,0,B|322:189|255:205|272:117,1,140,0|0,0:2|1:2,0:0:0:0:
322,40,133439,1,10,0:2:0:0:
319,57,133515,1,0,0:2:0:0:
316,74,133592,1,0,0:2:0:0:
187,115,133747,6,0,P|141:102|124:77,1,70,2|0,1:2|0:2,0:0:0:0:
23,36,134054,2,0,P|34:82|21:109,1,70,10|0,0:2|0:2,0:0:0:0:
10,126,134285,1,0,0:2:0:0:
10,126,134362,1,2,0:2:0:0:
37,218,134516,2,0,P|71:184|101:182,2,70,0|10|0,1:2|0:2|0:2,0:0:0:0:
148,272,134977,6,0,B|186:290|186:290|288:261,1,140,6|10,1:2|0:2,0:0:0:0:
369,169,135439,1,0,0:2:0:0:
369,169,135516,1,0,0:0:0:0:
369,169,135593,2,0,P|355:217|365:258,1,70,2|0,0:2|1:2,0:0:0:0:
464,311,135900,2,0,P|464:276|452:243,1,70,10|0,0:2|1:2,0:0:0:0:
440,224,136131,1,0,1:2:0:0:
440,224,136208,5,2,1:2:0:0:
476,92,136362,1,0,0:2:0:0:
369,169,136516,2,0,P|334:164|301:153,1,70,10|0,0:2|0:2,0:0:0:0:
277,133,136747,1,8,0:2:0:0:
277,133,136824,1,2,1:2:0:0:
368,38,136977,2,0,P|401:27|435:22,2,70,8|2|0,0:2|1:2|1:2,0:0:0:0:
277,133,137439,5,14,0:2:0:0:
