osu file format v14

[General]
AudioFilename: audio.mp3
AudioLeadIn: 0
PreviewTime: 61900
Countdown: 0
SampleSet: Soft
StackLeniency: 0.2
Mode: 0
LetterboxInBreaks: 0
EpilepsyWarning: 1
WidescreenStoryboard: 1

[Editor]
Bookmarks: 69747,72208,95593,137439
DistanceSpacing: 0.6
BeatDivisor: 4
GridSize: 32
TimelineZoom: 2.3

[Metadata]
Title:Gardens Under A Spring Sky
TitleUnicode:Gardens Under A Spring Sky
Artist:Fractal Dreamers
ArtistUnicode:Fractal Dreamers
Creator:_Epreus
Version:August's Extreme
Source:
Tags:instrumental electronic neoskylove osu! -tatsuo thiev Kirylln august depzdai sersh4nt monolithia featured artist fa helblinde artcore skymuted affirmation af
BeatmapID:2020735
BeatmapSetID:962862

[Difficulty]
HPDrainRate:5
CircleSize:4.7
OverallDifficulty:8.3
ApproachRate:9.3
SliderMultiplier:1.9
SliderTickRate:1

[Events]
//Background and Video events
0,0,"ablobwobBG.jpg",0,0
//Break Periods
2,117947,122116
//Storyboard Layer 0 (Background)
//Storyboard Layer 1 (Fail)
//Storyboard Layer 2 (Pass)
//Storyboard Layer 3 (Foreground)
//Storyboard Layer 4 (Overlay)
//Storyboard Sound Samples

[TimingPoints]
824,307.692307692308,4,2,0,35,1,0
10670,-250,4,2,0,35,0,0
19593,-222.222222222221,4,2,0,40,0,0
19824,-222.222222222221,4,2,0,5,0,0
19900,-153.846153846153,4,2,0,45,0,0
20131,-153.846153846153,4,2,0,5,0,0
20208,-117.647058823529,4,2,0,50,0,0
20439,-117.647058823529,4,2,0,5,0,0
20516,-117.64705882353,4,2,2,75,0,0
20824,-111.111111111111,4,2,2,70,0,0
29131,-111.111111111111,4,2,2,72,0,1
29439,-100,4,2,2,74,0,1
29747,-90.9090909090908,4,2,2,76,0,1
30054,-111.111111111111,4,2,2,78,0,1
30362,-500,4,2,2,50,0,0
30381,-500,4,2,3,5,0,0
32516,-500,4,2,2,5,0,0
32670,-333.333333333333,4,2,2,35,0,0
32747,-333.333333333333,4,2,0,35,0,0
32824,-500,4,2,2,35,0,0
33285,-500.000000000003,4,2,0,45,0,0
40208,-285.714285714286,4,2,0,45,0,0
41439,-181.818181818182,4,2,0,45,0,0
42054,-142.857142857143,4,2,0,45,0,0
42670,-105.263157894737,4,2,2,65,0,0
51285,-105.263157894737,4,2,2,65,0,1
52516,-142.857142857143,4,2,2,60,0,0
53747,-142.857142857143,4,2,0,60,0,0
56208,-142.857142857143,4,2,2,60,0,0
57439,-125,4,2,2,55,0,0
62362,-90.9090909090909,4,2,2,80,0,0
62516,-95.2380952380952,4,2,2,80,0,0
75900,-86.9565217391304,4,2,2,82,0,1
76516,-80,4,2,2,84,0,1
77131,-200,4,2,2,50,0,0
77747,-200,4,2,0,50,0,0
86977,-100,4,2,0,45,0,0
93131,-181.818181818182,4,2,0,45,0,0
94362,-133.333333333334,4,2,0,45,0,0
94670,-133.333333333334,4,2,0,45,0,0
94977,-133.333333333334,4,2,0,45,0,0
95593,-95.2380952380952,4,2,2,75,0,0
106670,-95.2380952380952,4,2,2,75,0,1
107131,-86.9565217391304,4,2,2,75,0,1
109131,-95.2380952380952,4,2,2,75,0,1
109593,-86.9565217391304,4,2,2,75,0,1
111593,-95.2380952380952,4,2,2,75,0,1
112054,-86.9565217391304,4,2,2,75,0,1
114054,-95.2380952380952,4,2,2,75,0,1
114516,-86.9565217391304,4,2,2,75,0,1
115285,-95.2380952380952,4,2,2,75,0,1
115747,-86.9565217391304,4,2,2,75,0,1
116824,-181.818181818181,4,2,2,45,0,0
117054,-133.333333333333,4,2,2,5,0,0
117131,-133.333333333333,4,2,2,50,0,0
117362,-133.333333333333,4,2,2,5,0,0
117439,-105.263157894737,4,2,2,55,0,0
117670,-133.333333333333,4,2,2,5,0,0
117747,-83.3333333333333,4,2,0,50,0,0
125054,-83.3333333333333,4,2,0,5,0,0
125131,-125,4,2,0,35,0,1
125439,-83.3333333333333,4,2,0,45,0,1
125747,-111.111111111111,4,2,0,50,0,1
126054,-83.3333333333333,4,2,0,55,0,1
126362,-100,4,2,0,60,0,1
126670,-83.3333333333333,4,2,0,65,0,1
126977,-90.9090909090909,4,2,0,70,0,1
127593,-90.9090909090909,4,2,2,70,0,1
127747,-100,4,2,2,75,0,0
137439,-166.666666666667,4,2,2,75,0,1
137458,-166.666666666667,4,2,3,5,0,0
138670,-166.666666666667,4,2,2,5,0,0

[Colours]
Combo1 : 192,192,192
Combo2 : 128,255,255
Combo3 : 98,176,255

[HitObjects]
96,128,10670,6,0,P|58:123|24:138,2,76,6|2|2,0:2|0:2|0:2,0:0:0:0:
69,197,11593,1,2,0:2:0:0:
123,59,11900,6,0,P|157:43|194:46,2,76,2|2|2,0:2|0:2|0:2,0:0:0:0:
170,117,12824,1,2,0:2:0:0:
272,0,13131,6,0,P|270:37|290:68,1,76,2|2,0:2|0:2,0:0:0:0:
344,18,13747,1,2,0:2:0:0:
308,141,14054,1,2,0:2:0:0:
272,264,14362,6,0,P|252:295|217:309,2,76,2|2|2,0:2|0:2|0:2,0:0:0:0:
204,237,15285,1,2,0:2:0:0:
205,231,15439,1,0,0:2:0:0:
339,297,15593,6,0,P|376:294|407:314,1,76,2|2,0:2|0:2,0:0:0:0:
357,368,16208,1,2,0:2:0:0:
457,260,16516,1,2,0:2:0:0:
463,113,16824,6,0,P|425:110|394:130,2,76,2|2|2,0:2|0:2|0:2,0:0:0:0:
444,183,17747,1,2,0:2:0:0:
373,201,17900,2,0,L|352:198,1,19,0|0,0:0|0:2,0:0:0:0:
263,184,18054,6,0,P|238:155|236:118,2,76,2|2|2,0:2|0:2|0:2,0:0:0:0:
308,127,18977,1,2,0:2:0:0:
218,241,19285,1,2,0:2:0:0:
128,355,19593,6,0,B|97:368|97:368|68:355,1,64.1249980430604,0|0,0:2|0:0,0:0:0:0:
7,327,19900,2,0,L|22:211,1,92.6249957599642,0|0,0:2|0:0,0:0:0:0:
69,181,20208,2,0,P|63:123|9:105,1,121.125002310276,0|0,0:2|0:0,0:0:0:0:
0,27,20516,6,0,L|82:17,2,80.750001540184,6|0|10,1:2|0:2|0:2,0:0:0:0:
127,79,20977,1,0,0:2:0:0:
132,80,21054,1,0,0:2:0:0:
137,81,21131,1,2,2:2:0:0:
214,79,21285,1,0,1:2:0:0:
256,177,21439,2,0,L|245:236,1,42.7499986953736,10|0,0:2|0:2,0:0:0:0:
265,168,21593,2,0,L|249:259,1,85.4999973907472,0|2,0:2|1:2,0:0:0:0:
301,367,21900,5,0,0:2:0:0:
299,341,21977,1,0,0:2:0:0:
297,315,22054,1,10,0:2:0:0:
328,244,22208,2,0,P|349:246|369:252,1,42.7499986953736,0|0,0:2|0:2,0:0:0:0:
439,287,22362,2,0,P|455:300|468:317,1,42.7499986953736,2|0,1:2|1:2,0:0:0:0:
322,235,22516,6,0,P|343:237|363:243,1,42.7499986953736,0|8,1:2|0:2,0:0:0:0:
442,195,22670,2,0,P|454:177|462:157,1,42.7499986953736,8|8,0:2|0:2,0:0:0:0:
443,66,22824,1,0,1:2:0:0:
442,61,22900,1,8,0:2:0:0:
441,56,22977,6,0,L|346:71,1,85.4999973907472,6|0,1:2|0:2,0:0:0:0:
134,87,23285,1,10,0:2:0:0:
139,87,23439,2,0,P|118:88|99:78,2,42.7499986953736,0|0|2,0:2|0:2|0:2,0:0:0:0:
191,27,23747,1,0,1:2:0:0:
259,109,23900,2,0,L|270:168,1,42.7499986953736,10|0,0:2|0:2,0:0:0:0:
250,100,24054,2,0,L|266:191,1,85.4999973907472,0|2,0:2|1:2,0:0:0:0:
202,251,24362,5,0,0:2:0:0:
98,232,24516,1,10,0:2:0:0:
0,272,24670,1,0,0:2:0:0:
1,266,24747,1,8,0:2:0:0:
2,260,24824,2,0,L|-8:199,1,42.7499986953736,2|0,1:2|1:2,0:0:0:0:
54,168,24977,2,0,L|60:125,1,42.7499986953736,8|0,0:2|1:2,0:0:0:0:
0,0,25131,5,2,1:2:0:0:
15,38,25207,1,0,1:2:0:0:
50,62,25284,1,0,1:2:0:0:
91,64,25361,1,0,1:2:0:0:
128,42,25439,6,0,B|171:16|210:36|210:36|250:58|295:36,1,170.999994781494,6|10,1:2|0:2,0:0:0:0:
407,24,25900,1,0,0:2:0:0:
406,29,25977,1,0,0:2:0:0:
405,34,26054,1,2,0:2:0:0:
467,86,26208,1,0,1:2:0:0:
372,155,26362,2,0,P|363:174|361:195,1,42.7499986953736,10|0,0:2|0:2,0:0:0:0:
365,144,26516,2,0,P|351:183|363:224,1,85.4999973907472,0|2,0:2|1:2,0:0:0:0:
310,295,26824,5,0,0:2:0:0:
423,292,26977,1,10,0:2:0:0:
511,214,27131,2,0,P|502:233|501:254,1,42.7499986953736,0|0,0:2|0:2,0:0:0:0:
429,301,27285,2,0,P|432:321|443:340,1,42.7499986953736,2|0,1:2|1:2,0:0:0:0:
341,379,27439,5,0,1:2:0:0:
315,383,27516,1,8,0:2:0:0:
289,378,27593,2,0,L|242:363,1,42.7499986953736,10|8,0:2|0:2,0:0:0:0:
210,268,27747,2,0,L|163:253,1,42.7499986953736,0|8,1:2|0:2,0:0:0:0:
289,158,27900,6,0,L|268:92,2,42.7499986953736,6|0|8,1:2|0:2|0:2,0:0:0:0:
352,203,28208,1,2,1:2:0:0:
319,230,28284,1,0,1:2:0:0:
277,234,28361,1,0,1:2:0:0:
189,94,28516,6,0,L|210:28,2,42.7499986953736,2|0|8,1:2|0:2|0:2,0:0:0:0:
127,139,28824,1,2,1:2:0:0:
159,166,28900,1,0,1:2:0:0:
201,170,28977,1,0,1:2:0:0:
119,62,29131,5,2,1:2:0:0:
94,68,29208,1,0,1:2:0:0:
72,83,29285,2,0,P|63:102|59:123,1,42.7499986953736,0|0,1:2|1:2,0:0:0:0:
3,194,29439,1,2,1:2:0:0:
0,224,29516,1,0,1:2:0:0:
9,255,29593,2,0,P|27:272|49:285,1,47.5,0|0,1:2|1:2,0:0:0:0:
100,357,29747,1,2,1:2:0:0:
133,371,29824,1,0,1:2:0:0:
171,372,29901,2,0,P|198:357|220:337,1,52.2500015945435,0|0,1:2|1:2,0:0:0:0:
262,203,30054,5,2,1:2:0:0:
217,217,30131,1,0,1:2:0:0:
217,264,30208,1,0,1:2:0:0:
262,279,30285,1,0,1:2:0:0:
289,241,30362,6,0,B|303:203|284:160|284:160|338:198|401:158|410:115|391:72,1,266,6|0,0:2|0:0,0:0:0:0:
462,0,32824,5,0,0:2:0:0:
468,27,32977,1,0,0:2:0:0:
474,54,33131,1,0,0:2:0:0:
320,66,33285,2,0,L|328:103,1,38,2|2,0:2|0:2,0:0:0:0:
314,39,33747,1,2,0:2:0:0:
469,194,33900,2,0,L|461:157,1,38,2|2,0:2|0:2,0:0:0:0:
475,221,34362,5,2,0:2:0:0:
422,277,34516,1,2,0:2:0:0:
479,329,34670,2,0,L|488:330,3,9.5,2|2|2|2,0:2|0:2|0:2|0:2,0:0:0:0:
470,338,34977,2,0,L|461:337,3,9.5,2|2|2|2,0:2|0:2|0:2|0:2,0:0:0:0:
400,384,35285,5,2,0:2:0:0:
373,378,35438,1,2,0:2:0:0:
346,372,35592,1,2,0:2:0:0:
233,307,35747,2,0,L|196:315,1,38,2|2,0:2|0:2,0:0:0:0:
260,301,36208,1,2,0:2:0:0:
46,258,36362,2,0,L|83:250,1,38,2|2,0:2|0:2,0:0:0:0:
19,264,36824,5,2,0:2:0:0:
36,188,36977,1,2,0:2:0:0:
53,112,37131,2,0,L|56:95,3,9.5,2|2|2|2,0:2|0:2|0:2|0:2,0:0:0:0:
110,165,37439,2,0,L|120:164,1,9.5,2|2,0:2|0:2,0:0:0:0:
196,152,37593,2,0,L|206:151,1,9.5,2|2,0:2|0:2,0:0:0:0:
282,139,37747,5,2,0:2:0:0:
288,112,37900,1,2,0:2:0:0:
294,85,38054,1,2,0:2:0:0:
167,27,38208,2,0,L|175:64,1,38,2|2,0:2|0:2,0:0:0:0:
161,0,38669,1,2,0:2:0:0:
377,27,38824,2,0,L|369:64,1,38,2|2,0:2|0:2,0:0:0:0:
383,0,39286,5,2,0:2:0:0:
445,78,39439,1,2,0:2:0:0:
307,112,39593,2,0,L|288:112,1,19,2|0,0:2|0:0,0:0:0:0:
493,138,39900,2,0,L|512:138,1,19,2|0,0:2|0:0,0:0:0:0:
296,189,40208,6,0,L|217:199,1,66.4999979705811,2|2,0:2|0:2,0:0:0:0:
66,374,40670,2,0,L|0:366,1,66.4999979705811,2|2,0:2|0:2,0:0:0:0:
148,286,41131,1,2,0:2:0:0:
142,364,41285,1,2,0:2:0:0:
62,224,41439,6,0,L|71:276,1,52.2500015945435,2|2,0:2|0:2,0:0:0:0:
159,224,41747,2,0,L|151:276,1,52.2500015945435,2|2,0:2|0:2,0:0:0:0:
0,101,42054,2,0,L|10:167,1,66.4999979705811,2|2,0:2|0:2,0:0:0:0:
222,101,42362,2,0,L|212:167,1,66.4999979705811,2|2,0:2|0:2,0:0:0:0:
229,371,42670,6,0,B|302:383|302:383|323:372,2,90.2499975900651,6|0|10,1:2|0:2|0:2,0:0:0:0:
346,269,43131,1,0,0:2:0:0:
348,288,43208,1,0,0:0:0:0:
350,306,43285,1,0,0:0:0:0:
489,384,43439,2,0,P|505:343|492:301,1,90.2499975900651,0|10,1:2|0:2,0:0:0:0:
437,208,43670,1,0,0:2:0:0:
436,214,43747,2,0,L|417:321,1,90.2499975900651,0|2,0:2|1:2,0:0:0:0:
492,300,44054,5,0,0:2:0:0:
364,196,44208,1,10,0:2:0:0:
512,138,44362,1,0,0:2:0:0:
506,136,44439,1,0,0:2:0:0:
500,134,44516,6,0,L|441:143,1,45.1249987950325,2|8,0:2|0:2,0:0:0:0:
296,74,44669,1,0,1:2:0:0:
326,77,44746,1,8,0:2:0:0:
357,81,44824,2,0,L|402:86,1,45.1249987950325,10|0,0:2|0:2,0:0:0:0:
231,28,44977,1,0,0:2:0:0:
227,35,45054,1,0,0:2:0:0:
223,42,45131,6,0,L|239:143,2,90.2499975900651,6|0|10,1:2|0:2|0:2,0:0:0:0:
144,0,45593,2,0,P|121:3|101:13,2,45.1249987950325,0|0|2,0:2|0:2|0:2,0:0:0:0:
68,83,45900,1,0,1:2:0:0:
149,182,46054,1,10,0:2:0:0:
136,195,46131,1,0,0:2:0:0:
123,208,46208,2,0,L|137:118,1,90.2499975900651,0|2,0:2|1:2,0:0:0:0:
237,131,46516,5,0,0:2:0:0:
44,157,46670,1,10,0:2:0:0:
85,267,46824,1,0,0:2:0:0:
90,271,46900,1,8,0:2:0:0:
95,275,46977,2,0,P|116:281|138:278,3,45.1249987950325,2|0|8|0,1:2|0:2|0:2|0:2,0:0:0:0:
0,237,47285,1,2,1:2:0:0:
0,281,47362,1,0,1:2:0:0:
13,323,47438,1,0,1:2:0:0:
46,353,47515,1,0,1:2:0:0:
88,364,47593,6,0,P|50:342|6:347,2,90.2499975900651,6|0|10,1:2|0:2|0:2,0:0:0:0:
217,320,48054,1,0,0:2:0:0:
236,322,48131,1,0,0:2:0:0:
254,324,48208,1,2,0:2:0:0:
186,383,48362,1,0,1:2:0:0:
215,231,48516,1,10,0:2:0:0:
218,224,48593,1,0,0:2:0:0:
221,217,48670,2,0,P|259:195|303:200,1,90.2499975900651,0|2,0:2|1:2,0:0:0:0:
335,285,48977,5,0,0:2:0:0:
354,125,49131,1,10,0:2:0:0:
386,210,49285,1,0,0:2:0:0:
391,212,49362,1,0,0:2:0:0:
395,214,49439,2,0,L|456:206,1,45.1249987950325,10|0,0:2|0:2,0:0:0:0:
498,305,49593,1,0,1:2:0:0:
505,296,49670,1,8,0:2:0:0:
512,287,49747,2,0,L|423:300,1,90.2499975900651,10|0,0:2|1:2,0:0:0:0:
330,366,49977,1,8,0:2:0:0:
324,367,50054,6,0,P|314:323|336:284,1,90.2499975900651,6|0,1:2|0:2,0:0:0:0:
439,124,50362,1,10,0:2:0:0:
512,177,50516,2,0,L|520:230,2,45.1249987950325,0|0|2,0:2|0:2|0:2,0:0:0:0:
486,47,50824,1,0,1:2:0:0:
356,89,50977,1,10,0:2:0:0:
351,86,51054,1,0,0:2:0:0:
345,82,51131,2,0,P|346:60|355:39,1,45.1249987950325,0|0,0:2|0:0,0:0:0:0:
187,0,51285,5,2,1:2:0:0:
231,5,51361,1,0,1:2:0:0:
263,36,51438,1,0,1:2:0:0:
271,79,51515,1,0,1:2:0:0:
252,120,51593,6,0,L|260:169,1,45.1249987950325,10|0,0:2|1:2,0:0:0:0:
206,277,51747,2,0,L|199:233,1,45.1249987950325,0|8,1:2|0:2,0:0:0:0:
156,143,51900,6,0,L|148:98,1,45.1249987950325,2|8,1:2|0:2,0:0:0:0:
302,254,52054,2,0,L|309:298,1,45.1249987950325,8|0,0:2|1:2,0:0:0:0:
413,108,52208,5,2,1:2:0:0:
414,119,52284,1,0,1:2:0:0:
416,130,52361,1,0,1:2:0:0:
418,141,52438,1,0,1:2:0:0:
419,152,52515,5,6,1:2:0:0:
320,365,52824,1,0,0:0:0:0:
130,230,53131,1,0,0:0:0:0:
98,219,53285,1,0,0:0:0:0:
98,186,53439,1,0,0:0:0:0:
130,176,53593,1,0,0:0:0:0:
98,186,53747,5,2,0:0:0:0:
150,204,53900,1,0,0:0:0:0:
35,0,54208,1,0,0:0:0:0:
0,232,54516,1,0,0:0:0:0:
52,250,54670,1,0,0:0:0:0:
244,384,54977,5,2,0:0:0:0:
449,270,55285,1,0,0:0:0:0:
501,288,55439,1,0,0:0:0:0:
387,83,55747,1,0,0:0:0:0:
182,197,56054,1,0,0:0:0:0:
254,212,56208,5,8,0:2:0:0:
182,197,56362,1,0,1:2:0:0:
173,125,56516,1,8,0:2:0:0:
240,93,56670,1,0,1:2:0:0:
289,147,56824,1,8,0:2:0:0:
294,148,56900,1,8,0:2:0:0:
299,149,56977,2,0,L|304:117,1,33.2499989852906,8|8,1:2|0:2,0:0:0:0:
307,106,57131,2,0,L|319:188,1,66.4999979705811,8|0,0:2|1:2,0:0:0:0:
326,243,57439,5,4,1:2:0:0:
321,246,57593,1,0,1:2:0:0:
404,196,57747,1,8,0:2:0:0:
316,250,57900,1,0,0:2:0:0:
311,254,57977,1,0,1:2:0:0:
306,258,58054,2,0,L|319:317,1,38,8|0,0:2|0:0,0:0:0:0:
371,347,58208,2,0,L|379:384,1,38,0|0,1:2|1:2,0:0:0:0:
246,331,58362,1,8,0:2:0:0:
251,335,58516,2,0,L|214:327,1,38,0|8,0:2|0:2,0:0:0:0:
139,310,58670,5,0,1:2:0:0:
134,309,58824,1,0,0:2:0:0:
194,239,58977,1,8,0:2:0:0:
129,307,59131,2,0,P|122:325|119:344,3,38,0|8|0|8,1:2|0:2|1:2|0:2,0:0:0:0:
52,306,59439,2,0,L|15:314,1,38,0|0,1:2|0:0,0:0:0:0:
111,205,59593,1,8,0:2:0:0:
112,200,59747,2,0,L|120:163,1,38,0|8,0:2|0:2,0:0:0:0:
53,90,59900,5,0,1:2:0:0:
52,85,60054,1,0,1:2:0:0:
142,75,60208,1,8,0:2:0:0:
51,80,60362,2,0,P|44:62|41:43,3,38,0|8|0|8,1:2|0:2|1:2|0:2,0:0:0:0:
108,6,60670,1,0,1:2:0:0:
109,1,60824,1,8,0:2:0:0:
215,98,60977,1,8,0:2:0:0:
321,0,61131,5,0,1:2:0:0:
327,21,61208,1,0,1:2:0:0:
335,42,61285,6,0,L|327:87,2,38,8|0|8,0:2|1:2|0:2,0:0:0:0:
396,115,61516,6,0,L|363:146,2,38,0|8|0,1:2|0:2|1:2,0:0:0:0:
414,205,61747,5,8,0:2:0:0:
408,207,61824,1,8,0:2:0:0:
402,209,61900,6,0,L|356:215,2,38,8|8|8,0:2|0:2|0:2,0:0:0:0:
483,197,62131,6,0,L|471:285,1,76,0|0,0:0|0:0,0:0:0:0:
427,336,62362,6,0,P|382:359|334:342,2,104.500003189087,6|0|10,1:2|1:2|0:2,0:0:0:0:
244,284,62824,1,0,0:2:0:0:
247,309,62900,1,8,0:2:0:0:
250,334,62977,1,10,0:2:0:0:
254,359,63054,1,0,0:2:0:0:
255,384,63131,6,0,P|265:361|263:336,1,49.8749984779358,0|0,1:2|0:2,0:0:0:0:
179,302,63285,2,0,P|160:285|136:280,1,49.8749984779358,10|0,0:2|0:0,0:0:0:0:
77,348,63439,2,0,P|54:360|42:382,1,49.8749984779358,0|0,0:2|0:0,0:0:0:0:
45,150,63593,5,2,1:2:0:0:
48,156,63747,1,0,0:2:0:0:
180,155,63900,1,10,0:2:0:0:
322,156,64054,1,0,0:2:0:0:
317,155,64131,1,0,0:2:0:0:
312,154,64208,2,0,L|322:97,1,49.8749984779358,2|0,1:2|1:2,0:0:0:0:
221,29,64362,1,0,1:2:0:0:
226,35,64439,1,0,1:2:0:0:
237,43,64516,1,10,0:2:0:0:
261,49,64593,1,0,1:2:0:0:
291,32,64670,1,8,0:2:0:0:
335,28,64747,1,8,0:2:0:0:
380,58,64824,5,6,1:2:0:0:
402,175,64977,1,0,0:2:0:0:
512,127,65131,1,10,0:2:0:0:
411,172,65285,2,0,L|397:251,1,49.8749984779358,8|8,0:2|0:2,0:0:0:0:
512,288,65439,1,2,0:2:0:0:
508,283,65516,1,0,0:0:0:0:
503,277,65593,6,0,P|499:253|503:229,1,49.8749984779358,0|0,1:2|0:0,0:0:0:0:
406,336,65747,2,0,P|388:318|376:296,1,49.8749984779358,10|0,0:2|0:0,0:0:0:0:
329,196,65900,1,0,1:2:0:0:
300,216,65977,1,0,1:2:0:0:
265,215,66054,6,0,P|240:210|216:214,1,49.8749984779358,2|0,1:2|0:2,0:0:0:0:
156,284,66208,2,0,P|131:288|107:284,1,49.8749984779358,0|0,1:2|1:2,0:0:0:0:
24,247,66362,6,0,L|37:295,1,49.8749984779358,10|0,0:2|0:2,0:0:0:0:
162,293,66516,2,0,L|176:341,1,49.8749984779358,8|8,0:2|0:2,0:0:0:0:
265,215,66670,6,0,L|278:262,1,49.8749984779358,2|8,1:2|0:2,0:0:0:0:
168,302,66824,2,0,L|181:349,1,49.8749984779358,8|8,0:2|0:2,0:0:0:0:
89,212,66977,1,2,1:2:0:0:
102,171,67053,1,0,0:0:0:0:
112,130,67130,1,0,0:0:0:0:
124,90,67207,1,0,0:0:0:0:
136,49,67285,6,0,P|176:22|225:24,2,99.7499969558717,6|0|10,1:2|0:2|0:2,0:0:0:0:
2,99,67747,1,0,0:2:0:0:
1,104,67824,1,0,0:2:0:0:
0,109,67900,2,0,L|96:102,1,49.8749984779358,2|0,0:2|0:2,0:0:0:0:
196,93,68054,1,0,1:2:0:0:
294,0,68208,2,0,P|300:24|295:48,1,49.8749984779358,10|0,0:2|0:2,0:0:0:0:
275,137,68362,1,0,0:2:0:0:
256,226,68516,6,0,P|280:228|305:222,1,49.8749984779358,2|0,1:2|1:2,0:0:0:0:
364,153,68670,2,0,P|373:130|376:105,1,49.8749984779358,0|0,1:2|1:2,0:0:0:0:
265,232,68824,6,0,P|289:231|313:224,1,49.8749984779358,10|0,0:2|1:2,0:0:0:0:
404,235,68977,6,0,P|394:257|391:282,1,49.8749984779358,0|0,1:2|1:2,0:0:0:0:
440,358,69131,2,0,P|458:374|481:384,1,49.8749984779358,2|0,1:2|1:2,0:0:0:0:
305,314,69285,5,0,1:2:0:0:
291,316,69362,1,0,1:2:0:0:
282,330,69439,1,10,0:2:0:0:
270,357,69516,1,0,1:2:0:0:
237,380,69593,1,0,1:2:0:0:
193,370,69670,1,0,1:2:0:0:
171,325,69747,5,6,1:2:0:0:
102,384,69900,1,0,0:2:0:0:
177,316,70054,1,10,0:2:0:0:
113,273,70208,2,0,L|121:215,2,49.8749984779358,0|0|2,0:2|0:2|0:2,0:0:0:0:
1,317,70516,2,0,P|25:324|50:322,1,49.8749984779358,0|0,1:2|0:2,0:0:0:0:
27,220,70670,2,0,L|19:162,2,49.8749984779358,10|0|0,0:2|0:2|1:2,0:0:0:0:
192,235,70977,5,2,1:2:0:0:
193,230,71054,1,0,0:0:0:0:
192,223,71131,2,0,P|189:199|179:176,1,49.8749984779358,0|0,0:2|1:2,0:0:0:0:
114,91,71285,2,0,P|110:116|101:139,1,49.8749984779358,10|0,0:2|0:2,0:0:0:0:
254,132,71439,5,0,1:2:0:0:
266,94,71515,1,0,0:2:0:0:
253,55,71592,1,2,1:2:0:0:
220,36,71669,1,8,0:2:0:0:
182,38,71747,6,0,L|187:88,1,49.8749984779358,8|0,0:2|0:2,0:0:0:0:
278,216,71900,1,2,1:2:0:0:
322,212,71976,1,0,1:2:0:0:
367,208,72053,1,0,1:2:0:0:
412,205,72130,1,0,1:2:0:0:
456,181,72208,6,0,B|464:111|464:111|446:65,2,99.7499969558717,6|0|10,1:2|0:2|0:2,0:0:0:0:
394,270,72670,2,0,L|400:328,2,49.8749984779358,0|0|2,0:2|0:2|0:2,0:0:0:0:
338,145,72977,2,0,P|348:97|385:66,1,99.7499969558717,0|10,1:2|0:2,0:0:0:0:
473,13,73208,1,0,0:2:0:0:
467,11,73285,2,0,L|355:-4,1,99.7499969558717,0|2,0:2|1:2,0:0:0:0:
281,59,73593,5,0,0:2:0:0:
163,0,73747,1,10,0:2:0:0:
51,67,73900,1,0,0:2:0:0:
47,71,73977,1,0,0:2:0:0:
43,75,74054,2,0,L|54:10,1,49.8749984779358,2|0,0:2|0:2,0:0:0:0:
141,103,74208,6,0,P|138:127|128:150,1,49.8749984779358,0|0,1:2|0:2,0:0:0:0:
45,187,74362,2,0,P|22:176|4:160,1,49.8749984779358,10|0,0:2|0:2,0:0:0:0:
203,203,74516,1,0,0:2:0:0:
208,202,74593,1,0,0:2:0:0:
213,201,74670,5,6,1:2:0:0:
263,293,74824,1,0,0:2:0:0:
204,379,74977,1,10,0:2:0:0:
269,283,75131,2,0,P|275:260|274:235,3,49.8749984779358,0|0|2|0,0:2|0:2|0:2|0:0,0:0:0:0:
342,366,75439,2,0,P|365:372|390:371,1,49.8749984779358,0|0,1:2|0:0,0:0:0:0:
373,295,75593,2,0,P|396:284|416:269,1,49.8749984779358,10|0,0:2|0:2,0:0:0:0:
359,218,75747,2,0,P|372:196|378:172,1,49.8749984779358,0|0,1:2|0:2,0:0:0:0:
450,200,75900,6,0,L|503:210,1,54.6250010418892,2|0,1:2|1:2,0:0:0:0:
289,168,76054,2,0,L|235:157,1,54.6250010418892,0|0,1:2|1:2,0:0:0:0:
445,213,76208,6,0,L|496:232,1,54.6250010418892,10|0,0:2|1:2,0:0:0:0:
293,154,76362,2,0,L|241:134,1,54.6250010418892,0|0,1:2|1:2,0:0:0:0:
436,127,76516,6,0,L|468:54,1,59.375,2|0,1:2|0:2,0:0:0:0:
289,242,76670,2,0,L|265:296,1,59.375,0|0,1:2|0:2,0:0:0:0:
257,60,76824,6,0,L|289:-13,1,59.375,2|0,1:2|1:2,0:0:0:0:
110,175,76978,2,0,L|86:229,1,59.375,0|0,1:2|1:2,0:0:0:0:
105,15,77131,6,0,L|47:24,1,47.5,2|0,1:2|0:2,0:0:0:0:
0,109,77747,1,2,0:0:0:0:
47,116,77900,1,2,0:0:0:0:
47,116,78208,1,2,0:0:0:0:
0,109,78362,6,0,L|7:163,1,47.5,2|2,0:0|0:0,0:0:0:0:
15,227,78670,1,2,0:0:0:0:
24,298,78824,1,2,0:0:0:0:
103,384,79285,1,2,0:0:0:0:
94,313,79439,1,2,0:0:0:0:
15,227,79593,5,2,0:0:0:0:
159,340,80054,1,2,0:0:0:0:
310,237,80516,1,2,0:0:0:0:
290,308,80824,5,2,0:0:0:0:
305,235,80977,1,2,0:0:0:0:
295,310,81131,1,2,0:0:0:0:
300,233,81285,1,2,0:0:0:0:
326,381,81747,1,2,0:0:0:0:
330,162,82054,6,0,P|333:115|307:76,1,95,2|2,0:0|0:0,0:0:0:0:
261,136,82516,1,2,0:0:0:0:
279,8,82824,1,2,0:0:0:0:
233,67,82977,1,2,0:0:0:0:
397,131,83285,6,0,L|404:80,1,47.5,2|2,0:0|0:0,0:0:0:0:
437,48,83593,1,2,0:0:0:0:
481,68,83747,1,2,0:0:0:0:
498,158,83900,5,2,0:0:0:0:
504,110,84054,1,2,0:0:0:0:
465,194,84208,5,2,0:0:0:0:
498,158,84362,1,2,0:0:0:0:
418,204,84516,6,0,P|389:242|390:288,1,95,2|2,0:0|0:0,0:0:0:0:
460,266,84977,1,2,0:0:0:0:
52,118,85439,1,2,0:0:0:0:
460,266,86208,5,2,0:0:0:0:
412,258,86362,1,2,0:0:0:0:
404,210,86516,1,2,0:0:0:0:
447,189,86670,1,2,0:0:0:0:
480,223,86824,1,2,0:0:0:0:
367,241,86977,5,2,0:2:0:0:
82,262,87439,1,2,0:2:0:0:
207,5,87900,1,2,0:2:0:0:
218,169,88208,5,2,0:2:0:0:
218,169,88670,1,2,0:2:0:0:
284,174,88824,1,2,0:2:0:0:
313,115,88977,1,2,0:2:0:0:
263,69,89131,1,2,0:2:0:0:
205,103,89285,1,2,0:2:0:0:
350,170,89439,5,2,0:2:0:0:
140,73,89900,1,2,0:2:0:0:
161,304,90362,1,2,0:2:0:0:
143,105,90670,5,2,0:2:0:0:
50,183,91131,1,2,0:2:0:0:
66,107,91285,1,2,0:2:0:0:
127,181,91439,1,2,0:2:0:0:
138,108,91593,1,2,0:2:0:0:
54,179,91747,1,2,0:2:0:0:
143,105,91900,5,2,0:2:0:0:
184,224,92516,1,2,0:2:0:0:
135,331,92670,1,2,0:2:0:0:
213,302,92824,1,2,0:2:0:0:
106,253,92977,1,2,0:2:0:0:
220,305,93131,6,0,P|266:325|316:312,1,104.500003189087,2|2,0:2|0:2,0:0:0:0:
276,156,93747,1,2,0:2:0:0:
317,312,94054,1,2,0:2:0:0:
260,87,94362,5,2,0:2:0:0:
253,84,95593,6,0,B|367:97|367:97|398:65,1,149.624995433808,6|0,1:2|0:2,0:0:0:0:
445,22,95900,1,10,0:2:0:0:
482,110,96054,1,0,0:2:0:0:
483,116,96131,1,0,0:2:0:0:
484,121,96208,2,0,L|430:128,1,49.8749984779358,2|0,1:2|1:2,0:0:0:0:
329,170,96362,2,0,L|275:163,1,49.8749984779358,0|0,1:2|0:2,0:0:0:0:
418,241,96516,2,0,L|472:234,3,49.8749984779358,10|0|0|0,0:2|1:2|1:2|1:2,0:0:0:0:
310,288,96824,6,0,B|261:258|213:284|213:284|168:311|114:286,1,199.499993911743,2|10,1:2|0:2,0:0:0:0:
158,194,97285,1,0,0:2:0:0:
165,187,97362,1,0,0:2:0:0:
172,180,97439,2,0,P|173:205|164:228,3,49.8749984779358,2|0|0|8,1:2|1:2|1:2|0:2,0:0:0:0:
240,119,97747,2,0,P|255:138|261:162,3,49.8749984779358,10|0|0|8,0:2|1:2|1:2|0:2,0:0:0:0:
145,79,98054,6,0,B|86:71|86:71|58:86|58:86|-13:77,1,149.624995433808,6|0,1:2|0:2,0:0:0:0:
47,18,98362,1,10,0:2:0:0:
98,139,98516,1,0,0:2:0:0:
96,145,98593,1,0,0:2:0:0:
94,151,98670,2,0,L|41:156,1,49.8749984779358,2|0,1:2|1:2,0:0:0:0:
49,271,98824,2,0,L|0:266,1,49.8749984779358,0|0,1:2|1:2,0:0:0:0:
106,384,98977,6,0,B|81:387|81:387|55:379,1,49.8749984779358,10|0,0:2|1:2,0:0:0:0:
55,262,99131,2,0,B|79:258|79:258|105:266,1,49.8749984779358,8|0,0:2|1:2,0:0:0:0:
208,321,99285,6,0,P|250:298|299:305,2,99.7499969558717,2|0|10,1:2|0:2|0:2,0:0:0:0:
366,356,99747,1,0,0:2:0:0:
385,327,99823,1,0,0:2:0:0:
389,293,99900,1,2,1:2:0:0:
376,261,99977,1,0,1:2:0:0:
349,239,100054,6,0,P|353:263|365:285,1,49.8749984779358,0|8,1:2|0:2,0:0:0:0:
453,309,100208,2,0,P|472:293|485:272,1,49.8749984779358,10|8,0:2|0:2,0:0:0:0:
462,184,100362,2,0,P|438:174|414:173,1,49.8749984779358,0|8,1:2|0:2,0:0:0:0:
266,197,100516,6,0,B|246:157|246:157|265:45,1,149.624995433808,6|0,1:2|0:2,0:0:0:0:
314,0,100824,1,10,0:2:0:0:
192,35,100977,1,0,0:2:0:0:
189,40,101054,1,0,0:2:0:0:
186,45,101131,2,0,L|122:52,1,49.8749984779358,2|0,1:2|1:2,0:0:0:0:
336,72,101285,2,0,L|400:79,1,49.8749984779358,0|0,1:2|0:2,0:0:0:0:
467,47,101439,2,0,B|460:12|460:12|452:-3,3,49.8749984779358,10|8|8|0,0:2|0:2|0:2|1:2,0:0:0:0:
454,138,101747,5,2,1:2:0:0:
372,159,101900,1,0,0:2:0:0:
371,163,101977,2,0,P|361:186|358:210,1,49.8749984779358,0|0,0:2|0:0,0:0:0:0:
284,214,102131,1,0,0:2:0:0:
285,217,102208,2,0,P|290:241|302:263,1,49.8749984779358,0|0,0:2|0:0,0:0:0:0:
424,251,102362,6,0,P|416:275|400:294,3,49.8749984779358,2|0|0|8,1:2|1:2|1:2|0:2,0:0:0:0:
450,354,102670,2,0,P|429:368|405:374,3,49.8749984779358,10|0|8|8,0:2|1:2|0:2|0:2,0:0:0:0:
293,377,102977,6,0,P|211:324|117:347,1,199.499993911743,6|10,1:2|0:2,0:0:0:0:
5,384,103439,1,0,0:2:0:0:
4,379,103516,1,0,0:2:0:0:
3,374,103593,6,0,L|14:313,1,49.8749984779358,2|0,1:2|1:2,0:0:0:0:
80,264,103747,2,0,L|88:214,1,49.8749984779358,0|0,1:2|1:2,0:0:0:0:
48,134,103900,6,0,B|23:129|23:129|-1:135,1,49.8749984779358,10|8,0:2|0:2,0:0:0:0:
85,259,104054,2,0,B|110:264|110:264|134:258,1,49.8749984779358,8|0,0:2|1:2,0:0:0:0:
168,142,104208,6,0,B|217:130|217:130|263:149,1,99.7499969558717,2|0,1:2|0:2,0:0:0:0:
322,219,104439,2,0,B|371:231|371:231|417:212,1,99.7499969558717,0|0,1:2|0:2,0:0:0:0:
497,170,104670,2,0,L|489:113,1,49.8749984779358,0|0,1:2|0:0,0:0:0:0:
346,34,104824,5,2,1:2:0:0:
321,65,104900,1,0,1:2:0:0:
320,104,104977,1,0,1:2:0:0:
346,135,105054,1,0,1:2:0:0:
385,142,105131,1,10,0:2:0:0:
420,122,105208,1,0,1:2:0:0:
433,84,105285,1,8,0:2:0:0:
419,47,105362,1,0,1:2:0:0:
385,27,105439,1,2,1:2:0:0:
512,384,106670,6,0,B|499:250|499:250|479:335,1,199.499993911743,6|10,1:2|0:2,0:0:0:0:
322,219,107131,1,0,0:2:0:0:
324,235,107208,1,0,0:2:0:0:
303,260,107285,1,2,1:2:0:0:
308,292,107362,1,0,1:2:0:0:
314,324,107439,2,0,L|322:377,1,54.6250010418892,0|0,1:2|0:2,0:0:0:0:
426,226,107593,1,10,0:2:0:0:
410,197,107670,1,0,1:2:0:0:
381,181,107747,2,0,L|372:127,1,54.6250010418892,0|0,1:2|1:2,0:0:0:0:
233,252,107900,6,0,P|205:251|181:239,3,54.6250010418892,2|0|0|0,1:2|1:2|1:0|1:0,0:0:0:0:
130,314,108208,2,0,P|109:296|96:272,3,54.6250010418892,10|0|0|0,0:2|1:2|1:0|1:0,0:0:0:0:
9,286,108516,1,10,0:2:0:0:
12,245,108592,1,0,1:2:0:0:
35,210,108669,1,0,1:2:0:0:
69,190,108746,1,8,0:2:0:0:
108,186,108824,6,0,P|82:176|55:174,1,54.6250010418892,10|0,0:2|1:2,0:0:0:0:
207,150,108977,2,0,P|229:135|246:114,1,54.6250010418892,0|8,1:2|0:2,0:0:0:0:
335,0,109131,6,0,P|325:48|349:91,2,99.7499969558717,6|0|10,1:2|0:2|0:2,0:0:0:0:
231,10,109593,1,0,0:2:0:0:
212,36,109670,1,0,0:2:0:0:
193,62,109747,2,0,P|166:58|139:63,3,54.6250010418892,2|0|0|0,1:2|1:2|1:2|0:2,0:0:0:0:
308,148,110054,2,0,P|295:172|293:199,3,54.6250010418892,10|0|0|0,0:2|1:2|1:2|0:2,0:0:0:0:
397,37,110362,5,2,1:2:0:0:
439,34,110438,1,0,1:2:0:0:
474,59,110515,1,8,0:2:0:0:
486,100,110592,1,0,1:2:0:0:
470,139,110670,6,0,P|469:167|479:192,1,54.6250010418892,10|0,0:2|1:2,0:0:0:0:
389,262,110824,2,0,P|404:284|427:298,1,54.6250010418892,0|8,1:2|0:2,0:0:0:0:
315,384,110977,1,2,1:2:0:0:
311,334,111053,1,8,0:2:0:0:
307,285,111130,1,8,0:2:0:0:
303,236,111207,1,0,1:2:0:0:
293,199,111285,5,2,1:2:0:0:
286,215,111361,1,0,1:2:0:0:
279,232,111438,1,0,1:2:0:0:
272,249,111515,1,0,1:2:0:0:
307,285,111593,6,0,B|261:308|218:282|218:282|165:250|111:275,1,199.499993911743,6|10,1:2|0:2,0:0:0:0:
0,376,112054,1,0,0:2:0:0:
31,384,112131,1,0,0:2:0:0:
63,380,112208,2,0,L|56:325,1,54.6250010418892,2|0,1:2|1:2,0:0:0:0:
6,264,112362,2,0,L|-4:178,1,54.6250010418892,0|0,1:2|0:2,0:0:0:0:
36,139,112516,2,0,L|29:84,1,54.6250010418892,10|0,0:2|1:2,0:0:0:0:
13,218,112670,1,0,1:2:0:0:
29,221,112747,1,0,1:2:0:0:
44,218,112824,6,0,P|69:206|86:185,3,54.6250010418892,2|0|0|0,1:2|1:2|0:2|0:2,0:0:0:0:
119,99,113131,2,0,P|114:71|121:45,3,54.6250010418892,10|0|0|0,0:2|1:2|1:2|0:2,0:0:0:0:
190,177,113439,1,2,1:2:0:0:
241,190,113515,1,0,1:2:0:0:
289,166,113592,1,0,1:2:0:0:
309,116,113669,1,8,0:2:0:0:
291,66,113747,5,10,0:2:0:0:
267,74,113824,1,0,1:2:0:0:
267,99,113901,1,0,0:2:0:0:
291,107,113978,1,0,0:2:0:0:
305,87,114054,6,0,B|387:78|387:78|412:98,1,99.7499969558717,6|0,1:2|0:2,0:0:0:0:
485,12,114285,2,0,B|518:87|518:87|507:117,1,99.7499969558717,2|0,0:2|0:2,0:0:0:0:
446,179,114516,1,0,0:2:0:0:
440,182,114593,1,0,0:2:0:0:
433,184,114670,2,0,P|458:196|485:198,1,54.6250010418892,2|0,1:2|0:2,0:0:0:0:
463,312,114824,2,0,P|489:306|512:292,1,54.6250010418892,0|0,1:2|0:2,0:0:0:0:
337,274,114977,2,0,P|331:300|317:323,3,54.6250010418892,10|0|0|0,0:2|1:2|1:2|1:2,0:0:0:0:
265,368,115285,6,0,P|303:390|365:369,1,99.7499969558717,2|0,1:2|0:2,0:0:0:0:
403,288,115516,2,0,P|398:244|345:206,1,99.7499969558717,2|0,0:2|0:0,0:0:0:0:
267,262,115747,1,0,0:2:0:0:
268,251,115824,1,8,0:2:0:0:
269,240,115900,1,2,1:2:0:0:
256,222,115977,1,0,1:2:0:0:
223,218,116054,1,8,0:2:0:0:
196,253,116131,1,0,1:2:0:0:
198,307,116208,1,2,1:2:0:0:
171,361,116285,1,0,1:2:0:0:
107,376,116362,1,0,1:2:0:0:
55,335,116439,1,0,1:2:0:0:
59,264,116516,5,6,1:2:0:0:
25,199,116824,6,0,P|-2:226|-13:264,1,78.3750023918153,0|0,0:2|0:0,0:0:0:0:
59,264,117131,2,0,L|73:139,1,106.875004076958,0|0,0:2|0:0,0:0:0:0:
12,94,117439,2,0,B|78:76|78:76|145:108,1,135.374996385098,0|0,0:2|0:0,0:0:0:0:
267,166,117747,5,2,0:2:0:0:
256,192,122670,12,2,125054,0:2:0:0:
256,128,125131,6,0,L|268:71,7,38,0|0|0|0|0|0|0|0,3:2|3:2|3:2|3:2|3:2|3:2|3:2|3:2,0:0:0:0:
289,199,125747,6,0,L|280:240,7,42.7499986953736,0|0|0|0|0|0|0|0,3:2|3:2|3:2|3:2|3:2|3:2|3:2|3:2,0:0:0:0:
347,129,126362,6,0,L|359:72,7,47.5,0|0|0|0|0|0|0|0,3:2|3:2|3:2|3:2|3:2|3:2|3:2|3:2,0:0:0:0:
389,226,126977,6,0,L|378:277,7,52.2500015945435,0|0|0|0|0|0|0|0,3:2|3:2|3:2|3:2|3:2|3:2|3:2|3:2,0:0:0:0:
465,135,127593,6,0,B|457:57|457:57|471:14,2,104.500003189087,6|0|10,1:2|0:2|0:2,0:0:0:0:
393,20,128054,1,0,0:2:0:0:
374,18,128131,1,0,0:2:0:0:
356,16,128208,1,2,0:2:0:0:
226,96,128362,2,0,P|221:49|245:9,1,95,0|10,1:2|0:2,0:0:0:0:
330,117,128593,1,0,0:2:0:0:
325,119,128670,2,0,L|202:100,1,95,0|2,0:2|1:2,0:0:0:0:
143,31,128977,5,0,1:2:0:0:
146,59,129054,1,0,1:2:0:0:
149,87,129131,1,10,0:2:0:0:
35,117,129285,1,0,1:2:0:0:
34,111,129362,1,0,1:2:0:0:
32,105,129439,6,0,P|46:86|67:75,1,47.5,10|0,0:2|0:2,0:0:0:0:
165,204,129593,1,0,1:2:0:0:
174,230,129670,1,0,1:2:0:0:
170,258,129747,2,0,P|162:280|145:297,1,47.5,10|0,0:2|0:2,0:0:0:0:
197,372,129900,1,0,0:2:0:0:
201,378,129977,1,0,0:2:0:0:
205,384,130054,6,0,L|299:371,2,95,6|0|10,1:2|0:2|0:2,0:0:0:0:
77,378,130516,2,0,P|60:361|50:339,2,47.5,0|0|2,0:2|0:2|0:2,0:0:0:0:
68,250,130823,1,0,1:2:0:0:
219,154,130977,1,10,0:2:0:0:
201,158,131054,1,0,0:2:0:0:
183,163,131131,2,0,L|170:257,1,95,0|2,0:2|1:2,0:0:0:0:
235,314,131439,5,0,0:2:0:0:
109,184,131593,1,10,0:2:0:0:
197,88,131747,1,0,1:2:0:0:
202,86,131823,1,8,0:2:0:0:
206,85,131900,2,0,P|229:84|252:91,3,47.5,2|0|8|0,1:2|1:2|0:2|0:2,0:0:0:0:
294,14,132208,1,2,1:2:0:0:
327,46,132284,1,0,1:2:0:0:
339,91,132361,1,0,1:2:0:0:
327,137,132438,1,0,0:2:0:0:
293,169,132516,6,0,L|308:278,2,95,6|0|10,1:2|0:2|0:2,0:0:0:0:
429,207,132977,1,0,0:2:0:0:
410,205,133054,1,0,0:2:0:0:
392,203,133131,1,2,0:2:0:0:
307,269,133285,1,0,1:2:0:0:
478,257,133439,1,10,0:2:0:0:
483,256,133516,1,0,0:2:0:0:
489,255,133593,2,0,P|508:212|496:167,1,95,0|2,0:2|1:2,0:0:0:0:
420,116,133900,5,0,0:2:0:0:
395,292,134054,1,10,0:2:0:0:
512,356,134208,1,0,0:2:0:0:
509,360,134285,1,0,0:2:0:0:
506,363,134362,2,0,P|482:364|460:357,1,47.5,2|8,0:2|0:2,0:0:0:0:
336,347,134516,1,0,1:2:0:0:
331,345,134593,1,8,0:2:0:0:
327,344,134670,2,0,P|306:357|293:375,1,47.5,10|0,0:2|0:2,0:0:0:0:
201,383,134824,2,0,P|201:359|210:338,1,47.5,0|8,0:2|0:2,0:0:0:0:
276,223,134977,6,0,P|280:176|259:134,1,95,6|0,1:2|0:2,0:0:0:0:
65,81,135285,1,10,0:2:0:0:
169,79,135439,2,0,P|191:68|214:68,2,47.5,0|0|2,0:2|0:0|0:2,0:0:0:0:
119,171,135747,1,0,1:2:0:0:
167,70,135900,1,10,0:2:0:0:
165,61,135977,1,0,1:2:0:0:
163,52,136054,2,0,P|168:27|181:9,1,47.5,0|0,1:2|1:2,0:0:0:0:
301,64,136208,5,2,1:2:0:0:
400,98,136362,1,0,0:2:0:0:
475,24,136516,1,10,0:2:0:0:
401,104,136670,1,0,0:2:0:0:
402,110,136747,1,8,0:2:0:0:
403,115,136824,2,0,P|407:139|421:158,1,47.5,2|0,1:2|0:0,0:0:0:0:
512,265,136977,5,8,0:2:0:0:
487,280,137054,1,0,1:2:0:0:
458,282,137131,2,0,P|434:276|415:262,1,47.5,2|0,1:2|1:2,0:0:0:0:
480,106,137285,1,0,1:2:0:0:
340,282,137439,6,0,B|359:199|283:160|224:175|199:226|199:226|173:275|116:296|38:256|55:172,1,455.999986083985,14|0,0:2|0:0,0:0:0:0:
