osu file format v14

[General]
AudioFilename: audio.mp3
AudioLeadIn: 0
PreviewTime: 61900
Countdown: 0
SampleSet: Soft
StackLeniency: 0.7
Mode: 0
LetterboxInBreaks: 0
EpilepsyWarning: 1
WidescreenStoryboard: 1

[Editor]
Bookmarks: 65285,73131
DistanceSpacing: 1.3
BeatDivisor: 4
GridSize: 16
TimelineZoom: 1.9

[Metadata]
Title:Gardens Under A Spring Sky
TitleUnicode:Gardens Under A Spring Sky
Artist:Fractal Dreamers
ArtistUnicode:Fractal Dreamers
Creator:_Epreus
Version:Advanced
Source:
Tags:instrumental electronic neoskylove osu! -tatsuo thiev Kirylln august depzdai sersh4nt monolithia featured artist fa helblinde artcore skymuted affirmation af
BeatmapID:2018112
BeatmapSetID:962862

[Difficulty]
HPDrainRate:4
CircleSize:4
OverallDifficulty:4.5
ApproachRate:6
SliderMultiplier:1
SliderTickRate:1

[Events]
//Background and Video events
0,0,"ablobwobBG.jpg",0,0
//Break Periods
2,30562,32235
2,52716,56389
2,77331,85927
2,117747,126543
//Storyboard Layer 0 (Background)
//Storyboard Layer 1 (Fail)
//Storyboard Layer 2 (Pass)
//Storyboard Layer 3 (Foreground)
//Storyboard Layer 4 (Overlay)
//Storyboard Sound Samples

[TimingPoints]
824,307.692307692308,4,2,0,35,1,0
10670,-117.647058823529,4,2,0,35,0,0
20516,-90.9090909090909,4,2,2,75,0,1
20824,-90.9090909090909,4,2,2,75,0,1
30362,-100,4,2,2,35,0,0
32824,-100,4,2,2,35,0,0
33285,-111.111111111111,4,2,0,45,0,0
42670,-90.9090909090909,4,2,2,65,0,0
57439,-100,4,2,2,55,0,0
62362,-86.9565217391304,4,2,2,80,0,1
77131,-90.9090909090909,4,2,2,80,0,0
86977,-111.111111111111,4,2,0,45,0,0
95593,-90.9090909090909,4,2,2,75,0,0
106670,-90.9090909090909,4,2,2,75,0,1
116824,-100,4,2,2,35,0,0
117747,-100,4,2,0,35,0,0
125131,-100,4,2,0,20,0,0
125439,-100,4,2,0,25,0,0
125747,-100,4,2,0,30,0,0
126054,-100,4,2,0,35,0,0
126362,-100,4,2,0,40,0,0
126670,-100,4,2,0,45,0,0
126977,-100,4,2,0,55,0,0
127285,-100,4,2,0,65,0,0
127593,-100,4,2,2,75,0,0
127747,-100,4,2,2,75,0,0

[Colours]
Combo1 : 192,192,192
Combo2 : 128,255,255
Combo3 : 98,176,255

[HitObjects]
58,93,10670,6,0,P|94:78|141:85,1,85.0000016212464,6|2,0:2|0:2,0:0:0:0:
175,125,11131,1,0,0:2:0:0:
175,125,11285,2,0,P|211:140|258:133,1,85.0000016212464,2|2,0:2|0:2,0:0:0:0:
337,59,11900,6,0,L|434:69,1,85.0000016212464,2|2,0:2|0:2,0:0:0:0:
476,74,12362,1,0,0:2:0:0:
476,74,12516,2,0,P|497:101|506:153,1,85.0000016212464,2|2,0:2|0:2,0:0:0:0:
403,192,13131,6,0,P|375:227|362:283,1,85.0000016212464,2|2,0:2|0:2,0:0:0:0:
365,320,13593,1,0,0:2:0:0:
365,320,13747,2,0,L|264:308,1,85.0000016212464,2|2,0:2|0:2,0:0:0:0:
173,339,14362,6,0,L|76:349,1,85.0000016212464,2|2,0:2|0:2,0:0:0:0:
22,259,14977,2,0,P|9:286|10:302,2,42.5000008106232,2|0|2,0:2|0:2|0:2,0:0:0:0:
116,201,15593,6,0,P|122:162|116:100,1,85.0000016212464,2|2,0:2|0:2,0:0:0:0:
43,36,16208,2,0,L|134:22,1,85.0000016212464,2|2,0:2|0:2,0:0:0:0:
208,98,16824,6,0,L|299:111,1,85.0000016212464,2|2,0:2|0:2,0:0:0:0:
394,68,17439,2,0,P|399:96|399:159,1,85.0000016212464,2|2,0:2|0:2,0:0:0:0:
322,232,18054,6,0,P|367:203|473:246,2,170.000003242493,2|2|2,0:2|0:2|0:2,0:0:0:0:
107,349,20516,6,0,P|116:317|110:279,1,55.0000016784668,6|0,1:2|0:2,0:0:0:0:
74,235,20824,2,0,L|87:124,1,110.000003356934,10|2,0:2|2:2,0:0:0:0:
97,55,21285,2,0,P|66:35|44:35,2,55.0000016784668,0|10|0,1:2|0:2|0:2,0:0:0:0:
203,151,21900,2,0,P|249:156|302:122,1,110.000003356934,0|0,0:2|0:2,0:0:0:0:
344,65,22362,1,2,1:2:0:0:
486,49,22670,1,8,0:2:0:0:
495,191,22977,6,0,P|473:246|468:301,1,110.000003356934,6|10,1:2|0:2,0:0:0:0:
492,363,23439,1,0,0:2:0:0:
351,334,23747,2,0,L|295:323,1,55.0000016784668,0|10,1:2|0:2,0:0:0:0:
226,310,24054,1,0,0:2:0:0:
226,310,24208,2,0,P|177:261|114:251,1,110.000003356934,2|10,1:2|0:2,0:0:0:0:
37,351,24824,2,0,L|25:242,1,110.000003356934,2|2,1:2|1:2,0:0:0:0:
10,99,25439,5,6,1:2:0:0:
130,21,25747,1,10,0:2:0:0:
130,21,25900,2,0,P|189:22|223:57,1,110.000003356934,0|0,0:2|1:2,0:0:0:0:
224,128,26362,2,0,P|283:127|317:92,1,110.000003356934,10|2,0:2|1:2,0:0:0:0:
432,7,26977,2,0,P|447:30|453:68,1,55.0000016784668,10|0,0:2|0:2,0:0:0:0:
426,123,27285,2,0,P|416:194|418:239,1,110.000003356934,2|10,1:2|0:2,0:0:0:0:
490,355,27900,5,6,1:2:0:0:
256,192,28208,12,6,30362,0:2:0:0:
63,79,33285,6,0,B|138:59|124:116|190:99,1,134.999995880127,2|2,0:2|0:2,0:0:0:0:
243,72,33900,2,0,P|289:56|343:68,1,89.9999972534181,2|2,0:2|0:2,0:0:0:0:
486,140,34670,2,0,L|474:239,1,89.9999972534181,2|2,0:2|0:2,0:0:0:0:
461,345,35285,5,2,0:2:0:0:
288,379,35747,2,0,P|243:381|203:351,1,89.9999972534181,2|2,0:2|0:2,0:0:0:0:
234,242,36362,2,0,P|241:186|216:102,1,134.999995880127,2|2,0:2|0:2,0:0:0:0:
132,34,37131,2,0,L|224:25,1,89.9999972534181,2|2,0:2|0:2,0:0:0:0:
314,97,37747,5,2,0:2:0:0:
477,34,38208,2,0,P|470:101|472:173,1,134.999995880127,2|2,0:2|0:2,0:0:0:0:
468,227,38824,2,0,P|418:221|365:289,1,134.999995880127,2|2,0:2|0:2,0:0:0:0:
417,384,39593,2,0,L|506:373,2,89.9999972534181,2|2|2,0:2|0:2|0:2,0:0:0:0:
256,192,40362,12,2,42362,0:2:0:0:
74,115,42670,6,0,P|72:155|81:181,2,55.0000016784668,6|0|10,1:2|0:2|0:2,0:0:0:0:
117,58,43131,2,0,L|225:43,1,110.000003356934,0|0,0:2|1:2,0:0:0:0:
295,168,43747,2,0,L|403:183,1,110.000003356934,0|0,0:2|0:2,0:0:0:0:
470,156,44208,1,10,0:2:0:0:
502,219,44361,1,0,0:2:0:0:
438,253,44516,2,0,P|423:305|424:363,1,110.000003356934,2|10,0:2|0:2,0:0:0:0:
295,297,45131,5,6,1:2:0:0:
169,365,45439,1,10,0:2:0:0:
169,365,45593,2,0,P|109:361|70:274,1,165.000005035401,0|10,0:2|0:2,0:0:0:0:
181,183,46362,2,0,P|188:142|150:59,1,110.000003356934,2|10,1:2|0:2,0:0:0:0:
129,16,46824,1,0,0:2:0:0:
129,16,46977,2,0,L|246:7,1,110.000003356934,2|2,1:2|1:2,0:0:0:0:
331,117,47593,6,0,L|390:128,1,55.0000016784668,6|0,1:2|0:2,0:0:0:0:
458,143,47900,1,10,0:2:0:0:
458,143,48054,2,0,P|481:181|481:247,1,110.000003356934,0|0,0:2|1:2,0:0:0:0:
342,287,48670,2,0,B|257:300|276:225|173:252,1,165.000005035401,0|10,0:2|0:2,0:0:0:0:
123,281,49285,1,0,0:2:0:0:
123,281,49439,2,0,P|55:276|13:248,1,110.000003356934,10|10,0:2|0:2,0:0:0:0:
36,112,50054,5,6,1:2:0:0:
148,23,50362,1,10,0:2:0:0:
148,23,50516,2,0,P|216:28|258:56,1,110.000003356934,0|0,0:2|1:2,0:0:0:0:
275,116,50977,1,10,0:2:0:0:
336,245,51285,2,0,P|368:242|391:224,1,55.0000016784668,2|0,1:2|1:2,0:0:0:0:
394,157,51593,2,0,P|448:134|501:142,2,110.000003356934,10|2|2,0:2|1:2|1:2,0:0:0:0:
465,280,52516,5,6,1:2:0:0:
97,92,57439,6,0,P|111:126|118:192,1,100,4|8,1:2|0:2,0:0:0:0:
53,301,58054,2,0,P|26:291|2:287,2,50,8|0|8,0:2|1:2|0:2,0:0:0:0:
111,330,58516,2,0,P|148:342|207:327,1,100,0|0,0:2|0:2,0:0:0:0:
252,281,58977,2,0,L|360:298,2,100,8|0|8,0:2|1:2|0:2,0:0:0:0:
207,158,59900,5,0,1:2:0:0:
256,192,60054,12,8,62054,0:2:0:0:
53,134,62362,6,0,P|89:125|122:129,1,57.5000010967255,6|0,1:2|1:2,0:0:0:0:
166,174,62670,1,10,0:2:0:0:
166,174,62824,2,0,L|280:160,1,115.000002193451,0|0,0:2|1:2,0:0:0:0:
339,114,63285,1,10,0:2:0:0:
404,150,63439,1,0,0:2:0:0:
468,111,63593,6,0,P|487:149|486:239,1,115.000002193451,2|10,1:2|0:2,0:0:0:0:
475,293,64054,1,0,0:2:0:0:
475,293,64208,2,0,P|442:313|421:320,1,57.5000010967255,2|0,1:2|1:2,0:0:0:0:
350,303,64516,1,10,0:2:0:0:
208,352,64824,6,0,P|188:302|192:233,1,115.000002193451,6|10,1:2|0:2,0:0:0:0:
241,187,65285,1,8,0:2:0:0:
152,66,65593,2,0,L|91:52,2,57.5000010967255,0|10|0,1:2|0:2|1:2,0:0:0:0:
224,82,66054,2,0,B|266:92|266:92|345:70,1,115.000002193451,2|10,1:2|0:2,0:0:0:0:
406,49,66516,1,8,0:2:0:0:
465,94,66670,2,0,P|488:145|479:208,1,115.000002193451,2|2,1:2|1:2,0:0:0:0:
346,266,67285,6,0,P|300:255|220:286,1,115.000002193451,6|10,1:2|0:2,0:0:0:0:
190,333,67747,2,0,P|144:343|64:313,1,115.000002193451,0|0,0:2|1:2,0:0:0:0:
49,256,68208,1,10,0:2:0:0:
145,141,68516,2,0,P|155:110|156:85,1,57.5000010967255,2|0,1:2|1:2,0:0:0:0:
113,23,68824,2,0,P|67:12|-13:43,2,115.000002193451,10|2|10,0:2|1:2|0:2,0:0:0:0:
241,100,69747,5,6,1:2:0:0:
381,50,70054,1,10,0:2:0:0:
381,50,70208,2,0,P|370:107|379:167,1,115.000002193451,0|0,0:2|1:2,0:0:0:0:
479,273,70824,2,0,P|417:237|327:305,1,172.500003290176,0|10,1:2|0:2,0:0:0:0:
328,355,71439,1,0,1:2:0:0:
328,355,71593,2,0,L|212:341,1,115.000002193451,2|2,1:2|1:2,0:0:0:0:
109,234,72208,6,0,P|98:273|95:298,2,57.5000010967255,6|0|10,1:2|0:2|0:2,0:0:0:0:
165,184,72670,2,0,L|293:167,1,115.000002193451,0|0,0:2|1:2,0:0:0:0:
406,246,73285,2,0,P|419:197|401:75,1,172.500003290176,0|10,0:2|0:2,0:0:0:0:
343,31,73900,1,0,0:2:0:0:
272,56,74054,2,0,L|212:46,2,57.5000010967255,2|0|10,0:2|1:2|0:2,0:0:0:0:
251,204,74670,6,0,P|205:222|182:221,1,57.5000010967255,6|0,1:2|0:2,0:0:0:0:
167,153,74977,1,10,0:2:0:0:
136,84,75131,2,0,P|87:67|16:81,1,115.000002193451,0|0,0:2|1:2,0:0:0:0:
6,225,75747,2,0,P|3:288|91:352,1,172.500003290176,0|10,1:2|0:2,0:0:0:0:
144,309,76362,1,0,1:2:0:0:
203,354,76516,2,0,L|331:336,2,115.000002193451,2|2|2,1:2|1:2|1:2,0:0:0:0:
42,212,86977,6,0,L|24:74,2,134.999995880127,2|2|2,0:2|0:2|0:2,0:0:0:0:
42,329,88208,2,0,P|96:319|158:213,1,179.999994506836,2|2,0:2|0:2,0:0:0:0:
308,39,89439,2,0,L|326:183,2,134.999995880127,2|2|2,0:2|0:2|0:2,0:0:0:0:
423,18,90670,2,0,P|471:42|470:160,1,179.999994506836,2|2,0:2|0:2,0:0:0:0:
322,334,91900,6,0,L|212:315,1,89.9999972534181,2|2,0:2|0:2,0:0:0:0:
117,298,92516,2,0,P|107:325|106:343,2,44.999998626709,2|2|2,0:2|0:2|0:2,0:0:0:0:
196,211,93131,2,0,P|187:163|168:117,1,89.9999972534181,2|2,0:2|0:2,0:0:0:0:
95,35,93747,2,0,P|78:76|71:121,2,89.9999972534181,2|2|0,0:2|0:2|0:0,0:0:0:0:
206,203,95593,6,0,P|260:189|321:216,1,110.000003356934,6|10,1:2|0:2,0:0:0:0:
422,294,96208,2,0,L|432:236,1,55.0000016784668,2|0,1:2|1:2,0:0:0:0:
467,177,96516,2,0,L|457:119,1,55.0000016784668,10|0,0:2|1:2,0:0:0:0:
412,66,96824,6,0,P|372:45|294:54,1,110.000003356934,2|10,1:2|0:2,0:0:0:0:
258,98,97285,1,0,0:2:0:0:
258,98,97439,2,0,P|221:116|150:109,1,110.000003356934,2|10,1:2|0:2,0:0:0:0:
14,77,98054,6,0,L|26:200,1,110.000003356934,6|10,1:2|0:2,0:0:0:0:
87,315,98670,1,2,1:2:0:0:
149,279,98824,1,0,1:2:0:0:
210,314,98977,2,0,P|244:319|269:313,1,55.0000016784668,10|8,0:2|0:2,0:0:0:0:
325,278,99285,6,0,P|357:272|421:315,1,110.000003356934,2|10,1:2|0:2,0:0:0:0:
463,372,99747,1,0,0:2:0:0:
463,372,99900,2,0,P|470:306|491:263,1,110.000003356934,2|10,1:2|0:2,0:0:0:0:
471,121,100516,6,0,P|463:55|442:12,1,110.000003356934,6|10,1:2|0:2,0:0:0:0:
303,37,101131,2,0,P|269:32|242:44,1,55.0000016784668,2|0,1:2|1:2,0:0:0:0:
224,105,101439,2,0,P|190:110|163:98,1,55.0000016784668,10|8,0:2|0:2,0:0:0:0:
119,52,101747,6,0,L|53:64,1,55.0000016784668,2|0,1:2|0:2,0:0:0:0:
43,275,102362,2,0,P|77:290|150:271,1,110.000003356934,2|10,1:2|0:2,0:0:0:0:
258,186,102977,6,0,L|386:212,1,110.000003356934,6|10,1:2|0:2,0:0:0:0:
416,258,103439,1,0,0:2:0:0:
481,229,103593,2,0,P|498:196|494:170,2,55.0000016784668,2|0|10,1:2|1:2|0:2,0:0:0:0:
397,345,104208,6,0,P|429:346|486:364,2,82.5000025177003,2|0|0,1:2|1:0|1:0,0:0:0:0:
349,291,104824,2,0,P|308:303|229:282,1,110.000003356934,2|2,1:2|1:2,0:0:0:0:
206,228,105285,2,0,L|214:163,1,55.0000016784668,0|0,1:0|1:0,0:0:0:0:
244,42,106670,6,0,P|228:87|231:157,1,110.000003356934,6|10,1:2|0:2,0:0:0:0:
346,230,107285,2,0,P|379:227|403:210,1,55.0000016784668,2|0,1:2|1:2,0:0:0:0:
438,156,107593,2,0,P|471:159|495:176,1,55.0000016784668,10|0,0:2|1:2,0:0:0:0:
507,239,107900,6,0,L|493:362,1,110.000003356934,2|10,1:2|0:2,0:0:0:0:
424,364,108362,1,0,1:2:0:0:
367,319,108516,2,0,P|323:305|254:310,1,110.000003356934,10|10,0:2|0:2,0:0:0:0:
126,361,109131,6,0,P|109:319|112:296,1,55.0000016784668,6|0,1:2|0:2,0:0:0:0:
159,258,109439,2,0,P|173:205|165:137,2,110.000003356934,10|2|10,0:2|1:2|0:2,0:0:0:0:
15,261,110362,6,0,P|3:224|10:197,1,55.0000016784668,2|8,1:2|0:2,0:0:0:0:
53,155,110670,2,0,L|37:44,1,110.000003356934,10|2,0:2|1:2,0:0:0:0:
103,19,111131,1,8,0:2:0:0:
161,60,111285,1,2,1:2:0:0:
251,170,111593,6,0,P|301:185|361:165,1,110.000003356934,6|10,1:2|0:2,0:0:0:0:
402,115,112054,1,0,0:2:0:0:
462,153,112208,2,0,P|462:197|477:266,1,110.000003356934,2|10,1:2|0:2,0:0:0:0:
346,324,112824,6,0,P|309:327|286:321,1,55.0000016784668,2|0,1:2|0:2,0:0:0:0:
251,263,113131,2,0,P|214:260|191:266,1,55.0000016784668,10|0,0:2|1:2,0:0:0:0:
130,292,113439,1,2,1:2:0:0:
130,292,113593,2,0,L|115:182,1,110.000003356934,0|0,1:2|0:2,0:0:0:0:
105,112,114054,6,0,P|49:96|4:118,2,110.000003356934,6|10|2,1:2|0:2|1:2,0:0:0:0:
226,188,114977,2,0,P|262:193|288:185,1,55.0000016784668,10|0,0:2|1:2,0:0:0:0:
338,147,115285,2,0,L|328:29,2,110.000003356934,2|10|2,1:2|0:2|1:2,0:0:0:0:
348,289,116208,1,2,1:2:0:0:
475,354,116516,5,6,1:2:0:0:
108,340,127593,6,0,P|117:316|113:286,1,50,6|0,1:2|0:2,0:0:0:0:
73,241,127900,1,10,0:2:0:0:
73,241,128054,2,0,P|56:197|64:143,1,100,0|0,0:2|1:2,0:0:0:0:
180,88,128670,2,0,B|262:74|240:137|328:126,1,150,0|10,0:2|0:2,0:0:0:0:
373,91,129285,1,0,1:2:0:0:
413,142,129439,2,0,L|511:132,1,100,10|10,0:2|0:2,0:0:0:0:
447,245,130054,5,6,1:2:0:0:
508,359,130362,1,10,0:2:0:0:
508,359,130516,2,0,L|347:344,1,150,0|10,0:2|0:2,0:0:0:0:
229,358,131285,2,0,P|175:359|132:334,1,100,2|10,1:2|0:2,0:0:0:0:
111,276,131747,1,0,1:2:0:0:
135,216,131900,2,0,L|128:160,2,50,2|8|2,1:2|0:2|1:2,0:0:0:0:
27,290,132516,6,0,L|13:186,1,100,6|10,1:2|0:2,0:0:0:0:
23,126,132977,1,0,0:2:0:0:
120,40,133285,2,0,P|162:29|179:33,1,50,0|10,1:2|0:2,0:0:0:0:
214,75,133593,2,0,P|272:110|352:93,1,150,0|10,0:2|0:2,0:0:0:0:
406,63,134208,1,0,0:2:0:0:
458,101,134362,2,0,L|472:202,1,100,2|10,0:2|0:2,0:0:0:0:
389,301,134977,6,0,P|354:315|288:306,1,100,6|10,1:2|0:2,0:0:0:0:
216,202,135593,2,0,P|181:188|115:197,1,100,2|10,0:2|0:2,0:0:0:0:
61,221,136054,1,0,1:2:0:0:
61,221,136208,2,0,L|47:119,1,100,2|10,1:2|0:2,0:0:0:0:
100,83,136670,1,0,0:2:0:0:
161,103,136824,2,0,P|215:88|253:49,2,100,2|2|14,1:2|1:2|0:2,0:0:0:0:
