osu file format v14

[General]
AudioFilename: audio.mp3
AudioLeadIn: 0
PreviewTime: 61900
Countdown: 0
SampleSet: Soft
StackLeniency: 0.3
Mode: 0
LetterboxInBreaks: 0
EpilepsyWarning: 1
WidescreenStoryboard: 1

[Editor]
Bookmarks: 69747,72208,95593,137439
DistanceSpacing: 1
BeatDivisor: 4
GridSize: 32
TimelineZoom: 2.3

[Metadata]
Title:Gardens Under A Spring Sky
TitleUnicode:Gardens Under A Spring Sky
Artist:Fractal Dreamers
ArtistUnicode:Fractal Dreamers
Creator:_Epreus
Version:AF's Another
Source:
Tags:instrumental electronic neoskylove osu! -tatsuo thiev Kirylln august depzdai sersh4nt monolithia featured artist fa helblinde artcore skymuted affirmation af
BeatmapID:2023743
BeatmapSetID:962862

[Difficulty]
HPDrainRate:5
CircleSize:4
OverallDifficulty:8.3
ApproachRate:9.3
SliderMultiplier:2
SliderTickRate:1

[Events]
//Background and Video events
0,0,"ablobwobBG.jpg",0,0
//Break Periods
2,33285,42054
2,52716,55654
2,77484,86423
2,117747,127039
//Storyboard Layer 0 (Background)
//Storyboard Layer 1 (Fail)
//Storyboard Layer 2 (Pass)
//Storyboard Layer 3 (Foreground)
//Storyboard Layer 4 (Overlay)
//Storyboard Sound Samples

[TimingPoints]
824,307.692307692308,4,2,0,35,1,0
10670,-250,4,2,0,35,0,0
19593,-500,4,2,0,35,0,0
20516,-125,4,2,2,75,0,0
30362,-125,4,2,2,35,0,0
32747,-125,4,2,0,35,0,0
32824,-125,4,2,2,35,0,0
33285,-125,4,2,0,45,0,0
42670,-117.647058823529,4,2,2,65,0,0
57439,-117.647058823529,4,2,2,55,0,0
62362,-111.111111111111,4,2,2,80,0,0
86977,-166.666666666667,4,2,0,45,0,0
95593,-111.111111111111,4,2,2,75,0,0
116824,-111.111111111111,4,2,2,35,0,0
117747,-111.111111111111,4,2,0,35,0,0
125131,-111.111111111111,4,2,0,20,0,0
125439,-111.111111111111,4,2,0,25,0,0
125747,-111.111111111111,4,2,0,30,0,0
126054,-111.111111111111,4,2,0,35,0,0
126362,-111.111111111111,4,2,0,40,0,0
126670,-111.111111111111,4,2,0,45,0,0
126977,-111.111111111111,4,2,0,55,0,0
127285,-111.111111111111,4,2,0,65,0,0
127593,-111.111111111111,4,2,2,75,0,0

[Colours]
Combo1 : 192,192,192
Combo2 : 128,255,255
Combo3 : 98,176,255

[HitObjects]
115,321,10670,6,0,L|104:241,3,80,6|2|2|2,0:2|0:2|0:2|0:2,0:0:0:0:
249,255,11900,2,0,L|259:175,2,80,2|2|2,0:2|0:2|0:2,0:0:0:0:
192,320,12670,2,0,L|197:359,1,40,0|2,0:2|0:2,0:0:0:0:
355,341,13131,6,0,L|434:333,3,80,2|2|2|2,0:2|0:2|0:2|0:2,0:0:0:0:
426,187,14362,2,0,L|505:194,2,80,2|2|2,0:2|0:2|0:2,0:0:0:0:
338,179,15131,2,0,P|336:198|336:218,1,40,0|2,0:2|0:2,0:0:0:0:
358,44,15593,6,0,L|278:51,3,80,2|2|2|2,0:2|0:2|0:2|0:2,0:0:0:0:
83,100,16824,2,0,L|162:107,3,80,2|2|2|2,0:2|0:2|0:2|0:2,0:0:0:0:
263,244,17977,1,0,0:2:0:0:
263,244,18054,6,0,L|255:164,3,80,2|2|2|2,0:2|0:2|0:2|0:2,0:0:0:0:
342,89,19285,5,2,0:2:0:0:
342,89,19593,2,0,L|337:49,2,40,0|0|0,0:2|0:2|0:2,0:0:0:0:
343,103,20516,6,0,L|422:95,1,80,6|0,1:2|0:2,0:0:0:0:
261,190,20824,1,10,0:2:0:0:
204,132,20977,2,0,P|128:116|68:164,1,160,0|0,0:2|1:2,0:0:0:0:
251,320,21439,1,10,0:2:0:0:
360,262,21593,6,0,L|342:102,1,160,0|0,0:2|0:2,0:0:0:0:
342,102,21977,1,0,0:2:0:0:
342,102,22054,1,10,0:2:0:0:
469,225,22208,1,0,0:2:0:0:
290,325,22362,2,0,L|250:319,3,40,2|0|0|8,1:2|1:2|1:2|0:2,0:0:0:0:
181,261,22670,2,0,L|141:266,3,40,8|8|0|8,0:2|0:2|1:2|0:2,0:0:0:0:
67,302,22977,6,0,P|60:341|65:380,1,80,6|0,1:2|0:2,0:0:0:0:
11,206,23285,1,10,0:2:0:0:
77,160,23439,2,0,P|89:81|73:3,1,160,0|0,0:2|1:2,0:0:0:0:
256,88,23900,1,10,0:2:0:0:
438,3,24054,6,0,P|422:81|435:160,1,160,0|0,0:2|0:2,0:0:0:0:
386,356,24516,2,0,P|388:317|383:277,1,80,10|0,0:2|0:2,0:0:0:0:
330,215,24747,1,8,0:2:0:0:
330,215,24824,2,0,L|290:220,3,40,2|0|8|0,1:2|1:2|0:2|1:2,0:0:0:0:
201,264,25131,2,0,L|161:258,3,40,2|0|0|0,1:2|1:2|1:2|1:2,0:0:0:0:
76,235,25439,6,0,P|68:273|74:313,1,80,6|0,1:2|0:2,0:0:0:0:
201,156,25747,1,10,0:2:0:0:
141,103,25900,2,0,B|82:112|82:112|58:148|58:148|1:156,1,160,0|0,0:2|1:2,0:0:0:0:
200,257,26362,1,10,0:2:0:0:
267,214,26516,6,0,L|346:207,1,80,0|2,0:2|1:2,0:0:0:0:
502,193,26824,1,0,0:2:0:0:
428,161,26977,2,0,P|426:200|433:240,1,80,10|0,0:2|0:2,0:0:0:0:
458,317,27208,1,0,0:2:0:0:
458,317,27285,2,0,L|418:319,3,40,2|0|0|8,1:2|1:2|1:2|0:2,0:0:0:0:
345,322,27593,2,0,L|305:324,3,40,10|8|0|8,0:2|0:2|1:2|0:2,0:0:0:0:
223,355,27900,5,6,1:2:0:0:
219,325,27976,1,0,0:2:0:0:
215,295,28053,1,8,0:2:0:0:
211,265,28130,1,0,0:2:0:0:
207,235,28207,1,2,1:2:0:0:
139,147,28362,1,0,1:2:0:0:
32,300,28516,5,2,1:2:0:0:
36,270,28592,1,0,0:2:0:0:
40,240,28669,1,8,0:2:0:0:
44,210,28746,1,0,0:2:0:0:
48,180,28823,1,2,1:2:0:0:
214,102,28977,1,0,1:2:0:0:
16,33,29131,5,2,1:2:0:0:
45,28,29207,1,0,1:2:0:0:
75,24,29284,1,0,1:2:0:0:
105,20,29361,1,0,1:2:0:0:
134,16,29439,2,0,L|173:17,3,40,2|0|0|0,1:2|1:2|1:2|1:2,0:0:0:0:
214,102,29747,2,0,L|253:103,3,40,2|0|0|0,1:2|1:2|1:2|1:2,0:0:0:0:
326,22,30054,1,2,1:2:0:0:
351,38,30130,1,0,1:2:0:0:
367,62,30207,1,0,1:2:0:0:
373,91,30284,1,0,1:2:0:0:
367,120,30361,5,6,0:2:0:0:
256,192,30439,12,0,32824,0:2:0:0:
371,120,42670,6,0,P|413:115|455:108,1,85.0000016212464,6|0,1:2|0:2,0:0:0:0:
318,210,42977,1,10,0:2:0:0:
256,151,43131,2,0,P|173:153|125:219,1,170.000003242493,0|0,0:2|1:2,0:0:0:0:
245,349,43593,1,10,0:2:0:0:
425,281,43747,6,0,P|427:238|432:196,1,85.0000016212464,0|2,0:2|1:2,0:0:0:0:
497,369,44054,1,0,0:2:0:0:
329,356,44208,2,0,P|286:350|244:348,1,85.0000016212464,10|0,0:2|0:2,0:0:0:0:
54,364,44516,1,2,0:2:0:0:
52,342,44592,1,8,0:2:0:0:
50,321,44669,1,0,1:2:0:0:
48,300,44746,1,8,0:2:0:0:
46,279,44823,1,10,0:2:0:0:
44,258,44900,1,0,0:2:0:0:
42,237,44977,1,0,0:2:0:0:
40,215,45054,1,0,0:2:0:0:
38,194,45131,6,0,L|42:109,1,85.0000016212464,6|0,1:2|0:2,0:0:0:0:
242,15,45439,1,10,0:2:0:0:
283,89,45593,2,0,P|202:110|129:70,1,170.000003242493,0|0,0:2|1:2,0:0:0:0:
404,17,46054,1,10,0:2:0:0:
389,222,46208,6,0,L|381:306,1,85.0000016212464,0|2,0:2|1:2,0:0:0:0:
219,375,46516,1,0,0:2:0:0:
173,302,46670,2,0,P|215:294|257:299,1,85.0000016212464,10|0,0:2|0:2,0:0:0:0:
497,363,46977,1,2,1:2:0:0:
495,341,47053,1,0,0:2:0:0:
493,320,47130,1,8,0:2:0:0:
491,299,47207,1,0,0:2:0:0:
489,278,47284,1,2,1:2:0:0:
487,257,47361,1,0,1:2:0:0:
485,235,47438,1,0,1:2:0:0:
484,214,47515,1,0,1:2:0:0:
482,193,47593,6,0,L|483:108,1,85.0000016212464,6|0,1:2|0:2,0:0:0:0:
339,241,47900,1,10,0:2:0:0:
335,71,48054,2,0,L|338:240,1,170.000003242493,0|0,0:2|1:2,0:0:0:0:
134,306,48516,2,0,L|136:263,1,42.5000008106232,10|0,0:2|0:2,0:0:0:0:
203,137,48670,6,0,B|253:173|253:173|227:278,1,170.000003242493,0|0,0:2|0:2,0:0:0:0:
352,356,49131,2,0,L|436:349,1,85.0000016212464,10|0,0:2|0:2,0:0:0:0:
488,204,49439,1,10,0:2:0:0:
488,204,49516,2,0,L|404:197,1,85.0000016212464,0|8,0:2|0:2,0:0:0:0:
399,203,49747,2,0,P|386:162|392:121,1,85.0000016212464,10|0,0:2|1:2,0:0:0:0:
244,7,50054,6,0,P|258:90|253:175,1,170.000003242493,6|10,1:2|0:2,0:0:0:0:
117,300,50516,2,0,L|32:293,1,85.0000016212464,0|2,0:2|0:2,0:0:0:0:
168,204,50824,1,0,1:2:0:0:
292,370,50977,2,0,L|376:363,1,85.0000016212464,10|0,0:2|0:2,0:0:0:0:
487,170,51285,5,2,1:2:0:0:
468,144,51361,1,0,1:2:0:0:
440,129,51438,1,0,1:2:0:0:
409,127,51515,1,0,1:2:0:0:
379,139,51593,2,0,L|381:182,1,42.5000008106232,10|0,0:2|1:2,0:0:0:0:
264,265,51747,2,0,L|265:222,1,42.5000008106232,0|8,1:2|0:2,0:0:0:0:
262,79,51900,5,2,1:2:0:0:
236,59,51976,1,8,0:2:0:0:
206,51,52053,1,8,0:2:0:0:
174,56,52130,1,0,1:2:0:0:
147,72,52207,1,2,1:2:0:0:
122,91,52285,1,0,1:2:0:0:
91,99,52362,1,0,1:2:0:0:
60,95,52439,1,0,1:2:0:0:
32,79,52516,5,6,1:2:0:0:
99,47,56208,5,8,0:2:0:0:
108,142,56362,1,0,1:2:0:0:
117,237,56516,1,8,0:2:0:0:
126,332,56670,1,0,1:2:0:0:
344,217,56824,5,8,0:2:0:0:
312,210,56900,1,8,0:2:0:0:
281,204,56977,1,8,1:2:0:0:
250,197,57054,1,8,0:2:0:0:
219,191,57131,2,0,P|213:148|215:106,1,85.0000016212464,8|0,0:2|1:2,0:0:0:0:
443,28,57439,6,0,P|444:70|439:112,1,85.0000016212464,4|0,1:2|1:2,0:0:0:0:
384,320,57747,1,8,0:2:0:0:
312,210,57900,1,0,0:2:0:0:
312,210,57977,1,0,1:2:0:0:
312,210,58054,2,0,P|354:208|396:207,1,85.0000016212464,8|0,0:2|1:2,0:0:0:0:
250,314,58362,2,0,P|207:312|165:311,1,85.0000016212464,8|0,0:2|0:2,0:0:0:0:
155,320,58593,1,8,0:2:0:0:
154,319,58670,2,0,P|142:279|147:237,1,85.0000016212464,0|0,1:2|0:2,0:0:0:0:
239,116,58977,1,8,0:2:0:0:
127,27,59131,1,0,1:2:0:0:
95,31,59207,1,8,0:2:0:0:
63,36,59284,1,0,1:2:0:0:
32,40,59361,1,8,0:2:0:0:
0,45,59438,1,0,1:2:0:0:
238,116,59593,6,0,P|281:120|322:111,1,85.0000016212464,8|0,0:2|0:2,0:0:0:0:
331,105,59824,1,8,0:2:0:0:
331,105,59900,2,0,L|328:189,1,85.0000016212464,0|0,1:2|1:2,0:0:0:0:
483,372,60208,2,0,L|485:287,1,85.0000016212464,8|0,0:2|1:2,0:0:0:0:
486,243,60440,1,8,0:2:0:0:
459,260,60516,1,0,1:2:0:0:
428,267,60593,1,8,0:2:0:0:
396,265,60670,1,0,1:2:0:0:
147,237,60824,2,0,L|231:231,1,85.0000016212464,8|8,0:2|0:2,0:0:0:0:
311,358,61131,6,0,P|316:338|322:318,1,42.5000008106232,0|0,1:2|1:2,0:0:0:0:
201,358,61285,2,0,P|195:338|189:318,1,42.5000008106232,8|0,0:2|1:2,0:0:0:0:
365,237,61439,2,0,P|375:218|386:200,1,42.5000008106232,8|0,0:2|1:2,0:0:0:0:
147,237,61593,2,0,P|136:218|125:200,1,42.5000008106232,8|0,0:2|1:2,0:0:0:0:
269,63,61747,1,8,0:2:0:0:
266,94,61823,1,8,0:2:0:0:
264,126,61900,1,8,0:2:0:0:
262,158,61977,1,8,0:2:0:0:
259,190,62054,1,8,0:2:0:0:
256,208,62362,6,0,P|244:164|233:120,1,89.9999972534181,6|0,1:2|1:2,0:0:0:0:
161,313,62670,1,10,0:2:0:0:
241,351,62824,2,0,P|328:358|387:293,1,179.999994506836,0|0,0:2|1:2,0:0:0:0:
161,227,63285,2,0,L|72:245,1,89.9999972534181,10|0,0:2|0:2,0:0:0:0:
342,186,63593,6,0,L|430:167,1,89.9999972534181,2|0,1:2|0:2,0:0:0:0:
492,12,63900,1,10,0:2:0:0:
205,94,64054,2,0,L|160:89,1,44.999998626709,0|0,0:2|0:2,0:0:0:0:
279,45,64208,1,2,1:2:0:0:
300,51,64284,1,0,1:2:0:0:
319,63,64361,1,0,1:2:0:0:
335,79,64438,1,0,1:2:0:0:
346,98,64515,1,10,0:2:0:0:
353,120,64592,1,0,1:2:0:0:
354,142,64669,1,8,0:2:0:0:
351,164,64746,1,8,0:2:0:0:
341,185,64824,6,0,L|251:179,1,89.9999972534181,6|0,1:2|0:2,0:0:0:0:
51,222,65131,1,10,0:2:0:0:
172,319,65285,2,0,B|187:220|141:243|152:142,1,179.999994506836,8|0,0:2|1:2,0:0:0:0:
336,27,65747,2,0,L|246:21,1,89.9999972534181,10|0,0:2|1:2,0:0:0:0:
168,26,65977,1,0,1:2:0:0:
167,25,66054,6,0,P|177:46|184:67,1,44.999998626709,2|0,1:2|0:2,0:0:0:0:
267,137,66208,2,0,P|257:157|250:178,1,44.999998626709,0|0,1:2|1:2,0:0:0:0:
172,319,66362,1,10,0:2:0:0:
205,316,66438,1,0,0:2:0:0:
239,313,66515,1,8,0:2:0:0:
272,310,66592,1,8,0:2:0:0:
306,307,66670,2,0,L|305:351,1,44.999998626709,2|8,1:2|0:2,0:0:0:0:
412,321,66824,2,0,L|412:276,1,44.999998626709,8|8,0:2|0:2,0:0:0:0:
344,173,66977,2,0,L|343:217,1,44.999998626709,2|0,1:2|1:2,0:0:0:0:
450,187,67131,2,0,L|450:142,1,44.999998626709,8|0,0:2|0:2,0:0:0:0:
401,47,67285,6,0,P|444:57|489:65,1,89.9999972534181,6|0,1:2|0:2,0:0:0:0:
301,100,67593,1,10,0:2:0:0:
219,61,67747,2,0,P|131:79|42:97,1,179.999994506836,0|0,0:2|1:2,0:0:0:0:
252,248,68208,2,0,P|259:203|248:160,1,89.9999972534181,10|0,0:2|0:2,0:0:0:0:
0,207,68516,5,2,1:2:0:0:
32,214,68592,1,0,1:2:0:0:
66,219,68669,1,0,1:2:0:0:
100,219,68746,1,0,1:2:0:0:
133,217,68824,2,0,P|154:211|176:206,1,44.999998626709,10|0,0:2|1:2,0:0:0:0:
212,327,68977,2,0,P|233:332|255:337,1,44.999998626709,0|0,1:2|1:2,0:0:0:0:
433,271,69131,5,2,1:2:0:0:
450,242,69207,1,0,1:2:0:0:
449,209,69284,1,0,1:2:0:0:
431,181,69361,1,0,1:2:0:0:
400,168,69438,1,10,0:2:0:0:
367,174,69515,1,0,1:2:0:0:
343,197,69592,1,0,1:2:0:0:
335,229,69669,1,0,1:2:0:0:
345,261,69747,6,0,P|350:314|350:360,1,89.9999972534181,6|0,1:2|0:2,0:0:0:0:
167,344,70054,1,10,0:2:0:0:
123,263,70208,2,0,P|209:264|255:336,1,179.999994506836,0|0,0:2|1:2,0:0:0:0:
16,365,70670,1,10,0:2:0:0:
51,222,70824,6,0,B|64:118|15:142|26:46,1,179.999994506836,0|0,1:2|0:2,0:0:0:0:
33,37,71208,1,0,1:2:0:0:
33,37,71285,2,0,L|77:33,1,44.999998626709,10|0,0:2|0:2,0:0:0:0:
152,99,71439,2,0,L|196:95,1,44.999998626709,0|0,1:2|0:2,0:0:0:0:
260,14,71593,2,0,L|304:10,1,44.999998626709,2|8,1:2|0:2,0:0:0:0:
379,76,71747,2,0,L|423:72,1,44.999998626709,8|0,0:2|0:2,0:0:0:0:
317,206,71900,1,2,1:2:0:0:
283,203,71976,1,0,1:2:0:0:
249,200,72053,1,0,1:2:0:0:
216,197,72130,1,0,1:2:0:0:
181,195,72208,6,0,P|178:239|185:284,1,89.9999972534181,6|0,1:2|0:2,0:0:0:0:
311,381,72516,1,10,0:2:0:0:
438,333,72670,2,0,P|443:243|433:154,1,179.999994506836,0|0,0:2|1:2,0:0:0:0:
220,74,73131,1,10,0:2:0:0:
309,60,73285,6,0,L|398:46,1,89.9999972534181,0|2,0:2|1:2,0:0:0:0:
211,162,73593,1,0,0:2:0:0:
122,148,73747,1,10,0:2:0:0:
32,134,73900,1,0,0:2:0:0:
183,341,74054,5,2,0:2:0:0:
197,252,74209,1,0,1:2:0:0:
108,238,74362,1,10,0:2:0:0:
94,327,74516,1,0,0:2:0:0:
287,301,74670,6,0,P|331:293|376:288,1,89.9999972534181,6|0,1:2|0:2,0:0:0:0:
360,72,74977,1,10,0:2:0:0:
478,165,75131,2,0,P|389:182|301:198,1,179.999994506836,0|0,0:2|1:2,0:0:0:0:
159,101,75593,2,0,P|203:93|248:88,1,89.9999972534181,10|0,0:2|1:2,0:0:0:0:
311,282,75900,5,2,1:2:0:0:
280,295,75976,1,0,1:2:0:0:
246,298,76053,1,0,1:2:0:0:
214,289,76130,1,0,1:2:0:0:
187,269,76208,2,0,L|191:224,3,44.999998626709,10|0|0|0,0:2|1:2|1:2|1:2,0:0:0:0:
127,175,76516,1,2,1:2:0:0:
100,154,76592,1,0,0:2:0:0:
67,150,76669,1,0,1:2:0:0:
36,162,76746,1,0,0:2:0:0:
15,188,76823,1,2,1:2:0:0:
10,221,76900,1,0,1:2:0:0:
22,252,76977,1,0,1:2:0:0:
47,274,77054,1,0,1:2:0:0:
80,280,77131,6,0,L|73:369,1,89.9999972534181,2|0,1:2|0:2,0:0:0:0:
334,303,86977,6,0,B|438:310|400:258|506:265,2,179.999994506836,2|2|2,0:2|0:2|0:2,0:0:0:0:
205,157,88208,2,0,B|246:206|246:206|224:320,1,179.999994506836,2|2,0:2|0:2,0:0:0:0:
151,371,88824,2,0,P|121:373|91:376,1,59.9999981689454,2|2,0:2|0:2,0:0:0:0:
12,259,89131,2,0,P|41:256|71:253,1,59.9999981689454,2|2,0:2|0:2,0:0:0:0:
196,125,89439,6,0,B|149:164|149:164|32:138,2,179.999994506836,2|2|2,0:2|0:2|0:2,0:0:0:0:
321,19,90670,2,0,P|312:108|304:198,1,179.999994506836,2|2,0:2|0:2,0:0:0:0:
368,269,91285,2,0,P|397:265|427:261,1,59.9999981689454,2|2,0:2|0:2,0:0:0:0:
214,299,91593,2,0,P|184:302|154:306,1,59.9999981689454,2|2,0:2|0:2,0:0:0:0:
320,352,91900,6,0,P|381:362|438:370,1,119.999996337891,2|2,0:2|0:2,0:0:0:0:
497,131,92516,2,0,P|472:146|453:169,1,59.9999981689454,2|2,0:2|0:2,0:0:0:0:
382,223,92824,2,0,P|407:238|426:261,1,59.9999981689454,2|2,0:2|0:2,0:0:0:0:
362,124,93131,6,0,P|313:156|253:160,1,119.999996337891,2|2,0:2|0:2,0:0:0:0:
40,242,93747,2,0,P|89:274|149:278,1,119.999996337891,2|2,0:2|0:2,0:0:0:0:
241,75,94362,5,0,0:2:0:0:
256,192,94439,12,0,95439,0:2:0:0:
259,161,95593,6,0,P|327:154|394:147,1,134.999995880127,6|0,1:2|0:2,0:0:0:0:
400,140,95900,2,0,P|417:180|411:224,1,89.9999972534181,10|0,0:2|0:2,0:0:0:0:
358,294,96131,1,0,0:2:0:0:
358,294,96208,2,0,L|313:289,3,44.999998626709,2|0|0|0,1:2|1:2|1:2|0:2,0:0:0:0:
231,344,96516,2,0,L|186:348,3,44.999998626709,10|0|0|0,0:2|1:2|1:2|1:2,0:0:0:0:
110,287,96824,6,0,L|97:152,1,134.999995880127,2|0,1:2|0:2,0:0:0:0:
97,140,97131,2,0,P|129:169|129:213,1,89.9999972534181,10|0,0:2|0:2,0:0:0:0:
194,265,97362,1,0,0:2:0:0:
194,265,97439,2,0,L|238:260,1,44.999998626709,2|0,1:2|1:2,0:0:0:0:
343,188,97593,2,0,L|347:143,1,44.999998626709,0|8,1:2|0:2,0:0:0:0:
252,144,97747,2,0,L|256:188,1,44.999998626709,10|0,0:2|1:2,0:0:0:0:
360,261,97901,2,0,L|404:265,1,44.999998626709,0|8,1:2|0:2,0:0:0:0:
487,326,98054,6,0,L|475:191,1,134.999995880127,6|0,1:2|0:2,0:0:0:0:
478,178,98362,1,10,0:2:0:0:
360,261,98516,2,0,L|404:265,1,44.999998626709,0|0,0:2|0:2,0:0:0:0:
300,331,98670,1,2,1:2:0:0:
266,334,98746,1,0,1:2:0:0:
232,337,98823,1,0,1:2:0:0:
199,340,98900,1,0,1:2:0:0:
165,343,98977,2,0,L|121:341,3,44.999998626709,10|0|8|0,0:2|1:2|0:2|1:2,0:0:0:0:
38,335,99285,6,0,B|57:296|57:296|40:252,1,89.9999972534181,2|0,1:2|0:2,0:0:0:0:
35,244,99516,2,0,L|124:252,1,89.9999972534181,0|0,0:2|0:0,0:0:0:0:
134,248,99747,1,0,0:2:0:0:
119,53,99900,5,2,1:2:0:0:
89,40,99976,1,0,1:2:0:0:
56,45,100053,1,0,1:2:0:0:
32,68,100130,1,8,0:2:0:0:
24,100,100207,1,10,0:2:0:0:
36,131,100284,1,8,0:2:0:0:
63,150,100361,1,0,1:2:0:0:
96,152,100438,1,8,0:2:0:0:
124,134,100516,6,0,L|269:149,1,134.999995880127,6|0,1:2|0:2,0:0:0:0:
273,144,100824,2,0,P|231:127|189:140,1,89.9999972534181,10|0,0:2|0:2,0:0:0:0:
237,302,101131,1,2,1:2:0:0:
268,317,101207,1,0,1:2:0:0:
301,317,101284,1,0,1:2:0:0:
332,304,101361,1,0,0:2:0:0:
355,280,101438,1,10,0:2:0:0:
385,265,101516,1,8,0:2:0:0:
418,265,101593,1,8,0:2:0:0:
449,278,101670,1,0,1:2:0:0:
472,302,101747,6,0,L|477:155,2,134.999995880127,2|0|0,1:2|0:2|0:2,0:0:0:0:
430,371,102285,1,0,0:0:0:0:
430,371,102362,2,0,P|408:366|385:362,1,44.999998626709,2|0,1:2|1:2,0:0:0:0:
301,317,102516,2,0,P|279:321|256:325,1,44.999998626709,0|8,1:2|0:2,0:0:0:0:
159,347,102670,1,10,0:2:0:0:
125,343,102746,1,0,1:2:0:0:
91,340,102823,1,8,0:2:0:0:
58,336,102900,1,8,0:2:0:0:
24,333,102977,6,0,B|4:290|4:290|20:204,1,134.999995880127,6|0,1:2|0:2,0:0:0:0:
26,191,103285,1,10,0:2:0:0:
130,57,103439,2,0,L|129:101,1,44.999998626709,0|0,0:2|0:2,0:0:0:0:
119,222,103593,1,2,1:2:0:0:
148,205,103669,1,0,0:0:0:0:
182,200,103746,1,0,0:0:0:0:
214,208,103823,1,0,1:2:0:0:
241,228,103900,2,0,L|237:272,3,44.999998626709,10|8|8|0,0:2|0:2|0:2|1:2,0:0:0:0:
320,217,104208,6,0,L|316:127,1,89.9999972534181,2|0,1:2|0:2,0:0:0:0:
325,121,104439,2,0,L|328:210,1,89.9999972534181,0|0,1:2|0:2,0:0:0:0:
337,215,104670,1,0,1:2:0:0:
472,177,104824,2,0,P|476:154|483:133,3,44.999998626709,2|0|0|0,1:2|1:2|1:2|1:2,0:0:0:0:
407,100,105131,2,0,P|403:77|396:56,3,44.999998626709,10|0|8|0,0:2|1:2|0:2|1:2,0:0:0:0:
482,29,105439,5,2,1:2:0:0:
256,192,105516,12,0,106516,0:0:0:0:
438,292,106670,6,0,P|377:269|319:298,1,134.999995880127,6|0,1:2|0:2,0:0:0:0:
313,307,106977,2,0,P|292:267|296:223,1,89.9999972534181,10|0,0:2|0:2,0:0:0:0:
348,88,107285,1,2,1:2:0:0:
381,91,107361,1,0,1:2:0:0:
415,94,107438,1,0,1:2:0:0:
448,97,107515,1,0,0:2:0:0:
482,100,107592,1,10,0:2:0:0:
448,103,107670,1,0,1:2:0:0:
414,106,107747,1,0,1:2:0:0:
381,109,107824,1,0,1:2:0:0:
347,112,107900,6,0,L|302:109,1,44.999998626709,2|0,1:2|1:2,0:0:0:0:
231,175,108054,2,0,L|186:172,1,44.999998626709,0|0,1:0|1:0,0:0:0:0:
348,122,108208,2,0,L|303:119,1,44.999998626709,10|0,0:2|1:2,0:0:0:0:
232,185,108362,2,0,L|187:182,1,44.999998626709,0|0,1:0|1:0,0:0:0:0:
72,99,108516,2,0,L|63:54,3,44.999998626709,10|0|0|8,0:2|1:2|1:2|0:2,0:0:0:0:
101,174,108824,1,10,0:2:0:0:
94,207,108900,1,0,1:2:0:0:
87,240,108977,1,0,1:2:0:0:
82,273,109054,1,8,0:2:0:0:
76,306,109131,6,0,P|143:300|210:294,1,134.999995880127,6|0,1:2|0:2,0:0:0:0:
219,285,109439,2,0,P|237:325|232:369,1,89.9999972534181,10|0,0:2|0:2,0:0:0:0:
359,322,109747,1,2,1:2:0:0:
337,296,109823,1,0,1:2:0:0:
327,264,109900,1,0,1:2:0:0:
329,230,109977,1,0,0:2:0:0:
344,200,110054,1,10,0:2:0:0:
358,169,110131,1,0,1:2:0:0:
361,136,110208,1,0,1:2:0:0:
350,104,110285,1,0,0:2:0:0:
329,78,110362,6,0,L|284:84,3,44.999998626709,2|0|8|0,1:2|1:2|0:2|1:2,0:0:0:0:
218,24,110670,2,0,L|173:30,3,44.999998626709,10|0|0|8,0:2|1:2|1:2|0:2,0:0:0:0:
156,115,110977,2,0,L|111:121,3,44.999998626709,2|8|8|0,1:2|0:2|0:2|1:2,0:0:0:0:
45,61,111285,2,0,L|0:67,3,44.999998626709,2|0|0|0,1:2|1:2|1:2|1:2,0:0:0:0:
4,148,111593,6,0,L|8:282,1,134.999995880127,6|0,1:2|0:0,0:0:0:0:
4,294,111900,2,0,P|45:277|88:285,1,89.9999972534181,10|0,0:2|0:2,0:0:0:0:
198,324,112208,2,0,L|194:368,2,44.999998626709,2|0|0,1:2|1:2|1:2,0:0:0:0:
304,237,112516,2,0,L|393:230,1,89.9999972534181,10|0,0:2|1:2,0:0:0:0:
470,211,112747,1,0,1:2:0:0:
470,211,112824,6,0,P|473:233|474:255,2,44.999998626709,2|0|0,1:2|1:2|0:2,0:0:0:0:
449,55,113131,2,0,P|471:51|493:50,2,44.999998626709,10|0|0,0:2|1:2|1:2,0:0:0:0:
291,119,113439,1,2,1:2:0:0:
257,116,113515,1,0,1:2:0:0:
223,114,113592,1,0,1:2:0:0:
189,111,113669,1,8,0:2:0:0:
156,109,113747,2,0,L|111:113,3,44.999998626709,10|0|0|0,0:2|1:2|0:2|0:2,0:0:0:0:
36,144,114054,6,0,P|56:207|49:274,1,134.999995880127,6|0,1:2|0:2,0:0:0:0:
45,286,114362,2,0,L|134:276,1,89.9999972534181,10|0,0:2|0:2,0:0:0:0:
299,196,114670,1,2,1:2:0:0:
324,217,114746,1,0,0:2:0:0:
356,229,114823,1,0,1:2:0:0:
389,230,114900,1,0,0:2:0:0:
421,220,114977,1,10,0:2:0:0:
415,253,115054,1,0,1:2:0:0:
420,286,115131,1,0,1:2:0:0:
436,315,115208,1,0,1:2:0:0:
460,337,115285,6,0,L|325:352,1,134.999995880127,2|0,1:2|0:2,0:0:0:0:
321,365,115594,2,0,L|231:354,1,89.9999972534181,10|0,0:2|0:2,0:0:0:0:
58,317,115900,1,2,1:2:0:0:
38,291,115976,1,0,1:2:0:0:
35,258,116053,1,8,0:2:0:0:
49,228,116130,1,0,1:2:0:0:
77,210,116207,1,2,1:2:0:0:
110,209,116284,1,0,1:2:0:0:
139,225,116361,1,0,1:2:0:0:
155,254,116438,1,0,1:2:0:0:
153,288,116515,5,6,1:2:0:0:
140,120,127593,6,0,P|96:114|51:107,1,89.9999972534181,6|0,1:2|0:2,0:0:0:0:
194,210,127900,1,10,0:2:0:0:
255,151,128054,2,0,P|342:155|393:225,1,179.999994506836,0|0,0:2|1:2,0:0:0:0:
228,350,128516,1,10,0:2:0:0:
127,261,128670,6,0,P|114:219|117:174,1,89.9999972534181,0|2,0:2|1:2,0:0:0:0:
317,356,128977,1,0,1:2:0:0:
317,356,129054,1,0,1:2:0:0:
317,356,129131,2,0,P|272:351|227:349,1,89.9999972534181,10|0,0:2|1:2,0:0:0:0:
458,364,129439,1,10,0:2:0:0:
460,342,129515,1,0,0:2:0:0:
462,321,129592,1,0,1:2:0:0:
464,300,129669,1,0,1:2:0:0:
466,279,129746,1,10,0:2:0:0:
468,258,129823,1,0,0:2:0:0:
470,237,129900,1,0,0:2:0:0:
472,215,129977,1,0,0:2:0:0:
474,194,130054,6,0,L|466:104,1,89.9999972534181,6|0,1:2|0:2,0:0:0:0:
199,13,130362,1,10,0:2:0:0:
239,93,130516,2,0,P|324:113|400:69,1,179.999994506836,0|0,0:2|1:2,0:0:0:0:
90,62,130977,1,10,0:2:0:0:
116,165,131131,6,0,L|126:254,1,89.9999972534181,0|2,0:2|1:2,0:0:0:0:
298,356,131439,1,0,0:2:0:0:
343,282,131593,2,0,P|299:274|255:281,1,89.9999972534181,10|0,0:2|1:2,0:0:0:0:
15,363,131900,1,2,1:2:0:0:
17,341,131976,1,0,1:2:0:0:
19,320,132053,1,8,0:2:0:0:
21,299,132130,1,0,0:2:0:0:
23,278,132207,1,2,1:2:0:0:
25,257,132284,1,0,1:2:0:0:
27,235,132361,1,0,1:2:0:0:
28,214,132438,1,0,0:2:0:0:
30,193,132516,6,0,L|26:103,1,89.9999972534181,6|0,1:2|0:2,0:0:0:0:
173,241,132823,1,10,0:2:0:0:
180,61,132977,2,0,L|172:240,1,179.999994506836,0|0,0:2|1:2,0:0:0:0:
378,306,133439,2,0,L|379:261,1,44.999998626709,10|0,0:2|0:2,0:0:0:0:
310,130,133593,6,0,B|255:170|255:170|285:278,1,179.999994506836,0|0,0:2|0:2,0:0:0:0:
160,356,134054,2,0,L|70:347,1,89.9999972534181,10|0,0:2|0:2,0:0:0:0:
24,204,134362,1,2,0:2:0:0:
24,204,134439,2,0,L|113:197,1,89.9999972534181,8|8,0:2|0:2,0:0:0:0:
121,204,134670,2,0,P|141:164|128:121,1,89.9999972534181,10|0,0:2|0:2,0:0:0:0:
268,7,134977,6,0,P|253:95|264:184,1,179.999994506836,6|10,1:2|0:2,0:0:0:0:
395,300,135439,2,0,L|484:291,1,89.9999972534181,0|2,0:2|0:2,0:0:0:0:
343,210,135747,1,0,1:2:0:0:
257,361,135900,2,0,L|212:357,1,44.999998626709,10|0,0:2|1:2,0:0:0:0:
70,341,136054,1,0,1:2:0:0:
175,162,136208,6,0,B|185:206|185:206|175:249,1,89.9999972534181,2|0,1:2|0:2,0:0:0:0:
31,179,136516,2,0,B|21:135|21:135|30:91,1,89.9999972534181,10|0,0:2|0:2,0:0:0:0:
37,81,136747,1,8,0:2:0:0:
37,81,136824,2,0,L|81:86,1,44.999998626709,2|0,1:2|0:0,0:0:0:0:
165,3,136978,2,0,L|170:47,1,44.999998626709,8|0,0:2|1:2,0:0:0:0:
263,142,137131,2,0,L|352:135,1,89.9999972534181,2|0,1:2|1:2,0:0:0:0:
488,345,137439,5,14,0:2:0:0:
256,192,137516,12,0,138670,0:0:0:0:
