osu file format v14

[General]
AudioFilename: audio.mp3
AudioLeadIn: 0
PreviewTime: 62350
Countdown: 1
SampleSet: Soft
StackLeniency: 0.7
Mode: 0
LetterboxInBreaks: 0
WidescreenStoryboard: 1

[Editor]
Bookmarks: 106669
DistanceSpacing: 1.1
BeatDivisor: 4
GridSize: 32
TimelineZoom: 2.1

[Metadata]
Title:Gardens Under A Spring Sky
TitleUnicode:Gardens Under A Spring Sky
Artist:Fractal Dreamers
ArtistUnicode:Fractal Dreamers
Creator:Lasse
Version:Hard
Source:
Tags:mappers' guild featured artist electronic piano instrumental Monolithia
BeatmapID:2004477
BeatmapSetID:956716

[Difficulty]
HPDrainRate:5
CircleSize:4
OverallDifficulty:7
ApproachRate:8
SliderMultiplier:1.4
SliderTickRate:1

[Events]
//Background and Video events
0,0,"background-1587514_1920.jpg",0,0
//Break Periods
2,30561,32073
2,52715,55457
2,77330,86226
//Storyboard Layer 0 (Background)
//Storyboard Layer 1 (Fail)
//Storyboard Layer 2 (Pass)
//Storyboard Layer 3 (Foreground)
//Storyboard Sound Samples

[TimingPoints]
-4100,307.692307692308,4,2,1,40,1,0
207,-200,4,2,1,40,0,0
823,-200,4,2,1,40,0,0
10669,-142.857142857143,4,2,1,45,0,0
19592,-142.857142857143,4,2,1,48,0,0
19900,-142.857142857143,4,2,1,50,0,0
20207,-142.857142857143,4,2,1,52,0,0
20515,-100,4,2,1,64,0,0
30361,-500,4,2,1,50,0,0
32823,-133.333333333333,4,2,1,50,0,0
41438,-133.333333333333,4,2,1,52,0,0
42053,-133.333333333333,4,2,1,54,0,0
42669,-100,4,2,1,70,0,0
52515,-133.333333333333,4,2,1,50,0,0
56207,-133.333333333333,4,2,1,56,0,0
61130,-133.333333333333,4,2,1,58,0,0
61746,-133.333333333333,4,2,1,60,0,0
62284,-133.333333333333,4,2,1,5,0,0
62361,-90.9090909090909,4,2,1,70,0,0
77130,-133.333333333333,4,2,1,50,0,0
94361,-166.666666666667,4,2,1,50,0,0
94438,-166.666666666667,4,2,1,5,0,0
95592,-100,4,2,1,70,0,0
105438,-100,4,2,1,50,0,0
105515,-100,4,2,1,51,0,0
105592,-100,4,2,1,52,0,0
105669,-100,4,2,1,53,0,0
105746,-100,4,2,1,54,0,0
105823,-100,4,2,1,55,0,0
105900,-100,4,2,1,56,0,0
105976,-100,4,2,1,57,0,0
106053,-100,4,2,1,58,0,0
106130,-100,4,2,1,59,0,0
106207,-100,4,2,1,60,0,0
106284,-100,4,2,1,61,0,0
106361,-100,4,2,1,62,0,0
106438,-100,4,2,1,63,0,0
106515,-100,4,2,1,64,0,0
106592,-100,4,2,1,65,0,0
106669,-90.9090909090909,4,2,1,72,0,0
116515,-100,4,2,1,60,0,0
116823,-200,4,2,1,50,0,0
117746,-133.333333333333,4,2,1,60,0,0
126361,-133.333333333333,4,2,1,62,0,0
126669,-133.333333333333,4,2,1,63,0,0
126976,-133.333333333333,4,2,1,64,0,0
127284,-133.333333333333,4,2,1,65,0,0
127592,-100,4,2,1,66,0,0
137438,-100,4,2,1,62,0,0
137515,-100,4,2,1,30,0,0
138053,-100,4,2,1,20,0,0
138669,-100,4,2,1,15,0,0
139284,-100,4,2,1,10,0,0
139900,-100,4,2,99,5,0,0

[Colours]
Combo1 : 250,190,230
Combo2 : 255,230,140
Combo3 : 255,170,170
Combo4 : 170,245,170

[HitObjects]
142,205,207,6,0,L|145:165,2,35,0|0|0,0:0|0:0|0:0,0:0:0:0:
68,264,823,6,0,B|41:258|41:258|26:260|26:260|-12:254,2,70,2|0|0,0:0|0:0|0:0,0:0:0:0:
130,334,1746,1,0,0:0:0:0:
130,334,2053,1,0,0:0:0:0:
130,334,2361,1,0,0:0:0:0:
218,291,2669,2,0,L|260:283,2,35,0|0|0,0:0|0:0|0:0,0:0:0:0:
300,357,3284,6,0,B|330:363|330:363|339:367|339:367|380:373,2,70,2|0|0,0:0|0:0|0:0,0:0:0:0:
260,292,4207,1,0,0:0:0:0:
260,292,4515,1,0,0:0:0:0:
260,292,4823,1,0,0:0:0:0:
285,202,5130,2,0,L|274:153,2,35,0|0|0,0:0|0:0|0:0,0:0:0:0:
361,251,5746,6,0,P|395:255|438:231,1,70,2|0,0:0|0:0,0:0:0:0:
481,167,6361,2,0,L|469:87,1,70,2|0,0:0|0:0,0:0:0:0:
398,41,6976,2,0,P|363:38|332:52,1,70,2|0,0:0|0:0,0:0:0:0:
270,119,7592,2,0,P|238:132|203:129,1,70,2|0,0:0|0:0,0:0:0:0:
121,90,8207,2,0,P|86:86|54:100,1,70,2|0,0:0|0:0,0:0:0:0:
12,277,9130,2,0,L|8:360,2,70,2|0|0,0:0|0:0|0:0,0:0:0:0:
87,226,10053,1,2,0:0:0:0:
118,242,10207,1,0,0:0:0:0:
151,232,10361,1,0,0:0:0:0:
233,291,10669,6,0,L|348:311,1,97.9999970092774,6|0,0:0|0:0,0:0:0:0:
369,335,11130,1,0,0:0:0:0:
405,367,11284,2,0,L|424:258,1,97.9999970092774,0|0,0:0|0:0,0:0:0:0:
498,180,11900,2,0,B|462:194|462:194|391:171,1,97.9999970092774,2|0,0:0|0:0,0:0:0:0:
345,74,12515,1,0,0:0:0:0:
303,48,12669,1,0,0:0:0:0:
256,62,12823,1,0,0:0:0:0:
142,92,13130,6,0,B|107:76|107:76|81:80|81:80|30:60,1,97.9999970092774,2|0,0:0|0:0,0:0:0:0:
21,107,13592,1,0,0:0:0:0:
1,151,13746,2,0,L|17:257,1,97.9999970092774,0|0,0:0|0:0,0:0:0:0:
89,339,14361,2,0,B|127:342|127:342|147:359|147:359|180:364,1,97.9999970092774,2|0,0:0|0:0,0:0:0:0:
277,297,14976,1,0,0:0:0:0:
259,251,15130,1,0,0:0:0:0:
267,202,15284,1,0,0:0:0:0:
343,112,15592,6,0,L|441:107,1,97.9999970092774,2|0,0:0|0:0,0:0:0:0:
482,132,16053,1,0,0:0:0:0:
501,177,16207,2,0,B|494:215|494:215|497:238|497:238|489:289,1,97.9999970092774,0|0,0:0|0:0,0:0:0:0:
403,352,16823,2,0,L|288:341,1,97.9999970092774,2|0,0:0|0:0,0:0:0:0:
221,260,17438,2,0,L|213:151,1,97.9999970092774,0|0,0:0|0:0,0:0:0:0:
202,89,17976,1,2,0:0:0:0:
202,89,18053,6,0,B|133:73|133:73|86:102|86:102|11:90,2,195.999994018555,2|0|0,0:0|0:0|0:0,0:0:0:0:
311,33,19592,5,2,0:0:0:0:
336,147,19900,1,2,0:0:0:0:
361,261,20207,1,2,0:0:0:0:
497,340,20515,6,0,P|464:328|429:327,1,70,14|0,0:1|0:0,0:0:0:0:
343,360,20823,1,10,0:3:0:0:
343,360,20976,2,0,P|308:359|275:347,1,70,2|2,0:0|0:0,0:0:0:0:
214,288,21284,1,10,0:1:0:0:
271,226,21438,1,10,0:0:0:0:
213,166,21592,2,0,B|201:119|201:119|207:84|207:84|190:25,1,140,2|2,0:0|0:0,0:0:0:0:
177,27,21976,1,2,0:0:0:0:
163,25,22053,2,0,L|72:5,1,70,10|2,0:3|0:0,0:0:0:0:
8,41,22361,2,0,L|13:80,3,35,10|10|10|10,0:1|0:1|0:1|0:2,0:0:0:0:
46,111,22669,2,0,L|41:150,3,35,10|10|10|10,0:2|0:1|0:1|0:1,0:0:0:0:
17,188,22976,6,0,B|25:212|25:212|21:238|21:238|26:255,1,70,10|0,0:1|0:0,0:0:0:0:
91,332,23284,1,10,0:3:0:0:
91,332,23438,2,0,L|174:322,1,70,2|2,0:0|0:0,0:0:0:0:
230,371,23746,1,10,0:1:0:0:
284,306,23900,1,10,0:0:0:0:
218,254,24053,2,0,B|204:218|204:218|227:112,1,140,2|2,0:0|0:0,0:0:0:0:
258,32,24515,1,10,0:3:0:0:
353,38,24669,1,10,0:1:0:0:
359,50,24746,1,10,0:2:0:0:
363,63,24823,2,0,L|449:74,1,70,10|10,0:1|0:2,0:0:0:0:
501,139,25130,2,0,L|491:187,3,35,10|10|10|10,0:1|0:1|0:1|0:1,0:0:0:0:
497,222,25438,6,0,B|491:242|491:242|491:271|491:271|482:303,1,70,10|2,0:1|0:0,0:0:0:0:
417,361,25746,1,10,0:3:0:0:
417,361,25900,2,0,L|323:347,1,70,2|2,0:0|0:0,0:0:0:0:
288,291,26207,1,10,0:1:0:0:
220,341,26361,1,8,0:0:0:0:
176,268,26515,2,0,B|169:215|169:215|173:182|173:182|165:124,1,140,2|2,0:0|0:0,0:0:0:0:
117,59,26976,1,10,0:0:0:0:
42,99,27130,1,10,0:1:0:0:
39,112,27207,1,10,0:1:0:0:
36,125,27284,2,0,L|28:203,1,70,10|10,0:1|0:1,0:0:0:0:
20,206,27515,1,10,0:2:0:0:
11,217,27592,2,0,L|19:295,1,70,10|10,0:2|0:1,0:0:0:0:
94,360,27900,6,0,L|109:298,2,35,10|10|10,1:1|1:1|1:2,0:0:0:0:
198,346,28207,2,0,L|196:297,2,35,10|10|10,3:1|3:1|3:1,0:0:0:0:
299,377,28515,2,0,L|301:328,2,35,2|2|2,1:2|1:2|1:2,0:0:0:0:
397,338,28823,2,0,L|395:289,2,35,10|10|10,3:1|3:1|3:1,0:0:0:0:
498,367,29130,5,10,0:1:0:0:
256,192,29207,12,10,30361,0:1:0:0:
0,283,32823,6,0,L|20:108,1,157.500006008148,2|2,0:0|0:0,0:0:0:0:
110,76,33592,1,0,0:0:0:0:
144,115,33746,1,0,0:0:0:0:
192,94,33900,1,2,0:0:0:0:
271,162,34207,2,0,L|265:232,2,52.5000020027161,0|0|0,0:0|0:0|0:0,0:0:0:0:
325,109,34669,2,0,L|359:103,3,26.2500010013581,2|0|0|0,0:0|0:0|0:0|0:0,0:0:0:0:
375,112,34976,2,0,L|409:106,3,26.2500010013581,2|0|0|0,0:0|0:0|0:0|0:0,0:0:0:0:
426,113,35284,6,0,P|459:151|470:257,1,157.500006008148,2|2,0:0|0:0,0:0:0:0:
422,347,36053,1,0,0:0:0:0:
382,312,36207,1,0,0:0:0:0:
330,323,36361,1,2,0:0:0:0:
226,362,36669,2,0,L|164:366,2,52.5000020027161,0|0|0,0:0|0:0|0:0,0:0:0:0:
261,291,37130,2,0,L|262:247,3,26.2500010013581,2|0|0|0,0:0|0:0|0:0|0:0,0:0:0:0:
273,240,37438,2,0,L|274:196,3,26.2500010013581,2|0|0|0,0:0|0:0|0:0|0:0,0:0:0:0:
284,189,37746,6,0,B|292:77|292:77|247:31,1,157.500006008148,2|2,0:0|0:0,0:0:0:0:
164,1,38515,1,0,0:0:0:0:
173,52,38669,1,0,0:0:0:0:
140,93,38823,1,2,0:0:0:0:
55,155,39130,2,0,L|42:103,2,52.5000020027161,0|0|0,0:0|0:0|0:0,0:0:0:0:
95,218,39592,2,0,B|138:227|138:227|150:243|150:243|206:258,1,105.000004005432,2|2,0:0|0:0,0:0:0:0:
262,339,40207,6,0,L|294:176,1,157.500006008148,2|0,0:0|0:0,0:0:0:0:
262,81,40976,2,0,L|219:34,2,52.5000020027161,2|0|0,0:0|0:0|0:0,0:0:0:0:
326,116,41438,2,0,L|383:104,1,52.5000020027161,2|0,0:0|0:0,0:0:0:0:
449,120,41746,2,0,L|487:163,1,52.5000020027161,0|0,0:0|0:0,0:0:0:0:
507,228,42053,2,0,L|488:283,2,52.5000020027161,2|2|2,0:0|0:0|0:0,0:0:0:0:
455,41,42669,5,14,0:1:0:0:
455,41,42823,2,0,B|422:31|422:31|416:32|416:32|387:26,1,70,2|8,0:3|0:3,0:0:0:0:
336,109,43130,2,0,B|303:119|303:119|297:118|297:118|268:124,1,70,2|2,0:0|0:0,0:0:0:0:
209,44,43438,2,0,B|176:34|176:34|170:35|170:35|141:29,1,70,10|8,0:1|0:0,0:0:0:0:
58,83,43746,2,0,B|63:127|63:127|58:175|58:175|68:239,1,140,2|2,0:0|0:0,0:0:0:0:
35,315,44207,2,0,L|133:293,1,70,10|0,0:3|0:0,0:0:0:0:
186,356,44515,2,0,L|203:266,1,70,10|10,0:1|0:1,0:0:0:0:
211,280,44746,1,10,0:2:0:0:
222,271,44823,2,0,L|239:181,1,70,10|10,0:2|0:1,0:0:0:0:
221,99,45130,5,10,0:1:0:0:
221,99,45284,2,0,P|255:111|307:92,1,70,2|8,0:0|0:3,0:0:0:0:
357,35,45592,2,0,P|389:23|423:28,1,70,2|2,0:0|0:0,0:0:0:0:
492,99,45900,2,0,L|500:184,1,70,10|8,0:1|0:0,0:0:0:0:
434,242,46207,2,0,B|383:227|383:227|353:243|353:243|275:228,1,140,2|2,0:0|0:0,0:0:0:0:
227,168,46669,2,0,L|220:98,1,70,10|0,0:3|0:0,0:0:0:0:
212,86,46900,1,8,0:0:0:0:
202,75,46976,2,0,P|168:52|125:52,1,70,10|10,0:1|0:2,0:0:0:0:
52,95,47284,2,0,L|43:136,3,35,10|10|10|10,0:1|0:1|0:1|0:1,0:0:0:0:
10,165,47592,6,0,B|22:213|22:213|13:254|13:254|25:300,1,140,10|10,0:1|0:3,0:0:0:0:
94,373,48053,2,0,L|111:294,1,70,2|2,0:0|0:0,0:0:0:0:
171,248,48361,1,10,0:1:0:0:
232,305,48515,1,10,0:0:0:0:
300,255,48669,2,0,B|288:207|288:207|298:171|298:171|287:118,1,140,2|2,0:0|0:0,0:0:0:0:
322,27,49130,2,0,P|353:11|387:12,1,70,10|2,0:3|0:0,0:0:0:0:
475,58,49438,1,10,0:1:0:0:
484,68,49515,2,0,L|472:149,1,70,10|10,0:0|0:2,0:0:0:0:
469,150,49746,2,0,L|481:231,1,70,10|0,0:0|0:0,0:0:0:0:
511,327,50053,6,0,B|468:297|468:297|349:316,1,140,10|10,0:1|0:3,0:0:0:0:
300,367,50515,2,0,L|287:295,1,70,2|2,0:0|0:0,0:0:0:0:
237,221,50823,1,10,0:1:0:0:
284,144,50976,2,0,L|352:127,1,70,10|2,0:0|0:0,0:0:0:0:
240,64,51284,2,0,L|172:46,1,70,10|10,0:1|0:1,0:0:0:0:
158,46,51515,1,10,0:1:0:0:
144,48,51592,2,0,P|124:95|128:115,1,70,10|0,0:3|0:0,0:0:0:0:
144,209,51900,2,0,P|144:243|126:273,1,70,10|10,0:1|0:2,0:0:0:0:
48,334,52207,1,10,0:1:0:0:
45,320,52284,1,10,0:1:0:0:
43,306,52361,1,10,0:1:0:0:
41,292,52438,1,10,0:1:0:0:
39,278,52515,1,14,0:1:0:0:
0,204,56207,6,0,P|44:187|112:194,1,105.000004005432,2|0,3:0|1:0,0:0:0:0:
166,235,56669,1,0,3:0:0:0:
230,189,56823,2,0,L|237:143,2,26.2500010013581,0|0|0,1:0|1:0|1:0,0:0:0:0:
270,256,57130,2,0,L|280:322,1,52.5000020027161,0|0,3:0|1:0,0:0:0:0:
360,363,57438,6,0,P|423:365|458:328,1,105.000004005432,14|2,3:1|1:0,0:0:0:0:
512,285,57900,1,0,3:0:0:0:
512,285,57976,1,0,3:0:0:0:
512,285,58053,2,0,L|501:214,1,52.5000020027161,2|2,1:0|3:0,0:0:0:0:
467,162,58361,2,0,L|476:110,1,52.5000020027161,2|2,1:0|1:0,0:0:0:0:
429,45,58669,2,0,B|398:34|398:34|362:40|362:40|321:32,1,105.000004005432,10|0,3:1|1:0,0:0:0:0:
280,100,59130,1,2,3:0:0:0:
280,100,59207,1,2,3:0:0:0:
280,100,59284,2,0,L|289:160,1,52.5000020027161,0|2,1:0|3:0,0:0:0:0:
248,221,59592,2,0,L|258:296,1,52.5000020027161,2|2,1:0|1:0,0:0:0:0:
212,339,59900,6,0,P|166:358|109:344,1,105.000004005432,10|0,3:1|1:0,0:0:0:0:
50,301,60361,1,0,3:0:0:0:
50,301,60438,1,0,3:0:0:0:
50,301,60515,2,0,L|42:232,1,52.5000020027161,0|8,3:0|3:1,0:0:0:0:
12,175,60823,2,0,L|22:99,1,52.5000020027161,0|0,3:0|1:0,0:0:0:0:
83,43,61130,5,10,3:1:0:0:
83,43,61207,1,8,3:1:0:0:
83,43,61284,2,0,P|114:29|170:41,1,78.7500030040742,10|10,3:1|3:1,0:0:0:0:
166,236,61900,2,0,P|202:250|240:245,1,78.7500030040742,10|8,1:1|1:1,0:0:0:0:
356,146,62361,5,14,0:1:0:0:
356,146,62515,2,0,B|359:69,1,77.0000023498536,2|8,0:0|2:3,0:0:0:0:
457,162,62823,2,0,B|460:238,1,77.0000023498536,2|2,0:0|2:0,0:0:0:0:
491,317,63130,1,10,0:1:0:0:
423,368,63284,1,10,0:2:0:0:
344,334,63438,1,2,0:2:0:0:
264,364,63592,2,0,L|175:355,1,77.0000023498536,10|2,0:1|0:0,0:0:0:0:
88,380,63900,2,0,L|79:284,1,77.0000023498536,10|2,0:3|0:0,0:0:0:0:
17,224,64207,2,0,L|22:186,3,38.5000011749268,10|10|10|10,2:1|2:1|2:1|2:1,0:0:0:0:
48,147,64515,2,0,L|43:109,3,38.5000011749268,10|10|10|10,2:2|2:1|2:1|2:1,0:0:0:0:
61,65,64823,6,0,P|114:42|151:48,1,77.0000023498536,10|0,0:1|0:0,0:0:0:0:
224,49,65130,1,10,0:3:0:0:
168,124,65284,2,0,B|155:174|155:174|199:290,1,154.000004699707,2|10,0:0|0:1,0:0:0:0:
261,335,65746,1,10,0:0:0:0:
344,289,65900,1,10,0:1:0:0:
348,274,65976,1,10,0:1:0:0:
350,259,66053,2,0,L|363:169,1,77.0000023498536,10|10,0:1|0:1,0:0:0:0:
423,94,66361,2,0,P|390:99|340:72,1,77.0000023498536,10|10,0:3|0:1,0:0:0:0:
337,73,66592,1,10,0:0:0:0:
324,64,66669,2,0,P|306:49|281:46,3,38.5000011749268,10|10|10|10,0:1|0:1|0:2|0:1,0:0:0:0:
249,72,66976,2,0,P|231:87|206:90,3,38.5000011749268,10|10|10|10,0:1|0:1|0:1|0:1,0:0:0:0:
171,68,67284,6,0,P|115:46|72:52,1,77.0000023498536,10|2,0:1|0:0,0:0:0:0:
17,90,67592,1,10,0:3:0:0:
11,182,67746,2,0,L|23:273,1,77.0000023498536,2|2,0:0|2:0,0:0:0:0:
77,321,68053,1,10,0:1:0:0:
157,295,68207,1,10,0:0:0:0:
235,327,68361,1,2,0:0:0:0:
301,273,68515,2,0,L|311:196,1,77.0000023498536,10|10,0:1|0:1,0:0:0:0:
320,184,68746,1,10,0:1:0:0:
328,171,68823,2,0,L|338:94,1,77.0000023498536,10|10,0:3|0:1,0:0:0:0:
412,24,69130,2,0,P|436:21|456:25,3,38.5000011749268,10|10|10|10,0:2|0:1|0:1|0:2,0:0:0:0:
498,41,69438,2,0,L|506:91,3,38.5000011749268,10|10|10|10,0:3|0:1|0:1|0:1,0:0:0:0:
509,130,69746,6,0,L|499:207,1,77.0000023498536,10|2,0:1|0:0,0:0:0:0:
499,298,70053,1,10,0:3:0:0:
433,362,70207,2,0,L|331:339,1,77.0000023498536,2|2,0:0|0:0,0:0:0:0:
269,374,70515,2,0,L|167:351,1,77.0000023498536,10|8,0:1|0:0,0:0:0:0:
118,302,70823,2,0,P|109:264|119:227,1,77.0000023498536,2|8,0:0|0:1,0:0:0:0:
198,179,71130,1,10,0:1:0:0:
212,174,71207,1,10,0:1:0:0:
226,169,71284,2,0,P|243:135|243:96,1,77.0000023498536,10|10,0:3|0:1,0:0:0:0:
174,18,71592,2,0,L|125:7,3,38.5000011749268,10|10|10|10,0:1|0:1|0:1|0:1,0:0:0:0:
104,49,71900,2,0,L|54:50,3,38.5000011749268,10|10|10|10,0:1|0:1|0:1|0:1,0:0:0:0:
24,20,72207,5,10,0:1:0:0:
0,101,72361,1,2,0:0:0:0:
54,168,72515,2,0,L|77:327,1,154.000004699707,14|0,0:3|0:0,0:0:0:0:
156,380,72976,2,0,L|170:289,1,77.0000023498536,10|10,0:1|0:0,0:0:0:0:
255,253,73284,2,0,B|309:265|309:265|335:302|335:302|387:318,1,154.000004699707,2|2,0:2|0:0,0:0:0:0:
465,366,73746,1,10,0:3:0:0:
473,273,73900,1,2,0:0:0:0:
465,259,73976,1,2,0:0:0:0:
460,244,74053,2,0,L|471:158,1,77.0000023498536,2|8,0:0|0:1,0:0:0:0:
498,68,74361,2,0,P|461:79|405:66,1,77.0000023498536,10|2,0:0|0:0,0:0:0:0:
341,15,74669,5,10,0:1:0:0:
301,89,74823,1,2,0:0:0:0:
229,45,74976,2,0,B|191:24|191:24|63:38,1,154.000004699707,14|2,0:3|0:0,0:0:0:0:
16,113,75438,2,0,B|25:145|25:145|24:162|24:162|31:187,1,77.0000023498536,10|8,0:1|0:0,0:0:0:0:
19,280,75746,1,2,0:0:0:0:
90,344,75900,5,10,0:1:0:0:
256,192,75976,12,10,77130,0:1:0:0:
30,246,86976,6,0,L|15:81,2,157.500006008148,2|2|2,0:0|0:0|0:0,0:0:0:0:
46,349,88207,1,2,0:0:0:0:
376,269,89438,2,0,B|434:279|434:279|455:313|455:313|524:330,2,157.500006008148,2|2|2,0:0|0:0|0:0,0:0:0:0:
296,337,90669,1,2,0:0:0:0:
79,227,91900,2,0,B|63:192|63:192|80:62|80:62|59:10,2,210.000008010865,2|2|2,0:0|0:0|0:0,0:0:0:0:
252,345,93746,2,0,L|357:326,1,105.000004005432,2|2,0:0|0:0,0:0:0:0:
436,369,94361,6,0,B|385:338|380:215|486:278|492:140|422:114,1,293.999991027832,2|0,0:0|0:0,0:0:0:0:
331,70,95592,6,0,L|228:59,1,70,14|0,0:1|0:0,0:0:0:0:
250,71,95823,1,10,0:1:0:0:
237,78,95900,2,0,L|134:67,1,70,10|2,0:3|0:1,0:0:0:0:
82,103,96207,2,0,P|73:131|74:149,3,35,10|10|10|10,0:1|0:1|0:1|0:1,0:0:0:0:
83,181,96515,2,0,P|90:196|93:214,3,35,10|10|10|10,0:2|0:1|0:1|0:1,0:0:0:0:
70,254,96823,2,0,P|56:302|69:354,1,105,10|10,0:1|0:1,0:0:0:0:
219,377,97284,1,2,0:1:0:0:
223,363,97361,1,2,0:1:0:0:
227,349,97438,2,0,B|234:324|234:324|233:307|233:307|245:258,1,70,10|10,0:1|0:1,0:0:0:0:
205,195,97746,2,0,L|193:147,3,35,10|10|10|10,0:2|0:1|0:1|0:1,0:0:0:0:
175,120,98053,6,0,P|165:77|205:22,1,105,10|10,0:1|0:1,0:0:0:0:
330,71,98515,1,2,0:0:0:0:
339,60,98592,1,2,0:0:0:0:
348,50,98669,2,0,L|418:27,1,70,10|10,0:1|0:1,0:0:0:0:
500,57,98976,2,0,L|507:93,3,35,10|10|10|10,0:2|0:1|0:1|0:1,0:0:0:0:
489,134,99284,2,0,L|477:228,1,70,10|2,0:1|0:0,0:0:0:0:
485,216,99515,1,2,0:0:0:0:
490,228,99592,2,0,L|478:322,1,70,10|2,0:3|0:0,0:0:0:0:
414,360,99900,2,0,L|367:349,3,35,10|10|10|10,0:1|0:1|0:1|0:2,0:0:0:0:
335,360,100207,2,0,L|288:349,3,35,10|10|10|10,0:2|0:1|0:1|0:1,0:0:0:0:
255,358,100515,6,0,L|248:256,1,70,10|0,0:1|0:1,0:0:0:0:
255,275,100746,1,10,0:1:0:0:
265,265,100823,2,0,L|346:249,1,70,10|0,0:3|0:0,0:0:0:0:
405,195,101130,2,0,L|411:158,3,35,10|10|10|10,0:1|0:1|0:1|0:1,0:0:0:0:
390,119,101438,2,0,L|384:82,3,35,10|10|10|10,0:2|0:1|0:1|0:1,0:0:0:0:
359,45,101746,2,0,L|254:29,1,105,10|2,0:1|0:1,0:0:0:0:
121,0,102207,1,2,0:0:0:0:
118,13,102284,1,2,0:0:0:0:
116,26,102361,2,0,L|120:103,1,70,10|10,0:1|0:1,0:0:0:0:
81,179,102669,2,0,L|84:220,3,35,10|10|10|10,0:2|0:1|0:1|0:1,0:0:0:0:
98,256,102976,6,0,B|134:268|134:268|145:286|145:286|191:302,1,105,10|10,0:1|0:1,0:0:0:0:
254,181,103438,1,2,0:0:0:0:
264,171,103515,1,2,0:0:0:0:
275,162,103592,2,0,L|349:149,1,70,10|10,0:1|0:1,0:0:0:0:
430,181,103900,2,0,L|437:217,3,35,10|10|10|10,0:2|0:1|0:1|0:1,0:0:0:0:
461,253,104207,2,0,L|441:373,2,105,10|10|10,0:1|0:1|0:1,0:0:0:0:
494,156,104823,2,0,L|486:97,3,35,10|10|10|10,0:1|0:1|0:1|0:1,0:0:0:0:
449,99,105130,2,0,L|424:51,3,35,10|10|10|10,0:1|0:1|0:1|0:1,0:0:0:0:
386,63,105438,6,0,L|350:40,15,35,14|0|0|0|0|0|0|0|0|0|0|0|0|0|0|0,0:1|0:0|0:0|0:0|0:0|0:0|0:0|0:0|0:0|0:0|0:0|0:0|0:0|0:0|0:0|0:0,0:0:0:0:
309,63,106669,6,0,B|269:52|269:52|240:62|240:62|179:43,1,115.50000352478,14|10,0:1|0:1,0:0:0:0:
65,11,107130,1,2,0:0:0:0:
75,22,107207,1,2,0:0:0:0:
84,34,107284,2,0,P|98:62|98:117,1,77.0000023498536,10|10,0:1|0:1,0:0:0:0:
41,179,107592,2,0,L|34:225,3,38.5000011749268,10|10|10|10,0:2|0:1|0:1|0:1,0:0:0:0:
24,262,107900,2,0,P|24:300|40:335,1,77.0000023498536,10|10,0:1|0:1,0:0:0:0:
128,361,108207,2,0,L|169:354,3,38.5000011749268,10|10|10|10,0:3|0:1|0:1|0:1,0:0:0:0:
210,367,108515,2,0,P|225:332|225:294,1,77.0000023498536,2|10,0:2|0:1,0:0:0:0:
191,206,108823,1,10,0:2:0:0:
188,190,108900,1,10,0:1:0:0:
191,175,108976,1,10,0:1:0:0:
197,161,109053,1,10,0:1:0:0:
209,152,109130,6,0,L|332:129,1,115.50000352478,10|10,0:1|0:1,0:0:0:0:
440,204,109592,1,2,0:0:0:0:
453,197,109669,1,2,0:0:0:0:
466,190,109746,2,0,L|457:108,1,77.0000023498536,10|10,0:1|0:1,0:0:0:0:
502,32,110053,2,0,B|474:28|474:28|453:38|453:38|403:35,1,77.0000023498536,10|10,0:2|0:1,0:0:0:0:
335,49,110361,2,0,L|294:38,3,38.5000011749268,10|10|10|10,0:1|0:1|0:1|0:1,0:0:0:0:
251,43,110669,2,0,P|228:82|234:128,1,77.0000023498536,10|10,0:3|0:1,0:0:0:0:
282,187,110976,2,0,L|323:198,3,38.5000011749268,10|10|10|10,0:1|0:1|0:2|0:1,0:0:0:0:
344,236,111284,2,0,P|351:273|338:309,1,77.0000023498536,10|10,0:1|0:1,0:0:0:0:
247,357,111592,6,0,L|168:342,1,77.0000023498536,10|0,0:1|0:0,0:0:0:0:
160,347,111823,1,10,0:1:0:0:
150,353,111900,2,0,L|71:338,1,77.0000023498536,10|2,0:0|0:0,0:0:0:0:
1,282,112207,1,2,0:0:0:0:
76,228,112361,1,10,0:1:0:0:
20,154,112515,2,0,P|11:113|26:76,1,77.0000023498536,10|2,0:0|0:0,0:0:0:0:
35,73,112746,1,2,0:0:0:0:
48,66,112823,2,0,L|218:47,1,154.000004699707,10|10,0:1|0:3,0:0:0:0:
368,158,113438,2,0,L|377:106,3,38.5000011749268,10|10|10|10,0:1|0:1|0:1|0:2,0:0:0:0:
403,78,113746,2,0,P|428:72|452:73,3,38.5000011749268,10|10|10|10,0:2|0:1|0:1|0:1,0:0:0:0:
481,103,114053,6,0,B|488:140|488:140|481:179|481:179|493:235,1,115.50000352478,10|10,0:1|0:1,0:0:0:0:
435,355,114515,1,2,0:0:0:0:
427,341,114592,1,2,0:0:0:0:
419,327,114669,2,0,P|380:311|345:314,1,77.0000023498536,10|10,0:1|0:1,0:0:0:0:
258,362,114976,2,0,L|264:280,1,77.0000023498536,10|10,0:2|0:1,0:0:0:0:
299,190,115284,2,0,B|293:154|293:154|297:122|297:122|290:59,1,115.50000352478,10|10,0:1|0:1,0:0:0:0:
102,7,115823,1,8,0:0:0:0:
91,18,115900,2,0,L|80:111,1,77.0000023498536,10|10,0:1|0:2,0:0:0:0:
19,162,116207,1,10,0:1:0:0:
12,153,116284,1,10,0:1:0:0:
8,143,116361,1,10,0:1:0:0:
7,132,116438,1,10,0:1:0:0:
8,123,116515,1,14,0:1:0:0:
65,283,117746,6,0,B|157:260|122:319|220:302,1,157.500006008148,2|2,0:0|0:0,0:0:0:0:
299,238,118515,1,0,0:0:0:0:
273,192,118669,1,0,0:0:0:0:
295,144,118823,1,2,0:0:0:0:
379,82,119130,1,2,0:0:0:0:
379,82,119207,1,2,0:0:0:0:
379,82,119284,2,0,L|451:73,1,52.5000020027161,2|0,0:0|0:0,0:0:0:0:
497,119,119592,2,0,L|504:154,3,26.2500010013581,2|0|0|0,0:0|0:0|0:0|0:0,0:0:0:0:
493,169,119900,2,0,L|500:204,3,26.2500010013581,2|0|0|0,0:0|0:0|0:0|0:0,0:0:0:0:
483,216,120207,6,0,B|434:223|434:223|405:262|405:262|333:269,1,157.500006008148,2|2,0:0|0:0,0:0:0:0:
248,227,120976,1,0,0:0:0:0:
264,177,121130,1,0,0:0:0:0:
248,126,121284,1,2,0:0:0:0:
174,46,121592,2,0,L|108:37,1,52.5000020027161,0|0,0:0|0:0,0:0:0:0:
52,67,121900,1,2,0:0:0:0:
52,67,121976,1,0,0:0:0:0:
52,67,122053,2,0,L|41:110,3,26.2500010013581,0|0|0|0,0:0|0:0|0:0|0:0,0:0:0:0:
27,112,122361,2,0,L|16:155,3,26.2500010013581,2|0|0|0,0:0|0:0|0:0|0:0,0:0:0:0:
4,158,122669,6,0,B|55:181|55:181|63:217|63:217|126:261,1,157.500006008148,2|2,0:0|0:0,0:0:0:0:
204,310,123438,1,0,0:0:0:0:
198,257,123592,1,0,0:0:0:0:
225,211,123746,1,2,0:0:0:0:
304,279,124053,2,0,L|376:289,1,52.5000020027161,0|0,0:0|0:0,0:0:0:0:
418,348,124361,1,2,0:0:0:0:
418,348,124438,1,0,0:0:0:0:
418,348,124515,2,0,L|456:342,3,26.2500010013581,0|0|0|0,0:0|0:0|0:0|0:0,0:0:0:0:
470,348,124823,2,0,L|477:302,3,26.2500010013581,2|0|0|0,0:0|0:0|0:0|0:0,0:0:0:0:
492,303,125130,6,0,P|506:266|475:203,1,105.000004005432,2|0,0:0|0:0,0:0:0:0:
422,155,125592,2,0,B|354:135|354:135|298:168|298:168|214:148,1,210.000008010865,2|0,0:0|0:0,0:0:0:0:
162,104,126361,6,0,L|155:72,3,26.2500010013581,2|0|0|0,0:0|0:0|0:0|0:0,0:0:0:0:
143,55,126669,2,0,L|115:37,3,26.2500010013581,2|0|0|0,0:0|0:0|0:0|0:0,0:0:0:0:
94,33,126976,2,0,L|61:40,3,26.2500010013581,2|0|0|0,0:0|0:0|0:0|0:0,0:0:0:0:
43,52,127284,2,0,L|25:79,3,26.2500010013581,2|0|0|0,0:0|0:0|0:0|0:0,0:0:0:0:
13,110,127592,5,14,0:1:0:0:
13,110,127746,2,0,L|25:204,1,70,2|10,0:0|0:3,0:0:0:0:
81,257,128053,2,0,B|113:244|113:244|147:249,1,70,2|2,0:0|0:0,0:0:0:0:
176,344,128361,2,0,B|208:357|208:357|242:351,1,70,10|10,0:1|0:0,0:0:0:0:
309,278,128669,2,0,B|316:231|316:231|310:195|310:195|319:122,1,140,2|2,0:0|0:0,0:0:0:0:
324,127,129053,1,10,0:1:0:0:
334,117,129130,2,0,L|432:95,1,70,10|2,0:3|0:0,0:0:0:0:
481,164,129438,2,0,L|483:262,1,70,10|10,0:1|0:1,0:0:0:0:
489,246,129669,1,10,0:2:0:0:
494,258,129746,2,0,L|496:356,1,70,10|10,0:2|0:1,0:0:0:0:
391,370,130053,5,10,0:1:0:0:
391,370,130207,2,0,P|354:346|321:344,1,70,2|10,0:0|0:3,0:0:0:0:
233,368,130515,2,0,P|198:361|170:341,1,70,2|2,0:0|0:0,0:0:0:0:
124,270,130823,1,10,0:1:0:0:
181,209,130976,1,10,0:0:0:0:
256,245,131130,2,0,B|307:236|307:236|337:247|337:247|417:236,1,140,2|2,0:0|0:0,0:0:0:0:
465,172,131592,2,0,L|464:101,1,70,10|0,0:3|0:0,0:0:0:0:
460,88,131823,1,8,0:0:0:0:
451,76,131899,2,0,L|374:56,1,70,10|10,0:1|0:2,0:0:0:0:
292,19,132207,2,0,L|235:23,3,35,10|10|10|10,0:1|0:1|0:1|0:1,0:0:0:0:
218,52,132515,6,0,B|205:98|205:98|214:139|214:139|202:187,1,140,10|10,0:1|0:3,0:0:0:0:
202,286,132976,2,0,P|173:272|133:262,1,70,2|2,0:0|0:0,0:0:0:0:
65,308,133284,1,10,0:1:0:0:
10,244,133438,1,10,0:0:0:0:
56,173,133592,2,0,B|68:125|68:125|58:89|58:89|69:36,1,140,2|2,0:0|0:1,0:0:0:0:
165,18,134053,2,0,L|175:103,1,70,10|2,0:3|0:0,0:0:0:0:
239,161,134361,1,10,0:1:0:0:
250,152,134438,2,0,P|292:135|339:144,1,70,10|10,0:2|0:0,0:0:0:0:
324,147,134669,2,0,L|344:247,1,70,10|2,0:0|0:0,0:0:0:0:
433,272,134976,6,0,B|452:133,1,140,10|10,0:1|0:3,0:0:0:0:
489,41,135438,2,0,B|447:56|447:56|344:39,1,140,2|8,0:0|0:1,0:0:0:0:
257,14,135900,1,10,0:0:0:0:
208,98,136053,2,0,L|221:250,1,140,2|2,0:0|0:0,0:0:0:0:
186,330,136515,1,10,0:3:0:0:
92,301,136669,1,10,0:1:0:0:
87,287,136746,1,10,0:2:0:0:
83,273,136823,2,0,L|88:194,1,70,10|10,0:1|0:2,0:0:0:0:
92,111,137130,1,10,0:1:0:0:
78,114,137207,1,10,0:1:0:0:
64,117,137284,1,10,0:1:0:0:
0,36,137438,5,14,0:1:0:0:
