osu file format v14

[General]
AudioFilename: audio.mp3
AudioLeadIn: 0
PreviewTime: 42362
Countdown: 0
SampleSet: Soft
StackLeniency: 0.7
Mode: 0
LetterboxInBreaks: 0
WidescreenStoryboard: 1

[Editor]
Bookmarks: 10670,95593
DistanceSpacing: 1.3
BeatDivisor: 4
GridSize: 4
TimelineZoom: 2.5

[Metadata]
Title:Gardens Under A Spring Sky
TitleUnicode:Gardens Under A Spring Sky
Artist:Fractal Dreamers
ArtistUnicode:Fractal Dreamers
Creator:[Mahua]
Version:gary00737's Insane
Source:osu!
Tags:mappers' guild featured artist electronic piano instrumental monolithia Yugu gary00737 Otosaka-Yu Suzuki_1112 1112deng
BeatmapID:2104149
BeatmapSetID:985385

[Difficulty]
HPDrainRate:5
CircleSize:3.5
OverallDifficulty:6
ApproachRate:7.5
SliderMultiplier:1.35
SliderTickRate:1

[Events]
//Background and Video events
0,0,"bg1.png",0,0
//Break Periods
2,77331,92847
//Storyboard Layer 0 (Background)
//Storyboard Layer 1 (Fail)
//Storyboard Layer 2 (Pass)
//Storyboard Layer 3 (Foreground)
//Storyboard Layer 4 (Overlay)
//Storyboard Sound Samples

[TimingPoints]
824,307.692307692308,4,2,0,27,1,0
10670,-133.333333333333,4,2,0,40,0,0
10747,-133.333333333333,4,2,0,27,0,0
10977,-133.333333333333,4,2,0,24,0,0
11054,-133.333333333333,4,2,0,27,0,0
19593,-133.333333333333,4,2,0,30,0,0
20516,-100,4,2,0,55,0,0
27900,-100,4,1,0,55,0,0
32824,-133.333333333333,4,2,0,55,0,0
42670,-100,4,2,0,55,0,0
46670,-100,4,2,0,43,0,0
46747,-100,4,2,0,55,0,0
51285,-100,4,1,0,25,0,0
51593,-100,4,1,0,37,0,0
51900,-100,4,1,0,46,0,0
52208,-100,4,1,0,55,0,0
52516,-100,4,2,0,55,0,0
53593,-200,4,2,0,55,0,0
56824,-133.333333333333,4,2,0,55,0,0
57285,-133.333333333333,4,2,0,37,0,0
57439,-133.333333333333,4,2,0,55,0,0
60054,-133.333333333333,4,2,0,25,0,0
60208,-133.333333333333,4,2,0,55,0,0
61131,-133.333333333333,4,1,0,55,0,0
62362,-100,4,2,0,55,0,0
100824,-100,4,2,0,40,0,0
100900,-100,4,2,0,55,0,0
104824,-100,4,1,0,40,0,0
105131,-100,4,1,0,46,0,0
105439,-100,4,2,0,55,0,0
116208,-100,4,1,0,34,0,0
116516,-100,4,1,0,49,0,0
116670,-100,4,2,0,49,0,0
117747,-133.333333333333,4,2,0,55,0,0
127593,-100,4,2,0,55,0,0

[Colours]
Combo1 : 117,117,187
Combo2 : 16,233,233
Combo3 : 62,62,255

[HitObjects]
256,192,8208,12,0,10362,0:0:0:0:
155,254,10670,6,0,P|200:222|256:229,1,101.250003862381,4|4,0:0|0:0,0:0:0:0:
312,275,11131,1,0,0:0:0:0:
312,275,11285,2,0,P|308:223|303:162,1,101.250003862381,0|0,0:0|0:3,0:0:0:0:
280,3,11900,2,0,P|320:42|381:42,1,101.250003862381,2|0,0:0|0:0,0:0:0:0:
444,16,12362,1,0,0:0:0:0:
445,16,12516,2,0,P|440:66|437:116,1,101.250003862381,0|0,0:0|0:0,0:0:0:0:
410,198,12977,1,0,0:0:0:0:
410,198,13131,6,0,B|457:184|450:223|512:206,2,101.250003862381,2|0|0,0:0|0:0|0:0,0:0:0:0:
277,307,14054,1,0,0:0:0:0:
277,307,14362,6,0,B|300:260|272:212|272:212|240:157|283:100,1,202.500007724762,2|0,0:0|0:0,0:0:0:0:
344,66,15131,1,0,0:0:0:0:
344,66,15285,1,0,3:0:0:0:
183,128,15593,6,0,P|133:119|77:113,1,101.250003862381,2|0,0:0|0:0,0:0:0:0:
17,169,16054,1,0,0:0:0:0:
17,169,16208,2,0,P|8:219|2:275,1,101.250003862381,0|0,0:0|0:0,0:0:0:0:
224,294,16824,6,0,P|233:244|239:188,1,101.250003862381,2|0,0:0|0:0,0:0:0:0:
308,144,17285,1,0,0:0:0:0:
308,144,17439,2,0,P|358:153|414:159,1,101.250003862381,0|2,0:0|0:3,0:0:0:0:
374,378,18054,6,0,P|324:369|268:363,1,101.250003862381,2|0,0:0|0:0,0:0:0:0:
224,294,18516,1,0,0:0:0:0:
224,294,18670,2,0,P|174:303|118:309,1,101.250003862381,0|0,0:0|3:0,0:0:0:0:
0,187,19285,1,0,0:0:0:0:
121,64,19593,5,0,0:0:0:0:
123,186,19900,1,0,0:0:0:0:
61,126,20208,1,0,0:0:0:0:
183,124,20516,5,4,1:3:0:0:
182,124,20671,2,0,P|216:126|250:130,1,67.5,0|8,0:0|1:2,0:0:0:0:
336,112,20977,1,0,0:0:0:0:
336,112,21054,1,0,0:0:0:0:
336,112,21131,2,0,P|343:72|346:34,1,67.5,0|0,0:0|1:0,0:0:0:0:
422,94,21439,1,8,1:3:0:0:
309,195,21593,6,0,P|299:270|292:345,1,135,0|0,0:0|0:0,0:0:0:0:
297,333,21977,1,0,0:0:0:0:
301,337,22054,1,8,1:2:0:0:
220,266,22208,1,0,0:0:0:0:
143,308,22362,2,0,P|124:303|103:303,3,33.75,0|0|0|0,1:0|0:0|1:0|0:0,0:0:0:0:
95,260,22670,2,0,P|76:267|59:279,3,33.75,0|0|0|0,1:0|0:0|0:0|0:0,0:0:0:0:
25,294,22977,6,0,P|36:246|26:207,1,67.5,4|0,0:3|0:0,0:0:0:0:
4,145,23285,1,4,1:0:0:0:
4,145,23439,2,0,P|77:141|117:82,1,135,0|4,0:0|3:0,0:0:0:0:
115,8,23900,1,0,1:0:0:0:
117,100,24054,2,0,P|161:148|226:148,1,135,0|0,0:0|0:0,0:0:0:0:
291,86,24516,1,8,1:2:0:0:
365,151,24670,1,8,1:3:0:0:
365,151,24747,1,0,0:0:0:0:
365,151,24824,2,0,L|360:202,3,33.75,8|0|0|0,1:3|0:0|1:0|0:0,0:0:0:0:
332,216,25131,2,0,L|337:267,3,33.75,0|0|0|0,1:0|1:0|1:0|1:0,0:0:0:0:
342,293,25439,6,0,P|302:271|256:272,1,67.5,4|0,0:3|0:0,0:0:0:0:
197,296,25747,1,8,1:2:0:0:
197,296,25900,2,0,P|191:202|183:137,1,135,0|4,0:0|0:3,0:0:0:0:
144,83,26362,1,0,1:0:0:0:
144,83,26516,1,0,0:0:0:0:
307,147,26824,6,0,P|362:134|393:133,1,67.5,0|8,0:0|1:2,0:0:0:0:
459,180,27131,1,0,0:0:0:0:
459,180,27208,1,0,0:0:0:0:
459,180,27285,2,0,L|454:231,3,33.75,0|0|4|0,1:0|0:0|1:3|0:0,0:0:0:0:
426,245,27593,2,0,L|431:296,3,33.75,0|0|0|0,1:0|0:0|0:0|0:0,0:0:0:0:
458,312,27900,6,0,B|352:293|381:387|250:357,1,202.5,0|0,0:2|0:0,0:0:0:0:
202,303,28516,1,2,0:2:0:0:
202,303,28593,1,0,0:0:0:0:
202,303,28670,2,0,L|209:239,4,33.75,8|0|0|0|0,0:3|0:0|0:0|0:0|0:0,0:0:0:0:
126,210,29131,6,0,L|119:146,3,33.75,2|0|0|0,0:2|0:0|0:0|0:0,0:0:0:0:
84,153,29439,2,0,L|115:97,3,33.75,2|0|0|0,0:2|0:0|0:0|0:0,0:0:0:0:
83,82,29747,2,0,L|141:55,3,33.75,0|0|0|0,0:0|0:0|0:0|0:0,0:0:0:0:
123,23,30054,2,0,L|186:36,3,33.75,0|0|0|0,0:0|0:0|0:0|0:0,0:0:0:0:
199,38,30362,5,4,0:1:0:0:
169,187,32824,6,0,L|158:138,2,50.6250019311906,0|0|0,0:0|0:0|0:0,0:0:0:0:
165,273,33285,2,0,P|198:237|262:230,1,101.250003862381,2|0,0:0|0:0,0:0:0:0:
326,263,33747,1,0,0:0:0:0:
326,263,33900,2,0,P|335:196|345:140,1,101.250003862381,2|0,0:0|0:0,0:0:0:0:
378,85,34362,1,0,0:0:0:0:
378,85,34516,1,0,0:0:0:0:
292,92,34670,6,0,L|260:88,3,25.3125009655953,2|0|0|0,0:0|0:0|0:0|0:0,0:0:0:0:
227,106,34977,2,0,L|195:102,3,25.3125009655953,2|0|0|0,0:0|0:0|0:0|0:0,0:0:0:0:
163,123,35285,6,0,L|183:57,2,50.6250019311906,2|0|0,0:0|0:0|0:0,0:0:0:0:
102,185,35747,2,0,P|138:247|122:288,1,101.250003862381,2|0,0:0|0:0,0:0:0:0:
86,345,36208,1,0,0:0:0:0:
86,345,36362,2,0,P|159:331|204:328,1,101.250003862381,2|0,0:0|0:0,0:0:0:0:
267,356,36824,1,0,0:0:0:0:
267,356,36977,1,0,0:0:0:0:
342,314,37131,6,0,P|352:300|362:293,3,25.3125009655953,2|0|0|0,0:0|0:0|0:0|0:0,0:0:0:0:
401,286,37439,2,0,P|417:291|427:298,3,25.3125009655953,2|0|0|0,0:0|0:0|0:0|0:0,0:0:0:0:
454,327,37747,6,0,L|448:385,2,50.6250019311906,2|0|0,0:0|0:0|0:0,0:0:0:0:
503,256,38208,2,0,P|469:209|469:162,1,101.250003862381,2|0,0:0|0:0,0:0:0:0:
506,89,38670,1,0,0:0:0:0:
456,172,38824,2,0,P|378:164|349:159,1,101.250003862381,2|0,0:0|0:0,0:0:0:0:
277,123,39285,1,0,0:0:0:0:
277,123,39439,1,0,0:0:0:0:
346,72,39593,1,2,0:0:0:0:
316,299,39900,1,2,0:0:0:0:
134,159,40208,5,2,0:0:0:0:
134,159,40516,5,0,0:0:0:0:
76,223,40670,2,0,L|83:290,1,50.6250019311906,2|0,0:0|0:0,0:0:0:0:
76,359,40977,2,0,L|126:353,2,50.6250019311906,0|2|2,0:0|0:0|0:0,0:0:0:0:
212,359,41439,6,0,L|205:292,1,50.6250019311906,0|0,0:0|0:0,0:0:0:0:
212,223,41747,2,0,L|145:230,1,50.6250019311906,2|2,0:0|0:0,0:0:0:0:
282,270,42054,2,0,L|349:263,1,50.6250019311906,0|2,0:0|0:0,0:0:0:0:
452,316,42362,2,0,L|385:309,1,50.6250019311906,0|2,0:0|0:0,0:0:0:0:
413,158,42670,6,0,L|406:225,2,67.5,4|0|8,1:2|0:0|1:2,0:0:0:0:
465,87,43131,2,0,L|498:83,2,33.75,0|0|0,0:0|0:0|0:0,0:0:0:0:
377,77,43439,1,4,0:3:0:0:
325,148,43593,2,0,L|258:141,1,67.5,0|0,1:3|0:0,0:0:0:0:
175,172,43900,6,0,L|108:165,1,67.5,0|0,1:0|0:0,0:0:0:0:
150,272,44208,1,8,0:0:0:0:
246,245,44362,1,0,0:0:0:0:
246,245,44439,1,0,0:0:0:0:
246,245,44516,2,0,L|279:248,3,33.75,0|0|0|0,1:0|0:0|1:0|0:0,0:0:0:0:
312,278,44824,2,0,L|345:274,3,33.75,0|0|0|0,1:0|0:0|0:0|0:0,0:0:0:0:
385,291,45131,6,0,P|379:246|389:211,1,67.5,0|0,1:0|0:0,0:0:0:0:
450,167,45439,1,12,0:0:0:0:
450,167,45593,2,0,P|383:178|324:133,1,135,0|4,0:0|0:3,0:0:0:0:
308,57,46054,1,0,1:0:0:0:
245,119,46208,2,0,L|178:112,1,67.5,0|0,0:0|1:0,0:0:0:0:
101,220,46516,2,0,L|168:213,1,67.5,0|8,0:0|1:2,0:0:0:0:
269,206,46824,1,0,0:0:0:0:
269,206,46900,1,0,0:0:0:0:
269,206,46977,2,0,L|265:239,3,33.75,4|0|0|0,1:3|0:0|1:0|0:0,0:0:0:0:
236,272,47285,2,0,L|239:305,3,33.75,4|0|0|0,1:3|1:0|1:0|1:0,0:0:0:0:
247,349,47593,5,0,1:0:0:0:
327,384,47747,1,0,0:0:0:0:
412,368,47900,1,12,0:0:0:0:
473,307,48054,2,0,L|456:146,1,135,0|4,0:0|0:3,0:0:0:0:
476,78,48516,1,0,1:0:0:0:
476,78,48670,2,0,P|437:126|359:127,1,135,0|0,0:0|0:0,0:0:0:0:
315,65,49131,1,8,0:0:0:0:
397,53,49285,1,0,0:0:0:0:
285,142,49439,2,0,L|124:125,1,135,0|0,1:0|1:0,0:0:0:0:
15,309,50054,6,0,P|64:359|147:358,1,135,0|12,1:0|0:0,0:0:0:0:
212,311,50516,2,0,L|204:388,1,67.5,0|0,0:0|0:0,0:0:0:0:
299,298,50824,1,4,0:3:0:0:
299,298,50977,2,0,L|291:375,1,67.5,0|0,1:0|0:0,0:0:0:0:
381,247,51285,6,0,L|385:285,3,33.75,0|0|0|0,0:0|0:0|0:0|0:0,0:0:0:0:
419,207,51593,2,0,L|456:215,3,33.75,0|0|0|0,0:0|0:0|0:0|0:0,0:0:0:0:
392,158,51900,2,0,L|411:124,3,33.75,0|0|0|0,0:0|0:0|0:0|0:0,0:0:0:0:
337,168,52208,2,0,L|311:139,3,33.75,0|0|0|0,0:0|0:0|0:0|0:0,0:0:0:0:
329,223,52516,5,4,0:0:0:0:
161,207,53593,2,0,L|149:134,2,67.5,0|0|0,0:0|0:0|0:0,0:0:0:0:
161,207,54977,5,0,0:0:0:0:
161,207,56208,5,0,0:0:0:0:
176,292,56362,1,0,0:0:0:0:
263,305,56516,1,0,3:0:0:0:
302,227,56670,1,0,3:0:0:0:
239,166,56824,2,0,L|235:131,3,25.3125009655953,0|0|0|0,3:0|3:0|3:0|0:0,0:0:0:0:
216,102,57131,2,0,L|228:37,1,50.6250019311906,0|0,0:0|1:0,0:0:0:0:
304,16,57439,6,0,L|369:28,1,50.6250019311906,2|0,3:3|3:0,0:0:0:0:
437,51,57747,2,0,L|425:116,1,50.6250019311906,2|0,0:0|0:0,0:0:0:0:
419,143,57977,1,0,0:0:0:0:
419,143,58054,2,0,L|406:202,1,50.6250019311906,2|0,0:0|0:0,0:0:0:0:
388,273,58362,1,0,3:0:0:0:
373,376,58516,6,0,L|392:277,1,101.250003862381,0|0,3:0|0:0,0:0:0:0:
297,336,58977,2,0,L|246:343,1,50.6250019311906,2|0,3:2|0:0,0:0:0:0:
209,321,59208,1,0,0:0:0:0:
209,321,59285,2,0,L|183:324,2,25.3125009655953,2|0|0,3:2|0:0|0:0,0:0:0:0:
108,263,59593,2,0,L|57:270,1,50.6250019311906,2|0,0:0|0:0,0:0:0:0:
17,286,59824,1,0,0:0:0:0:
17,286,59900,6,0,B|38:255|38:255|27:179,1,101.250003862381,2|2,0:0|0:0,0:0:0:0:
4,108,60362,1,0,0:0:0:0:
4,108,60439,1,0,0:0:0:0:
4,108,60516,2,0,L|43:102,2,25.3125009655953,2|0|0,0:0|0:0|0:0,0:0:0:0:
110,131,60824,2,0,L|161:124,1,50.6250019311906,2|0,0:0|0:0,0:0:0:0:
245,111,61131,5,0,0:0:0:0:
330,98,61285,1,0,0:0:0:0:
415,85,61439,1,0,2:0:0:0:
500,72,61593,1,0,2:0:0:0:
468,152,61747,1,0,3:0:0:0:
472,156,61824,1,0,0:0:0:0:
476,161,61900,2,0,L|471:193,3,25.3125009655953,0|0|0|0,3:0|0:0|2:0|0:0,0:0:0:0:
477,322,62362,6,0,P|441:315|398:310,1,67.5,4|0,0:0|0:0,0:0:0:0:
337,361,62670,1,8,0:0:0:0:
337,361,62824,2,0,P|363:297|307:235,1,135,0|4,0:0|0:3,0:0:0:0:
251,206,63285,2,0,P|217:210|184:216,1,67.5,0|0,1:0|0:0,0:0:0:0:
123,281,63593,5,0,1:0:0:0:
96,197,63747,1,0,0:0:0:0:
155,133,63900,1,8,1:2:0:0:
128,49,64054,1,0,0:0:0:0:
214,67,64208,2,0,L|252:58,3,33.75,0|0|0|0,1:0|1:0|1:0|1:0,0:0:0:0:
273,23,64516,2,0,L|311:32,3,33.75,0|0|0|0,1:0|0:0|0:0|0:0,0:0:0:0:
346,49,64824,6,0,P|370:96|368:131,1,67.5,4|0,0:0|0:0,0:0:0:0:
342,192,65131,1,8,0:0:0:0:
342,192,65285,2,0,P|391:152|473:170,1,135,0|4,0:0|0:3,0:0:0:0:
503,235,65747,1,0,1:0:0:0:
483,319,65900,1,0,0:0:0:0:
483,319,65977,1,0,0:0:0:0:
483,319,66054,6,0,L|424:308,3,33.75,0|0|0|0,1:0|0:0|0:0|0:0,0:0:0:0:
411,334,66362,2,0,L|352:323,3,33.75,8|0|0|0,0:0|0:0|0:0|0:0,0:0:0:0:
339,349,66670,2,0,L|280:338,3,33.75,0|0|4|0,1:0|1:0|1:3|1:0,0:0:0:0:
267,364,66977,2,0,L|208:353,3,33.75,0|0|0|0,1:0|0:0|0:0|0:0,0:0:0:0:
190,346,67285,5,4,0:0:0:0:
125,286,67439,1,2,0:0:0:0:
104,199,67593,1,8,1:2:0:0:
135,115,67747,2,0,B|180:88|217:73|217:73|246:89|272:106,1,135,0|4,0:0|0:3,0:0:0:0:
328,141,68208,2,0,P|338:90|344:67,1,67.5,2|0,1:2|0:0,0:0:0:0:
420,34,68516,6,0,L|462:23,3,33.75,0|0|0|0,0:0|0:0|0:0|0:0,0:0:0:0:
454,88,68824,2,0,L|422:80,3,33.75,8|0|0|0,1:2|0:0|0:0|0:0,0:0:0:0:
419,142,69131,2,0,L|452:134,3,33.75,2|0|4|0,0:0|0:0|0:3|0:0,0:0:0:0:
454,196,69439,2,0,L|421:187,3,33.75,0|0|0|0,1:0|0:0|0:0|0:0,0:0:0:0:
430,244,69747,5,4,0:3:0:0:
384,318,69900,1,2,0:0:0:0:
304,353,70054,1,10,1:2:0:0:
218,337,70208,2,0,B|234:304|214:270|214:270|192:231|222:191,1,135,0|4,0:0|0:3,0:0:0:0:
284,156,70670,1,0,1:3:0:0:
284,156,70824,1,0,0:0:0:0:
131,69,71131,5,0,0:0:0:0:
131,69,71208,1,0,0:0:0:0:
131,69,71285,2,0,L|123:112,3,33.75,8|0|0|0,1:2|0:0|0:0|0:0,0:0:0:0:
94,134,71593,2,0,L|102:177,3,33.75,0|0|0|0,1:0|0:0|1:0|0:0,0:0:0:0:
131,199,71900,2,0,L|123:242,3,33.75,4|0|0|0,1:3|0:0|0:0|0:0,0:0:0:0:
112,274,72208,5,2,0:0:0:0:
199,267,72362,1,0,0:0:0:0:
298,193,72516,2,0,L|279:290,1,67.5,12|2,0:2|0:0,0:0:0:0:
277,303,72747,1,0,0:0:0:0:
277,303,72824,2,0,L|270:336,2,33.75,0|0|4,0:0|0:0|0:3,0:0:0:0:
372,252,73131,2,0,L|385:186,1,67.5,0|0,1:0|0:0,0:0:0:0:
394,142,73362,1,0,0:0:0:0:
394,142,73439,5,4,1:3:0:0:
411,56,73593,1,0,0:0:0:0:
328,85,73747,2,0,L|261:72,1,67.5,8|0,0:0|0:0,0:0:0:0:
222,92,73977,1,0,0:0:0:0:
222,92,74054,2,0,L|156:79,1,67.5,0|0,0:0|1:0,0:0:0:0:
69,60,74362,1,0,1:0:0:0:
29,138,74516,1,0,0:0:0:0:
29,138,74593,1,0,0:0:0:0:
29,138,74670,6,0,L|42:204,1,67.5,2|0,0:0|0:0,0:0:0:0:
36,291,74977,2,0,P|78:237|160:237,1,135,12|0,1:2|0:0,0:0:0:0:
218,186,75439,2,0,P|260:240|342:240,1,135,4|0,0:3|0:0,0:0:0:0:
378,179,75900,6,0,P|400:157|416:149,3,33.75,0|0|0|0,1:0|0:0|0:0|0:0,0:0:0:0:
424,117,76208,2,0,P|409:89|407:71,3,33.75,8|0|0|0,1:2|0:0|0:0|0:0,0:0:0:0:
379,54,76516,2,0,P|348:58|330:55,3,33.75,0|0|0|0,1:0|1:0|1:0|1:0,0:0:0:0:
305,77,76824,2,0,P|300:107|291:123,3,33.75,0|0|0|0,1:0|1:0|1:0|0:0,0:0:0:0:
304,154,77131,5,4,0:3:0:0:
256,192,93747,12,0,95285,0:0:0:0:
121,167,95593,6,0,L|271:136,1,135,4|12,0:0|1:2,0:0:0:0:
350,171,96054,1,0,0:0:0:0:
350,171,96131,1,0,0:0:0:0:
350,171,96208,2,0,L|385:164,3,33.75,0|0|0|0,1:0|1:0|1:0|0:0,0:0:0:0:
423,183,96516,2,0,L|458:176,3,33.75,0|0|0|0,1:0|0:0|0:0|1:0,0:0:0:0:
497,159,96824,6,0,B|487:203|487:203|496:239|496:239|477:315,1,135,2|8,1:2|1:2,0:0:0:0:
469,377,97285,1,0,0:0:0:0:
469,377,97362,1,0,0:0:0:0:
469,377,97439,2,0,P|444:362|428:356,3,33.75,0|0|0|0,1:0|1:0|1:0|0:0,0:0:0:0:
407,329,97747,2,0,P|378:336|363:343,3,33.75,0|0|0|0,1:0|0:0|0:0|0:0,0:0:0:0:
341,366,98054,6,0,P|333:315|311:222,1,135,2|12,1:2|1:2,0:0:0:0:
228,213,98516,1,0,0:0:0:0:
228,213,98593,1,0,0:0:0:0:
228,213,98670,2,0,L|171:206,3,33.75,0|0|4|0,1:0|1:0|1:3|0:0,0:0:0:0:
153,225,98977,2,0,L|96:218,3,33.75,0|0|0|0,1:0|0:0|1:0|1:0,0:0:0:0:
80,243,99285,6,0,P|70:184|62:158,1,67.5,2|0,1:2|0:0,0:0:0:0:
51,135,99516,1,2,0:0:0:0:
51,135,99593,1,12,0:0:0:0:
16,54,99747,1,2,0:0:0:0:
16,54,99824,1,0,0:0:0:0:
16,54,99900,2,0,L|58:50,3,33.75,0|0|4|0,1:0|0:0|1:3|1:0,0:0:0:0:
84,22,100208,2,0,L|126:26,3,33.75,0|0|0|0,1:0|0:0|0:0|0:0,0:0:0:0:
150,55,100516,6,0,P|204:101|281:81,1,135,2|12,1:2|1:0,0:0:0:0:
317,24,100977,1,0,0:0:0:0:
357,101,101131,2,0,L|353:134,3,33.75,0|0|4|0,1:0|1:0|1:3|0:0,0:0:0:0:
323,167,101439,2,0,L|326:200,3,33.75,0|0|0|0,1:0|0:0|0:0|1:0,0:0:0:0:
315,243,101747,6,0,P|376:232|411:241,1,67.5,2|0,1:2|0:0,0:0:0:0:
414,260,101977,6,0,P|425:321|416:356,1,67.5,2|0,0:0|0:0,0:0:0:0:
397,359,102208,6,0,P|336:370|301:361,1,67.5,2|0,0:0|1:0,0:0:0:0:
289,354,102439,1,0,1:0:0:0:
289,354,102516,2,0,L|294:307,6,33.75,0|0|4|0|0|0|4,1:0|0:0|1:3|0:0|0:0|0:0|0:3,0:0:0:0:
181,312,103131,1,0,0:0:0:0:
98,341,103285,1,12,1:2:0:0:
42,272,103439,1,0,0:0:0:0:
42,272,103516,1,0,0:0:0:0:
42,272,103593,2,0,P|39:245|37:229,2,33.75,0|0|4,1:0|1:0|1:3,0:0:0:0:
94,170,103900,2,0,P|91:143|89:127,3,33.75,0|0|0|0,1:0|0:0|1:0|1:0,0:0:0:0:
104,94,104208,6,0,P|165:83|200:92,1,67.5,2|0,1:2|0:0,0:0:0:0:
206,107,104439,6,0,P|239:106|277:92,1,67.5,2|0,1:2|0:0,0:0:0:0:
303,64,104670,6,0,P|364:53|399:62,1,67.5,2|0,1:2|0:0,0:0:0:0:
405,77,104900,1,0,0:0:0:0:
405,77,104977,2,0,L|408:110,6,33.75,0|0|0|0|0|0|4,0:0|0:0|0:0|0:0|0:0|0:0|1:2,0:0:0:0:
256,192,105516,12,0,106362,0:0:0:0:
208,126,106670,6,0,P|273:118|362:110,1,135,4|12,0:0|1:2,0:0:0:0:
428,153,107131,1,0,0:0:0:0:
428,153,107208,1,0,0:0:0:0:
428,153,107285,2,0,P|431:118|439:66,2,67.5,0|4|0,1:0|1:3|1:3,0:0:0:0:
428,241,107747,1,0,0:0:0:0:
369,305,107900,6,0,P|327:283|288:277,1,67.5,0|0,1:0|0:0,0:0:0:0:
243,217,108208,2,0,P|202:242|178:273,1,67.5,8|0,1:2|0:0,0:0:0:0:
103,282,108516,2,0,P|104:329|119:366,1,67.5,0|4,1:0|1:3,0:0:0:0:
126,201,108824,2,0,L|120:152,3,33.75,0|0|0|0,1:0|0:0|0:0|0:0,0:0:0:0:
86,141,109131,6,0,P|119:89|102:17,1,135,2|12,1:3|0:0,0:0:0:0:
32,71,109593,1,0,0:0:0:0:
176,70,109747,2,0,L|217:62,2,33.75,0|0|4,1:0|1:0|1:3,0:0:0:0:
284,103,110054,2,0,L|325:95,3,33.75,0|0|0|0,1:0|0:0|0:0|0:0,0:0:0:0:
343,60,110362,6,0,L|380:77,3,33.75,0|0|0|0,1:0|0:0|0:0|0:0,0:0:0:0:
416,59,110670,2,0,L|436:95,3,33.75,8|0|0|0,1:2|0:0|0:0|0:0,0:0:0:0:
475,101,110977,2,0,L|469:142,3,33.75,0|0|0|0,1:0|1:0|1:0|1:0,0:0:0:0:
498,169,111285,2,0,L|469:199,3,33.75,0|0|0|0,1:0|1:0|1:0|1:0,0:0:0:0:
435,214,111593,6,0,P|483:245|483:307,2,101.25,4|2|0,0:0|0:0|0:0,0:0:0:0:
347,202,112208,2,0,P|310:224|281:226,1,67.5,0|4,0:0|0:3,0:0:0:0:
207,267,112516,2,0,P|170:245|141:243,1,67.5,0|0,1:0|0:0,0:0:0:0:
71,289,112824,2,0,P|89:219|41:173,1,135,0|8,1:0|1:2,0:0:0:0:
178,55,113439,6,0,B|197:44|197:44|215:40,3,33.75,0|0|4|0,1:0|1:0|1:3|0:0,0:0:0:0:
237,75,113747,2,0,B|256:84|256:84|280:75,3,33.75,0|0|0|0,1:0|0:0|0:0|0:0,0:0:0:0:
272,122,114054,2,0,L|272:254,2,101.25,4|2|0,0:0|0:0|0:0,0:0:0:0:
370,154,114670,2,0,L|410:145,2,33.75,0|0|4,1:0|1:0|1:3,0:0:0:0:
373,244,114977,2,0,L|413:235,3,33.75,0|0|0|0,1:0|0:0|1:0|1:0,0:0:0:0:
448,224,115285,2,0,L|448:356,2,101.25,4|4|0,1:2|0:0|0:0,0:0:0:0:
490,147,115900,2,0,L|490:113,3,33.75,0|0|0|0,1:0|0:0|1:3|0:0,0:0:0:0:
458,82,116208,2,0,L|458:48,3,33.75,0|0|0|0,1:0|0:0|0:0|0:0,0:0:0:0:
458,3,116516,5,4,1:0:0:0:
175,125,117747,6,0,L|183:73,2,50.6250019311906,0|0|0,0:0|0:0|0:0,0:0:0:0:
98,163,118208,2,0,P|60:216|74:268,1,101.250003862381,2|0,0:0|0:0,0:0:0:0:
129,305,118670,1,0,0:0:0:0:
129,305,118824,2,0,L|246:294,1,101.250003862381,2|0,0:0|0:0,0:0:0:0:
265,319,119208,1,0,0:0:0:0:
265,319,119285,2,0,L|323:313,1,50.6250019311906,2|0,0:0|0:0,0:0:0:0:
401,323,119593,2,0,L|398:297,3,25.3125009655953,0|0|2|0,0:0|0:0|0:0|0:0,0:0:0:0:
379,259,119900,2,0,L|381:233,3,25.3125009655953,2|0|2|0,0:0|0:0|0:0|0:0,0:0:0:0:
398,193,120208,6,0,L|392:134,2,50.6250019311906,0|0|0,0:0|0:0|0:0,0:0:0:0:
483,205,120670,2,0,L|472:90,1,101.250003862381,2|0,0:0|0:0,0:0:0:0:
480,18,121131,1,0,0:0:0:0:
480,18,121285,2,0,P|436:60|380:57,1,101.250003862381,2|0,0:0|0:0,0:0:0:0:
320,102,121747,2,0,P|290:85|258:81,1,50.6250019311906,0|2,0:0|0:0,0:0:0:0:
232,92,121977,1,0,0:0:0:0:
232,92,122054,2,0,P|215:108|205:120,3,25.3125009655953,2|0|0|0,0:0|0:0|0:0|0:0,0:0:0:0:
174,128,122362,2,0,P|173:151|174:166,3,25.3125009655953,2|0|0|0,0:0|0:0|0:0|0:0,0:0:0:0:
185,195,122670,6,0,P|146:184|118:182,2,50.6250019311906,0|0|0,0:0|0:0|0:0,0:0:0:0:
244,256,123131,2,0,P|289:216|345:216,1,101.250003862381,2|0,0:0|0:0,0:0:0:0:
402,255,123593,1,0,0:0:0:0:
402,255,123747,1,2,0:0:0:0:
267,361,124054,6,0,P|220:354|203:354,1,50.6250019311906,0|0,0:0|0:0,0:0:0:0:
131,370,124362,1,2,0:0:0:0:
131,370,124439,1,0,0:0:0:0:
131,370,124516,2,0,P|128:345|123:327,3,25.3125009655953,0|0|2|0,0:0|0:0|0:0|0:0,0:0:0:0:
142,303,124824,2,0,P|122:287|105:278,3,25.3125009655953,2|0|0|0,0:0|0:0|0:0|0:0,0:0:0:0:
80,278,125131,5,2,0:0:0:0:
256,192,125208,12,0,127285,0:0:0:0:
120,164,127593,6,0,P|176:116|245:127,1,135,0|12,1:0|1:2,0:0:0:0:
313,173,128054,1,0,0:0:0:0:
313,173,128131,1,0,0:0:0:0:
313,173,128208,2,0,L|306:256,1,67.5,0|4,0:0|1:3,0:0:0:0:
283,325,128516,2,0,P|358:295|391:316,1,101.25,0|0,1:0|0:0,0:0:0:0:
403,331,128824,6,0,L|414:196,1,135,0|8,1:0|1:2,0:0:0:0:
451,116,129285,1,0,0:0:0:0:
451,116,129362,1,0,0:0:0:0:
451,116,129439,2,0,L|441:77,3,33.75,0|0|4|0,1:0|0:0|0:3|1:0,0:0:0:0:
458,41,129747,2,0,L|417:38,3,33.75,0|0|0|0,1:0|0:0|0:0|0:0,0:0:0:0:
390,10,130054,6,0,P|362:32|314:32,1,67.5,0|0,1:0|0:0,0:0:0:0:
247,8,130362,1,12,1:2:0:0:
247,8,130516,2,0,L|258:142,1,135,0|4,0:0|0:3,0:0:0:0:
298,220,130977,1,0,1:0:0:0:
298,220,131131,2,0,L|163:231,1,135,0|0,0:0|0:0,0:0:0:0:
86,271,131593,1,8,1:2:0:0:
32,201,131747,1,0,0:0:0:0:
32,201,131824,1,0,0:0:0:0:
32,201,131900,2,0,L|29:167,2,33.75,0|0|4,1:0|0:0|1:3,0:0:0:0:
86,271,132208,2,0,L|83:305,2,33.75,0|0|0,1:0|1:0|1:0,0:0:0:0:
163,230,132516,6,0,L|168:162,1,67.5,0|0,1:0|0:0,0:0:0:0:
145,77,132824,1,12,0:0:0:0:
236,111,132977,1,0,0:0:0:0:
236,111,133054,1,0,0:0:0:0:
236,111,133131,2,0,L|303:105,1,67.5,0|4,0:0|0:3,0:0:0:0:
387,77,133439,2,0,L|392:144,1,67.5,0|0,1:0|0:0,0:0:0:0:
421,228,133747,6,0,L|353:233,1,67.5,0|0,1:0|0:0,0:0:0:0:
270,262,134054,2,0,L|264:194,1,67.5,8|0,1:2|0:0,0:0:0:0:
230,165,134285,1,0,0:0:0:0:
230,165,134362,2,0,L|232:131,4,33.75,0|0|0|0|0,1:0|1:0|0:0|0:0|1:0,0:0:0:0:
0,268,134977,6,0,P|57:326|130:310,1,135,2|12,1:2|0:0,0:0:0:0:
159,253,135439,2,0,L|153:185,1,67.5,0|0,0:0|0:0,0:0:0:0:
142,98,135747,1,4,1:3:0:0:
72,151,135900,2,0,L|30:147,2,33.75,0|0|0,1:0|0:0|0:0,0:0:0:0:
153,185,136208,2,0,B|225:174|204:234|297:218,1,135,0|8,1:0|0:0,0:0:0:0:
369,189,136670,1,0,1:0:0:0:
369,189,136824,2,0,L|363:257,1,67.5,0|0,1:0|1:0,0:0:0:0:
457,179,137131,2,0,L|451:247,1,67.5,0|0,1:0|1:0,0:0:0:0:
405,113,137439,5,4,0:1:0:0:
