osu file format v14

[General]
AudioFilename: audio.mp3
AudioLeadIn: 0
PreviewTime: 42362
Countdown: 0
SampleSet: Soft
StackLeniency: 0.7
Mode: 0
LetterboxInBreaks: 0
WidescreenStoryboard: 1

[Editor]
DistanceSpacing: 0.8
BeatDivisor: 4
GridSize: 32
TimelineZoom: 2.5

[Metadata]
Title:Gardens Under A Spring Sky
TitleUnicode:Gardens Under A Spring Sky
Artist:Fractal Dreamers
ArtistUnicode:Fractal Dreamers
Creator:[Mahua]
Version:Yugu's Normal
Source:osu!
Tags:mappers' guild featured artist electronic piano instrumental monolithia Yugu gary00737 Otosaka-Yu Suzuki_1112 1112deng
BeatmapID:2101804
BeatmapSetID:985385

[Difficulty]
HPDrainRate:4
CircleSize:4
OverallDifficulty:4
ApproachRate:5
SliderMultiplier:1
SliderTickRate:1

[Events]
//Background and Video events
0,0,"bg1.png",0,0
//Break Periods
2,52715,56239
2,77330,85777
//Storyboard Layer 0 (Background)
//Storyboard Layer 1 (Fail)
//Storyboard Layer 2 (Pass)
//Storyboard Layer 3 (Foreground)
//Storyboard Layer 4 (Overlay)
//Storyboard Sound Samples

[TimingPoints]
824,307.692307692308,4,2,0,27,1,0
8516,-100,4,2,0,27,0,0
10670,-100,4,2,0,40,0,0
10747,-100,4,2,0,27,0,0
10977,-100,4,2,0,24,0,0
11054,-100,4,2,0,27,0,0
19593,-100,4,2,0,30,0,0
20516,-100,4,2,0,55,0,0
27900,-100,4,1,0,55,0,0
32824,-100,4,2,0,55,0,0
42670,-100,4,2,0,55,0,0
46670,-100,4,2,0,43,0,0
46747,-100,4,2,0,55,0,0
51285,-100,4,1,0,25,0,0
51593,-100,4,1,0,37,0,0
51900,-100,4,1,0,46,0,0
52208,-100,4,1,0,55,0,0
52516,-100,4,2,0,55,0,0
57285,-100,4,2,0,37,0,0
57439,-100,4,2,0,55,0,0
60054,-100,4,2,0,25,0,0
60208,-100,4,2,0,55,0,0
61131,-100,4,1,0,55,0,0
62362,-100,4,2,0,55,0,0
86977,-100,4,2,0,55,0,0
95593,-100,4,2,0,55,0,0
100824,-100,4,2,0,40,0,0
100900,-100,4,2,0,55,0,0
104824,-100,4,1,0,40,0,0
105131,-100,4,1,0,46,0,0
105439,-100,4,2,0,55,0,0
116208,-100,4,1,0,34,0,0
116516,-100,4,1,0,49,0,0
116670,-100,4,2,0,49,0,0
116824,-100,4,2,0,49,0,0
117747,-100,4,2,0,55,0,0
127593,-100,4,2,0,55,0,0

[Colours]
Combo1 : 94,189,247
Combo2 : 132,251,185
Combo3 : 18,124,255
Combo4 : 36,191,230

[HitObjects]
97,118,208,6,0,L|82:47,2,50,0|0|0,0:0|0:0|0:0,0:0:0:0:
146,180,823,2,0,L|122:295,1,100,2|2,0:0|0:0,0:0:0:0:
163,348,1439,1,0,0:0:0:0:
406,139,2670,6,0,L|478:127,2,50,0|0|0,0:0|0:0|0:0,0:0:0:0:
341,186,3285,2,0,L|239:168,1,100,2|0,0:0|0:0,0:0:0:0:
163,156,3900,1,0,0:0:0:0:
87,301,5131,6,0,P|70:334|66:360,2,50,0|0|0,0:0|0:0|0:0,0:0:0:0:
166,261,5747,2,0,P|231:267|328:381,1,200,2|2,0:0|0:0,0:0:0:0:
478,288,6977,2,0,L|464:67,1,200,2|2,0:0|0:0,0:0:0:0:
318,24,8208,5,0,0:0:0:0:
212,239,9131,2,0,P|165:267|111:270,1,100,0|0,0:0|0:0,0:0:0:0:
68,119,10054,2,0,L|9:103,2,50,0|0|0,0:0|0:0|0:0,0:0:0:0:
132,58,10670,6,0,P|180:56|267:184,1,200,4|0,0:0|0:0,0:0:0:0:
321,224,11593,1,0,0:3:0:0:
382,172,11900,6,0,L|497:166,2,100,2|0|0,0:0|0:0|0:0,0:0:0:0:
321,224,12824,1,0,0:0:0:0:
299,300,13131,6,0,P|247:329|112:266,1,200,2|0,0:0|0:0,0:0:0:0:
58,236,14054,1,0,0:0:0:0:
106,171,14362,6,0,P|130:122|122:61,2,100,2|0|0,0:0|0:0|0:0,0:0:0:0:
171,219,15285,1,0,3:0:0:0:
251,218,15593,6,0,L|473:212,1,200,2|0,0:0|0:0,0:0:0:0:
493,58,16824,2,0,L|273:63,1,200,2|0,0:0|0:0,0:0:0:0:
137,99,18054,6,0,P|135:44|159:-5,2,100,2|0|0,0:0|0:0|0:0,0:0:0:0:
181,165,18977,2,0,P|204:214|203:268,1,100,0|0,3:0|0:0,0:0:0:0:
232,334,19593,1,0,0:0:0:0:
311,324,19900,1,0,0:0:0:0:
390,314,20208,1,0,0:0:0:0:
446,257,20516,6,0,P|444:203|416:148,1,100,4|8,1:3|1:2,0:0:0:0:
416,81,21131,1,0,0:0:0:0:
416,81,21285,2,0,L|348:93,1,50,0|8,1:0|1:3,0:0:0:0:
299,45,21747,5,4,1:3:0:0:
220,32,22054,1,8,1:2:0:0:
140,19,22362,2,0,L|160:172,1,150,0|0,1:0|0:0,0:0:0:0:
128,193,22977,6,0,P|90:231|90:285,1,100,4|4,0:3|1:0,0:0:0:0:
140,334,23593,1,0,0:0:0:0:
140,334,23747,2,0,L|200:327,1,50,4|0,3:0|1:0,0:0:0:0:
259,367,24208,5,4,0:3:0:0:
274,288,24516,1,8,1:2:0:0:
289,209,24824,2,0,P|263:169|346:145,1,150,8|0,1:3|1:0,0:0:0:0:
364,159,25439,6,0,P|394:164|465:115,1,100,4|8,0:3|1:2,0:0:0:0:
509,191,26054,1,0,0:0:0:0:
509,191,26208,2,0,L|508:258,1,50,4|0,0:3|1:0,0:0:0:0:
465,308,26670,5,4,1:3:0:0:
397,264,26977,1,8,1:2:0:0:
392,345,27285,2,0,P|320:356|255:321,1,150,0|0,1:0|0:0,0:0:0:0:
218,307,27900,6,0,L|104:297,1,100,0|0,0:2|0:0,0:0:0:0:
102,219,28516,2,0,L|201:227,1,100,2|0,0:2|0:0,0:0:0:0:
256,192,29131,12,4,30362,0:1:0:0:
71,111,33285,6,0,L|174:103,1,100,2|0,0:0|0:0,0:0:0:0:
238,146,33900,2,0,L|338:138,1,100,2|0,0:0|0:0,0:0:0:0:
405,238,34670,1,2,0:0:0:0:
386,315,34977,1,2,0:0:0:0:
327,259,35285,6,0,P|249:274|210:334,1,150,2|2,0:0|0:0,0:0:0:0:
61,296,36362,2,0,P|56:241|70:194,1,100,2|0,0:0|0:0,0:0:0:0:
180,113,37131,1,2,0:0:0:0:
220,182,37439,1,2,0:0:0:0:
260,113,37747,6,0,P|344:93|383:22,1,150,2|2,0:0|0:0,0:0:0:0:
471,174,38824,2,0,L|462:275,1,100,2|0,0:0|0:0,0:0:0:0:
357,332,39593,1,2,0:0:0:0:
278,320,39900,1,2,0:0:0:0:
256,192,40208,12,0,42054,0:0:0:0:
250,135,42670,6,0,P|264:82|302:50,1,100,4|8,1:2|1:2,0:0:0:0:
376,43,43285,1,0,0:0:0:0:
376,43,43439,2,0,L|444:39,1,50,4|0,0:3|1:3,0:0:0:0:
486,92,43900,6,0,L|483:208,1,100,0|8,1:0|0:0,0:0:0:0:
425,248,44516,2,0,L|428:306,2,50,0|0|0,1:0|1:0|1:0,0:0:0:0:
349,218,45131,6,0,P|311:248|242:261,1,100,0|12,1:0|0:0,0:0:0:0:
187,291,45747,1,0,0:0:0:0:
187,291,45900,2,0,L|115:283,1,50,4|0,0:3|1:0,0:0:0:0:
80,229,46362,6,0,P|67:182|83:118,1,100,0|8,1:0|1:2,0:0:0:0:
136,79,46977,2,0,L|248:91,1,100,4|4,1:3|1:3,0:0:0:0:
269,110,47439,1,0,1:0:0:0:
269,110,47593,6,0,L|381:98,1,100,0|12,1:0|0:0,0:0:0:0:
441,67,48208,1,0,0:0:0:0:
441,67,48362,2,0,P|447:91|446:116,1,50,4|0,0:3|1:0,0:0:0:0:
395,177,48824,6,0,P|380:224|381:274,1,100,0|8,1:0|0:0,0:0:0:0:
324,330,49439,2,0,P|301:339|282:356,2,50,0|0|0,1:0|1:0|1:0,0:0:0:0:
298,253,50054,6,0,L|186:230,1,100,0|12,1:0|0:0,0:0:0:0:
121,250,50670,1,0,0:0:0:0:
121,250,50824,2,0,P|118:225|124:201,1,50,4|0,0:3|1:0,0:0:0:0:
189,154,51285,6,0,L|301:131,1,100,0|0,0:0|0:0,0:0:0:0:
365,151,51900,2,0,P|441:117|375:65,1,200,0|4,0:0|0:0,0:0:0:0:
207,132,57439,6,0,L|316:118,1,100,2|2,3:3|0:0,0:0:0:0:
367,170,58054,1,2,0:0:0:0:
367,170,58208,2,0,L|421:163,2,50,0|0|0,0:0|3:0|3:0,0:0:0:0:
343,202,58670,6,0,P|337:244|362:311,1,100,0|2,3:0|3:2,0:0:0:0:
293,351,59285,2,0,L|184:337,1,100,2|2,3:2|0:0,0:0:0:0:
121,372,59900,1,2,0:0:0:0:
256,82,61131,2,0,P|276:119|109:200,1,300,0|0,0:0|2:0,0:0:0:0:
55,146,62362,6,0,P|53:107|88:46,1,100,4|8,0:0|0:0,0:0:0:0:
149,14,62977,2,0,L|271:3,1,100,0|0,0:0|1:0,0:0:0:0:
318,44,63593,5,0,1:0:0:0:
391,12,63900,1,8,1:2:0:0:
384,91,64208,2,0,P|376:138|332:183,1,100,0|0,1:0|1:0,0:0:0:0:
263,172,64824,6,0,L|270:279,1,100,4|8,0:0|0:0,0:0:0:0:
275,311,65285,1,0,0:0:0:0:
351,334,65593,2,0,L|355:391,2,50,4|0|0,0:3|1:0|0:0,0:0:0:0:
382,309,66054,6,0,P|428:302|466:251,1,100,0|8,1:0|0:0,0:0:0:0:
488,187,66670,2,0,L|386:168,1,100,0|0,1:0|1:0,0:0:0:0:
340,103,67285,6,0,L|238:122,1,100,4|8,0:0|1:2,0:0:0:0:
202,130,67747,1,0,0:0:0:0:
146,187,68054,2,0,L|82:174,2,50,4|2|0,0:3|1:2|0:0,0:0:0:0:
155,226,68516,6,0,P|175:276|236:292,1,100,0|8,0:0|1:2,0:0:0:0:
283,335,69131,2,0,P|322:305|375:303,1,100,2|0,0:0|1:0,0:0:0:0:
446,329,69747,6,0,L|456:218,1,100,4|10,0:3|1:2,0:0:0:0:
459,189,70208,1,0,0:0:0:0:
406,128,70516,1,4,0:3:0:0:
330,154,70824,1,0,0:0:0:0:
256,124,71131,5,0,0:0:0:0:
256,124,71285,2,0,L|151:120,2,100,8|0|4,1:2|1:0|1:3,0:0:0:0:
232,200,72208,6,0,P|225:235|227:267,2,50,2|0|12,0:0|0:0|0:2,0:0:0:0:
113,221,72977,2,0,P|117:265|144:324,1,100,4|0,0:3|0:0,0:0:0:0:
216,335,73593,6,0,P|223:370|221:402,2,50,0|8|0,0:0|0:0|0:0,0:0:0:0:
248,312,74054,2,0,L|368:307,1,100,0|0,0:0|1:0,0:0:0:0:
416,266,74670,6,0,L|485:268,2,50,2|0|12,0:0|0:0|1:2,0:0:0:0:
381,151,75439,2,0,L|501:146,1,100,4|0,0:3|0:0,0:0:0:0:
498,110,75900,6,0,P|429:45|302:231,1,400,0|4,1:0|0:3,0:0:0:0:
184,121,86977,6,0,P|146:115|43:45,2,150,2|2|2,0:0|0:0|0:0,0:0:0:0:
257,88,88208,1,0,0:0:0:0:
349,165,88670,1,0,0:0:0:0:
349,165,88824,2,0,L|357:268,1,100,0|2,0:0|0:0,0:0:0:0:
322,337,89439,6,0,P|376:342|442:273,2,150,0|0|2,0:0|0:0|0:0,0:0:0:0:
273,273,90670,1,2,0:0:0:0:
166,327,91131,1,0,0:0:0:0:
166,327,91285,2,0,L|63:311,1,100,0|0,0:0|0:0,0:0:0:0:
32,239,91900,5,2,0:0:0:0:
126,109,92516,2,0,P|174:122|216:170,1,100,0|2,0:0|0:0,0:0:0:0:
252,223,93131,5,0,0:0:0:0:
331,217,93439,1,0,0:0:0:0:
410,211,93747,2,0,P|428:249|426:313,2,100,0|0|0,0:0|0:0|0:0,0:0:0:0:
232,15,95593,6,0,P|211:69|225:130,1,100,4|12,0:0|1:2,0:0:0:0:
272,165,96208,2,0,L|383:154,1,100,0|0,1:0|1:0,0:0:0:0:
407,172,96670,1,0,0:0:0:0:
407,172,96824,6,0,P|428:226|414:287,1,100,2|8,1:2|1:2,0:0:0:0:
360,316,97439,2,0,L|249:305,1,100,0|0,1:0|1:0,0:0:0:0:
224,322,97900,1,0,0:0:0:0:
224,322,98054,6,0,L|113:311,1,100,2|12,1:2|1:2,0:0:0:0:
67,255,98670,2,0,P|54:207|81:142,1,100,0|0,1:0|1:0,0:0:0:0:
132,113,99285,6,0,P|144:77|140:40,2,75,2|2|2,1:2|0:0|0:0,0:0:0:0:
161,139,99900,2,0,P|224:159|312:112,1,150,0|0,1:0|0:0,0:0:0:0:
330,103,100516,6,0,L|445:94,1,100,2|12,1:2|1:0,0:0:0:0:
490,147,101131,2,0,P|499:207|481:261,1,100,0|0,1:0|1:0,0:0:0:0:
458,270,101593,1,0,0:0:0:0:
458,270,101747,6,0,L|343:261,1,100,2|0,1:2|0:0,0:0:0:0:
278,255,102362,2,0,P|231:282|212:342,1,100,0|4,1:0|1:3,0:0:0:0:
212,362,102824,1,0,0:0:0:0:
212,362,102977,6,0,L|327:353,1,100,4|12,0:3|1:2,0:0:0:0:
365,294,103593,2,0,P|372:255|345:187,1,100,0|0,1:0|1:0,0:0:0:0:
386,125,104208,6,0,L|473:118,2,75,2|2|2,1:2|1:2|1:2,0:0:0:0:
362,92,104824,2,0,P|306:49|178:82,1,200,0|4,0:0|1:2,0:0:0:0:
266,312,106670,6,0,L|166:301,1,100,4|12,0:0|1:2,0:0:0:0:
103,251,107285,2,0,L|33:258,2,50,0|4|0,1:0|1:3|1:3,0:0:0:0:
97,171,107900,2,0,L|27:178,2,50,0|0|8,1:0|0:0|1:2,0:0:0:0:
91,91,108516,2,0,L|21:98,2,50,0|4|0,1:0|1:3|1:0,0:0:0:0:
116,60,108977,1,0,0:0:0:0:
116,60,109131,6,0,P|169:73|210:117,1,100,2|12,1:3|0:0,0:0:0:0:
279,115,109747,2,0,L|286:66,2,50,0|4|0,1:0|1:3|1:0,0:0:0:0:
357,128,110362,2,0,L|364:79,2,50,0|0|8,1:0|0:0|1:2,0:0:0:0:
435,141,110977,2,0,L|442:92,2,50,0|0|0,1:0|1:0|1:0,0:0:0:0:
479,209,111593,6,0,L|491:299,2,75,4|2|0,0:0|0:0|0:0,0:0:0:0:
442,226,112208,2,0,P|411:222|356:170,1,100,0|0,0:0|1:0,0:0:0:0:
279,175,112824,6,0,L|169:186,1,100,0|8,1:0|1:2,0:0:0:0:
128,247,113439,2,0,P|123:283|205:351,1,150,0|0,1:0|0:0,0:0:0:0:
239,340,114054,1,4,0:0:0:0:
309,301,114362,1,12,0:0:0:0:
372,349,114670,2,0,L|431:342,2,50,0|4|0,1:0|1:3|1:0,0:0:0:0:
309,301,115285,6,0,P|299:264|314:202,1,100,4|12,1:2|0:0,0:0:0:0:
378,159,115900,2,0,P|429:101|357:19,1,200,0|4,1:0|1:0,0:0:0:0:
287,46,116824,5,0,0:0:0:0:
207,36,117131,1,0,0:0:0:0:
127,27,117439,1,2,0:0:0:0:
47,18,117747,6,0,P|33:71|49:128,1,100,0|0,0:0|0:0,0:0:0:0:
73,138,118208,2,0,P|87:191|71:248,1,100,2|0,0:0|0:0,0:0:0:0:
270,350,119900,1,2,0:0:0:0:
324,291,120208,6,0,P|338:238|322:181,1,100,0|0,0:0|0:0,0:0:0:0:
298,171,120670,2,0,P|284:118|300:61,1,100,2|0,0:0|0:0,0:0:0:0:
454,25,122362,1,2,0:0:0:0:
504,87,122670,6,0,P|518:140|502:197,1,100,0|0,0:0|0:0,0:0:0:0:
478,207,123132,2,0,P|464:260|480:317,1,100,2|0,0:0|0:0,0:0:0:0:
301,310,124824,1,2,0:0:0:0:
237,358,125131,6,0,L|114:345,1,100,2|0,0:0|0:0,0:0:0:0:
114,314,125593,2,0,L|-9:301,1,100,0|0,0:0|0:0,0:0:0:0:
181,57,127593,6,0,P|205:94|212:154,1,100,0|12,1:0|1:2,0:0:0:0:
171,217,128208,1,0,0:0:0:0:
171,217,128362,2,0,P|208:229|236:226,1,50,4|0,1:3|1:0,0:0:0:0:
273,287,128824,6,0,L|392:282,1,100,0|8,1:0|1:2,0:0:0:0:
429,226,129439,2,0,L|484:230,2,50,0|4|0,1:0|0:3|1:0,0:0:0:0:
382,160,130054,6,0,P|341:139|312:74,1,100,0|12,1:0|1:2,0:0:0:0:
345,19,130670,1,0,0:0:0:0:
345,19,130824,2,0,L|408:21,1,50,4|0,0:3|1:0,0:0:0:0:
474,28,131285,6,0,L|470:127,1,100,0|8,1:0|1:2,0:0:0:0:
494,203,131900,2,0,P|454:233|405:239,1,100,0|0,1:0|1:0,0:0:0:0:
374,265,132362,1,0,1:0:0:0:
374,265,132516,6,0,P|334:235|285:229,1,100,0|12,1:0|0:0,0:0:0:0:
220,276,133131,2,0,L|225:337,2,50,0|4|0,0:0|0:3|1:0,0:0:0:0:
156,227,133747,6,0,P|113:213|85:167,1,100,0|8,1:0|1:2,0:0:0:0:
53,94,134362,2,0,L|157:86,1,100,0|0,1:0|1:0,0:0:0:0:
181,58,134824,1,0,0:0:0:0:
181,58,134977,6,0,P|229:64|265:97,1,100,2|12,1:2|0:0,0:0:0:0:
272,177,135593,1,0,0:0:0:0:
272,177,135747,2,0,L|264:245,1,50,4|0,1:3|1:0,0:0:0:0:
209,283,136208,6,0,P|253:304|302:297,1,100,0|8,1:0|0:0,0:0:0:0:
367,343,136824,1,0,1:0:0:0:
415,279,137131,1,0,1:0:0:0:
494,288,137439,5,4,0:1:0:0:
