osu file format v14

[General]
AudioFilename: audio.mp3
AudioLeadIn: 0
PreviewTime: 42362
Countdown: 0
SampleSet: Soft
StackLeniency: 0.7
Mode: 0
LetterboxInBreaks: 0
WidescreenStoryboard: 1

[Editor]
DistanceSpacing: 0.4
BeatDivisor: 4
GridSize: 4
TimelineZoom: 2.2

[Metadata]
Title:Gardens Under A Spring Sky
TitleUnicode:Gardens Under A Spring Sky
Artist:Fractal Dreamers
ArtistUnicode:Fractal Dreamers
Creator:[Mahua]
Version:Under
Source:osu!
Tags:mappers' guild featured artist electronic piano instrumental monolithia Yugu gary00737 Otosaka-Yu Suzuki_1112 1112deng
BeatmapID:2099676
BeatmapSetID:985385

[Difficulty]
HPDrainRate:8
CircleSize:5
OverallDifficulty:8
ApproachRate:9
SliderMultiplier:1.6
SliderTickRate:1

[Events]
//Background and Video events
0,0,"bg1.png",0,0
//Break Periods
2,31285,32224
//Storyboard Layer 0 (Background)
//Storyboard Layer 1 (Fail)
//Storyboard Layer 2 (Pass)
//Storyboard Layer 3 (Foreground)
//Storyboard Layer 4 (Overlay)
//Storyboard Sound Samples

[TimingPoints]
824,307.692307692308,4,2,0,27,1,0
8516,-285.714285714286,4,2,0,27,0,0
9131,-200,4,2,0,27,0,0
10670,-100,4,2,0,40,0,0
10747,-100,4,2,0,27,0,0
10977,-100,4,2,0,24,0,0
11054,-100,4,2,0,27,0,0
19593,-100,4,2,0,30,0,0
20516,-66.6666666666667,4,2,0,55,0,0
24208,-80,4,2,0,55,0,0
27900,-80,4,1,0,55,0,0
32824,-200,4,2,0,55,0,0
37747,-133.333333333333,4,2,0,55,0,0
42670,-100,4,2,0,55,0,0
46670,-100,4,2,0,43,0,0
46747,-100,4,2,0,55,0,0
51285,-100,4,1,0,25,0,0
51593,-100,4,1,0,37,0,0
51900,-100,4,1,0,46,0,0
52208,-100,4,1,0,55,0,0
52516,-133.333333333333,4,2,0,55,0,0
56208,-100,4,2,0,55,0,0
57285,-100,4,2,0,37,0,0
57439,-100,4,2,0,55,0,0
60054,-100,4,2,0,25,0,0
60208,-100,4,2,0,55,0,0
61131,-100,4,1,0,55,0,0
62362,-66.6666666666667,4,2,0,55,0,0
64824,-66.6666666666667,4,2,0,55,0,0
77131,-100,4,2,0,55,0,0
85439,-200,4,2,0,55,0,0
86208,-100,4,2,0,55,0,0
88208,-133.333333333333,4,2,0,55,0,0
88670,-100,4,2,0,55,0,0
91900,-133.333333333333,4,2,0,55,0,0
92362,-100,4,2,0,55,0,0
93131,-200,4,2,0,55,0,0
94362,-666.666666666667,4,2,0,55,0,0
95593,-66.6666666666667,4,2,0,55,0,0
100824,-66.6666666666667,4,2,0,40,0,0
100900,-66.6666666666667,4,2,0,55,0,0
104824,-66.6666666666667,4,1,0,40,0,0
105131,-66.6666666666667,4,1,0,46,0,0
105439,-66.6666666666667,4,2,0,55,0,0
116208,-66.6666666666667,4,1,0,34,0,0
116516,-100,4,1,0,49,0,0
116670,-100,4,2,0,49,0,0
117747,-100,4,2,0,55,0,0
127593,-66.6666666666667,4,2,0,55,0,0

[Colours]
Combo1 : 94,189,247
Combo2 : 132,251,185
Combo3 : 18,124,255
Combo4 : 36,191,230

[HitObjects]
64,352,208,5,0,0:0:0:0:
16,296,362,1,0,0:0:0:0:
88,284,516,1,0,0:0:0:0:
16,168,823,5,2,0:0:0:0:
96,184,1131,1,0,0:0:0:0:
176,200,1439,1,0,0:0:0:0:
232,264,1747,5,0,0:0:0:0:
240,296,2054,1,0,0:0:0:0:
248,328,2362,1,0,0:0:0:0:
384,304,2670,5,0,0:0:0:0:
336,360,2824,1,0,0:0:0:0:
312,292,2978,1,0,0:0:0:0:
264,184,3285,5,2,0:0:0:0:
344,168,3593,1,0,0:0:0:0:
424,152,3901,1,0,0:0:0:0:
480,88,4209,5,0,0:0:0:0:
488,56,4516,1,0,0:0:0:0:
496,24,4824,1,0,0:0:0:0:
352,8,5131,5,0,0:0:0:0:
376,76,5285,1,0,0:0:0:0:
420,20,5439,1,0,0:0:0:0:
308,124,5747,5,2,0:0:0:0:
312,132,6054,1,0,0:0:0:0:
180,50,6362,1,2,0:0:0:0:
175,40,6670,1,0,0:0:0:0:
114,187,6977,1,2,0:0:0:0:
111,198,7285,1,0,0:0:0:0:
15,164,7593,1,2,0:0:0:0:
10,154,7900,1,0,0:0:0:0:
54,244,8208,5,0,0:0:0:0:
12,305,8516,2,0,L|21:390,1,83.9999974365235
90,368,9131,5,0,0:0:0:0:
192,382,9285,1,0,0:0:0:0:
265,280,9439,2,0,L|253:186,1,80
273,122,10054,5,0,0:0:0:0:
256,200,10208,1,0,0:0:0:0:
239,275,10362,1,0,0:0:0:0:
221,350,10516,1,0,0:0:0:0:
306,378,10670,6,0,B|376:391|425:349|430:281,1,160,4|4,0:0|0:0,0:0:0:0:
481,243,11131,1,0,0:0:0:0:
481,243,11439,1,0,0:0:0:0:
436,176,11593,2,0,L|339:162,1,80,0|0,0:3|0:0,0:0:0:0:
310,99,11900,5,2,0:0:0:0:
281,28,12054,1,0,0:0:0:0:
177,100,12362,1,0,0:0:0:0:
154,214,12516,1,0,0:0:0:0:
41,184,12670,1,0,0:0:0:0:
67,76,12824,1,0,0:0:0:0:
152,201,12977,1,0,0:0:0:0:
47,323,13131,6,0,P|27:254|65:161,1,160,2|0,0:0|0:0,0:0:0:0:
120,126,13593,1,0,0:0:0:0:
152,201,13747,2,0,L|244:213,2,80
152,201,14362,5,2,0:0:0:0:
193,295,14516,1,0,0:0:0:0:
199,313,14593,1,0,0:0:0:0:
205,331,14670,1,0,0:0:0:0:
143,375,14824,1,0,0:0:0:0:
283,320,14977,2,0,P|319:327|363:362,1,80
481,252,15285,2,0,P|445:245|401:210,1,80,0|0,3:0|0:0,0:0:0:0:
377,131,15593,6,0,L|210:118,1,160,2|0,0:0|0:0,0:0:0:0:
94,28,16054,1,0,0:0:0:0:
29,78,16208,2,0,P|20:102|30:163,1,80
158,156,16516,2,0,P|167:132|157:71,1,80
39,224,16824,5,2,0:0:0:0:
72,303,16977,1,0,0:0:0:0:
72,303,17054,1,0,0:0:0:0:
72,303,17131,1,0,0:0:0:0:
163,343,17285,1,0,0:0:0:0:
197,224,17439,1,0,0:0:0:0:
287,259,17592,1,0,0:0:0:0:
318,349,17747,1,2,0:3:0:0:
386,204,17900,1,0,0:0:0:0:
488,338,18054,6,0,L|503:168,1,160,2|0,0:0|0:0,0:0:0:0:
455,112,18516,1,0,0:0:0:0:
331,23,18670,1,0,0:0:0:0:
347,129,18824,1,0,0:0:0:0:
455,112,18977,1,0,3:0:0:0:
440,12,19131,1,0,0:0:0:0:
339,140,19285,5,0,0:0:0:0:
290,197,19593,5,0,0:0:0:0:
226,190,19900,1,0,0:0:0:0:
162,183,20208,1,0,0:0:0:0:
41,137,20516,6,0,P|32:68|63:17,1,120.000004577637,4|0,1:3|0:0,0:0:0:0:
200,106,20824,1,8,1:2:0:0:
174,300,20977,1,0,0:0:0:0:
165,322,21054,1,0,0:0:0:0:
156,344,21131,2,0,L|35:363,1,120.000004577637,0|0,0:0|1:0,0:0:0:0:
85,272,21439,2,0,L|78:205,2,60.0000022888184,8|0|0,1:3|0:0|0:0,0:0:0:0:
244,326,21747,5,4,1:3:0:0:
283,250,21900,1,0,0:0:0:0:
283,250,21977,1,0,0:0:0:0:
283,250,22054,1,8,1:2:0:0:
363,236,22208,1,0,0:0:0:0:
475,246,22362,1,0,1:0:0:0:
490,220,22439,1,0,0:0:0:0:
505,194,22516,1,0,1:0:0:0:
511,164,22593,1,0,0:0:0:0:
512,133,22670,1,0,1:0:0:0:
509,103,22747,1,0,0:0:0:0:
498,74,22824,1,0,0:0:0:0:
480,50,22900,1,0,0:0:0:0:
456,26,22977,6,0,L|337:44,1,120.000004577637,4|0,0:3|0:0,0:0:0:0:
276,90,23285,1,4,1:0:0:0:
132,53,23439,2,0,L|62:45,2,60.0000022888184
169,115,23747,1,4,3:0:0:0:
202,182,23900,1,0,1:0:0:0:
231,174,23977,1,0,0:0:0:0:
259,165,24054,1,0,0:0:0:0:
84,186,24208,6,0,P|66:245|75:297,1,100,4|0,0:3|0:0,0:0:0:0:
242,358,24516,2,0,P|260:299|251:247,1,100,8|8,1:2|1:3,0:0:0:0:
272,240,24747,1,0,0:0:0:0:
297,246,24824,1,8,1:3:0:0:
320,252,24900,1,0,0:0:0:0:
344,260,24977,1,0,1:0:0:0:
368,268,25054,1,0,0:0:0:0:
392,276,25131,2,0,L|448:264,3,50,0|0|0|0,1:0|1:0|1:0|1:0,1:0:0:0:
464,276,25439,6,0,P|448:216|460:168,1,100,4|0,0:3|0:0,0:0:0:0:
504,104,25747,1,8,1:2:0:0:
392,32,25900,1,0,0:0:0:0:
384,52,25977,1,0,0:0:0:0:
376,72,26054,2,0,P|332:96|280:88,1,100,0|4,0:0|0:3,0:0:0:0:
168,24,26362,2,0,L|88:12,2,50,0|0|0,1:0|0:0|0:0,0:0:0:0:
212,88,26670,1,4,1:3:0:0:
256,152,26824,5,0,0:0:0:0:
193,284,26977,1,8,1:2:0:0:
76,376,27131,1,0,0:0:0:0:
75,355,27208,1,0,0:0:0:0:
72,335,27285,1,0,1:0:0:0:
68,315,27362,1,0,0:0:0:0:
63,295,27439,1,4,1:3:0:0:
57,275,27516,1,0,0:0:0:0:
50,255,27593,1,0,1:0:0:0:
42,236,27670,1,0,0:0:0:0:
33,217,27747,1,0,0:0:0:0:
24,199,27824,1,0,0:0:0:0:
15,181,27900,6,0,L|68:188,3,50,0|0|8|0,0:2|0:0|0:3|0:0,0:0:0:0:
117,150,28208,1,0,0:0:0:0:
143,214,28285,1,0,0:0:0:0:
85,252,28362,1,0,0:0:0:0:
346,288,28516,6,0,L|293:295,3,50,2|0|8|0,0:2|0:0|0:3|0:0,0:0:0:0:
244,257,28824,1,0,0:0:0:0:
218,321,28901,1,0,0:0:0:0:
276,359,28978,1,0,0:0:0:0:
397,171,29131,6,0,L|457:164,3,50,2|0|0|0,0:2|0:0|0:0|0:0,0:0:0:0:
339,118,29439,2,0,L|279:111,3,50,2|0|0|0,0:2|0:0|0:0|0:0,0:0:0:0:
411,77,29747,6,0,L|468:68,1,50
274,28,29900,2,0,L|215:37,1,50
160,64,30054,1,0,0:0:0:0:
139,64,30131,1,0,0:0:0:0:
118,64,30208,1,0,0:0:0:0:
97,64,30285,1,0,0:0:0:0:
68,63,30362,5,4,0:1:0:0:
128,311,32824,6,0,L|123:369,1,40
123,367,33131,1,0,0:0:0:0:
54,272,33285,2,0,L|60:209,1,60,2|0,0:0|0:0,0:0:0:0:
114,163,33593,5,0,0:0:0:0:
221,238,33747,1,0,0:0:0:0:
296,190,33900,2,0,L|302:127,1,60,2|0,0:0|0:0,0:0:0:0:
256,76,34208,5,0,0:0:0:0:
361,20,34362,1,0,0:0:0:0:
472,94,34516,1,0,0:0:0:0:
446,218,34670,1,2,0:0:0:0:
444,229,34747,1,0,0:0:0:0:
442,240,34824,1,0,0:0:0:0:
440,251,34900,1,0,0:0:0:0:
437,262,34977,1,2,0:0:0:0:
435,273,35054,1,0,0:0:0:0:
433,284,35131,1,0,0:0:0:0:
431,295,35208,1,0,0:0:0:0:
427,306,35285,6,0,L|435:360,1,40,2|0,0:0|0:0,0:0:0:0:
499,367,35593,1,0,0:0:0:0:
343,364,35747,2,0,L|352:300,1,60,2|0,0:0|0:0,0:0:0:0:
305,250,36054,5,0,0:0:0:0:
201,291,36208,1,0,0:0:0:0:
147,231,36362,2,0,L|156:167,1,60,2|0,0:0|0:0,0:0:0:0:
208,128,36670,5,0,0:0:0:0:
285,48,36824,1,0,0:0:0:0:
177,24,36977,1,0,0:0:0:0:
59,32,37131,5,2,0:0:0:0:
63,47,37208,1,0,0:0:0:0:
67,62,37285,1,0,0:0:0:0:
71,77,37362,1,0,0:0:0:0:
75,92,37439,1,2,0:0:0:0:
79,107,37516,1,0,0:0:0:0:
83,122,37593,1,0,0:0:0:0:
87,137,37670,1,0,0:0:0:0:
91,154,37747,6,0,L|30:145,1,60,2|0,0:0|0:0,0:0:0:0:
13,143,38054,1,0,0:0:0:0:
150,241,38208,2,0,L|254:255,1,90.0000034332277,2|0,0:0|0:0,0:0:0:0:
302,228,38516,1,0,0:0:0:0:
337,355,38670,1,0,0:0:0:0:
404,340,38824,2,0,L|300:326,1,90.0000034332277,2|0,0:0|0:0,0:0:0:0:
302,228,39131,5,0,0:0:0:0:
336,91,39285,1,0,0:0:0:0:
445,24,39439,1,0,0:0:0:0:
483,186,39593,6,0,L|361:195,2,120.000004577637,2|2|2,0:0|0:0|0:0,0:0:0:0:
510,249,40516,1,0,0:0:0:0:
510,249,40670,1,2,0:0:0:0:
368,348,40977,5,0,0:0:0:0:
278,375,41131,1,2,0:0:0:0:
206,320,41285,1,2,0:0:0:0:
182,229,41439,5,0,0:0:0:0:
293,251,41593,1,0,0:0:0:0:
274,363,41747,1,2,0:0:0:0:
161,348,41900,1,2,0:0:0:0:
241,174,42054,5,0,0:0:0:0:
268,350,42208,1,2,0:0:0:0:
96,374,42362,1,0,0:0:0:0:
69,198,42516,1,2,0:0:0:0:
194,14,42670,6,0,P|244:11|275:31,1,80,4|0,1:2|0:0,0:0:0:0:
317,88,42977,1,8,1:2:0:0:
168,175,43131,1,0,0:0:0:0:
158,192,43208,1,0,0:0:0:0:
148,209,43285,2,0,L|50:195,1,80,0|4,0:0|0:3,0:0:0:0:
36,118,43593,1,0,1:3:0:0:
32,102,43670,1,0,0:0:0:0:
28,89,43747,1,0,0:0:0:0:
116,42,43900,6,0,P|123:88|100:134,1,80,0|0,1:0|0:0,0:0:0:0:
9,252,44208,1,8,0:0:0:0:
182,343,44362,1,0,0:0:0:0:
282,246,44516,1,0,1:0:0:0:
262,250,44593,1,0,0:0:0:0:
242,254,44670,1,0,1:0:0:0:
222,258,44747,1,0,0:0:0:0:
202,262,44824,1,0,1:0:0:0:
182,266,44900,1,0,0:0:0:0:
162,268,44977,1,0,0:0:0:0:
142,272,45054,1,0,0:0:0:0:
122,276,45131,6,0,P|103:318|108:368,1,80,0|0,1:0|0:0,0:0:0:0:
255,371,45439,1,12,0:0:0:0:
393,318,45593,1,0,0:0:0:0:
393,318,45670,1,0,0:0:0:0:
393,318,45747,2,0,L|290:307,1,80,0|4,0:0|0:3,0:0:0:0:
274,226,46054,1,0,1:0:0:0:
266,207,46131,1,0,0:0:0:0:
258,188,46208,1,0,0:0:0:0:
439,154,46362,6,0,P|439:196|405:235,1,80,0|0,1:0|0:0,0:0:0:0:
339,147,46670,2,0,P|339:105|373:66,1,80,8|0,1:2|0:0,0:0:0:0:
370,48,46900,1,0,0:0:0:0:
350,51,46977,1,4,1:3:0:0:
330,54,47054,1,0,0:0:0:0:
310,58,47131,1,0,1:0:0:0:
290,62,47208,1,0,0:0:0:0:
270,66,47285,1,4,1:3:0:0:
250,70,47362,1,0,1:0:0:0:
230,75,47439,1,0,1:0:0:0:
210,80,47516,1,0,1:0:0:0:
190,84,47593,6,0,L|90:68,1,80,0|0,1:0|0:0,0:0:0:0:
56,27,47900,1,12,0:0:0:0:
41,154,48054,1,0,0:0:0:0:
56,150,48131,1,0,0:0:0:0:
73,146,48208,2,0,P|98:188|91:235,1,80,0|4,0:0|0:3,0:0:0:0:
10,328,48516,1,0,1:0:0:0:
10,328,48593,1,0,0:0:0:0:
10,328,48670,1,0,0:0:0:0:
200,373,48824,6,0,P|196:326|157:284,1,80,0|0,1:0|0:0,0:0:0:0:
35,255,49131,1,8,0:0:0:0:
223,244,49285,2,0,L|270:250,1,40
284,231,49439,2,0,P|297:197|286:140,1,80,0|0,1:0|1:0,0:0:0:0:
250,107,49670,1,0,0:0:0:0:
250,107,49747,2,0,L|343:97,1,80,0|0,1:0|0:0,0:0:0:0:
453,168,50054,5,0,1:0:0:0:
502,111,50208,1,0,0:0:0:0:
359,31,50362,2,0,P|348:91|370:126,1,80,12|0,0:0|0:0,0:0:0:0:
366,127,50593,1,0,0:0:0:0:
380,145,50670,1,0,0:0:0:0:
489,243,50824,1,4,0:3:0:0:
363,339,50977,2,0,L|295:345,2,40,0|0|0,1:0|0:0|0:0,0:0:0:0:
426,286,51285,5,0,0:0:0:0:
412,266,51362,1,0,0:0:0:0:
390,254,51439,1,0,0:0:0:0:
365,253,51516,1,0,0:0:0:0:
341,266,51593,5,0,0:0:0:0:
327,246,51670,1,0,0:0:0:0:
305,234,51747,1,0,0:0:0:0:
280,233,51824,1,0,0:0:0:0:
255,253,51900,5,0,0:0:0:0:
241,233,51977,1,0,0:0:0:0:
219,221,52054,1,0,0:0:0:0:
194,220,52131,1,0,0:0:0:0:
168,232,52208,5,0,0:0:0:0:
154,212,52285,1,0,0:0:0:0:
132,200,52362,1,0,0:0:0:0:
107,199,52439,1,0,0:0:0:0:
46,231,52516,6,0,L|54:364,2,120.000004577637,4|0|0,0:0|0:0|0:0,0:0:0:0:
77,170,53285,1,0,0:0:0:0:
142,359,53439,1,0,0:0:0:0:
142,359,53593,1,2,0:0:0:0:
134,24,53900,5,0,0:0:0:0:
228,146,54208,2,0,L|220:13,1,120.000004577637
195,214,54670,1,2,0:0:0:0:
304,79,54977,5,0,0:0:0:0:
474,362,55285,1,0,0:0:0:0:
384,235,55439,2,0,L|392:368,1,120.000004577637,0|2,0:0|0:0,0:0:0:0:
298,287,56054,1,0,0:0:0:0:
465,181,56208,5,0,0:0:0:0:
465,181,56362,1,0,0:0:0:0:
398,141,56516,1,0,3:0:0:0:
398,141,56670,1,0,3:0:0:0:
301,209,56824,1,0,3:0:0:0:
301,209,56900,1,0,3:0:0:0:
301,209,56977,1,0,3:0:0:0:
301,209,57054,1,0,0:0:0:0:
301,209,57131,2,0,L|203:220,1,80,0|0,0:0|1:0,0:0:0:0:
91,274,57439,6,0,P|74:330|94:375,1,80,2|0,3:3|3:0,0:0:0:0:
169,269,57747,1,2,0:0:0:0:
29,156,57900,1,0,0:0:0:0:
52,159,57977,1,0,0:0:0:0:
75,163,58054,2,0,L|160:174,1,80,2|0,0:0|0:0,0:0:0:0:
154,173,58285,1,0,0:0:0:0:
154,173,58362,1,0,3:0:0:0:
256,44,58516,1,0,3:0:0:0:
183,27,58670,6,0,P|174:75|208:118,1,80,0|0,3:0|0:0,0:0:0:0:
301,209,58977,1,2,3:2:0:0:
403,82,59131,1,0,0:0:0:0:
403,82,59208,1,0,0:0:0:0:
403,82,59285,2,0,P|422:122|420:164,1,80,2|0,3:2|0:0,0:0:0:0:
357,271,59593,1,2,0:0:0:0:
305,372,59747,1,0,0:0:0:0:
281,368,59824,1,0,0:0:0:0:
257,363,59900,6,0,P|260:312|295:279,1,80,2|0,0:0|1:0,0:0:0:0:
419,226,60208,1,2,0:0:0:0:
240,119,60362,1,0,0:0:0:0:
218,143,60439,1,0,0:0:0:0:
210,174,60516,1,2,0:0:0:0:
220,204,60593,1,0,0:0:0:0:
242,226,60670,1,0,0:0:0:0:
267,296,60824,2,0,L|356:290,1,80,2|0,0:0|0:0,0:0:0:0:
472,368,61131,5,0,0:0:0:0:
472,368,61208,1,0,0:0:0:0:
472,368,61285,1,0,0:0:0:0:
472,368,61362,1,0,0:0:0:0:
472,368,61439,1,0,2:0:0:0:
472,368,61516,1,0,0:0:0:0:
472,368,61593,1,0,2:0:0:0:
472,368,61670,1,0,0:0:0:0:
472,368,61747,6,0,L|479:312,1,40,0|0,3:0|0:0,0:0:0:0:
406,321,61900,2,0,L|400:372,1,40,0|0,3:0|0:0,0:0:0:0:
509,266,62054,5,0,2:0:0:0:
393,136,62362,6,0,B|373:192|406:231|447:248,1,120.000004577637,4|0,0:0|0:0,0:0:0:0:
485,63,62670,1,8,0:0:0:0:
357,17,62824,1,0,0:0:0:0:
352,36,62900,1,0,0:0:0:0:
347,54,62977,2,0,L|210:67,1,120.000004577637,0|4,0:0|0:3,0:0:0:0:
113,26,63285,1,0,1:0:0:0:
129,50,63362,1,0,0:0:0:0:
137,78,63439,1,0,0:0:0:0:
135,107,63516,1,0,0:0:0:0:
118,131,63593,5,0,1:0:0:0:
41,112,63747,1,0,0:0:0:0:
160,232,63900,1,8,1:2:0:0:
237,251,64054,1,0,0:0:0:0:
250,237,64131,1,0,0:0:0:0:
263,224,64208,6,0,L|275:298,3,60.0000022888184,0|0|0|0,1:0|1:0|1:0|1:0,1:0:0:0:
241,317,64516,1,0,1:0:0:0:
269,306,64593,1,0,0:0:0:0:
298,309,64670,1,0,0:0:0:0:
325,320,64747,1,0,0:0:0:0:
348,338,64824,5,4,0:0:0:0:
443,357,64977,1,0,0:0:0:0:
459,253,65131,1,8,0:0:0:0:
373,249,65285,1,0,0:0:0:0:
358,244,65362,1,0,0:0:0:0:
343,240,65439,2,0,L|356:111,1,120.000004577637,0|4,0:0|0:3,0:0:0:0:
394,33,65747,1,0,1:0:0:0:
443,115,65900,2,0,L|451:182,1,60.0000022888184
436,202,66054,5,0,1:0:0:0:
405,202,66131,1,0,0:0:0:0:
375,199,66208,1,0,0:0:0:0:
346,189,66285,1,0,0:0:0:0:
320,173,66362,1,8,0:0:0:0:
297,152,66439,1,0,0:0:0:0:
281,126,66516,1,0,0:0:0:0:
270,97,66593,1,0,0:0:0:0:
266,67,66670,6,0,L|273:2,3,60.0000022888184,0|0|4|0,1:0|1:0|1:3|1:0,1:0:0:0:
208,188,66977,2,0,L|197:262,3,60.0000022888184,0|0|0|0,1:0|0:0|0:0|0:0,0:0:0:0:
146,291,67285,5,4,0:0:0:0:
25,353,67439,1,2,0:0:0:0:
38,211,67593,1,8,1:2:0:0:
153,298,67747,1,0,0:0:0:0:
155,321,67824,1,0,0:0:0:0:
148,343,67900,1,2,0:0:0:0:
59,281,68054,5,4,0:3:0:0:
8,141,68208,1,2,1:2:0:0:
16,105,68285,1,0,0:0:0:0:
45,84,68362,1,0,0:0:0:0:
163,22,68516,6,0,L|170:91,3,60.0000022888184
253,133,68824,2,0,L|260:202,3,60.0000022888184,8|0|0|0,1:2|0:0|0:0|0:0,0:0:0:0:
234,254,69131,1,2,0:0:0:0:
265,236,69208,1,0,0:0:0:0:
301,235,69285,1,4,0:3:0:0:
336,239,69362,1,0,0:0:0:0:
370,249,69439,1,0,1:0:0:0:
403,262,69516,1,0,0:0:0:0:
432,282,69593,1,0,0:0:0:0:
455,309,69670,1,0,0:0:0:0:
472,340,69747,5,4,0:3:0:0:
361,375,69900,1,2,0:0:0:0:
255,354,70054,1,10,1:2:0:0:
45,200,70208,1,0,0:0:0:0:
51,181,70285,1,0,0:0:0:0:
55,164,70362,2,0,P|117:151|181:183,1,120.000004577637,0|4,0:0|0:3,0:0:0:0:
222,280,70670,1,0,1:3:0:0:
222,280,70747,1,0,0:0:0:0:
222,280,70824,1,0,0:0:0:0:
83,363,70977,5,0,1:0:0:0:
246,195,71131,1,0,0:0:0:0:
246,195,71208,1,0,0:0:0:0:
246,195,71285,5,8,1:2:0:0:
271,169,71362,1,0,0:0:0:0:
303,153,71439,1,0,0:0:0:0:
337,141,71516,1,0,0:0:0:0:
373,139,71593,1,0,1:0:0:0:
409,139,71670,1,0,0:0:0:0:
443,148,71747,1,0,1:0:0:0:
474,166,71824,1,0,0:0:0:0:
497,192,71900,6,0,L|508:266,3,60.0000022888184,4|0|0|0,1:3|0:0|0:0|0:0,0:0:0:0:
406,324,72208,6,0,B|386:281|393:232|437:211,1,120.000004577637,2|0,0:0|0:0,0:0:0:0:
382,64,72516,1,12,0:2:0:0:
300,28,72670,1,2,0:0:0:0:
280,24,72747,1,0,0:0:0:0:
263,22,72824,2,0,B|231:53|229:105|267:143,1,120.000004577637,0|4,0:0|0:3,0:0:0:0:
335,176,73131,2,0,L|461:161,1,120.000004577637,0|0,1:0|0:0,0:0:0:0:
492,85,73439,1,4,1:3:0:0:
442,23,73593,5,0,0:0:0:0:
390,132,73747,1,8,0:0:0:0:
420,266,73900,1,0,0:0:0:0:
321,345,74054,1,0,0:0:0:0:
276,272,74208,1,0,1:0:0:0:
267,253,74285,1,0,0:0:0:0:
259,235,74362,2,0,B|199:191|145:247|145:247,1,120.000004577637,0|0,1:0|0:0,0:0:0:0:
135,259,74593,1,0,0:0:0:0:
123,275,74670,5,2,0:0:0:0:
6,197,74824,1,0,0:0:0:0:
47,20,74977,1,12,1:2:0:0:
51,42,75054,1,0,0:0:0:0:
55,67,75131,2,0,L|190:46,2,120.000004577637,0|0|4,0:0|0:0|0:3,0:0:0:0:
104,135,75593,1,0,1:0:0:0:
96,164,75670,1,0,0:0:0:0:
98,193,75747,1,0,0:0:0:0:
32,331,75900,5,0,1:0:0:0:
58,344,75977,1,0,0:0:0:0:
87,348,76054,1,0,0:0:0:0:
116,346,76131,1,0,0:0:0:0:
145,338,76208,1,8,1:2:0:0:
172,326,76285,1,0,0:0:0:0:
198,311,76362,1,0,0:0:0:0:
220,290,76439,1,0,0:0:0:0:
233,263,76516,6,0,L|246:189,3,60.0000022888184,0|0|0|0,1:0|1:0|1:0|1:0,1:0:0:0:
326,302,76824,2,0,L|334:373,3,60.0000022888184,0|0|0|0,1:0|1:0|1:0|0:0,0:0:0:0:
386,231,77131,5,4,0:3:0:0:
456,255,77747,1,0,0:0:0:0:
456,255,77900,1,2,0:0:0:0:
499,195,78208,1,0,0:0:0:0:
458,136,78516,1,0,0:0:0:0:
389,153,78670,1,0,0:0:0:0:
386,231,78824,1,2,0:0:0:0:
259,284,79131,6,0,L|274:365,1,80
305,222,79439,1,0,0:0:0:0:
143,160,79593,5,2,0:0:0:0:
66,175,80054,1,2,0:0:0:0:
24,106,80516,1,0,0:0:0:0:
24,106,80670,1,0,0:0:0:0:
75,41,80824,2,0,L|165:52,2,80,0|2|0,0:0|0:0|0:0,0:0:0:0:
24,106,81285,2,0,B|21:212|125:215|126:215,1,160
192,211,81747,2,0,L|180:298,1,80
124,333,82054,6,0,B|207:306|297:358|297:358,1,160,2|0,0:0|0:0,0:0:0:0:
365,362,82516,1,2,0:0:0:0:
288,211,82824,1,0,0:0:0:0:
346,268,82978,2,0,P|413:270|477:237,1,120
483,248,83285,6,0,L|470:153,1,80
424,113,83593,1,2,0:0:0:0:
350,102,83747,1,2,0:0:0:0:
217,22,83900,1,0,0:0:0:0:
291,33,84054,1,0,0:0:0:0:
143,117,84208,1,2,0:0:0:0:
72,106,84362,1,2,0:0:0:0:
0,95,84516,5,2,0:0:0:0:
151,262,84824,1,0,0:0:0:0:
108,324,84977,2,0,B|65:319|17:271|52:196,1,160,2|0,0:0|0:0,0:0:0:0:
34,182,85439,6,0,L|201:171,1,160
244,269,86208,5,0,0:0:0:0:
283,359,86362,1,0,0:0:0:0:
328,227,86516,1,0,0:0:0:0:
366,109,86670,2,0,L|469:120,1,80,2|0,0:0|0:0,0:0:0:0:
465,108,86977,5,2,0:0:0:0:
392,256,87439,1,2,0:0:0:0:
246,136,87900,1,2,0:0:0:0:
236,1,88208,2,0,P|283:14|287:92,1,120.000004577637
246,136,88670,5,0,0:0:0:0:
167,152,88824,1,0,0:0:0:0:
106,203,88977,1,0,0:0:0:0:
65,272,89131,1,2,0:0:0:0:
54,351,89285,1,2,0:0:0:0:
54,351,89439,6,0,L|39:169,1,160
175,309,89900,2,0,P|221:347|337:336,1,160
378,294,90362,1,2,0:0:0:0:
421,228,90670,5,2,0:0:0:0:
421,228,91131,1,0,0:0:0:0:
478,176,91285,5,0,0:0:0:0:
359,114,91439,1,0,0:0:0:0:
317,2,91593,2,0,P|272:0|230:24,1,80,0|2,0:0|0:0,0:0:0:0:
252,28,91900,6,0,L|237:161,1,120.000004577637,2|0,0:0|0:0,0:0:0:0:
267,338,92516,1,0,0:0:0:0:
307,268,92670,1,0,0:0:0:0:
171,175,92824,1,2,0:0:0:0:
133,244,92977,1,2,0:0:0:0:
11,174,93131,6,0,L|103:188,2,80
170,328,94054,1,0,0:0:0:0:
227,273,94362,6,0,L|313:265,1,83.9999974365235
486,304,95593,5,4,0:0:0:0:
399,355,95747,1,0,0:0:0:0:
386,340,95824,1,0,0:0:0:0:
374,327,95900,2,0,P|361:271|395:208,1,120.000004577637,12|0,1:2|0:0,0:0:0:0:
410,202,96131,1,0,0:0:0:0:
432,191,96208,2,0,L|497:180,3,60.0000022888184,0|0|0|0,1:0|1:0|1:0|0:0,1:0:0:0:
453,112,96516,1,0,1:0:0:0:
447,76,96593,1,0,0:0:0:0:
424,47,96670,1,0,0:0:0:0:
393,28,96747,1,0,1:0:0:0:
356,26,96824,5,2,1:2:0:0:
266,121,96977,1,0,0:0:0:0:
251,133,97054,1,0,0:0:0:0:
239,146,97131,2,0,P|231:201|257:262,1,120.000004577637,8|0,1:2|0:0,0:0:0:0:
309,300,97362,1,0,0:0:0:0:
309,300,97439,2,0,L|232:300,3,60.0000022888184,0|0|0|0,1:0|1:0|1:0|0:0,1:0:0:0:
190,275,97747,1,0,1:0:0:0:
154,276,97824,1,0,0:0:0:0:
120,289,97900,1,0,0:0:0:0:
93,312,97977,1,0,0:0:0:0:
73,342,98054,5,2,1:2:0:0:
85,209,98208,1,0,0:0:0:0:
85,209,98285,1,0,0:0:0:0:
85,209,98362,2,0,L|74:109,1,60.0000022888184,12|0,1:2|0:0,0:0:0:0:
44,78,98516,5,0,0:0:0:0:
44,78,98593,1,0,0:0:0:0:
44,78,98670,5,0,1:0:0:0:
76,62,98747,1,0,1:0:0:0:
111,53,98824,1,4,1:3:0:0:
146,53,98900,1,0,0:0:0:0:
181,56,98977,1,0,1:0:0:0:
215,66,99054,1,0,0:0:0:0:
248,80,99131,1,0,1:0:0:0:
276,102,99208,1,0,1:0:0:0:
300,128,99285,5,2,1:2:0:0:
385,251,99439,1,0,0:0:0:0:
407,258,99516,1,2,0:0:0:0:
488,122,99747,1,2,0:0:0:0:
415,184,99900,5,0,1:0:0:0:
378,181,99977,1,0,0:0:0:0:
342,188,100054,1,4,1:3:0:0:
308,200,100131,1,0,1:0:0:0:
277,218,100208,1,0,1:0:0:0:
248,239,100285,1,0,0:0:0:0:
226,271,100362,1,0,0:0:0:0:
210,303,100439,1,0,0:0:0:0:
199,340,100516,5,2,1:2:0:0:
45,341,100670,1,0,0:0:0:0:
69,347,100747,1,0,0:0:0:0:
91,354,100824,2,0,P|98:288|50:249,1,120.000004577637,12|0,1:0|0:0,0:0:0:0:
10,211,101054,1,0,0:0:0:0:
10,211,101131,2,0,L|89:199,3,60.0000022888184,0|0|4|0,1:0|1:0|1:3|0:0,1:0:0:0:
135,210,101439,1,0,1:0:0:0:
151,178,101516,1,0,0:0:0:0:
158,142,101593,1,0,0:0:0:0:
146,105,101670,1,0,1:0:0:0:
118,81,101747,5,2,1:2:0:0:
177,18,101900,1,0,0:0:0:0:
210,20,101977,1,2,0:0:0:0:
234,83,102131,1,0,0:0:0:0:
268,86,102208,2,0,L|334:88,1,60.0000022888184,2|0,0:0|0:0,0:0:0:0:
489,36,102362,6,0,L|424:30,3,60.0000022888184,0|0|0|0,1:0|1:0|1:0|0:0,1:0:0:0:
397,12,102670,1,4,1:3:0:0:
383,45,102747,1,0,0:0:0:0:
392,79,102824,1,0,0:0:0:0:
412,107,102900,1,0,0:0:0:0:
443,125,102977,5,4,0:3:0:0:
489,207,103131,1,0,0:0:0:0:
482,223,103208,1,0,0:0:0:0:
475,237,103285,2,0,L|354:224,1,120.000004577637,12|0,1:2|0:0,0:0:0:0:
342,214,103516,1,0,0:0:0:0:
327,200,103593,5,0,1:0:0:0:
301,225,103670,1,0,1:0:0:0:
292,260,103747,1,4,1:3:0:0:
294,295,103824,1,0,0:0:0:0:
324,324,103900,6,0,L|404:315,3,60.0000022888184,0|0|0|0,1:0|0:0|1:0|1:0,0:0:0:0:
279,376,104208,5,2,1:2:0:0:
97,248,104362,1,0,0:0:0:0:
70,241,104439,1,2,1:2:0:0:
24,360,104670,1,2,1:2:0:0:
125,338,104824,5,0,0:0:0:0:
153,316,104900,1,0,0:0:0:0:
175,288,104977,1,0,0:0:0:0:
192,256,105054,1,0,0:0:0:0:
202,221,105131,1,0,0:0:0:0:
206,185,105208,1,0,0:0:0:0:
202,149,105285,1,0,0:0:0:0:
189,115,105362,1,0,0:0:0:0:
256,192,105439,12,0,106593,0:2:0:0:
49,24,106670,5,4,0:0:0:0:
17,128,106824,2,0,L|26:198,2,60.0000022888184,0|0|12,0:0|0:0|1:2,0:0:0:0:
151,64,107131,1,0,0:0:0:0:
146,52,107208,1,0,0:0:0:0:
174,28,107285,5,0,1:0:0:0:
205,9,107362,1,0,0:0:0:0:
240,13,107439,1,4,1:3:0:0:
273,36,107516,1,0,0:0:0:0:
303,63,107593,5,0,1:3:0:0:
334,44,107670,1,0,0:0:0:0:
369,48,107747,1,0,0:0:0:0:
402,71,107824,1,0,0:0:0:0:
438,141,107900,5,0,1:0:0:0:
407,122,107977,1,0,0:0:0:0:
372,126,108054,1,0,0:0:0:0:
339,149,108131,1,0,0:0:0:0:
326,188,108208,5,8,1:2:0:0:
295,169,108285,1,0,0:0:0:0:
260,173,108362,1,0,0:0:0:0:
227,196,108439,1,0,0:0:0:0:
209,232,108516,6,0,L|130:224,3,60.0000022888184,0|0|4|0,1:0|1:0|1:3|0:0,1:0:0:0:
93,293,108824,1,0,1:0:0:0:
96,310,108900,1,0,0:0:0:0:
99,327,108977,1,0,0:0:0:0:
102,344,109054,1,0,0:0:0:0:
96,369,109131,6,0,P|192:375|260:310,1,180.000006866455,2|0,1:3|0:0,0:0:0:0:
266,301,109439,1,12,0:0:0:0:
166,157,109593,1,0,0:0:0:0:
170,170,109670,1,0,0:0:0:0:
161,196,109747,5,0,1:0:0:0:
126,207,109824,1,0,1:0:0:0:
90,207,109900,1,4,1:3:0:0:
56,192,109977,1,0,0:0:0:0:
30,167,110054,6,0,L|15:82,3,60.0000022888184,0|0|0|0,1:0|0:0|0:0|0:0,0:0:0:0:
59,35,110362,5,0,1:0:0:0:
93,24,110439,1,0,0:0:0:0:
129,23,110516,1,0,0:0:0:0:
163,31,110593,1,0,0:0:0:0:
197,42,110670,1,8,1:2:0:0:
225,64,110747,1,0,0:0:0:0:
250,89,110824,1,0,0:0:0:0:
270,118,110900,1,0,0:0:0:0:
282,151,110977,6,0,L|276:226,1,60.0000022888184,0|0,1:0|1:0,1:0:0:0:
345,254,111131,2,0,L|351:179,1,60.0000022888184,0|0,1:0|1:0,1:0:0:0:
372,165,111285,5,0,1:0:0:0:
404,150,111362,1,0,1:0:0:0:
438,140,111439,1,0,1:0:0:0:
473,142,111516,1,0,1:0:0:0:
504,159,111593,6,0,L|513:353,2,180.000006866455,4|2|0,0:0|0:0|0:0,0:0:0:0:
435,59,112208,1,0,0:0:0:0:
330,106,112362,1,4,0:3:0:0:
249,24,112516,1,0,1:0:0:0:
121,52,112670,1,0,0:0:0:0:
98,45,112747,1,0,0:0:0:0:
77,38,112824,6,0,P|59:83|94:148,1,120.000004577637,0|0,1:0|0:0,0:0:0:0:
111,149,113054,1,0,0:0:0:0:
131,154,113131,2,0,P|143:193|95:264,1,120.000004577637,8|0,1:2|0:0,0:0:0:0:
86,275,113362,1,0,0:0:0:0:
73,288,113439,2,0,L|154:300,3,60.0000022888184,0|0|4|0,1:0|1:0|1:3|0:0,1:0:0:0:
199,346,113747,1,0,1:0:0:0:
232,333,113824,1,0,0:0:0:0:
267,327,113900,1,0,0:0:0:0:
302,329,113977,1,0,0:0:0:0:
335,342,114054,6,0,L|532:333,2,180.000006866455,4|2|0,0:0|0:0|0:0,0:0:0:0:
306,360,114593,1,0,0:0:0:0:
281,300,114670,6,0,L|204:292,3,60.0000022888184,0|0|4|0,1:0|1:0|1:3|0:0,1:0:0:0:
333,235,114977,2,0,L|410:243,3,60.0000022888184,0|0|0|0,1:0|0:0|1:0|1:0,0:0:0:0:
276,180,115285,6,0,P|215:160|74:175,2,180.000006866455,4|4|0,1:2|0:0|0:0,0:0:0:0:
343,162,115824,2,0,L|366:86,1,60.0000022888184,0|0,0:0|1:0,0:0:0:0:
337,38,115977,1,0,0:0:0:0:
369,15,116054,1,0,1:3:0:0:
412,11,116131,1,0,0:0:0:0:
441,37,116208,5,0,1:0:0:0:
446,54,116285,1,0,0:0:0:0:
451,71,116362,1,0,0:0:0:0:
456,88,116439,1,0,0:0:0:0:
461,105,116516,5,4,1:0:0:0:
472,331,116824,5,0,0:0:0:0:
461,340,117131,1,0,0:0:0:0:
448,344,117439,1,2,0:0:0:0:
381,364,117747,6,0,L|371:269,1,80
408,221,118054,1,0,0:0:0:0:
337,192,118208,1,2,0:0:0:0:
201,317,118516,5,0,0:0:0:0:
114,341,118670,1,0,0:0:0:0:
143,286,118824,1,2,0:0:0:0:
292,255,119131,5,0,0:0:0:0:
295,262,119208,1,0,0:0:0:0:
298,269,119285,1,2,0:0:0:0:
372,284,119439,1,0,0:0:0:0:
438,245,119593,1,0,0:0:0:0:
442,251,119670,1,0,0:0:0:0:
445,258,119747,1,2,0:0:0:0:
448,265,119824,1,0,0:0:0:0:
451,272,119900,2,0,L|448:333,3,40,2|0|2|0,0:0|0:0|0:0|0:0,0:0:0:0:
501,210,120208,5,0,0:0:0:0:
403,185,120362,1,0,0:0:0:0:
460,143,120516,1,0,0:0:0:0:
360,121,120670,1,2,0:0:0:0:
97,114,120977,5,0,0:0:0:0:
188,94,121131,1,0,0:0:0:0:
135,58,121285,1,2,0:0:0:0:
501,210,121593,5,0,0:0:0:0:
460,143,121747,1,0,0:0:0:0:
403,185,121900,2,0,L|391:234,1,40,2|0,0:0|0:0,0:0:0:0:
360,121,122054,2,0,L|374:61,3,40,2|0|0|0,0:0|0:0|0:0|0:0,0:0:0:0:
295,153,122362,2,0,L|281:213,3,40,2|0|0|0,0:0|0:0|0:0|0:0,0:0:0:0:
212,161,122670,5,0,0:0:0:0:
180,262,122824,1,0,0:0:0:0:
148,193,122977,1,0,0:0:0:0:
175,94,123131,1,2,0:0:0:0:
34,264,123439,5,0,0:0:0:0:
94,297,123593,1,0,0:0:0:0:
59,355,123747,1,2,0:0:0:0:
180,262,124054,5,0,0:0:0:0:
148,193,124208,1,0,0:0:0:0:
212,161,124362,2,0,L|265:168,1,40,2|0,0:0|0:0,0:0:0:0:
292,228,124516,6,0,L|283:270,3,40,0|0|2|0,0:0|0:0|0:0|0:0,0:0:0:0:
364,197,124824,2,0,L|373:155,3,40,2|0|0|0,0:0|0:0|0:0|0:0,0:0:0:0:
398,263,125131,6,0,L|445:271,3,40,2|0|0|0,0:0|0:0|0:0|0:0,0:0:0:0:
455,341,125439,2,0,L|415:334,3,40
286,248,125747,6,0,L|333:256,3,40,2|0|0|0,0:0|0:0|0:0|0:0,0:0:0:0:
343,326,126055,2,0,L|303:319,3,40
234,327,126362,5,2,0:0:0:0:
222,329,126439,1,0,0:0:0:0:
210,331,126516,1,0,0:0:0:0:
198,333,126593,1,0,0:0:0:0:
186,335,126670,1,2,0:0:0:0:
174,337,126747,1,0,0:0:0:0:
162,339,126824,1,0,0:0:0:0:
150,341,126900,1,0,0:0:0:0:
138,343,126977,6,0,L|79:337,1,40,2|0,0:0|0:0,0:0:0:0:
107,266,127131,2,0,L|48:260,1,40
48,246,127285,1,0,0:0:0:0:
42,222,127362,1,0,0:0:0:0:
36,198,127439,1,0,0:0:0:0:
31,174,127516,1,0,0:0:0:0:
25,147,127593,6,0,P|77:144|134:191,1,120.000004577637,0|0,1:0|0:0,0:0:0:0:
180,239,127900,1,12,1:2:0:0:
270,324,128054,1,0,0:0:0:0:
286,335,128131,1,0,0:0:0:0:
305,346,128208,2,0,L|184:364,1,120.000004577637,0|4,0:0|1:3,0:0:0:0:
242,209,128516,2,0,L|235:133,2,60.0000022888184,0|0|0,1:0|0:0|0:0,0:0:0:0:
301,247,128824,5,0,1:0:0:0:
453,112,129054,1,0,1:0:0:0:
459,91,129131,2,0,P|404:62|337:84,1,120.000004577637,8|0,1:2|0:0,0:0:0:0:
161,138,129439,1,0,1:0:0:0:
131,158,129516,1,0,0:0:0:0:
96,167,129593,1,4,0:3:0:0:
60,160,129670,1,0,1:0:0:0:
33,135,129747,1,0,1:0:0:0:
17,102,129824,1,0,0:0:0:0:
16,66,129900,1,0,0:0:0:0:
35,35,129977,1,0,0:0:0:0:
67,18,130054,6,0,L|194:41,1,120.000004577637,0|0,1:0|0:0,0:0:0:0:
232,91,130362,1,12,1:2:0:0:
331,189,130516,1,0,0:0:0:0:
341,203,130593,1,0,0:0:0:0:
350,218,130670,2,0,P|303:235|234:198,1,120.000004577637,0|4,0:0|0:3,0:0:0:0:
193,267,130977,2,0,L|113:286,2,60.0000022888184,0|0|0,1:0|0:0|0:0,0:0:0:0:
283,142,131285,5,0,1:0:0:0:
439,188,131439,1,0,0:0:0:0:
455,343,131593,2,0,P|392:312|332:331,1,120.000004577637,8|0,1:2|0:0,0:0:0:0:
330,344,131824,1,0,0:0:0:0:
319,363,131900,2,0,L|230:348,3,60.0000022888184,0|0|4|0,1:0|0:0|1:3|0:0,0:0:0:0:
222,299,132208,1,0,1:0:0:0:
209,265,132285,1,0,1:0:0:0:
182,240,132362,1,0,1:0:0:0:
146,230,132439,1,0,1:0:0:0:
110,235,132516,5,0,1:0:0:0:
51,373,132670,1,0,0:0:0:0:
158,307,132824,1,12,0:0:0:0:
212,140,132977,1,0,0:0:0:0:
204,123,133054,1,0,0:0:0:0:
193,108,133131,2,0,P|153:82|68:90,1,120.000004577637,0|4,0:0|0:3,0:0:0:0:
60,158,133439,2,0,L|-6:169,2,60.0000022888184,0|0|0,1:0|0:0|0:0,0:0:0:0:
150,182,133747,5,0,1:0:0:0:
225,33,133900,1,0,0:0:0:0:
388,21,134054,1,8,1:2:0:0:
481,132,134208,1,0,0:0:0:0:
432,270,134362,1,0,1:0:0:0:
432,270,134439,1,0,1:0:0:0:
269,299,134593,1,0,0:0:0:0:
269,299,134670,2,0,P|223:267|143:278,1,120.000004577637,0|0,1:0|0:0,0:0:0:0:
148,284,134900,1,0,0:0:0:0:
135,301,134977,5,2,1:2:0:0:
0,325,135131,1,0,0:0:0:0:
13,172,135285,1,12,0:0:0:0:
123,195,135439,1,0,0:0:0:0:
142,200,135516,1,0,0:0:0:0:
163,204,135593,2,0,L|147:69,1,120.000004577637,0|4,0:0|1:3,0:0:0:0:
36,14,135900,1,0,1:0:0:0:
17,44,135977,1,0,0:0:0:0:
18,80,136054,1,0,0:0:0:0:
105,129,136208,5,0,1:0:0:0:
229,138,136362,1,0,0:0:0:0:
353,246,136516,1,8,0:0:0:0:
229,237,136670,1,0,1:0:0:0:
318,58,136824,1,0,1:0:0:0:
340,65,136900,1,0,0:0:0:0:
362,57,136977,1,0,1:0:0:0:
384,66,137054,1,0,0:0:0:0:
423,50,137131,6,0,L|490:54,3,60.0000022888184,0|0|0|0,1:0|1:0|1:0|1:0,1:0:0:0:
508,117,137439,5,4,0:1:0:0:
