osu file format v14

[General]
AudioFilename: audio.mp3
AudioLeadIn: 0
PreviewTime: 42362
Countdown: 0
SampleSet: Soft
StackLeniency: 0.7
Mode: 0
LetterboxInBreaks: 0
WidescreenStoryboard: 1

[Editor]
Bookmarks: 1054
DistanceSpacing: 0.4
BeatDivisor: 4
GridSize: 4
TimelineZoom: 2.1

[Metadata]
Title:Gardens Under A Spring Sky
TitleUnicode:Gardens Under A Spring Sky
Artist:Fractal Dreamers
ArtistUnicode:Fractal Dreamers
Creator:[Mahua]
Version:Otomahua's Extra
Source:osu!
Tags:mappers' guild featured artist electronic piano instrumental monolithia Yugu gary00737 Otosaka-Yu Suzuki_1112 1112deng
BeatmapID:2101912
BeatmapSetID:985385

[Difficulty]
HPDrainRate:7
CircleSize:5
OverallDifficulty:7
ApproachRate:9
SliderMultiplier:1.6
SliderTickRate:1

[Events]
//Background and Video events
0,0,"bg1.png",0,0
//Break Periods
2,30562,32224
2,52715,55608
//Storyboard Layer 0 (Background)
//Storyboard Layer 1 (Fail)
//Storyboard Layer 2 (Pass)
//Storyboard Layer 3 (Foreground)
//Storyboard Layer 4 (Overlay)
//Storyboard Sound Samples

[TimingPoints]
824,307.692307692308,4,2,0,27,1,0
8516,-200,4,2,0,27,0,0
10670,-100,4,2,0,40,0,0
10747,-100,4,2,0,27,0,0
10977,-100,4,2,0,24,0,0
11054,-100,4,2,0,27,0,0
19593,-100,4,2,0,30,0,0
20516,-66.6666666666667,4,2,0,55,0,0
27900,-66.6666666666667,4,1,0,55,0,0
32824,-100,4,2,0,55,0,0
42670,-66.6666666666667,4,2,0,55,0,0
46670,-66.6666666666667,4,2,0,43,0,0
46747,-66.6666666666667,4,2,0,55,0,0
51285,-66.6666666666667,4,1,0,25,0,0
51593,-66.6666666666667,4,1,0,37,0,0
51900,-66.6666666666667,4,1,0,46,0,0
52208,-66.6666666666667,4,1,0,55,0,0
52516,-66.6666666666667,4,2,0,55,0,0
56208,-133.333333333333,4,2,0,55,0,0
56977,-100,4,2,0,55,0,0
57285,-100,4,2,0,37,0,0
57439,-100,4,2,0,55,0,0
60054,-100,4,2,0,25,0,0
60208,-100,4,2,0,55,0,0
61131,-100,4,1,0,55,0,0
62362,-66.6666666666667,4,2,0,55,0,1
77131,-100,4,2,0,55,0,0
95593,-66.6666666666667,4,2,0,55,0,0
100824,-66.6666666666667,4,2,0,40,0,0
100900,-66.6666666666667,4,2,0,55,0,0
104824,-66.6666666666667,4,1,0,40,0,0
105131,-66.6666666666667,4,1,0,46,0,0
105439,-66.6666666666667,4,2,0,55,0,0
116208,-66.6666666666667,4,1,0,34,0,0
116516,-66.6666666666667,4,1,0,49,0,0
116670,-66.6666666666667,4,2,0,49,0,0
116824,-200,4,2,0,49,0,0
117747,-100,4,2,0,55,0,0
127593,-66.6666666666667,4,2,0,55,0,1
137439,-66.6666666666667,4,2,0,55,0,0
137516,-66.6666666666667,4,2,0,55,0,0
139900,-66.6666666666667,4,2,0,55,0,0

[Colours]
Combo1 : 94,189,247
Combo2 : 132,251,185
Combo3 : 18,124,255
Combo4 : 36,191,230

[HitObjects]
26,177,208,5,0,0:0:0:0:
65,120,362,1,0,0:0:0:0:
127,141,516,1,0,0:0:0:0:
130,147,823,5,2,0:0:0:0:
191,202,1131,1,0,0:0:0:0:
266,179,1439,1,0,0:0:0:0:
282,102,1747,5,0,0:0:0:0:
279,94,2054,1,0,0:0:0:0:
276,86,2362,1,0,0:0:0:0:
337,155,2670,5,0,0:0:0:0:
399,129,2824,1,0,0:0:0:0:
436,184,2977,1,0,0:0:0:0:
439,190,3285,5,2,0:0:0:0:
408,267,3593,1,0,0:0:0:0:
332,264,3900,1,0,0:0:0:0:
281,204,4208,5,0,0:0:0:0:
282,196,4516,1,0,0:0:0:0:
283,188,4824,1,0,0:0:0:0:
221,250,5131,5,0,0:0:0:0:
240,349,5285,1,0,0:0:0:0:
303,298,5439,1,0,0:0:0:0:
307,288,5747,5,2,0:0:0:0:
311,278,6054,1,0,0:0:0:0:
228,256,6362,1,2,0:0:0:0:
185,315,6670,1,0,0:0:0:0:
102,226,6977,1,2,0:0:0:0:
139,368,7285,1,0,0:0:0:0:
24,380,7593,1,2,0:0:0:0:
39,310,7900,1,0,0:0:0:0:
52,232,8208,5,0,0:0:0:0:
52,232,8516,2,0,L|61:358,1,120,0|0,0:0|0:0,0:0:0:0:
70,364,9131,5,0,0:0:0:0:
143,369,9285,1,0,0:0:0:0:
281,312,9439,2,0,L|190:304,1,80,0|0,0:0|0:0,0:0:0:0:
196,289,10054,5,0,0:0:0:0:
176,210,10208,1,0,0:0:0:0:
153,133,10362,1,0,0:0:0:0:
138,340,10516,5,0,0:0:0:0:
223,367,10670,6,0,B|273:360|316:311|274:229,1,160,4|4,0:0|0:0,0:0:0:0:
235,189,11131,1,0,0:0:0:0:
235,189,11285,2,0,L|405:212,1,160,0|0,0:0|0:3,0:0:0:0:
443,158,11747,1,0,0:0:0:0:
437,264,11900,2,0,L|450:352,1,80,2|0,0:0|0:0,0:0:0:0:
454,170,12208,2,0,L|435:79,1,80,0|0,0:0|0:0,0:0:0:0:
380,46,12516,1,0,0:0:0:0:
301,32,12670,1,0,0:0:0:0:
222,18,12824,1,0,0:0:0:0:
105,48,12977,1,0,0:0:0:0:
181,70,13131,6,0,B|155:118|83:138|20:111,1,160,2|0,0:0|0:0,0:0:0:0:
10,43,13593,1,0,0:0:0:0:
24,121,13747,2,0,L|31:210,1,80,0|0,0:0|0:0,0:0:0:0:
47,354,14054,1,0,0:0:0:0:
71,277,14208,1,0,0:0:0:0:
145,247,14362,5,2,0:0:0:0:
193,342,14516,1,0,0:0:0:0:
193,342,14593,1,0,0:0:0:0:
193,342,14670,1,0,0:0:0:0:
275,325,14824,1,0,0:0:0:0:
276,216,14977,6,0,L|257:122,1,80,0|0,0:0|0:0,0:0:0:0:
288,13,15285,2,0,L|308:109,1,80,0|0,3:0|0:0,0:0:0:0:
346,255,15593,5,2,0:0:0:0:
346,255,15900,1,0,0:0:0:0:
363,176,16054,1,0,0:0:0:0:
376,97,16208,2,0,L|391:182,1,80,0|0,0:0|0:0,0:0:0:0:
414,301,16516,1,0,0:0:0:0:
486,267,16824,5,2,0:0:0:0:
418,225,16977,1,0,0:0:0:0:
418,225,17054,1,0,0:0:0:0:
418,225,17131,1,0,0:0:0:0:
372,293,17285,1,0,0:0:0:0:
322,363,17439,6,0,L|219:374,1,80,0|0,0:0|0:0,0:0:0:0:
109,299,17747,1,2,0:3:0:0:
179,318,17900,2,0,L|239:311,1,40,0|0,0:0|0:0,0:0:0:0:
285,301,18054,6,0,B|301:227|257:173|180:164,1,160,2|0,0:0|0:0,0:0:0:0:
157,137,18516,1,0,0:0:0:0:
128,203,18670,2,0,L|27:197,1,80,0|0,0:0|0:0,0:0:0:0:
5,83,18977,2,0,L|84:87,1,80,0|0,3:0|0:0,0:0:0:0:
143,28,19285,1,0,0:0:0:0:
110,283,19593,5,0,0:0:0:0:
53,338,19900,1,0,0:0:0:0:
39,258,20208,1,0,0:0:0:0:
119,281,20516,6,0,L|254:273,1,120.000004577637,4|0,1:3|0:0,0:0:0:0:
301,308,20824,1,8,1:2:0:0:
201,147,20977,1,0,0:0:0:0:
178,167,21054,1,0,0:0:0:0:
167,195,21131,1,0,0:0:0:0:
171,224,21208,1,0,0:0:0:0:
186,249,21285,1,0,1:0:0:0:
372,348,21439,2,0,C|392:320|392:271|348:219,1,119.999996423721,8|0,1:3|0:0,0:0:0:0:
386,167,21747,5,4,1:3:0:0:
465,48,21900,1,0,0:0:0:0:
461,63,21977,1,0,0:0:0:0:
458,78,22054,2,0,L|323:75,1,120.000004577637,8|0,1:2|0:0,0:0:0:0:
235,18,22362,1,0,1:0:0:0:
220,44,22439,1,0,0:0:0:0:
237,68,22516,1,0,1:0:0:0:
232,97,22593,1,0,0:0:0:0:
252,118,22670,1,0,1:0:0:0:
247,147,22747,1,0,0:0:0:0:
267,168,22824,1,0,0:0:0:0:
263,197,22900,1,0,0:0:0:0:
285,217,22977,6,0,B|232:270|138:223,1,120.000004577637,4|0,0:3|0:0,0:0:0:0:
116,182,23285,1,4,1:0:0:0:
72,108,23439,1,0,0:0:0:0:
68,96,23516,1,0,0:0:0:0:
64,82,23593,1,0,0:0:0:0:
90,262,23747,1,4,3:0:0:0:
64,340,23900,2,0,L|72:272,1,60.0000022888184,0|0,1:0|0:0,0:0:0:0:
10,205,24054,6,0,B|59:166|128:181|153:234,1,120.000004577637,0|4,0:0|0:3,0:0:0:0:
210,331,24362,1,0,0:0:0:0:
303,345,24516,1,8,1:2:0:0:
475,288,24670,2,0,L|485:218,1,60.0000022888184,8|0,1:3|0:0,0:0:0:0:
473,94,24824,5,8,1:3:0:0:
475,127,24900,1,0,0:0:0:0:
462,159,24977,1,0,1:0:0:0:
435,180,25054,1,0,0:0:0:0:
402,188,25131,1,0,1:0:0:0:
369,181,25208,1,0,1:0:0:0:
342,161,25285,1,0,1:0:0:0:
325,131,25362,1,0,1:0:0:0:
326,101,25439,6,0,L|231:200,1,120.000004577637,4|0,0:3|0:0,0:0:0:0:
21,89,25747,2,0,B|109:106|50:213,1,120.000004577637,8|0,1:2|0:0,0:0:0:0:
55,191,25977,1,0,0:0:0:0:
40,201,26054,6,0,L|185:186,1,120.000004577637,0|4,0:0|0:3,0:0:0:0:
226,315,26362,2,0,L|137:310,1,60.0000022888184,0|0,1:0|0:0,0:0:0:0:
249,303,26516,1,0,0:0:0:0:
429,251,26670,6,0,B|454:308|433:368,1,120.000004577637,4|0,1:3|0:0,0:0:0:0:
242,187,26977,2,0,B|217:130|237:69,1,120.000004577637,8|0,1:2|0:0,0:0:0:0:
265,41,27208,1,0,0:0:0:0:
288,20,27285,5,0,1:0:0:0:
265,41,27362,1,0,0:0:0:0:
243,25,27439,1,4,1:3:0:0:
218,41,27516,1,0,0:0:0:0:
192,35,27593,1,0,1:0:0:0:
165,44,27670,1,0,0:0:0:0:
140,28,27747,1,0,0:0:0:0:
110,31,27824,1,0,0:0:0:0:
84,19,27900,6,0,L|43:81,1,60.0000022888184,0|0,0:2|0:0,0:0:0:0:
142,121,28054,2,0,L|124:193,1,60.0000022888184,8|0,0:3|0:0,0:0:0:0:
227,191,28208,2,0,L|235:264,1,60.0000022888184,0|0,0:0|0:0,0:0:0:0:
337,224,28362,2,0,L|370:290,1,60.0000022888184,0|0,0:0|0:0,0:0:0:0:
463,263,28516,6,0,L|516:314,7,60.0000022888184,2|0|8|0|0|0|0|0,0:2|0:0|0:3|0:0|0:0|0:0|0:0|0:0,0:0:0:0:
455,239,29131,5,2,0:2:0:0:
420,237,29207,1,0,0:0:0:0:
387,243,29284,1,0,0:0:0:0:
355,255,29361,1,0,0:0:0:0:
327,275,29438,1,2,0:2:0:0:
304,301,29515,1,0,0:0:0:0:
289,331,29592,1,0,0:0:0:0:
281,364,29669,1,0,0:0:0:0:
308,382,29747,5,0,0:0:0:0:
281,364,29824,1,0,0:0:0:0:
262,377,29900,1,0,0:0:0:0:
235,359,29977,1,0,0:0:0:0:
212,375,30054,1,0,0:0:0:0:
185,357,30131,1,0,0:0:0:0:
168,372,30208,1,0,0:0:0:0:
141,354,30285,1,0,0:0:0:0:
110,371,30362,5,4,0:1:0:0:
468,349,32824,5,0,0:0:0:0:
448,284,32977,1,0,0:0:0:0:
402,334,33131,1,0,0:0:0:0:
468,349,33285,1,2,0:0:0:0:
377,147,33593,5,0,0:0:0:0:
316,115,33746,1,0,0:0:0:0:
319,183,33900,1,2,0:0:0:0:
266,342,34208,5,0,0:0:0:0:
245,276,34361,1,0,0:0:0:0:
199,326,34515,1,0,0:0:0:0:
266,342,34670,5,2,0:0:0:0:
243,343,34746,1,0,0:0:0:0:
220,345,34823,1,0,0:0:0:0:
197,347,34900,1,0,0:0:0:0:
174,349,34977,1,2,0:0:0:0:
152,351,35054,1,0,0:0:0:0:
129,352,35131,1,0,0:0:0:0:
106,354,35208,1,0,0:0:0:0:
91,373,35285,6,0,L|97:268,1,80,2|0,0:0|0:0,0:0:0:0:
42,144,35593,1,0,0:0:0:0:
0,210,35747,2,0,B|68:246|131:190|123:123,1,160,2|0,0:0|0:0,0:0:0:0:
192,38,36208,2,0,B|167:79|199:124,1,80,0|2,0:0|0:0,0:0:0:0:
303,184,36670,5,0,0:0:0:0:
368,194,36824,1,0,0:0:0:0:
433,202,36977,1,0,0:0:0:0:
466,106,37131,5,2,0:0:0:0:
468,128,37207,1,0,0:0:0:0:
470,151,37284,1,0,0:0:0:0:
472,174,37361,1,0,0:0:0:0:
475,196,37438,1,2,0:0:0:0:
477,219,37515,1,0,0:0:0:0:
479,242,37592,1,0,0:0:0:0:
482,265,37669,1,0,0:0:0:0:
499,267,37747,5,2,0:0:0:0:
468,335,37900,1,0,0:0:0:0:
422,277,38054,1,0,0:0:0:0:
499,267,38208,1,2,0:0:0:0:
278,327,38515,5,0,0:0:0:0:
287,253,38669,1,0,0:0:0:0:
349,301,38823,1,2,0:0:0:0:
156,170,39131,5,0,0:0:0:0:
214,124,39285,1,0,0:0:0:0:
224,201,39439,1,0,0:0:0:0:
159,247,39593,6,0,B|101:254|51:192|101:112,1,160,2|2,0:0|0:0,0:0:0:0:
207,21,40208,5,2,0:0:0:0:
58,58,40516,1,0,0:0:0:0:
141,77,40670,1,2,0:0:0:0:
305,21,40977,5,0,0:0:0:0:
454,58,41131,1,2,0:0:0:0:
371,77,41285,1,2,0:0:0:0:
432,134,41439,6,0,B|446:171|441:230,1,80,0|0,0:0|0:0,0:0:0:0:
348,284,41747,2,0,B|334:247|337:205,1,80,2|2,0:0|0:0,0:0:0:0:
446,124,42054,6,0,B|460:161|455:220,1,80,0|2,0:0|0:0,0:0:0:0:
338,295,42362,2,0,B|324:258|327:216,1,80,0|2,0:0|0:0,0:0:0:0:
512,321,42670,6,0,L|297:313,1,180.000006866455,4|0,1:2|0:0,0:0:0:0:
260,324,42977,1,8,1:2:0:0:
111,268,43131,6,0,L|133:371,1,60.0000022888184,0|0,0:0|0:0,0:0:0:0:
116,355,43285,2,0,L|128:194,1,120.000004577637,0|4,0:0|0:3,0:0:0:0:
40,138,43593,1,0,1:3:0:0:
36,106,43670,1,0,0:0:0:0:
32,73,43747,1,0,0:0:0:0:
205,15,43900,6,0,B|256:42|240:127|187:138,1,120.000004577637,0|0,1:0|0:0,0:0:0:0:
143,155,44208,1,8,0:0:0:0:
76,305,44362,2,0,L|164:293,1,60.0000022888184,0|0,0:0|0:0,0:0:0:0:
253,246,44515,1,0,1:0:0:0:
275,221,44592,1,0,0:0:0:0:
304,205,44669,1,0,1:0:0:0:
337,199,44746,1,0,0:0:0:0:
370,202,44823,1,0,1:0:0:0:
402,212,44900,1,0,0:0:0:0:
432,227,44977,1,0,0:0:0:0:
459,246,45054,1,0,0:0:0:0:
471,273,45131,6,0,L|441:118,1,120.000004577637,0|0,1:0|0:0,0:0:0:0:
283,128,45439,2,0,L|374:138,1,60.0000022888184,12|0,0:0|0:0,0:0:0:0:
455,21,45593,1,0,0:0:0:0:
453,32,45670,1,0,0:0:0:0:
451,42,45747,6,0,B|435:77|360:108|325:32,1,120.000004577637,0|4,0:0|0:3,0:0:0:0:
221,19,46054,2,0,L|229:118,2,60.0000022888184,0|0|0,1:0|0:0|0:0,0:0:0:0:
23,175,46362,5,0,1:0:0:0:
107,285,46516,1,0,0:0:0:0:
250,223,46670,1,8,1:2:0:0:
295,360,46824,6,0,L|308:274,1,60.0000022888184,0|0,0:0|0:0,0:0:0:0:
378,223,46977,2,0,L|394:328,1,60.0000022888184,4|0,1:3|0:0,0:0:0:0:
461,363,47131,5,0,1:0:0:0:
486,337,47207,1,0,0:0:0:0:
498,304,47284,1,4,1:3:0:0:
501,268,47361,1,0,1:0:0:0:
494,233,47438,1,0,1:0:0:0:
476,201,47515,1,0,1:0:0:0:
451,186,47593,6,0,L|466:51,1,120.000004577637,0|0,1:0|0:0,0:0:0:0:
299,28,47900,2,0,L|309:143,1,60.0000022888184,12|0,0:0|0:0,0:0:0:0:
238,218,48054,5,0,0:0:0:0:
256,199,48131,1,0,0:0:0:0:
257,176,48208,6,0,B|176:210|131:102,1,120.000004577637,0|4,0:0|0:3,0:0:0:0:
95,39,48516,2,0,L|6:52,1,60.0000022888184,0|0,1:0|0:0,0:0:0:0:
123,28,48670,1,0,0:0:0:0:
7,247,48824,6,0,B|62:212|181:211|224:337,1,240.000009155274,0|8,1:0|0:0,0:0:0:0:
378,373,49285,1,0,0:0:0:0:
368,348,49362,1,0,0:0:0:0:
356,321,49439,6,0,L|361:239,1,60.0000022888184,0|0,1:0|0:0,0:0:0:0:
436,233,49593,2,0,L|418:175,1,60.0000022888184,0|0,1:0|0:0,0:0:0:0:
484,108,49747,1,0,1:0:0:0:
264,27,49900,1,0,0:0:0:0:
234,28,49977,1,0,0:0:0:0:
200,32,50054,6,0,C|214:122|199:199|168:268,1,239.999992847443,0|12,1:0|0:0,0:0:0:0:
283,365,50516,2,0,C|269:275|284:198|315:129,1,239.999992847443,0|4,0:0|0:3,0:0:0:0:
348,37,50977,2,0,C|441:37|491:37,1,120.000004577637,0|0,1:0|0:0,0:0:0:0:
384,207,51285,5,0,0:0:0:0:
362,233,51361,1,0,0:0:0:0:
335,254,51438,1,0,0:0:0:0:
303,266,51515,1,0,0:0:0:0:
269,268,51592,1,0,0:0:0:0:
236,260,51669,1,0,0:0:0:0:
207,242,51746,1,0,0:0:0:0:
182,218,51823,1,0,0:0:0:0:
165,190,51900,6,0,L|141:280,1,60.0000022888184,0|0,0:0|0:0,0:0:0:0:
82,321,52054,2,0,L|68:253,1,60.0000022888184,0|0,0:0|0:0,0:0:0:0:
95,81,52208,5,0,0:0:0:0:
115,118,52284,1,0,0:0:0:0:
94,156,52361,1,0,0:0:0:0:
51,157,52438,1,0,0:0:0:0:
27,121,52515,1,4,0:0:0:0:
288,73,56208,5,0,0:0:0:0:
352,141,56362,1,0,0:0:0:0:
331,218,56516,1,0,3:0:0:0:
395,285,56670,1,0,3:0:0:0:
210,352,56824,5,0,3:0:0:0:
219,324,56900,1,0,3:0:0:0:
229,301,56977,2,0,B|172:319|94:301,1,120,0|0,3:0|0:0,0:0:0:0:
87,320,57285,2,0,B|50:317|14:328,1,40,0|0,1:0|0:0,0:0:0:0:
5,118,57439,5,2,3:3:0:0:
114,73,57593,1,0,3:0:0:0:
212,140,57747,1,2,0:0:0:0:
343,71,57900,5,0,0:0:0:0:
334,88,57977,1,0,0:0:0:0:
334,108,58054,1,2,0:0:0:0:
339,127,58131,1,0,0:0:0:0:
352,141,58208,2,0,B|400:139,2,40,0|0|0,0:0|0:0|3:0,0:0:0:0:
480,120,58516,5,0,3:0:0:0:
484,148,58593,1,0,0:0:0:0:
488,175,58670,2,0,B|452:206|466:264,1,80,0|0,3:0|0:0,0:0:0:0:
493,316,58977,1,2,3:2:0:0:
331,313,59131,5,0,0:0:0:0:
331,313,59208,1,0,0:0:0:0:
331,313,59285,2,0,B|407:317,2,40,2|0|0,3:2|0:0|0:0,0:0:0:0:
232,364,59593,1,2,0:0:0:0:
129,308,59747,1,0,0:0:0:0:
121,324,59824,1,0,0:0:0:0:
113,340,59900,5,2,0:0:0:0:
186,207,60054,1,0,1:0:0:0:
25,222,60208,1,2,0:0:0:0:
168,60,60362,5,0,0:0:0:0:
141,77,60439,1,0,0:0:0:0:
109,84,60516,1,2,0:0:0:0:
77,78,60593,1,0,0:0:0:0:
50,60,60670,2,0,B|24:155,1,80,0|2,0:0|0:0,0:0:0:0:
109,7,60977,1,0,0:0:0:0:
258,136,61131,6,0,B|253:69,1,40,0|0,0:0|0:0,0:0:0:0:
337,53,61285,2,0,B|327:126,1,40,0|0,0:0|0:0,0:0:0:0:
418,116,61439,2,0,B|413:49,1,40,0|0,2:0|0:0,0:0:0:0:
497,33,61593,2,0,B|487:106,1,40,0|0,2:0|0:0,0:0:0:0:
451,189,61747,5,0,3:0:0:0:
456,216,61824,1,0,0:0:0:0:
462,244,61900,2,0,B|417:264|356:271,1,80,0|0,3:0|2:0,0:0:0:0:
376,255,62131,2,0,B|341:261|310:273,1,40,0|0,0:0|0:0,0:0:0:0:
205,285,62362,6,0,B|60:278,1,119.999996423721,4|0,0:0|0:0,0:0:0:0:
20,288,62670,1,8,0:0:0:0:
117,128,62824,5,0,0:0:0:0:
135,153,62900,1,0,0:0:0:0:
143,181,62977,1,0,0:0:0:0:
148,212,63054,1,0,0:0:0:0:
137,242,63131,1,4,0:3:0:0:
79,41,63285,6,0,B|177:50,1,59.9999982118607,0|0,1:0|0:0,0:0:0:0:
207,15,63439,1,0,0:0:0:0:
240,108,63593,5,0,1:0:0:0:
389,38,63747,1,0,0:0:0:0:
442,202,63900,2,0,B|369:198,1,59.9999982118607,8|0,1:2|0:0,0:0:0:0:
298,257,64054,1,0,0:0:0:0:
440,329,64208,5,0,1:0:0:0:
412,316,64285,1,0,1:0:0:0:
382,312,64362,1,0,1:0:0:0:
351,312,64439,1,0,1:0:0:0:
321,317,64516,1,0,1:0:0:0:
292,324,64593,1,0,0:0:0:0:
265,337,64670,1,0,0:0:0:0:
239,353,64747,1,0,0:0:0:0:
219,375,64824,6,0,B|236:236,1,119.999996423721,4|0,0:0|0:0,0:0:0:0:
192,180,65131,1,8,0:0:0:0:
65,272,65285,6,0,B|149:262,1,59.9999982118607,0|0,0:0|0:0,0:0:0:0:
158,274,65439,2,0,B|11:265,1,119.999996423721,0|4,0:0|0:3,0:0:0:0:
24,48,65747,2,0,B|45:102|134:111|159:78,1,119.999996423721,0|0,1:0|0:0,0:0:0:0:
143,84,65977,1,0,0:0:0:0:
161,60,66054,5,0,1:0:0:0:
185,42,66131,1,0,0:0:0:0:
214,36,66208,1,0,0:0:0:0:
243,38,66285,1,0,0:0:0:0:
269,51,66362,1,8,0:0:0:0:
287,74,66439,1,0,0:0:0:0:
296,102,66516,1,0,0:0:0:0:
296,132,66593,1,0,0:0:0:0:
289,161,66670,5,0,1:0:0:0:
270,184,66747,1,0,1:0:0:0:
256,210,66824,1,4,1:3:0:0:
254,239,66900,1,0,1:0:0:0:
261,267,66977,1,0,1:0:0:0:
284,286,67054,1,0,0:0:0:0:
311,297,67131,1,0,0:0:0:0:
341,295,67208,1,0,0:0:0:0:
369,284,67285,5,4,0:0:0:0:
480,249,67439,1,2,0:0:0:0:
450,364,67593,1,8,1:2:0:0:
413,123,67747,6,0,B|406:208,1,59.9999982118607,0|0,0:0|0:0,0:0:0:0:
411,212,67900,2,0,B|406:79,1,119.999996423721,2|4,0:0|0:3,0:0:0:0:
256,28,68208,6,0,B|260:97,1,59.9999982118607,2|0,1:2|0:0,0:0:0:0:
203,136,68362,1,0,0:0:0:0:
203,136,68439,1,0,0:0:0:0:
203,136,68516,5,0,0:0:0:0:
173,132,68593,1,0,0:0:0:0:
143,138,68670,1,0,0:0:0:0:
118,155,68747,1,0,0:0:0:0:
103,181,68824,1,8,1:2:0:0:
97,210,68900,1,0,0:0:0:0:
102,239,68977,1,0,0:0:0:0:
120,262,69054,1,0,0:0:0:0:
152,274,69131,6,0,B|138:336,1,59.9999982118607,2|0,0:0|0:0,0:0:0:0:
227,291,69285,2,0,B|235:354,1,59.9999982118607,4|0,0:3|0:0,0:0:0:0:
307,290,69439,2,0,B|336:346,1,59.9999982118607,0|0,1:0|0:0,0:0:0:0:
375,254,69593,2,0,B|421:297,1,59.9999982118607,0|0,0:0|0:0,0:0:0:0:
471,352,69747,6,0,B|501:328|516:272|460:212,1,119.999996423721,4|2,0:3|0:0,0:0:0:0:
323,125,70054,2,0,B|405:135,1,59.9999982118607,10|0,1:2|0:0,0:0:0:0:
442,64,70208,1,0,0:0:0:0:
455,60,70285,1,0,0:0:0:0:
469,56,70362,6,0,B|439:80|424:136|480:196,1,119.999996423721,0|4,0:0|0:3,0:0:0:0:
275,206,70670,2,0,B|198:211,2,59.9999982118607,0|0|0,1:3|0:0|0:0,0:0:0:0:
139,0,70977,6,0,B|123:130,1,119.999996423721,0|0,1:0|0:0,0:0:0:0:
148,127,71208,1,0,0:0:0:0:
162,152,71285,5,8,1:2:0:0:
165,170,71362,1,0,0:0:0:0:
156,188,71439,1,0,0:0:0:0:
158,211,71516,1,0,0:0:0:0:
149,227,71593,1,0,1:0:0:0:
155,250,71670,1,0,0:0:0:0:
141,268,71747,1,0,1:0:0:0:
147,295,71824,1,0,0:0:0:0:
126,310,71900,5,4,1:3:0:0:
165,310,71977,1,0,0:0:0:0:
206,322,72054,1,0,0:0:0:0:
236,349,72131,1,0,0:0:0:0:
266,375,72208,6,0,B|294:346|366:343|401:376,1,119.999996423721,2|0,0:0|0:0,0:0:0:0:
479,337,72516,1,12,0:2:0:0:
386,147,72670,2,0,B|468:162,1,59.9999982118607,2|0,0:0|0:0,0:0:0:0:
344,121,72824,5,0,0:0:0:0:
213,120,72977,1,4,0:3:0:0:
84,74,73131,2,0,B|71:158,2,59.9999982118607,0|0|0,1:0|0:0|0:0,0:0:0:0:
72,51,73362,1,0,0:0:0:0:
58,31,73439,6,0,B|14:51|-6:115|34:187,1,119.999996423721,4|0,1:3|0:0,0:0:0:0:
51,205,73747,1,8,0:0:0:0:
101,317,73900,2,0,B|21:311,1,59.9999982118607,0|0,0:0|0:0,0:0:0:0:
133,245,74054,6,0,B|225:269,1,59.9999982118607,0|0,0:0|0:0,0:0:0:0:
288,331,74208,1,0,1:0:0:0:
288,331,74285,1,0,0:0:0:0:
288,331,74362,2,0,B|266:295|267:222|313:205,1,119.999996423721,0|0,1:0|0:0,0:0:0:0:
315,194,74593,1,0,0:0:0:0:
310,164,74670,5,2,0:0:0:0:
416,55,74824,1,0,0:0:0:0:
271,31,74977,6,0,B|196:34,1,59.9999982118607,12|0,1:2|0:0,0:0:0:0:
105,22,75131,1,0,0:0:0:0:
105,22,75208,1,0,0:0:0:0:
105,22,75285,2,0,B|146:61|138:120|112:164,1,119.999996423721,0|4,0:0|0:3,0:0:0:0:
29,219,75593,2,0,B|31:308,2,59.9999982118607,0|0|0,1:0|0:0|0:0,0:0:0:0:
79,353,75900,5,0,1:0:0:0:
99,329,75977,1,0,0:0:0:0:
132,324,76054,1,0,0:0:0:0:
159,338,76131,1,0,0:0:0:0:
160,354,76208,5,8,1:2:0:0:
180,330,76285,1,0,0:0:0:0:
213,325,76362,1,0,0:0:0:0:
240,339,76439,1,0,0:0:0:0:
245,352,76516,5,0,1:0:0:0:
265,328,76593,1,0,1:0:0:0:
298,323,76670,1,0,1:0:0:0:
325,337,76747,1,0,1:0:0:0:
326,353,76824,5,0,1:0:0:0:
346,329,76901,1,0,1:0:0:0:
379,324,76978,1,0,1:0:0:0:
406,338,77055,1,0,0:0:0:0:
433,341,77131,6,0,B|405:282|421:228|478:198,1,160,4|0,0:3|0:0,0:0:0:0:
408,22,77747,1,0,0:0:0:0:
490,50,77900,2,0,B|310:59,1,160,2|0,0:0|0:0,0:0:0:0:
256,19,78362,6,0,B|230:47|241:90|268:110,1,80,0|0,0:0|0:0,0:0:0:0:
320,135,78670,1,0,0:0:0:0:
321,134,78824,2,0,B|285:182|207:185|164:96,1,160,2|0,0:0|0:0,0:0:0:0:
103,194,79285,2,0,B|150:187|174:233,1,80,0|0,0:0|0:0,0:0:0:0:
257,240,79593,6,0,B|199:361|114:239|69:398,2,240,2|2|0,0:0|0:0|0:0,0:0:0:0:
413,141,80824,1,0,0:0:0:0:
341,154,80977,1,2,0:0:0:0:
350,229,81131,1,0,0:0:0:0:
425,220,81285,2,0,B|428:306|396:382,1,160,0|0,0:0|0:0,0:0:0:0:
326,373,81747,1,0,0:0:0:0:
242,172,82054,6,0,B|70:172,1,160,2|0,0:0|0:0,0:0:0:0:
120,102,82516,2,0,B|175:121|181:213|121:245,1,160,2|0,0:0|0:0,0:0:0:0:
61,248,82977,1,0,0:0:0:0:
67,51,83285,5,0,0:0:0:0:
67,51,83439,2,0,B|108:16|156:45,1,80,0|2,0:0|0:0,0:0:0:0:
212,63,83747,1,2,0:0:0:0:
353,87,83900,6,0,B|312:122|264:93,1,80,0|0,0:0|0:0,0:0:0:0:
266,15,84208,2,0,B|307:-20|355:9,1,80,2|2,0:0|0:0,0:0:0:0:
410,37,84516,6,0,B|389:105|414:217,1,160,2|0,0:0|0:0,0:0:0:0:
480,201,84977,2,0,B|464:271|391:285|343:227,1,160,2|0,0:0|0:0,0:0:0:0:
341,180,85439,6,0,B|296:96|191:124|158:188|162:252|200:301|259:312,1,320,0|0,0:0|0:0,0:0:0:0:
303,342,86208,1,0,0:0:0:0:
233,377,86362,1,0,0:0:0:0:
162,344,86516,1,0,0:0:0:0:
95,376,86670,1,2,0:0:0:0:
28,348,86824,1,0,0:0:0:0:
84,304,86977,6,0,B|121:191|76:38,2,240,2|2|2,0:0|0:0|0:0,0:0:0:0:
0,203,88208,2,0,B|59:85|133:274|216:110,1,240,0|0,0:0|0:0,0:0:0:0:
226,58,88824,1,0,0:0:0:0:
309,49,88977,1,0,0:0:0:0:
362,110,89131,2,0,B|448:102,1,80,2|2,0:0|0:0,0:0:0:0:
497,150,89439,6,0,B|486:247|366:259|332:205|310:137,2,240,0|0|2,0:0|0:0|0:0,0:0:0:0:
434,66,90670,2,0,B|390:178|435:327,1,240,2|0,0:0|0:0,0:0:0:0:
371,356,91285,1,0,0:0:0:0:
295,338,91439,1,0,0:0:0:0:
345,279,91593,1,0,0:0:0:0:
371,356,91747,1,2,0:0:0:0:
295,338,91900,6,0,B|224:377|131:336,1,160,2|0,0:0|0:0,0:0:0:0:
56,183,92516,2,0,B|51:223|57:276,1,80,0|0,0:0|0:0,0:0:0:0:
132,172,92824,2,0,B|137:132|131:79,1,80,2|2,0:0|0:0,0:0:0:0:
79,26,93131,6,0,B|130:112|228:48,1,160,0|0,0:0|0:0,0:0:0:0:
433,26,93747,2,0,B|382:112|284:48,1,160,0|0,0:0|0:0,0:0:0:0:
256,136,94362,1,0,0:0:0:0:
256,192,94439,12,0,95516,0:0:0:0:
448,318,95593,6,0,B|218:308,1,179.999994635582,4|0,0:0|0:0,0:0:0:0:
205,348,95900,1,12,1:2:0:0:
31,255,96054,1,0,0:0:0:0:
31,255,96131,1,0,0:0:0:0:
31,255,96208,5,0,1:0:0:0:
52,257,96285,1,0,1:0:0:0:
75,249,96362,1,0,1:0:0:0:
96,251,96439,1,0,0:0:0:0:
126,244,96516,1,0,1:0:0:0:
147,246,96593,1,0,0:0:0:0:
170,238,96670,1,0,0:0:0:0:
191,240,96747,1,0,1:0:0:0:
214,243,96824,6,0,B|241:171|166:90|110:102,1,179.999994635582,2|0,1:2|0:0,0:0:0:0:
69,95,97131,1,8,1:2:0:0:
241,39,97285,1,0,0:0:0:0:
241,39,97362,1,0,0:0:0:0:
241,39,97439,5,0,1:0:0:0:
240,69,97516,1,0,1:0:0:0:
253,95,97593,1,0,1:0:0:0:
280,106,97670,1,0,0:0:0:0:
309,103,97747,1,0,1:0:0:0:
336,114,97824,1,0,0:0:0:0:
357,134,97900,1,0,0:0:0:0:
363,163,97977,1,0,0:0:0:0:
354,192,98054,6,0,B|386:66|386:66|429:37,1,179.999994635582,2|0,1:2|0:0,0:0:0:0:
492,15,98362,1,12,1:2:0:0:
397,302,98516,2,0,B|470:292,1,59.9999982118607,0|0,0:0|0:0,0:0:0:0:
488,308,98670,5,0,1:0:0:0:
461,321,98747,1,0,1:0:0:0:
431,325,98824,1,4,1:3:0:0:
401,324,98900,1,0,0:0:0:0:
372,314,98977,1,0,1:0:0:0:
345,300,99054,1,0,0:0:0:0:
320,282,99131,1,0,1:0:0:0:
302,257,99208,1,0,1:0:0:0:
291,224,99285,6,0,B|277:384,1,119.999996423721,2|0,1:2|0:0,0:0:0:0:
292,362,99516,2,0,B|264:347|231:363,1,59.9999982118607,2|12,0:0|0:0,0:0:0:0:
88,304,99747,2,0,B|116:319|149:303,1,59.9999982118607,2|0,0:0|0:0,0:0:0:0:
210,256,99900,5,0,1:0:0:0:
206,226,99977,1,0,0:0:0:0:
203,196,100054,1,4,1:3:0:0:
198,166,100131,1,0,1:0:0:0:
194,136,100208,2,0,B|224:67,3,59.9999982118607,0|0|0|0,1:0|0:0|0:0|0:0,0:0:0:0:
137,72,100516,6,0,B|225:15|225:135|321:61,1,179.999994635582,2|0,1:2|0:0,0:0:0:0:
358,30,100824,1,12,1:0:0:0:
496,153,100977,2,0,B|496:249,1,59.9999982118607,0|0,0:0|0:0,0:0:0:0:
456,279,101131,6,0,B|425:260|419:220,3,59.9999982118607,0|0|4|0,1:0|1:0|1:3|0:0,0:0:0:0:
386,165,101439,2,0,B|355:184|349:224,1,59.9999982118607,0|0,1:0|0:0,0:0:0:0:
321,280,101593,2,0,B|290:261|284:221,1,59.9999982118607,0|0,0:0|1:0,0:0:0:0:
252,146,101747,6,0,B|197:200|215:300,1,119.999996423721,2|0,1:2|0:0,0:0:0:0:
167,328,101977,2,0,B|112:274|130:174,1,119.999996423721,2|0,0:0|0:0,0:0:0:0:
91,126,102208,2,0,B|36:180|54:280,1,119.999996423721,2|0,0:0|1:0,0:0:0:0:
55,262,102439,1,0,1:0:0:0:
74,239,102516,1,0,1:0:0:0:
79,209,102593,1,0,0:0:0:0:
73,179,102670,5,4,1:3:0:0:
65,149,102747,1,0,0:0:0:0:
54,121,102824,1,0,0:0:0:0:
55,91,102900,1,0,0:0:0:0:
75,64,102977,6,0,B|270:64,1,179.999994635582,4|0,0:3|0:0,0:0:0:0:
331,64,103285,1,12,1:2:0:0:
496,25,103439,1,0,0:0:0:0:
496,25,103516,1,0,0:0:0:0:
496,25,103593,5,0,1:0:0:0:
467,34,103670,1,0,1:0:0:0:
445,53,103747,1,4,1:3:0:0:
430,79,103824,1,0,0:0:0:0:
417,105,103900,1,0,1:0:0:0:
416,134,103977,1,0,0:0:0:0:
420,163,104054,1,0,1:0:0:0:
437,187,104131,1,0,1:0:0:0:
457,209,104208,6,0,B|404:185|404:185|332:205,1,119.999996423721,2|0,1:2|0:0,0:0:0:0:
336,180,104439,2,0,B|366:210|366:210|351:349,1,179.999994635582,2|2,1:2|1:2,0:0:0:0:
252,352,104824,6,0,B|170:363,7,59.9999982118607,0|0|0|0|0|0|0|0,0:0|0:0|0:0|0:0|0:0|0:0|0:0|0:0,0:0:0:0:
279,340,105439,5,4,1:2:0:0:
263,314,105516,1,0,0:0:0:0:
255,284,105593,1,0,0:0:0:0:
254,253,105670,1,0,0:0:0:0:
263,224,105747,5,0,0:0:0:0:
237,239,105824,1,0,0:0:0:0:
207,243,105900,1,0,0:0:0:0:
176,242,105977,1,0,0:0:0:0:
153,261,106054,5,0,0:0:0:0:
123,267,106131,1,0,0:0:0:0:
93,260,106208,1,0,0:0:0:0:
67,244,106285,1,0,0:0:0:0:
85,219,106362,5,0,0:0:0:0:
85,188,106439,1,0,0:0:0:0:
77,159,106516,1,0,0:0:0:0:
105,167,106593,1,0,0:2:0:0:
130,152,106670,6,0,B|212:151|344:172,1,179.999994635582,4|0,0:0|0:0,0:0:0:0:
344,145,106977,2,0,B|390:141|438:126,1,59.9999982118607,12|0,1:2|0:0,0:0:0:0:
469,61,107131,5,0,0:0:0:0:
469,61,107208,1,0,0:0:0:0:
469,61,107285,2,0,B|423:65|375:80,3,59.9999982118607,0|0|4|0,1:0|0:0|1:3|0:0,0:0:0:0:
403,135,107593,2,0,B|407:181|422:229,3,59.9999982118607,0|0|0|0,1:3|0:0|0:0|0:0,0:0:0:0:
361,268,107900,6,0,B|419:264,1,59.9999982118607,0|0,1:0|0:0,0:0:0:0:
414,348,108054,2,0,B|340:335,1,59.9999982118607,0|0,0:0|0:0,0:0:0:0:
292,364,108208,1,8,1:2:0:0:
261,370,108285,1,0,0:0:0:0:
228,365,108362,1,0,0:0:0:0:
204,345,108439,1,0,0:0:0:0:
193,318,108516,6,0,B|162:316|162:316|122:345,3,59.9999982118607,0|0|4|0,1:0|1:0|1:3|0:0,0:0:0:0:
230,238,108824,1,0,1:0:0:0:
182,232,108900,1,0,0:0:0:0:
137,228,108977,1,0,0:0:0:0:
91,223,109054,1,0,0:0:0:0:
51,219,109131,6,0,B|16:167|58:62|139:60,1,179.999994635582,2|0,1:3|0:0,0:0:0:0:
178,67,109439,2,0,B|262:72,1,59.9999982118607,12|0,0:0|0:0,0:0:0:0:
312,81,109593,1,0,0:0:0:0:
312,81,109670,1,0,0:0:0:0:
312,81,109747,6,0,B|319:52|316:19,3,59.9999982118607,0|0|4|0,1:0|1:0|1:3|0:0,0:0:0:0:
280,156,110054,2,0,B|347:152,1,59.9999982118607,0|0,1:0|0:0,0:0:0:0:
385,211,110208,2,0,B|453:192,1,59.9999982118607,0|0,0:0|0:0,0:0:0:0:
412,303,110362,5,0,1:0:0:0:
373,286,110439,1,0,0:0:0:0:
331,288,110516,1,0,0:0:0:0:
295,311,110593,1,0,0:0:0:0:
275,348,110670,1,8,1:2:0:0:
238,326,110747,1,0,0:0:0:0:
195,324,110824,1,0,0:0:0:0:
154,332,110900,1,0,0:0:0:0:
159,290,110977,5,0,1:0:0:0:
152,248,111054,1,0,1:0:0:0:
137,208,111131,1,0,1:0:0:0:
178,216,111208,1,0,1:0:0:0:
219,213,111285,5,0,1:0:0:0:
255,191,111362,1,0,1:0:0:0:
281,155,111439,1,0,1:0:0:0:
285,116,111516,1,0,1:0:0:0:
271,76,111593,6,0,B|243:156|304:202|304:202|272:269,1,179.999994635582,4|2,0:0|0:0,0:0:0:0:
482,153,111900,2,0,B|397:151|351:124,1,119.999996423721,12|0,0:0|0:0,0:0:0:0:
352,104,112131,1,0,0:0:0:0:
339,76,112208,6,0,B|405:120|388:223,1,119.999996423721,0|4,0:0|0:3,0:0:0:0:
191,78,112516,2,0,B|192:40|217:13,2,59.9999982118607,0|0|0,1:0|0:0|0:0,0:0:0:0:
123,120,112747,1,0,0:0:0:0:
134,126,112824,6,0,B|54:154|-4:162,1,119.999996423721,0|0,1:0|0:0,0:0:0:0:
35,167,113054,1,0,0:0:0:0:
44,175,113131,6,0,B|31:252|65:343,1,119.999996423721,8|0,1:2|0:0,0:0:0:0:
107,336,113362,1,0,0:0:0:0:
107,336,113439,2,0,B|201:346,3,59.9999982118607,0|0|4|0,1:0|1:0|1:3|0:0,0:0:0:0:
230,360,113747,2,0,B|288:317,1,59.9999982118607,0|0,1:0|0:0,0:0:0:0:
338,292,113900,2,0,B|389:356,1,59.9999982118607,0|0,0:0|0:0,0:0:0:0:
444,352,114054,6,0,B|485:317|491:220|404:187,1,179.999994635582,4|2,0:0|0:0,0:0:0:0:
361,169,114362,1,12,0:0:0:0:
422,33,114516,1,0,0:0:0:0:
422,33,114593,1,0,0:0:0:0:
422,33,114670,6,0,B|495:38,1,59.9999982118607,0|0,1:0|1:0,0:0:0:0:
366,95,114824,2,0,B|293:100,1,59.9999982118607,4|0,1:3|0:0,0:0:0:0:
276,16,114977,2,0,B|349:21,1,59.9999982118607,0|0,1:0|0:0,0:0:0:0:
220,78,115131,2,0,B|147:83,1,59.9999982118607,0|0,1:0|1:0,0:0:0:0:
94,32,115285,6,0,B|32:94|132:150|60:218,1,179.999994635582,4|4,1:2|0:0,0:0:0:0:
46,266,115593,1,12,0:0:0:0:
180,354,115747,1,0,0:0:0:0:
180,354,115824,1,0,0:0:0:0:
180,354,115900,5,0,1:0:0:0:
222,364,115977,1,0,0:0:0:0:
269,358,116054,1,0,1:3:0:0:
303,330,116131,1,0,0:0:0:0:
316,286,116208,5,0,1:0:0:0:
280,258,116285,1,0,0:0:0:0:
259,216,116362,1,0,0:0:0:0:
260,168,116439,1,0,0:0:0:0:
291,133,116516,5,4,1:0:0:0:
429,293,116824,6,0,B|474:314|457:377,2,80,0|0|2,0:0|0:0|0:0,0:0:0:0:
388,152,117747,6,0,B|502:165,1,80,0|0,0:0|0:0,0:0:0:0:
305,120,118054,2,0,B|191:107,1,80,0|2,0:0|0:0,0:0:0:0:
59,124,118516,5,0,0:0:0:0:
148,100,118670,1,0,0:0:0:0:
80,32,118824,1,2,0:0:0:0:
38,259,119131,5,0,0:0:0:0:
38,259,119208,1,0,0:0:0:0:
38,259,119285,2,0,B|84:275|149:240,1,80,2|0,0:0|0:0,0:0:0:0:
223,180,119593,5,0,0:0:0:0:
219,195,119670,1,0,0:0:0:0:
218,211,119747,1,2,0:0:0:0:
222,226,119824,1,0,0:0:0:0:
230,239,119900,1,2,0:0:0:0:
241,249,119977,1,0,0:0:0:0:
255,256,120054,1,2,0:0:0:0:
270,258,120131,1,0,0:0:0:0:
286,257,120208,6,0,B|271:303|283:344,1,80,0|0,0:0|0:0,0:0:0:0:
388,371,120516,1,0,0:0:0:0:
388,371,120670,2,0,B|408:295|385:212,1,160,2|0,0:0|0:0,0:0:0:0:
338,157,121131,1,0,0:0:0:0:
364,90,121285,1,2,0:0:0:0:
507,56,121593,5,0,0:0:0:0:
434,55,121747,1,0,0:0:0:0:
374,21,121900,2,0,B|345:19|328:-5,1,40,2|0,0:0|0:0,0:0:0:0:
232,12,122054,5,2,0:0:0:0:
235,27,122131,1,0,0:0:0:0:
233,42,122208,1,0,0:0:0:0:
225,56,122285,1,0,0:0:0:0:
213,66,122362,1,2,0:0:0:0:
197,70,122439,1,0,0:0:0:0:
180,69,122516,1,0,0:0:0:0:
166,60,122593,1,0,0:0:0:0:
158,45,122670,6,0,B|116:26|43:27,1,80,0|0,0:0|0:0,0:0:0:0:
84,101,122977,2,0,B|40:117|-10:169,1,80,0|2,0:0|0:0,0:0:0:0:
193,256,123439,5,0,0:0:0:0:
141,207,123593,1,0,0:0:0:0:
122,275,123747,2,0,B|176:264|291:211,1,160,2|0,0:0|0:0,0:0:0:0:
327,177,124208,1,0,0:0:0:0:
426,25,124362,1,2,0:0:0:0:
426,25,124439,1,0,0:0:0:0:
426,25,124516,5,0,0:0:0:0:
420,40,124593,1,0,0:0:0:0:
419,56,124670,1,2,0:0:0:0:
423,71,124747,1,0,0:0:0:0:
433,82,124824,1,2,0:0:0:0:
439,96,124900,1,0,0:0:0:0:
441,111,124977,1,0,0:0:0:0:
439,126,125054,1,0,0:0:0:0:
430,139,125131,6,0,B|485:140,1,40,2|0,0:0|0:0,0:0:0:0:
451,202,125285,2,0,B|506:203,1,40,0|0,0:0|0:0,0:0:0:0:
416,272,125439,2,0,B|471:273,1,40,0|0,0:0|0:0,0:0:0:0:
437,335,125593,2,0,B|492:336,1,40,0|0,0:0|0:0,0:0:0:0:
366,359,125747,6,0,B|319:362,8,40,2|0|0|0|0|0|0|0|2,0:0|0:0|0:0|0:0|0:0|0:0|0:0|0:0|0:0,0:0:0:0:
256,192,126439,12,0,127516,0:0:0:0:
0,63,127593,6,0,L|215:71,1,180.000006866455,0|0,1:0|0:0,0:0:0:0:
252,60,127900,1,12,1:2:0:0:
401,116,128054,6,0,L|379:13,1,60.0000022888184,0|0,0:0|0:0,0:0:0:0:
396,29,128208,2,0,L|384:190,1,120.000004577637,0|4,0:0|1:3,0:0:0:0:
472,246,128516,1,0,1:0:0:0:
476,278,128593,1,0,0:0:0:0:
480,311,128670,1,0,0:0:0:0:
307,369,128823,6,0,B|256:342|272:257|325:246,1,120.000004577637,0|0,1:0|0:0,0:0:0:0:
369,229,129131,2,0,B|432:184,1,59.9999982118607,8|0,1:2|0:0,0:0:0:0:
326,209,129285,1,0,0:0:0:0:
282,88,129439,6,0,L|375:68,1,60.0000022888184,0|0,1:0|0:0,0:0:0:0:
208,179,129592,1,4,0:3:0:0:
175,185,129669,1,0,1:0:0:0:
142,182,129746,1,0,1:0:0:0:
110,172,129823,1,0,0:0:0:0:
80,157,129900,1,0,0:0:0:0:
53,138,129977,1,0,0:0:0:0:
41,111,130054,6,0,L|71:266,1,120.000004577637,0|0,1:0|0:0,0:0:0:0:
229,256,130362,2,0,L|138:246,1,60.0000022888184,12|0,1:2|0:0,0:0:0:0:
57,363,130516,1,0,0:0:0:0:
59,352,130593,1,0,0:0:0:0:
61,342,130670,6,0,B|77:307|152:276|187:352,1,120.000004577637,0|4,0:0|0:3,0:0:0:0:
291,365,130977,2,0,L|283:266,2,60.0000022888184,0|0|0,1:0|0:0|0:0,0:0:0:0:
489,209,131285,5,0,1:0:0:0:
405,99,131439,1,0,0:0:0:0:
262,161,131593,1,8,1:2:0:0:
217,24,131747,6,0,L|204:110,1,60.0000022888184,0|0,0:0|0:0,0:0:0:0:
134,161,131900,2,0,L|118:56,1,60.0000022888184,0|0,1:0|0:0,0:0:0:0:
51,21,132054,5,4,1:3:0:0:
26,47,132130,1,0,0:0:0:0:
14,80,132207,1,0,1:0:0:0:
11,116,132284,1,0,1:0:0:0:
18,151,132361,1,0,1:0:0:0:
36,183,132438,1,0,1:0:0:0:
61,198,132516,6,0,L|46:333,1,120.000004577637,0|0,1:0|0:0,0:0:0:0:
213,356,132823,2,0,L|203:241,1,60.0000022888184,12|0,0:0|0:0,0:0:0:0:
274,166,132977,5,0,0:0:0:0:
256,185,133054,1,0,0:0:0:0:
255,208,133131,6,0,B|336:174|381:282,1,120.000004577637,0|4,0:0|0:3,0:0:0:0:
417,345,133439,2,0,L|506:332,1,60.0000022888184,0|0,1:0|0:0,0:0:0:0:
389,356,133593,1,0,0:0:0:0:
505,137,133747,6,0,B|450:172|331:173|288:47,1,240.000009155274,0|8,1:0|1:2,0:0:0:0:
134,11,134208,1,0,0:0:0:0:
144,36,134285,1,0,0:0:0:0:
156,63,134362,6,0,L|151:145,1,60.0000022888184,0|0,1:0|1:0,0:0:0:0:
76,151,134516,2,0,L|94:209,1,60.0000022888184,0|0,0:0|0:0,0:0:0:0:
28,276,134670,1,0,1:0:0:0:
248,357,134823,1,0,0:0:0:0:
278,356,134900,1,0,0:0:0:0:
308,355,134977,6,0,B|288:284|315:212|407:194|466:267,1,239.999992847443,2|12,1:2|0:0,0:0:0:0:
455,16,135439,2,0,B|475:87|448:159|356:177|297:104,1,239.999992847443,0|4,0:0|1:3,0:0:0:0:
261,34,135900,2,0,B|191:2|137:41,1,119.999996423721,0|0,1:0|0:0,0:0:0:0:
29,161,136208,6,0,B|65:198|148:237|205:104,1,180.000006866455,0|0,1:0|0:0,0:0:0:0:
247,209,136516,2,0,B|278:213|274:182|326:209,1,60.0000022888184,8|0,0:0|0:0,0:0:0:0:
361,267,136670,1,0,1:0:0:0:
361,267,136747,1,0,0:0:0:0:
361,267,136824,6,0,B|384:303|356:345,2,60.0000022888184,0|0|0,1:0|0:0|1:0,0:0:0:0:
432,121,137131,2,0,B|362:80|298:145,1,119.999996423721,0|0,1:0|1:0,0:0:0:0:
96,368,137439,5,4,0:1:0:0:
256,192,137516,12,0,139900,0:0:0:0:
