osu file format v14

[General]
AudioFilename: audio.mp3
AudioLeadIn: 0
PreviewTime: 42362
Countdown: 0
SampleSet: Soft
StackLeniency: 0.7
Mode: 0
LetterboxInBreaks: 0
WidescreenStoryboard: 1

[Editor]
Bookmarks: 1054
DistanceSpacing: 0.7
BeatDivisor: 4
GridSize: 4
TimelineZoom: 2.1

[Metadata]
Title:Gardens Under A Spring Sky
TitleUnicode:Gardens Under A Spring Sky
Artist:Fractal Dreamers
ArtistUnicode:Fractal Dreamers
Creator:[Mahua]
Version:Otomahua's Collab Another
Source:osu!
Tags:mappers' guild featured artist electronic piano instrumental monolithia Yugu gary00737 Otosaka-Yu Suzuki_1112 1112deng
BeatmapID:2104148
BeatmapSetID:985385

[Difficulty]
HPDrainRate:5
CircleSize:4
OverallDifficulty:6.5
ApproachRate:8.3
SliderMultiplier:1.6
SliderTickRate:1

[Events]
//Background and Video events
0,0,"bg1.png",0,0
//Break Periods
2,30977,32120
2,53131,55439
2,77331,93658
//Storyboard Layer 0 (Background)
//Storyboard Layer 1 (Fail)
//Storyboard Layer 2 (Pass)
//Storyboard Layer 3 (Foreground)
//Storyboard Layer 4 (Overlay)
//Storyboard Sound Samples

[TimingPoints]
824,307.692307692308,4,2,0,27,1,0
8516,-200,4,2,0,27,0,0
10670,-100,4,2,0,40,0,0
10747,-100,4,2,0,27,0,0
10977,-100,4,2,0,24,0,0
11054,-100,4,2,0,27,0,0
19593,-100,4,2,0,30,0,0
20516,-80,4,2,0,55,0,0
27900,-66.6666666666667,4,1,0,55,0,0
32824,-100,4,2,0,55,0,0
42670,-80,4,2,0,55,0,0
46670,-80,4,2,0,43,0,0
46747,-80,4,2,0,55,0,0
51285,-80,4,1,0,25,0,0
51593,-80,4,1,0,37,0,0
51900,-80,4,1,0,46,0,0
52208,-80,4,1,0,55,0,0
52516,-80,4,2,0,55,0,0
56208,-133.333333333333,4,2,0,55,0,0
56977,-100,4,2,0,55,0,0
57285,-100,4,2,0,37,0,0
57439,-100,4,2,0,55,0,0
60054,-100,4,2,0,25,0,0
60208,-100,4,2,0,55,0,0
61131,-100,4,1,0,55,0,0
62362,-76.9230769230769,4,2,0,55,0,1
77131,-100,4,2,0,55,0,0
95593,-76.9230769230769,4,2,0,55,0,0
100824,-76.9230769230769,4,2,0,40,0,0
100900,-76.9230769230769,4,2,0,55,0,0
104824,-76.9230769230769,4,1,0,40,0,0
105131,-76.9230769230769,4,1,0,46,0,0
105439,-76.9230769230769,4,2,0,55,0,0
116208,-66.6666666666667,4,1,0,34,0,0
116516,-66.6666666666667,4,1,0,49,0,0
116670,-66.6666666666667,4,2,0,49,0,0
116824,-200,4,2,0,49,0,0
117747,-133.333333333333,4,2,0,55,0,0
127593,-66.6666666666667,4,2,0,55,0,1
137439,-66.6666666666667,4,2,0,55,0,0

[Colours]
Combo1 : 94,189,247
Combo2 : 132,251,185
Combo3 : 18,124,255
Combo4 : 36,191,230

[HitObjects]
125,338,208,6,0,L|24:333,2,80,0|0|0,0:0|0:0|0:0,0:0:0:0:
204,347,823,5,2,0:0:0:0:
281,326,1131,1,0,0:0:0:0:
358,305,1439,1,0,0:0:0:0:
385,229,1747,5,0,0:0:0:0:
387,213,2054,1,0,0:0:0:0:
390,197,2362,1,0,0:0:0:0:
395,180,2670,6,0,L|481:165,2,80,0|0|0,0:0|0:0|0:0,0:0:0:0:
313,219,3285,5,2,0:0:0:0:
236,198,3593,1,0,0:0:0:0:
159,177,3901,1,0,0:0:0:0:
132,101,4209,5,0,0:0:0:0:
130,85,4516,1,0,0:0:0:0:
127,69,4824,1,0,0:0:0:0:
122,52,5132,6,0,L|36:37,2,80,0|0|0,0:0|0:0|0:0,0:0:0:0:
197,25,5747,5,2,0:0:0:0:
201,34,6054,1,0,0:0:0:0:
273,119,6362,1,2,0:0:0:0:
276,125,6670,1,0,0:0:0:0:
366,59,6977,1,2,0:0:0:0:
373,49,7285,1,0,0:0:0:0:
450,162,7593,1,2,0:0:0:0:
456,151,7900,1,0,0:0:0:0:
498,78,8208,5,0,0:0:0:0:
427,118,8516,2,0,L|446:246,1,120,0|0,0:0|0:0,0:0:0:0:
428,316,9131,5,0,0:0:0:0:
349,297,9285,1,0,0:0:0:0:
269,274,9439,2,0,L|355:268,1,80,0|0,0:0|0:0,0:0:0:0:
247,353,10054,5,0,0:0:0:0:
190,296,10208,1,0,0:0:0:0:
113,274,10362,1,0,0:0:0:0:
35,292,10516,1,0,0:0:0:0:
57,210,10670,6,0,L|37:32,1,160,4|4,0:0|0:0,0:0:0:0:
110,15,11131,1,0,0:0:0:0:
175,60,11285,2,0,P|222:78|321:44,1,160,0|0,0:0|0:3,0:0:0:0:
397,15,11747,1,0,0:0:0:0:
423,96,11900,5,2,0:0:0:0:
419,178,12054,1,0,0:0:0:0:
308,113,12362,1,0,0:0:0:0:
293,102,12516,5,0,0:0:0:0:
250,169,12670,1,0,0:0:0:0:
302,229,12824,1,0,0:0:0:0:
375,198,12977,1,0,0:0:0:0:
452,217,13131,6,0,P|480:260|428:355,1,160,2|0,0:0|0:0,0:0:0:0:
352,356,13593,1,0,0:0:0:0:
270,327,13747,2,0,L|247:153,1,160,0|0,0:0|0:0,0:0:0:0:
172,144,14208,1,0,0:0:0:0:
104,187,14362,5,2,0:0:0:0:
32,222,14516,1,0,0:0:0:0:
29,233,14593,1,0,0:0:0:0:
25,244,14670,1,0,0:0:0:0:
76,319,14824,1,0,0:0:0:0:
160,315,14977,6,0,P|171:285|167:221,1,80,0|0,0:0|0:0,0:0:0:0:
47,51,15285,2,0,P|36:81|40:145,1,80,0|0,3:0|0:0,0:0:0:0:
104,187,15593,6,0,L|266:162,1,160,2|0,0:0|0:0,0:0:0:0:
283,85,16054,1,0,0:0:0:0:
338,27,16208,2,0,P|406:22|492:74,1,160,0|0,0:0|0:0,0:0:0:0:
504,143,16670,1,0,0:0:0:0:
431,177,16824,5,2,0:0:0:0:
370,228,16977,1,0,0:0:0:0:
373,239,17054,1,0,0:0:0:0:
376,250,17131,1,0,0:0:0:0:
456,273,17285,1,0,0:0:0:0:
394,335,17439,5,0,0:0:0:0:
317,311,17593,1,0,0:0:0:0:
252,357,17747,1,2,0:3:0:0:
177,329,17900,1,0,0:0:0:0:
98,314,18054,6,0,L|92:136,1,160,2|0,0:0|0:0,0:0:0:0:
22,113,18516,1,0,0:0:0:0:
166,36,18670,2,0,L|156:127,1,80,0|0,0:0|0:0,0:0:0:0:
234,245,18977,2,0,L|226:153,1,80,0|0,3:0|0:0,0:0:0:0:
348,29,19285,5,0,0:0:0:0:
486,340,19593,5,0,0:0:0:0:
461,337,19900,1,0,0:0:0:0:
435,335,20208,1,0,0:0:0:0:
407,330,20516,6,0,L|290:342,1,100,4|0,1:3|0:0,0:0:0:0:
242,237,20824,1,8,1:2:0:0:
408,145,20977,1,0,0:0:0:0:
424,150,21054,1,0,0:0:0:0:
442,157,21131,2,0,P|450:216|424:261,1,100,0|0,0:0|1:0,0:0:0:0:
346,193,21439,1,8,1:3:0:0:
326,189,21516,1,0,0:0:0:0:
306,184,21593,1,0,0:0:0:0:
280,104,21747,5,4,1:3:0:0:
337,32,21900,2,0,L|397:20,2,50,0|0|8,0:0|0:0|1:2,0:0:0:0:
235,28,22208,1,0,0:0:0:0:
181,113,22362,1,0,1:0:0:0:
162,119,22439,1,0,0:0:0:0:
141,119,22516,1,0,1:0:0:0:
121,114,22593,1,0,0:0:0:0:
102,106,22670,1,0,1:0:0:0:
85,95,22747,1,0,0:0:0:0:
69,82,22824,1,0,0:0:0:0:
56,66,22900,1,0,0:0:0:0:
48,47,22977,6,0,P|63:107|56:183,1,100,4|0,0:3|0:0,0:0:0:0:
18,238,23285,1,4,1:0:0:0:
26,324,23439,1,0,0:0:0:0:
32,337,23516,1,0,0:0:0:0:
39,350,23593,2,0,P|96:332|162:344,1,100,0|4,0:0|3:0,0:0:0:0:
210,289,23900,1,0,1:0:0:0:
215,274,23977,1,0,0:0:0:0:
220,260,24054,1,0,0:0:0:0:
267,358,24208,5,4,0:3:0:0:
375,327,24362,1,0,0:0:0:0:
347,215,24516,1,8,1:2:0:0:
224,245,24670,2,0,L|281:253,1,50,8|0,1:3|0:0,0:0:0:0:
347,215,24824,5,8,1:3:0:0:
343,186,24900,1,0,0:0:0:0:
345,158,24977,1,0,1:0:0:0:
351,130,25054,1,0,0:0:0:0:
362,104,25131,1,0,1:0:0:0:
378,80,25208,1,0,1:0:0:0:
397,59,25285,1,0,1:0:0:0:
420,41,25362,1,0,1:0:0:0:
447,30,25439,6,0,P|474:94|462:146,1,100,4|0,0:3|0:0,0:0:0:0:
423,187,25747,1,8,1:2:0:0:
279,131,25900,2,0,L|224:127,1,50,0|0,0:0|0:0,0:0:0:0:
216,108,26054,2,0,P|189:172|201:224,1,100,0|4,0:0|0:3,0:0:0:0:
243,326,26362,1,0,1:0:0:0:
247,306,26439,1,0,0:0:0:0:
250,288,26516,1,0,0:0:0:0:
152,319,26670,6,0,L|46:340,1,100,4|0,1:3|0:0,0:0:0:0:
6,241,26977,1,8,1:2:0:0:
76,160,27131,2,0,L|69:104,1,50,0|0,0:0|0:0,0:0:0:0:
41,78,27285,5,0,1:0:0:0:
75,67,27361,1,0,0:0:0:0:
110,63,27438,1,4,1:3:0:0:
146,65,27515,1,0,0:0:0:0:
180,73,27592,1,0,1:0:0:0:
213,87,27669,1,0,0:0:0:0:
243,107,27746,1,0,0:0:0:0:
268,132,27823,1,0,0:0:0:0:
293,158,27900,6,0,L|299:221,6,60.0000022888184,0|0|8|0|0|0|0,0:2|0:0|0:3|0:0|0:0|0:0|0:0,0:0:0:0:
386,133,28516,6,0,L|380:73,6,60.0000022888184,2|0|8|0|0|0|0,0:2|0:0|0:3|0:0|0:0|0:0|0:0,0:0:0:0:
483,228,29131,6,0,L|488:287,3,60.0000022888184,2|0|0|0,0:2|0:0|0:0|0:0,0:0:0:0:
407,273,29439,2,0,L|412:332,3,60.0000022888184,2|0|0|0,0:2|0:0|0:0|0:0,0:0:0:0:
318,253,29747,6,0,L|323:193,1,60.0000022888184,0|0,0:0|0:0,0:0:0:0:
242,208,29900,2,0,L|247:148,1,60.0000022888184,0|0,0:0|0:0,0:0:0:0:
156,240,30054,1,0,0:0:0:0:
121,251,30131,1,0,0:0:0:0:
86,261,30208,1,0,0:0:0:0:
51,272,30285,1,0,0:0:0:0:
30,250,30362,5,4,0:1:0:0:
122,336,32824,6,0,L|24:342,2,80,0|0|0,0:0|0:0|0:0,0:0:0:0:
202,363,33285,1,2,0:0:0:0:
257,247,33593,2,0,L|349:257,2,80,0|0|2,0:0|0:0|0:0,0:0:0:0:
163,184,34208,2,0,L|71:194,2,80,0|0|0,0:0|0:0|0:0,0:0:0:0:
227,138,34670,2,0,L|243:94,3,40,2|0|0|0,0:0|0:0|0:0|0:0,0:0:0:0:
226,62,34977,2,0,L|239:17,3,40,2|0|0|0,0:0|0:0|0:0|0:0,0:0:0:0:
153,26,35285,6,0,L|70:18,2,80,2|0|0,0:0|0:0|0:0,0:0:0:0:
226,62,35747,1,2,0:0:0:0:
357,118,36054,2,0,L|453:104,2,80,0|0|2,0:0|0:0|0:0,0:0:0:0:
290,216,36670,2,0,L|190:208,2,80,0|0|0,0:0|0:0|0:0,0:0:0:0:
352,264,37131,2,0,L|359:311,3,40,2|0|0|0,0:0|0:0|0:0|0:0,0:0:0:0:
395,318,37439,2,0,L|401:362,3,40,2|0|0|0,0:0|0:0|0:0|0:0,0:0:0:0:
432,373,37747,6,0,L|518:378,2,80,2|0|0,0:0|0:0|0:0,0:0:0:0:
326,367,38208,1,2,0:0:0:0:
213,275,38516,2,0,L|115:284,2,80,0|0|2,0:0|0:0|0:0,0:0:0:0:
379,182,39131,2,0,L|465:187,2,80,0|0|0,0:0|0:0|0:0,0:0:0:0:
250,57,39593,6,0,P|208:29|94:37,2,160,2|2|2,0:0|0:0|0:0,0:0:0:0:
301,137,40516,1,0,0:0:0:0:
301,137,40670,1,2,0:0:0:0:
218,192,40977,6,0,L|109:200,2,80,0|2|2,0:0|0:0|0:0,0:0:0:0:
278,246,41439,6,0,L|369:251,3,80,0|0|2|2,0:0|0:0|0:0|0:0,0:0:0:0:
416,303,42054,2,0,L|511:295,3,80,0|2|0|2,0:0|0:0|0:0|0:0,0:0:0:0:
357,250,42670,6,0,P|337:295|357:355,1,100,4|0,1:2|0:0,0:0:0:0:
463,371,42977,1,8,1:2:0:0:
454,194,43131,1,0,0:0:0:0:
445,175,43208,1,0,0:0:0:0:
437,156,43285,2,0,L|316:168,1,100,0|4,0:0|0:3,0:0:0:0:
211,206,43593,2,0,L|142:193,2,50,0|0|0,1:3|0:0|0:0,0:0:0:0:
273,258,43900,5,0,1:0:0:0:
339,166,44054,1,0,0:0:0:0:
315,55,44208,1,8,0:0:0:0:
202,33,44362,1,0,0:0:0:0:
155,102,44516,1,0,1:0:0:0:
133,105,44592,1,0,0:0:0:0:
112,104,44669,1,0,1:0:0:0:
91,99,44746,1,0,0:0:0:0:
72,90,44823,1,0,1:0:0:0:
55,77,44900,1,0,0:0:0:0:
40,62,44977,1,0,0:0:0:0:
29,43,45054,1,0,0:0:0:0:
18,24,45131,6,0,L|122:26,1,100,0|0,1:0|0:0,0:0:0:0:
213,161,45439,1,12,0:0:0:0:
157,231,45593,1,0,0:0:0:0:
134,238,45670,1,0,0:0:0:0:
115,244,45747,2,0,P|94:213|113:140,1,100,0|4,0:0|0:3,0:0:0:0:
189,79,46054,2,0,L|249:63,2,50,0|0|0,1:0|0:0|0:0,0:0:0:0:
213,161,46362,6,0,L|221:265,1,100,0|0,1:0|0:0,0:0:0:0:
286,307,46670,2,0,L|395:297,1,100,8|0,1:2|0:0,0:0:0:0:
413,326,46900,1,0,0:0:0:0:
446,347,46977,6,0,L|507:350,3,50,4|0|0|0,1:3|0:0|1:0|0:0,0:0:0:0:
483,311,47285,5,4,1:3:0:0:
455,272,47361,1,0,1:0:0:0:
449,219,47438,1,0,1:0:0:0:
468,174,47515,1,0,1:0:0:0:
494,143,47593,6,0,L|374:162,1,100,0|0,1:0|0:0,0:0:0:0:
321,128,47900,1,12,0:0:0:0:
238,63,48054,1,0,0:0:0:0:
228,49,48131,1,0,0:0:0:0:
217,37,48208,2,0,P|271:11|322:34,1,100,0|4,0:0|0:3,0:0:0:0:
261,186,48516,1,0,1:0:0:0:
256,202,48593,1,0,0:0:0:0:
252,215,48670,1,0,0:0:0:0:
168,280,48824,5,0,1:0:0:0:
195,354,48977,1,0,0:0:0:0:
247,293,49131,1,8,0:0:0:0:
80,327,49285,2,0,L|23:322,1,50,0|0,0:0|0:0,0:0:0:0:
14,335,49439,2,0,P|3:277|34:231,1,100,0|0,1:0|1:0,0:0:0:0:
19,226,49670,1,0,0:0:0:0:
16,211,49747,2,0,L|119:223,1,100,0|0,1:0|0:0,0:0:0:0:
251,135,50054,5,0,1:0:0:0:
326,109,50208,1,0,0:0:0:0:
154,44,50362,2,0,P|139:96|156:140,1,100,12|0,0:0|0:0,0:0:0:0:
167,153,50593,1,0,0:0:0:0:
178,166,50670,1,0,0:0:0:0:
323,259,50824,1,4,0:3:0:0:
396,194,50977,2,0,L|466:183,2,50,0|0|0,1:0|0:0|0:0,0:0:0:0:
476,298,51285,6,0,P|481:322|475:354,3,50,0|0|0|0,0:0|0:0|0:0|0:0,0:0:0:0:
401,329,51593,2,0,P|395:304|399:279,3,50,0|0|0|0,0:0|0:0|0:0|0:0,0:0:0:0:
322,237,51900,6,0,L|237:242,1,50,0|0,0:0|0:0,0:0:0:0:
289,269,52054,2,0,L|204:274,1,50,0|0,0:0|0:0,0:0:0:0:
255,303,52208,2,0,L|170:308,1,50,0|0,0:0|0:0,0:0:0:0:
226,333,52362,2,0,L|141:338,1,50,0|0,0:0|0:0,0:0:0:0:
110,370,52516,5,4,0:0:0:0:
24,155,56208,5,0,0:0:0:0:
24,155,56362,1,0,0:0:0:0:
100,202,56516,1,0,3:0:0:0:
100,202,56670,1,0,3:0:0:0:
140,278,56824,1,0,3:0:0:0:
147,293,56900,1,0,3:0:0:0:
153,307,56977,1,0,3:0:0:0:
156,322,57054,1,0,0:0:0:0:
159,337,57131,2,0,L|258:346,1,80,0|0,0:0|1:0,0:0:0:0:
469,253,57439,5,2,3:3:0:0:
469,253,57593,1,0,3:0:0:0:
403,189,57747,1,2,0:0:0:0:
319,265,57900,1,0,0:0:0:0:
302,273,57977,1,0,0:0:0:0:
287,279,58054,2,0,P|271:226|291:182,1,80,2|0,0:0|0:0,0:0:0:0:
290,194,58285,1,0,0:0:0:0:
313,186,58362,2,0,P|329:133|309:89,1,80,0|0,3:0|3:0,0:0:0:0:
205,37,58670,5,0,3:0:0:0:
160,109,58824,1,0,0:0:0:0:
83,145,58977,1,2,3:2:0:0:
0,137,59131,1,0,0:0:0:0:
0,137,59208,1,0,0:0:0:0:
0,137,59285,2,0,L|7:235,1,80,2|0,3:2|0:0,0:0:0:0:
107,361,59593,1,2,0:0:0:0:
178,311,59747,1,0,0:0:0:0:
197,306,59824,1,0,0:0:0:0:
213,301,59900,6,0,P|221:258|197:206,1,80,2|0,0:0|1:0,0:0:0:0:
81,195,60208,1,2,0:0:0:0:
12,331,60362,1,0,0:0:0:0:
20,349,60439,1,0,0:0:0:0:
27,365,60516,2,0,L|126:360,1,80,2|0,0:0|0:0,0:0:0:0:
303,292,60824,2,0,L|204:297,1,80,2|0,0:0|0:0,0:0:0:0:
437,360,61131,5,0,0:0:0:0:
437,360,61208,1,0,0:0:0:0:
437,360,61285,1,0,0:0:0:0:
437,360,61362,1,0,0:0:0:0:
437,360,61439,1,0,2:0:0:0:
437,360,61516,1,0,0:0:0:0:
437,360,61593,1,0,2:0:0:0:
437,360,61670,1,0,0:0:0:0:
437,360,61747,6,0,L|492:356,3,40,0|0|0|0,3:0|0:0|3:0|0:0,0:0:0:0:
403,361,62054,5,0,2:0:0:0:
326,205,62362,6,0,P|341:245|316:309,1,103.999995239258,4|0,0:0|0:0,0:0:0:0:
185,289,62670,2,0,P|170:249|195:185,1,103.999995239258,8|0,0:0|0:0,0:0:0:0:
207,178,62900,1,0,0:0:0:0:
224,167,62977,2,0,L|87:176,1,103.999995239258,0|4,0:0|0:3,0:0:0:0:
24,174,63285,2,0,L|15:113,3,51.999997619629,0|0|0|0,1:0|0:0|0:0|0:0,0:0:0:0:
7,106,63593,6,0,B|53:82|53:82|117:103,1,103.999995239258,0|0,1:0|0:0,0:0:0:0:
241,15,63900,2,0,B|195:39|195:39|131:18,1,103.999995239258,8|0,1:2|0:0,0:0:0:0:
286,92,64208,2,0,L|366:94,3,51.999997619629,0|0|0|0,1:0|1:0|1:0|1:0,0:0:0:0:
366,91,64516,2,0,L|446:93,3,51.999997619629,0|0|0|0,1:0|0:0|0:0|0:0,0:0:0:0:
451,77,64824,6,0,L|436:208,1,103.999995239258,4|0,0:0|0:0,0:0:0:0:
481,285,65131,1,8,0:0:0:0:
347,259,65285,1,0,0:0:0:0:
347,259,65362,1,0,0:0:0:0:
347,259,65439,2,0,P|337:312|365:361,1,103.999995239258,0|4,0:0|0:3,0:0:0:0:
225,343,65747,2,0,L|102:330,1,103.999995239258,0|0,1:0|0:0,0:0:0:0:
88,341,65977,1,0,0:0:0:0:
59,352,66054,6,0,L|56:279,3,51.999997619629,0|0|0|0,1:0|0:0|0:0|0:0,0:0:0:0:
74,265,66362,2,0,L|71:192,3,51.999997619629,8|0|0|0,0:0|0:0|0:0|0:0,0:0:0:0:
87,178,66670,2,0,L|84:105,3,51.999997619629,0|0|4|0,1:0|1:0|1:3|1:0,0:0:0:0:
97,94,66977,2,0,L|94:21,3,51.999997619629,0|0|0|0,1:0|0:0|0:0|0:0,0:0:0:0:
75,28,67285,6,0,L|208:31,1,103.999995239258,4|2,0:0|0:0,0:0:0:0:
258,102,67593,1,8,1:2:0:0:
353,27,67747,1,0,0:0:0:0:
353,27,67824,1,0,0:0:0:0:
353,27,67900,2,0,B|365:54|365:54|356:133,1,103.999995239258,2|4,0:0|0:3,0:0:0:0:
428,200,68208,2,0,L|510:196,2,51.999997619629,2|0|0,1:2|0:0|0:0,0:0:0:0:
351,278,68516,6,0,P|346:322|356:357,3,51.999997619629,0|0|0|0,0:0|0:0|0:0|0:0,0:0:0:0:
299,258,68824,2,0,P|304:214|294:179,3,51.999997619629,8|0|0|0,1:2|0:0|0:0|0:0,0:0:0:0:
261,286,69131,2,0,P|256:330|266:365,3,51.999997619629,2|0|4|0,0:0|0:0|0:3|0:0,0:0:0:0:
209,266,69439,2,0,P|214:222|204:187,3,51.999997619629,0|0|0|0,1:0|0:0|0:0|0:0,0:0:0:0:
164,297,69747,6,0,P|93:305|61:278,1,103.999995239258,4|2,0:3|0:0,0:0:0:0:
11,176,70054,1,10,1:2:0:0:
126,113,70208,1,0,0:0:0:0:
126,113,70285,1,0,0:0:0:0:
126,113,70362,2,0,P|127:175|119:228,1,103.999995239258,0|4,0:0|0:3,0:0:0:0:
222,208,70670,2,0,L|376:193,1,103.999995239258,0|0,1:3|0:0,0:0:0:0:
422,211,70977,5,0,1:0:0:0:
390,119,71131,1,0,0:0:0:0:
390,119,71208,1,0,0:0:0:0:
390,119,71285,2,0,P|389:74|376:36,3,51.999997619629,8|0|0|0,1:2|0:0|0:0|0:0,0:0:0:0:
389,27,71593,2,0,L|476:35,3,51.999997619629,0|0|0|0,1:0|0:0|1:0|0:0,0:0:0:0:
340,47,71900,2,0,L|253:55,3,51.999997619629,4|0|0|0,1:3|0:0|0:0|0:0,0:0:0:0:
263,74,72208,6,0,P|208:84|140:68,1,103.999995239258,2|0,0:0|0:0,0:0:0:0:
29,59,72516,1,12,0:2:0:0:
136,69,72670,2,0,P|221:77|217:204,1,207.999990478516,2|4,0:0|0:3,0:0:0:0:
180,255,73131,2,0,B|154:265|154:265|109:246,2,51.999997619629,0|0|0,1:0|0:0|0:0,0:0:0:0:
317,210,73439,5,4,1:3:0:0:
317,210,73593,2,0,P|310:268|331:318,1,103.999995239258,0|8,0:0|0:0,0:0:0:0:
431,339,73900,1,0,0:0:0:0:
475,229,74054,2,0,L|485:97,1,103.999995239258,0|0,0:0|1:0,0:0:0:0:
435,38,74362,1,0,1:0:0:0:
366,106,74516,1,0,0:0:0:0:
366,106,74593,1,0,0:0:0:0:
366,106,74670,6,0,L|238:112,1,103.999995239258,2|0,0:0|0:0,0:0:0:0:
153,70,74977,1,12,1:2:0:0:
241,19,75131,2,0,B|252:100|252:100|237:136|237:136|248:232,1,207.999990478516,0|4,0:0|0:3,0:0:0:0:
318,261,75593,2,0,L|391:270,2,51.999997619629,0|0|0,1:0|0:0|0:0,0:0:0:0:
296,349,75900,5,0,1:0:0:0:
296,349,75977,1,0,0:0:0:0:
296,349,76054,2,0,L|236:355,5,51.999997619629,0|0|8|0|0|0,0:0|0:0|1:2|0:0|0:0|0:0,0:0:0:0:
187,299,76516,5,0,1:0:0:0:
187,299,76593,1,0,1:0:0:0:
187,299,76670,2,0,L|127:305,6,51.999997619629,0|0|0|0|0|0|4,1:0|1:0|1:0|1:0|1:0|0:0|0:3,0:0:0:0:
256,192,94362,5,0,0:0:0:0:
256,192,94439,12,0,95516,0:0:0:0:
62,54,95593,6,0,B|85:83|85:83|71:207,1,155.999992858887,4|0,0:0|0:0,0:0:0:0:
51,218,95900,2,0,P|45:284|73:343,1,103.999995239258,12|0,1:2|0:0,0:0:0:0:
152,307,96131,1,0,0:0:0:0:
152,307,96208,2,0,L|91:313,3,51.999997619629,0|0|0|0,1:0|1:0|1:0|0:0,0:0:0:0:
176,212,96516,2,0,L|227:217,3,51.999997619629,0|0|0|0,1:0|0:0|0:0|1:0,0:0:0:0:
285,303,96824,6,0,B|375:288|338:358|458:330,1,155.999992858887,2|0,1:2|0:0,0:0:0:0:
433,335,97131,1,8,1:2:0:0:
490,228,97285,1,0,0:0:0:0:
490,228,97362,1,0,0:0:0:0:
490,228,97439,2,0,L|500:165,3,51.999997619629,0|0|0|0,1:0|1:0|1:0|0:0,0:0:0:0:
424,140,97747,2,0,L|414:77,3,51.999997619629,0|0|0|0,1:0|0:0|0:0|0:0,0:0:0:0:
468,29,98054,6,0,P|424:68|298:43,1,155.999992858887,2|0,1:2|0:0,0:0:0:0:
264,29,98362,2,0,L|121:37,1,103.999995239258,12|0,1:2|0:0,0:0:0:0:
77,39,98593,1,0,0:0:0:0:
77,39,98670,2,0,P|77:92|86:110,3,51.999997619629,0|0|4|0,1:0|1:0|1:3|0:0,0:0:0:0:
119,160,98977,2,0,P|122:185|118:211,3,51.999997619629,0|0|0|0,1:0|0:0|1:0|1:0,0:0:0:0:
57,260,99285,6,0,L|67:386,1,103.999995239258,2|0,1:2|0:0,0:0:0:0:
87,375,99516,1,2,0:0:0:0:
200,320,99747,2,0,L|274:325,1,51.999997619629,2|0,0:0|0:0,0:0:0:0:
328,293,99900,2,0,P|331:341|322:374,3,51.999997619629,0|0|4|0,1:0|0:0|1:3|1:0,0:0:0:0:
262,242,100208,1,0,1:0:0:0:
262,242,100285,1,0,0:0:0:0:
262,242,100362,1,0,0:0:0:0:
262,242,100439,1,0,0:0:0:0:
262,242,100516,6,0,B|256:174|256:174|260:163|260:163|247:61,1,155.999992858887,2|0,1:2|0:0,0:0:0:0:
247,67,100824,2,0,B|244:32|244:32|154:39,1,103.999995239258,12|0,1:0|0:0,0:0:0:0:
86,42,101054,1,0,0:0:0:0:
86,42,101131,2,0,L|24:30,3,51.999997619629,0|0|4|0,1:0|1:0|1:3|0:0,0:0:0:0:
74,114,101439,2,0,L|12:102,3,51.999997619629,0|0|0|0,1:0|0:0|0:0|1:0,0:0:0:0:
140,155,101747,6,0,B|160:193|160:193|143:265,1,103.999995239258,2|0,1:2|0:0,0:0:0:0:
84,301,101977,2,0,B|64:263|64:263|81:191,1,103.999995239258,2|0,0:0|0:0,0:0:0:0:
153,155,102208,2,0,B|173:193|173:193|156:265,1,103.999995239258,2|0,0:0|1:0,0:0:0:0:
187,333,102439,1,0,1:0:0:0:
187,333,102516,1,0,1:0:0:0:
187,333,102593,1,0,0:0:0:0:
187,333,102670,2,0,L|246:338,3,51.999997619629,4|0|0|0,1:3|0:0|0:0|0:0,0:0:0:0:
308,377,102977,6,0,B|348:310|348:310|294:216,1,155.999992858887,4|0,0:3|0:0,0:0:0:0:
290,237,103285,2,0,L|417:244,1,103.999995239258,12|0,1:2|0:0,0:0:0:0:
465,209,103516,1,0,0:0:0:0:
465,209,103593,2,0,B|471:182|471:182|457:138,3,51.999997619629,0|0|4|0,1:0|1:0|1:3|0:0,0:0:0:0:
420,100,103900,2,0,B|414:73|414:73|428:29,3,51.999997619629,0|0|0|0,1:0|0:0|1:0|1:0,0:0:0:0:
468,8,104208,6,0,L|323:28,1,103.999995239258,2|0,1:2|0:0,0:0:0:0:
343,26,104439,2,0,L|198:46,1,103.999995239258,2|0,1:2|0:0,0:0:0:0:
218,42,104670,2,0,L|73:62,1,103.999995239258,2|0,1:2|0:0,0:0:0:0:
88,62,104900,2,0,L|34:31,2,51.999997619629,0|0|0,0:0|0:0|0:0,0:0:0:0:
62,144,105131,2,0,L|8:113,4,51.999997619629,0|0|0|0|4,0:0|0:0|0:0|0:0|1:2,0:0:0:0:
256,192,105516,12,0,106593,0:2:0:0:
471,74,106670,6,0,B|445:37|445:37|333:12,1,155.999992858887,4|0,0:0|0:0,0:0:0:0:
303,7,106977,2,0,L|291:118,1,103.999995239258,12|0,1:2|0:0,0:0:0:0:
213,180,107208,1,0,0:0:0:0:
219,184,107285,2,0,L|295:179,3,51.999997619629,0|0|4|0,1:0|0:0|1:3|0:0,0:0:0:0:
344,174,107593,2,0,L|420:169,3,51.999997619629,0|0|0|0,1:3|0:0|0:0|0:0,0:0:0:0:
299,260,107900,6,0,L|223:255,3,51.999997619629,0|0|0|0,1:0|0:0|0:0|0:0,0:0:0:0:
174,250,108208,2,0,L|98:245,3,51.999997619629,8|0|0|0,1:2|0:0|0:0|0:0,0:0:0:0:
211,334,108516,6,0,L|287:329,3,51.999997619629,0|0|4|0,1:0|1:0|1:3|0:0,0:0:0:0:
336,324,108824,2,0,L|412:319,3,51.999997619629,0|0|0|0,1:0|0:0|0:0|0:0,0:0:0:0:
449,384,109131,6,0,P|469:321|411:234,1,155.999992858887,2|0,1:3|0:0,0:0:0:0:
411,226,109439,2,0,L|277:241,1,103.999995239258,12|0,0:0|0:0,0:0:0:0:
244,186,109670,1,0,0:0:0:0:
244,186,109747,2,0,L|235:117,3,51.999997619629,0|0|4|0,1:0|1:0|1:3|0:0,0:0:0:0:
225,54,110054,2,0,L|216:-15,3,51.999997619629,0|0|0|0,1:0|0:0|0:0|0:0,0:0:0:0:
164,112,110362,6,0,L|157:163,3,51.999997619629,0|0|0|0,1:0|0:0|0:0|0:0,0:0:0:0:
145,244,110670,2,0,L|137:308,3,51.999997619629,8|0|0|0,1:2|0:0|0:0|0:0,0:0:0:0:
79,184,110977,6,0,L|72:132,3,51.999997619629,0|0|0|0,1:0|1:0|1:0|1:0,0:0:0:0:
60,51,111285,2,0,L|53:0,3,51.999997619629,0|0|0|0,1:0|1:0|1:0|1:0,0:0:0:0:
146,36,111593,6,0,B|211:32|211:32|226:40|226:40|316:34,1,155.999992858887,4|2,0:0|0:0,0:0:0:0:
369,90,111900,2,0,B|399:102|399:102|497:93,1,103.999995239258,12|0,0:0|0:0,0:0:0:0:
470,95,112131,1,0,0:0:0:0:
470,95,112208,2,0,L|481:32,2,51.999997619629,0|0|4,0:0|0:0|0:3,0:0:0:0:
423,179,112516,2,0,L|413:230,2,51.999997619629,0|0|0,1:0|0:0|0:0,0:0:0:0:
299,167,112824,6,0,L|290:219,2,51.999997619629,0|0|0,1:0|0:0|0:0,0:0:0:0:
233,354,113132,2,0,L|243:303,2,51.999997619629,8|0|0,1:2|0:0|0:0,0:0:0:0:
146,238,113439,5,0,1:0:0:0:
146,238,113516,1,0,1:0:0:0:
146,238,113593,1,4,1:3:0:0:
146,238,113670,1,0,0:0:0:0:
146,238,113747,2,0,L|74:248,3,51.999997619629,0|0|0|0,1:0|0:0|0:0|0:0,0:0:0:0:
231,225,114054,6,0,B|181:158|181:158|90:101,1,155.999992858887,4|2,0:0|0:0,0:0:0:0:
95,137,114362,2,0,L|143:27,1,103.999995239258,12|0,0:0|0:0,0:0:0:0:
52,27,114670,5,0,1:0:0:0:
52,27,114747,1,0,1:0:0:0:
52,27,114824,1,4,1:3:0:0:
206,93,114977,5,0,1:0:0:0:
206,93,115054,1,0,0:0:0:0:
206,93,115131,1,0,1:0:0:0:
281,225,115285,6,0,B|331:158|331:158|422:101,1,155.999992858887,4|4,1:2|0:0,0:0:0:0:
417,137,115593,2,0,L|369:27,1,103.999995239258,12|0,0:0|0:0,0:0:0:0:
460,27,115901,5,0,1:0:0:0:
460,27,115978,1,0,0:0:0:0:
460,27,116055,1,0,1:3:0:0:
306,93,116208,5,0,1:0:0:0:
306,93,116285,1,0,0:0:0:0:
306,93,116362,2,0,L|236:106,2,60.0000022888184,0|0|4,0:0|0:0|1:0,0:0:0:0:
16,135,116824,5,0,0:0:0:0:
110,198,117131,1,0,0:0:0:0:
8,247,117439,1,2,0:0:0:0:
106,216,117747,6,0,L|101:299,1,60.0000022888184,0|0,0:0|0:0,0:0:0:0:
182,215,118054,2,0,L|177:298,1,60.0000022888184,0|2,0:0|0:0,0:0:0:0:
306,323,118516,6,0,L|311:406,2,60.0000022888184,0|0|2,0:0|0:0|0:0,0:0:0:0:
389,319,119131,1,0,0:0:0:0:
389,319,119208,1,0,0:0:0:0:
389,319,119285,2,0,L|394:402,1,60.0000022888184,2|0,0:0|0:0,0:0:0:0:
458,198,119593,6,0,L|454:247,3,30.0000011444092,0|0|2|0,0:0|0:0|0:0|0:0,0:0:0:0:
386,194,119900,2,0,L|382:243,3,30.0000011444092,2|0|2|0,0:0|0:0|0:0|0:0,0:0:0:0:
406,168,120208,6,0,L|411:85,1,60.0000022888184,0|0,0:0|0:0,0:0:0:0:
330,169,120516,2,0,L|335:86,1,60.0000022888184,0|2,0:0|0:0,0:0:0:0:
202,1,120977,6,0,L|206:61,2,60.0000022888184,0|0|2,0:0|0:0|0:0,0:0:0:0:
119,5,121592,1,0,0:0:0:0:
119,5,121746,2,0,L|123:65,1,60.0000022888184,0|2,0:0|0:0,0:0:0:0:
56,156,121977,1,0,0:0:0:0:
56,156,122054,6,0,L|54:186,3,30.0000011444092,2|0|0|0,0:0|0:0|0:0|0:0,0:0:0:0:
128,160,122362,2,0,L|125:197,3,30.0000011444092,2|0|0|0,0:0|0:0|0:0|0:0,0:0:0:0:
106,168,122670,6,0,L|101:85,1,60.0000022888184,0|0,0:0|0:0,0:0:0:0:
182,169,122977,2,0,L|177:86,1,60.0000022888184,0|2,0:0|0:0,0:0:0:0:
309,1,123439,6,0,L|306:61,2,60.0000022888184,0|0|2,0:0|0:0|0:0,0:0:0:0:
392,5,124054,1,0,0:0:0:0:
392,5,124208,2,0,L|389:65,1,60.0000022888184,0|2,0:0|0:0,0:0:0:0:
455,156,124439,1,0,0:0:0:0:
455,156,124516,6,0,L|458:186,3,30.0000011444092,0|0|2|0,0:0|0:0|0:0|0:0,0:0:0:0:
383,160,124823,2,0,L|386:190,4,30.0000011444092,2|0|0|0|2,0:0|0:0|0:0|0:0|0:0,0:0:0:0:
256,192,125208,12,0,127516,0:0:0:0:
133,272,127593,6,0,B|74:337|74:337|172:368,1,180.000006866455,0|0,1:0|0:0,0:0:0:0:
147,254,127900,2,0,L|4:280,1,120.000004577637,12|0,1:2|0:0,0:0:0:0:
28,275,128131,1,0,0:0:0:0:
28,275,128208,5,0,0:0:0:0:
157,161,128362,1,4,1:3:0:0:
311,239,128516,2,0,L|307:318,2,60.0000022888184,0|0|0,1:0|0:0|0:0,0:0:0:0:
471,118,128824,6,0,P|386:116|320:47,1,180.000006866455,0|0,1:0|0:0,0:0:0:0:
331,31,129131,2,0,B|354:67|354:67|334:183,1,120.000004577637,8|0,1:2|0:0,0:0:0:0:
392,210,129362,1,0,0:0:0:0:
392,210,129439,6,0,L|479:229,3,60.0000022888184,0|0|4|0,1:0|0:0|0:3|1:0,0:0:0:0:
360,359,129747,2,0,L|447:378,3,60.0000022888184,0|0|0|0,1:0|0:0|0:0|0:0,0:0:0:0:
349,365,130054,6,0,B|437:337|437:337|379:272,1,180.000006866455,0|0,1:0|0:0,0:0:0:0:
365,254,130362,2,0,L|507:280,1,120.000004577637,12|0,1:2|0:0,0:0:0:0:
483,275,130592,1,0,0:0:0:0:
483,275,130669,5,0,0:0:0:0:
355,161,130823,1,4,0:3:0:0:
201,239,130977,2,0,L|205:318,2,60.0000022888184,0|0|0,1:0|0:0|0:0,0:0:0:0:
41,118,131285,6,0,P|126:116|192:47,1,180.000006866455,0|0,1:0|0:0,0:0:0:0:
181,31,131593,2,0,B|158:67|158:67|183:169,1,120.000004577637,8|0,1:2|0:0,0:0:0:0:
120,210,131823,1,0,0:0:0:0:
120,210,131900,6,0,L|33:229,3,60.0000022888184,0|0|4|0,1:0|0:0|1:3|0:0,0:0:0:0:
152,359,132208,2,0,L|65:378,3,60.0000022888184,0|0|0|0,1:0|1:0|1:0|1:0,0:0:0:0:
108,288,132516,5,0,1:0:0:0:
256,352,132670,1,0,0:0:0:0:
408,301,132824,2,0,L|385:180,1,120.000004577637,12|0,0:0|0:0,0:0:0:0:
374,165,133054,1,0,0:0:0:0:
360,148,133131,6,0,L|503:170,1,120.000004577637,0|4,0:0|0:3,0:0:0:0:
341,40,133439,2,0,L|412:50,2,60.0000022888184,0|0|0,1:0|0:0|0:0,0:0:0:0:
219,97,133747,6,0,B|142:139|142:139|30:108,1,180.000006866455,0|0,1:0|0:0,0:0:0:0:
38,104,134054,2,0,B|96:108|96:108|161:198,1,120.000004577637,8|0,1:2|0:0,0:0:0:0:
172,228,134285,1,0,0:0:0:0:
172,228,134362,5,0,1:0:0:0:
172,228,134439,2,0,L|26:289,1,120.000004577637,0|0,1:0|0:0,0:0:0:0:
46,285,134670,2,0,L|192:346,1,120.000004577637,0|0,1:0|0:0,0:0:0:0:
262,373,134977,6,0,P|316:290|271:177,1,180.000006866455,2|0,1:2|0:0,0:0:0:0:
286,186,135285,2,0,P|345:248|416:242,1,120.000004577637,12|0,0:0|0:0,0:0:0:0:
462,252,135593,5,0,0:0:0:0:
396,129,135747,1,4,1:3:0:0:
286,186,135900,2,0,L|201:195,2,60.0000022888184,0|0|0,1:0|0:0|0:0,0:0:0:0:
143,36,136208,6,0,B|132:70|132:70|158:162,1,120.000004577637,0|0,1:0|0:0,0:0:0:0:
69,233,136516,2,0,B|80:199|80:199|54:107,1,120.000004577637,8|0,0:0|1:0,0:0:0:0:
51,97,136747,1,0,0:0:0:0:
45,79,136824,6,0,L|64:8,2,60.0000022888184,0|0|0,1:0|0:0|1:0,0:0:0:0:
141,265,137131,2,0,L|125:322,2,60.0000022888184,0|0|0,1:0|0:0|1:0,0:0:0:0:
342,250,137439,5,4,0:1:0:0:
