osu file format v14

[General]
AudioFilename: audio.mp3
AudioLeadIn: 0
PreviewTime: 42362
Countdown: 0
SampleSet: Normal
StackLeniency: 0.7
Mode: 0
LetterboxInBreaks: 0
WidescreenStoryboard: 1

[Editor]
DistanceSpacing: 1.5
BeatDivisor: 4
GridSize: 8
TimelineZoom: 2.5

[Metadata]
Title:Gardens Under A Spring Sky
TitleUnicode:Gardens Under A Spring Sky
Artist:Fractal Dreamers
ArtistUnicode:Fractal Dreamers
Creator:[Mahua]
Version:Collab Hard
Source:osu!
Tags:mappers' guild featured artist electronic piano instrumental monolithia Yugu gary00737 Otosaka-Yu Suzuki_1112 1112deng
BeatmapID:2106237
BeatmapSetID:985385

[Difficulty]
HPDrainRate:4
CircleSize:3
OverallDifficulty:6
ApproachRate:7
SliderMultiplier:1.2
SliderTickRate:1

[Events]
//Background and Video events
0,0,"bg1.png",0,0
//Break Periods
2,30824,31924
2,53131,55308
2,77439,92847
//Storyboard Layer 0 (Background)
//Storyboard Layer 1 (Fail)
//Storyboard Layer 2 (Pass)
//Storyboard Layer 3 (Foreground)
//Storyboard Layer 4 (Overlay)
//Storyboard Sound Samples

[TimingPoints]
824,307.692307692308,4,2,0,27,1,0
8516,-100,4,2,0,27,0,0
10670,-133.333333333333,4,2,0,40,0,0
10747,-133.333333333333,4,2,0,27,0,0
10977,-133.333333333333,4,2,0,24,0,0
11054,-133.333333333333,4,2,0,27,0,0
19593,-133.333333333333,4,2,0,30,0,0
20516,-100,4,2,0,55,0,0
27900,-100,4,1,0,55,0,0
32824,-133.333333333333,4,2,0,55,0,0
42670,-100,4,2,0,55,0,0
46670,-100,4,2,0,43,0,0
46747,-100,4,2,0,55,0,0
51285,-100,4,1,0,25,0,0
51593,-100,4,1,0,37,0,0
51900,-100,4,1,0,46,0,0
52208,-100,4,1,0,55,0,0
52516,-100,4,2,0,55,0,0
57285,-100,4,2,0,37,0,0
57439,-100,4,2,0,55,0,0
60054,-100,4,2,0,25,0,0
60208,-100,4,2,0,55,0,0
61131,-100,4,1,0,55,0,0
62362,-100,4,2,0,55,0,0
86977,-100,4,2,0,55,0,0
95593,-100,4,2,0,55,0,0
100824,-100,4,2,0,40,0,0
100900,-100,4,2,0,55,0,0
104824,-100,4,1,0,40,0,0
105131,-100,4,1,0,46,0,0
105439,-100,4,2,0,55,0,0
116208,-100,4,1,0,34,0,0
116516,-100,4,1,0,49,0,0
116670,-100,4,2,0,49,0,0
116824,-100,4,2,0,49,0,0
117747,-133.333333333333,4,2,0,55,0,0
127593,-100,4,2,0,55,0,0

[Colours]
Combo1 : 94,189,247
Combo2 : 132,251,185
Combo3 : 18,124,255
Combo4 : 36,191,230

[HitObjects]
256,192,8516,12,0,10362,0:0:0:0:
26,203,10670,6,0,P|39:145|161:132,1,180.000006866455,4|0,0:0|0:0,0:0:0:0:
211,180,11593,1,0,0:3:0:0:
211,180,11900,2,0,P|202:281|196:370,1,180.000006866455,2|0,0:0|0:0,0:0:0:0:
286,366,12824,1,0,0:0:0:0:
286,366,13131,6,0,P|292:276|300:186,1,180.000006866455,2|0,0:0|0:0,0:0:0:0:
296,96,14054,1,0,0:0:0:0:
296,96,14362,2,0,P|358:164|452:142,1,180.000006866455,2|0,0:0|0:0,0:0:0:0:
467,118,15131,1,0,0:0:0:0:
467,118,15285,1,0,3:0:0:0:
387,73,15593,6,0,P|296:61|206:46,1,180.000006866455,2|0,0:0|0:0,0:0:0:0:
124,15,16516,1,0,0:0:0:0:
39,45,16824,2,0,P|-7:121|21:215,1,180.000006866455,2|0,0:0|0:0,0:0:0:0:
91,249,17747,1,2,0:3:0:0:
91,249,18054,6,0,B|135:260|165:298|165:298|175:251|223:220,1,180.000006866455,2|0,0:0|0:0,0:0:0:0:
301,201,18977,2,0,P|366:193|406:189,1,90.0000034332277,0|0,3:0|0:0,0:0:0:0:
467,238,19593,2,0,P|485:288|478:331,2,90.0000034332277,0|0|0,0:0|0:0|0:0,0:0:0:0:
390,190,20516,6,0,L|408:126,2,60,4|0|8,1:3|0:0|1:2,0:0:0:0:
311,233,20977,2,0,P|231:217|180:209,1,120,0|0,0:0|1:0,0:0:0:0:
108,242,21439,1,8,1:3:0:0:
108,242,21593,2,0,P|149:186|132:125,1,120,0|0,0:0|0:0,0:0:0:0:
98,60,22054,2,0,P|43:49|13:46,1,60,8|0,1:2|0:0,0:0:0:0:
185,60,22362,2,0,B|278:43|246:142|370:115,1,180,0|0,1:0|0:0,0:0:0:0:
424,76,22977,6,0,P|438:29|445:10,2,60,4|0|4,0:3|0:0|1:0,0:0:0:0:
421,166,23439,2,0,P|451:226|423:294,1,120,0|4,0:0|3:0,0:0:0:0:
366,329,23900,1,0,1:0:0:0:
366,329,24054,2,0,P|284:318|226:314,1,120,0|0,0:0|0:0,0:0:0:0:
158,335,24516,1,8,1:2:0:0:
90,274,24670,1,8,1:3:0:0:
90,274,24824,2,0,B|65:201|104:209|90:143|90:143|75:163|51:173,1,180,8|0,1:3|1:0,0:0:0:0:
174,232,25439,6,0,P|197:228|243:225,1,60,4|0,0:3|0:0,0:0:0:0:
319,254,25747,1,8,1:2:0:0:
319,254,25900,2,0,P|278:184|296:129,1,120,0|4,0:0|0:3,0:0:0:0:
342,80,26362,1,0,1:0:0:0:
342,80,26516,2,0,P|423:79|461:122,1,120,0|0,0:0|0:0,0:0:0:0:
481,186,26977,1,8,1:2:0:0:
425,257,27131,1,0,0:0:0:0:
425,257,27285,2,0,B|332:240|364:339|240:312,1,180,0|0,1:0|0:0,0:0:0:0:
187,269,27900,6,0,B|128:213|188:153|188:153|208:178|229:189,1,180,0|0,0:2|0:0,0:0:0:0:
273,110,28516,2,0,B|350:86|372:168|372:168|341:173|321:186,1,180,2|0,0:2|0:0,0:0:0:0:
280,259,29131,2,0,B|318:280|328:331|328:331|385:304|389:253|389:253|432:231|489:261|489:261|421:170|480:111,1,450,2|0,0:2|0:0,0:0:0:0:
293,103,32824,6,0,L|286:47,2,45.0000017166138,0|0|0,0:0|0:0|0:0,0:0:0:0:
338,140,33285,2,0,P|327:194|321:246,1,90.0000034332277,2|0,0:0|0:0,0:0:0:0:
330,286,33747,1,0,0:0:0:0:
330,286,33900,2,0,P|277:262|230:268,1,90.0000034332277,2|0,0:0|0:0,0:0:0:0:
202,302,34362,2,0,P|179:298|157:294,1,45.0000017166138,0|0,0:0|0:0,0:0:0:0:
114,254,34670,1,2,0:0:0:0:
114,254,34977,1,2,0:0:0:0:
96,138,35285,6,0,P|57:141|36:143,2,45.0000017166138,2|0|0,0:0|0:0|0:0,0:0:0:0:
136,95,35747,2,0,P|188:126|228:116,1,90.0000034332277,2|0,0:0|0:0,0:0:0:0:
270,103,36208,1,0,0:0:0:0:
270,103,36362,2,0,L|259:212,1,90.0000034332277,2|0,0:0|0:0,0:0:0:0:
221,235,36824,2,0,L|226:289,1,45.0000017166138,0|0,0:0|0:0,0:0:0:0:
238,336,37131,1,2,0:0:0:0:
238,336,37439,1,2,0:0:0:0:
352,359,37747,6,0,P|373:353|396:350,1,45.0000017166138,2|0,0:0|0:0,0:0:0:0:
454,355,38054,1,0,0:0:0:0:
454,355,38208,2,0,P|443:311|435:266,1,90.0000034332277,2|0,0:0|0:0,0:0:0:0:
440,209,38670,1,0,0:0:0:0:
440,209,38824,2,0,P|396:219|351:227,1,90.0000034332277,2|0,0:0|0:0,0:0:0:0:
294,223,39285,1,0,0:0:0:0:
294,223,39439,1,0,0:0:0:0:
294,223,39593,2,0,P|304:266|312:311,1,90.0000034332277,2|2,0:0|0:0,0:0:0:0:
197,334,40208,6,0,P|187:291|179:246,1,90.0000034332277,2|0,0:0|0:0,0:0:0:0:
128,215,40670,2,0,P|135:170|146:126,1,90.0000034332277,2|0,0:0|0:0,0:0:0:0:
178,78,41131,1,2,0:0:0:0:
178,78,41285,1,2,0:0:0:0:
178,78,41439,2,0,P|215:88|236:89,1,45.0000017166138,0|0,0:0|0:0,0:0:0:0:
248,141,41747,2,0,P|285:131|306:130,1,45.0000017166138,2|2,0:0|0:0,0:0:0:0:
342,101,42054,2,0,P|379:111|400:112,1,45.0000017166138,0|2,0:0|0:0,0:0:0:0:
443,99,42362,1,0,0:0:0:0:
443,99,42516,1,2,0:0:0:0:
443,99,42670,6,0,P|456:57|463:39,2,60,4|0|8,1:2|0:0|1:2,0:0:0:0:
502,166,43131,2,0,P|522:227|498:285,1,120,0|4,0:0|0:3,0:0:0:0:
422,318,43593,1,0,1:3:0:0:
422,318,43747,2,0,P|342:305|279:300,1,120,0|0,0:0|0:0,0:0:0:0:
216,327,44208,1,8,0:0:0:0:
216,327,44362,1,0,0:0:0:0:
216,327,44516,2,0,P|214:279|196:249,1,60,0|0,1:0|1:0,0:0:0:0:
149,200,44824,2,0,P|106:177|71:178,1,60,0|0,1:0|0:0,0:0:0:0:
19,100,45131,6,0,P|47:92|72:75,2,60,0|0|12,1:0|0:0|0:0,0:0:0:0:
158,103,45593,2,0,P|228:92|297:85,1,120,0|4,0:0|0:3,0:0:0:0:
362,113,46054,1,0,1:0:0:0:
362,113,46208,2,0,P|404:153|404:231,1,120,0|0,0:0|0:0,0:0:0:0:
359,286,46670,1,8,1:2:0:0:
359,286,46824,1,0,0:0:0:0:
359,286,46977,2,0,B|330:295|330:295|280:288,1,60,4|0,1:3|1:0,0:0:0:0:
220,249,47285,2,0,B|190:244|190:244|161:253,1,60,4|0,1:3|1:0,0:0:0:0:
82,298,47593,6,0,L|71:215,1,60,0|0,1:0|0:0,0:0:0:0:
36,156,47900,1,12,0:0:0:0:
36,156,48054,1,0,0:0:0:0:
176,19,48362,2,0,L|168:78,1,60,4|0,0:3|1:0,0:0:0:0:
146,166,48670,2,0,P|215:156|292:149,1,120,0|0,0:0|0:0,0:0:0:0:
355,190,49131,1,8,0:0:0:0:
355,190,49285,1,0,0:0:0:0:
355,190,49439,2,0,B|362:141|362:141|351:114|351:114|361:56,1,120,0|0,1:0|1:0,0:0:0:0:
431,237,50054,6,0,B|423:277|423:277|434:304|434:304|427:353,1,120,0|12,1:0|0:0,0:0:0:0:
337,353,50516,2,0,B|257:323|257:323|224:343,1,120,0|4,0:0|0:3,0:0:0:0:
146,379,50977,2,0,L|135:313,1,60,0|0,1:0|0:0,0:0:0:0:
118,230,51285,1,0,0:0:0:0:
256,192,51362,12,4,52516,0:0:0:0:
74,313,56208,6,0,B|103:294|153:292|153:292|205:325|205:325|249:289|320:312,1,240,0|0,0:0|3:0,0:0:0:0:
376,343,56977,1,0,3:0:0:0:
376,343,57131,2,0,P|380:293|387:260,1,60,0|0,0:0|1:0,0:0:0:0:
432,207,57439,6,0,P|448:139|415:90,1,120,2|2,3:3|0:0,0:0:0:0:
250,52,58054,2,0,L|168:43,1,60,2|0,0:0|0:0,0:0:0:0:
101,26,58362,1,0,3:0:0:0:
101,26,58516,2,0,P|108:125|109:171,1,120,0|0,3:0|0:0,0:0:0:0:
58,220,58977,2,0,P|45:265|50:299,1,60,2|0,3:2|0:0,0:0:0:0:
100,349,59285,2,0,P|145:362|179:357,1,60,2|0,3:2|0:0,0:0:0:0:
229,307,59593,2,0,P|242:262|237:228,1,60,2|0,0:0|0:0,0:0:0:0:
187,178,59900,5,2,0:0:0:0:
256,192,59977,12,0,62054,2:0:0:0:
175,119,62362,6,0,L|161:45,2,60,4|0|8,0:0|0:0|0:0,0:0:0:0:
135,200,62824,2,0,P|107:257|134:329,1,120,0|4,0:0|0:3,0:0:0:0:
196,355,63285,2,0,P|244:348|278:345,1,60,0|0,1:0|0:0,0:0:0:0:
342,371,63593,1,0,1:0:0:0:
386,292,63747,1,0,0:0:0:0:
333,219,63900,1,8,1:2:0:0:
377,140,64054,1,0,0:0:0:0:
421,61,64208,2,0,P|347:120|252:98,1,180,0|0,1:0|0:0,0:0:0:0:
194,55,64824,6,0,L|205:-7,2,60,4|0|8,0:0|0:0|0:0,0:0:0:0:
134,122,65285,2,0,P|138:173|144:258,1,120,0|4,0:0|0:3,0:0:0:0:
119,329,65747,1,0,1:0:0:0:
119,329,65900,2,0,P|178:265|278:298,1,180,0|8,0:0|0:0,0:0:0:0:
421,364,66670,2,0,P|429:324|436:302,1,60,0|4,1:0|1:3,0:0:0:0:
356,261,66977,2,0,P|348:221|341:199,1,60,0|0,1:0|0:0,0:0:0:0:
288,129,67285,6,0,L|304:51,2,60,4|2|8,0:0|0:0|1:2,0:0:0:0:
209,83,67747,1,0,0:0:0:0:
30,240,68054,1,4,0:3:0:0:
108,195,68208,1,2,1:2:0:0:
185,240,68362,1,0,0:0:0:0:
184,329,68516,6,0,P|220:314|261:312,1,60,0|0,0:0|0:0,0:0:0:0:
327,338,68824,2,0,P|354:350|383:355,1,60,8|0,1:2|0:0,0:0:0:0:
463,313,69131,1,2,0:0:0:0:
463,313,69285,1,4,0:3:0:0:
491,227,69439,1,0,1:0:0:0:
491,227,69593,1,0,0:0:0:0:
447,147,69747,6,0,P|419:134|390:129,1,60,4|2,0:3|0:0,0:0:0:0:
317,182,70054,1,10,1:2:0:0:
317,182,70208,2,0,L|341:38,2,120,0|4|0,0:0|0:3|0:0,0:0:0:0:
315,362,71131,1,0,0:0:0:0:
315,362,71285,2,0,P|246:313|198:324,1,120,8|0,1:2|1:0,0:0:0:0:
133,355,71747,1,0,1:0:0:0:
133,355,71900,2,0,P|128:316|121:274,1,60,4|0,1:3|0:0,0:0:0:0:
57,234,72208,5,2,0:0:0:0:
57,234,72362,1,0,0:0:0:0:
57,234,72516,2,0,P|35:162|65:105,1,120,12|0,0:2|0:0,0:0:0:0:
123,70,72977,2,0,L|202:57,1,60,4|0,0:3|1:0,0:0:0:0:
270,79,73285,2,0,L|349:66,1,60,0|4,0:0|1:3,0:0:0:0:
419,80,73593,5,0,0:0:0:0:
419,80,73747,2,0,P|446:100|469:142,1,60,8|0,0:0|0:0,0:0:0:0:
480,209,74054,2,0,P|482:242|464:287,1,60,0|0,0:0|1:0,0:0:0:0:
420,338,74362,2,0,P|395:361|350:376,1,60,0|0,1:0|0:0,0:0:0:0:
284,348,74670,5,2,0:0:0:0:
284,348,74824,1,0,0:0:0:0:
284,348,74977,2,0,B|233:323|199:320|199:320|161:349,1,120,12|0,1:2|0:0,0:0:0:0:
92,375,75439,2,0,P|87:327|82:302,1,60,4|0,0:3|1:0,0:0:0:0:
45,233,75747,1,0,0:0:0:0:
45,233,75900,5,0,1:0:0:0:
256,192,75977,12,4,77131,0:3:0:0:
256,192,93747,12,0,95285,0:0:0:0:
76,141,95593,6,0,P|126:101|204:116,1,120,4|12,0:0|1:2,0:0:0:0:
321,213,96208,2,0,L|316:137,1,60,0|0,1:0|1:0,0:0:0:0:
404,130,96516,2,0,L|407:189,1,60,0|0,1:0|0:0,0:0:0:0:
490,106,96824,6,0,L|498:228,1,120,2|8,1:2|1:2,0:0:0:0:
370,352,97439,2,0,P|382:305|396:286,1,60,0|0,1:0|1:0,0:0:0:0:
283,262,97747,2,0,P|320:231|342:223,1,60,0|0,1:0|0:0,0:0:0:0:
264,138,98054,6,0,P|323:128|383:137,1,120,2|12,1:2|1:2,0:0:0:0:
179,37,98670,2,0,L|182:96,1,60,0|4,1:0|1:3,0:0:0:0:
94,187,98977,2,0,L|97:128,1,60,0|0,1:0|1:0,0:0:0:0:
264,138,99285,6,0,L|256:260,1,120,2|12,1:2|0:0,0:0:0:0:
405,357,99900,2,0,P|412:322|401:286,1,60,0|4,1:0|1:3,0:0:0:0:
350,173,100208,2,0,P|342:202|347:232,1,60,0|0,1:0|0:0,0:0:0:0:
490,263,100516,6,0,P|504:205|494:146,1,120,2|12,1:2|1:0,0:0:0:0:
282,28,101131,2,0,P|238:19|206:11,1,60,0|4,1:0|1:3,0:0:0:0:
126,110,101439,2,0,P|170:101|202:93,1,60,0|0,1:0|0:0,0:0:0:0:
350,173,101747,6,0,P|261:243|171:196,1,210,2|0,1:2|0:0,0:0:0:0:
170,192,102362,2,0,L|177:324,1,120,0|4,1:0|1:3,0:0:0:0:
93,349,102824,1,0,0:0:0:0:
93,349,102977,6,0,L|86:229,1,120,4|12,0:3|1:2,0:0:0:0:
8,182,103439,1,0,0:0:0:0:
8,182,103593,2,0,P|-2:127|7:100,1,60,0|4,1:0|1:3,0:0:0:0:
47,48,103900,2,0,P|102:38|129:47,1,60,0|0,1:0|1:0,0:0:0:0:
180,86,104208,6,0,P|196:131|195:177,2,90,2|2|2,1:2|1:2|1:2,0:0:0:0:
105,38,104824,2,0,B|157:76|218:54|218:54|268:73|268:73|303:52|353:61,1,240,0|4,0:0|1:2,0:0:0:0:
374,199,106670,6,0,P|384:137|396:88,2,90,4|0|0,0:0|0:0|0:0,0:0:0:0:
409,281,107285,2,0,P|351:246|285:263,1,120,0|0,1:0|1:3,0:0:0:0:
222,297,107747,1,0,0:0:0:0:
222,297,107900,2,0,P|215:255|206:226,1,60,0|0,1:0|0:0,0:0:0:0:
136,318,108208,2,0,P|129:276|120:247,1,60,8|0,1:2|0:0,0:0:0:0:
24,139,108516,2,0,P|82:174|148:157,1,120,0|0,1:0|1:0,0:0:0:0:
199,108,108977,1,0,0:0:0:0:
199,108,109131,6,0,B|234:84|282:82|282:82|322:106,1,120,2|12,1:3|0:0,0:0:0:0:
378,156,109593,1,0,0:0:0:0:
378,156,109747,2,0,P|366:204|362:236,1,60,0|4,1:0|1:3,0:0:0:0:
360,304,110054,2,0,P|312:292|280:288,1,60,0|0,1:0|0:0,0:0:0:0:
211,286,110362,2,0,P|228:227|239:166,2,120,0|8|0,1:0|1:2|1:0,0:0:0:0:
131,327,111131,1,0,1:0:0:0:
131,327,111285,2,0,P|87:318|64:317,1,60,0|0,1:0|1:0,0:0:0:0:
11,249,111593,6,0,L|19:356,2,90,4|2|0,0:0|0:0|0:0,0:0:0:0:
47,166,112208,2,0,P|96:185|128:187,1,60,0|4,0:0|0:3,0:0:0:0:
185,223,112516,2,0,P|234:204|266:202,1,60,0|0,1:0|0:0,0:0:0:0:
331,211,112824,6,0,P|318:144|351:82,2,120,0|8|0,1:0|1:2|1:0,0:0:0:0:
409,254,113593,1,4,1:3:0:0:
409,254,113747,2,0,L|478:245,1,60,0|0,1:0|0:0,0:0:0:0:
330,299,114054,6,0,L|209:283,1,120,4|12,0:0|0:0,0:0:0:0:
122,303,114516,1,0,0:0:0:0:
122,303,114670,2,0,P|106:340|101:373,1,60,0|4,1:0|1:3,0:0:0:0:
96,215,114977,2,0,P|61:235|37:259,1,60,0|0,1:0|1:0,0:0:0:0:
126,128,115285,6,0,P|66:120|6:124,2,120,4|12|0,1:2|0:0|1:0,0:0:0:0:
204,172,116054,1,0,1:3:0:0:
282,127,116208,2,0,L|295:58,1,60,0|0,1:0|0:0,0:0:0:0:
327,205,116516,5,4,1:0:0:0:
366,289,116824,5,0,0:0:0:0:
394,372,117131,1,0,0:0:0:0:
451,306,117439,1,2,0:0:0:0:
327,205,117747,6,0,L|337:147,2,45.0000017166138,0|0|0,0:0|0:0|0:0,0:0:0:0:
333,263,118208,2,0,P|262:235|233:239,1,90.0000034332277,2|0,0:0|0:0,0:0:0:0:
200,267,118670,1,0,0:0:0:0:
200,267,118824,1,2,0:0:0:0:
106,337,119131,2,0,P|101:271|96:229,1,90.0000034332277,0|0,0:0|0:0,0:0:0:0:
55,207,119593,2,0,P|34:157|49:105,1,90.0000034332277,0|2,0:0|0:0,0:0:0:0:
127,46,120208,6,0,L|181:39,1,45.0000017166138,0|0,0:0|0:0,0:0:0:0:
217,77,120516,1,0,0:0:0:0:
217,77,120670,2,0,L|314:64,1,90.0000034332277,2|0,0:0|0:0,0:0:0:0:
364,56,121131,1,0,0:0:0:0:
364,56,121285,1,2,0:0:0:0:
469,107,121593,1,0,0:0:0:0:
469,107,121747,2,0,P|513:182|478:267,1,180.000006866455,0|2,0:0|0:0,0:0:0:0:
374,310,122670,6,0,L|318:303,1,45.0000017166138,0|0,0:0|0:0,0:0:0:0:
275,328,122977,1,0,0:0:0:0:
275,328,123131,2,0,P|223:287|188:285,1,90.0000034332277,2|0,0:0|0:0,0:0:0:0:
148,309,123593,1,0,0:0:0:0:
148,309,123747,1,2,0:0:0:0:
35,279,124054,6,0,P|44:323|51:367,2,90.0000034332277,0|2|2,0:0|0:0|0:0,0:0:0:0:
7,226,124824,1,2,0:0:0:0:
162,144,125131,5,2,0:0:0:0:
256,192,125208,12,0,127285,0:0:0:0:
443,285,127593,6,0,P|432:313|424:341,2,60,0|0|12,1:0|0:0|1:2,0:0:0:0:
502,218,128054,2,0,P|522:157|498:99,1,120,0|4,0:0|1:3,0:0:0:0:
422,66,128516,1,0,1:0:0:0:
422,66,128670,2,0,P|342:53|279:48,1,120,0|0,0:0|0:0,0:0:0:0:
219,15,129131,1,8,1:2:0:0:
219,15,129285,1,0,0:0:0:0:
219,15,129439,2,0,P|171:17|141:35,1,60,0|4,1:0|0:3,0:0:0:0:
92,82,129747,2,0,P|69:125|70:160,1,60,0|0,1:0|0:0,0:0:0:0:
74,225,130054,6,0,L|1:216,2,60,0|0|12,1:0|0:0|1:2,0:0:0:0:
143,283,130516,2,0,P|211:246|271:259,1,120,0|4,0:0|0:3,0:0:0:0:
331,291,130977,1,0,1:0:0:0:
331,291,131131,2,0,P|339:228|350:157,1,120,0|0,0:0|0:0,0:0:0:0:
361,82,131593,1,8,1:2:0:0:
361,82,131747,1,0,0:0:0:0:
361,82,131900,2,0,B|332:91|332:91|282:84,1,60,0|4,1:0|1:3,0:0:0:0:
226,37,132208,2,0,B|196:32|196:32|167:41,1,60,0|0,1:0|1:0,0:0:0:0:
108,109,132516,6,0,L|97:192,1,60,0|0,1:0|0:0,0:0:0:0:
90,258,132823,1,12,0:0:0:0:
90,258,132977,1,0,0:0:0:0:
223,379,133285,2,0,L|215:320,1,60,4|0,0:3|1:0,0:0:0:0:
235,231,133593,2,0,P|293:193|354:208,1,120,0|0,0:0|0:0,0:0:0:0:
399,282,134054,1,8,1:2:0:0:
399,282,134208,1,0,0:0:0:0:
399,282,134362,2,0,P|407:219|418:148,1,120,0|0,1:0|1:0,0:0:0:0:
506,7,134977,5,2,1:2:0:0:
292,64,135285,1,12,0:0:0:0:
292,64,135439,2,0,P|229:55|158:45,1,120,0|4,0:0|1:3,0:0:0:0:
109,112,135900,1,0,1:0:0:0:
109,112,136054,2,0,P|100:174|90:246,1,120,0|0,0:0|0:0,0:0:0:0:
157,295,136516,2,0,P|191:299|231:305,1,60,8|0,0:0|1:0,0:0:0:0:
280,238,136824,2,0,P|284:203|290:163,1,60,0|0,1:0|1:0,0:0:0:0:
345,301,137131,2,0,P|379:305|419:311,1,60,0|0,1:0|1:0,0:0:0:0:
489,340,137439,5,4,0:1:0:0:
