osu file format v14

[General]
AudioFilename: audio.mp3
AudioLeadIn: 0
PreviewTime: 84527
Countdown: 0
SampleSet: Normal
StackLeniency: 0.7
Mode: 1
LetterboxInBreaks: 0
WidescreenStoryboard: 1

[Editor]
Bookmarks: 217,20970,31347,41723,62477,83230,105281,115657
DistanceSpacing: 2.8
BeatDivisor: 4
GridSize: 32
TimelineZoom: 1.2

[Metadata]
Title:Fragments of You
TitleUnicode:Fragments of You
Artist:Fractal Dreamers
ArtistUnicode:Fractal Dreamers
Creator:Alwaysyukaz
Version:Oni
Source:osu!
Tags:featured artist mappers guild fa azure of the horizon dance electronic dnb drum and bass helblinde instrumental music mpg mg skymuted piano orchestral emotional artcore chill
BeatmapID:2355101
BeatmapSetID:1126740

[Difficulty]
HPDrainRate:5.5
CircleSize:2
OverallDifficulty:5.5
ApproachRate:0
SliderMultiplier:1.4
SliderTickRate:1

[Events]
//Background and Video events
0,0,"BG.jpg",0,-55
//Break Periods
//Storyboard Layer 0 (Background)
//Storyboard Layer 1 (Fail)
//Storyboard Layer 2 (Pass)
//Storyboard Layer 3 (Foreground)
//Storyboard Layer 4 (Overlay)
//Storyboard Sound Samples

[TimingPoints]
217,324.271739717884,4,1,0,65,1,0
20970,-100,4,1,0,75,0,0
31347,-100,4,1,0,65,0,0
41723,-100,4,1,0,75,0,0
62477,-100,4,1,0,65,0,0
84527,-100,4,1,0,80,0,1
105281,-100,4,1,0,75,0,0

[HitObjects]
256,192,217,5,8,0:0:0:0:
256,192,541,1,0,0:0:0:0:
256,192,703,1,8,0:0:0:0:
256,192,1027,1,8,0:0:0:0:
256,192,1189,1,0,0:0:0:0:
256,192,1351,1,8,0:0:0:0:
256,192,1514,1,8,0:0:0:0:
256,192,1676,1,0,0:0:0:0:
256,192,2324,1,8,0:0:0:0:
256,192,2486,1,0,0:0:0:0:
256,192,2811,1,8,0:0:0:0:
256,192,2973,1,0,0:0:0:0:
256,192,3135,1,0,0:0:0:0:
256,192,3297,1,8,0:0:0:0:
256,192,3621,1,8,0:0:0:0:
256,192,3783,1,0,0:0:0:0:
256,192,3946,1,8,0:0:0:0:
256,192,4108,1,8,0:0:0:0:
256,192,4270,1,0,0:0:0:0:
256,192,4918,1,0,0:0:0:0:
256,192,5081,1,8,0:0:0:0:
256,192,5405,1,0,0:0:0:0:
256,192,5567,1,8,0:0:0:0:
256,192,5729,1,8,0:0:0:0:
256,192,5891,1,0,0:0:0:0:
256,192,6216,1,8,0:0:0:0:
256,192,6378,1,0,0:0:0:0:
256,192,6540,1,8,0:0:0:0:
256,192,6702,1,8,0:0:0:0:
256,192,6864,1,0,0:0:0:0:
256,192,7188,1,8,0:0:0:0:
256,192,7350,1,8,0:0:0:0:
256,192,7513,1,0,0:0:0:0:
256,192,7675,1,8,0:0:0:0:
256,192,7999,1,0,0:0:0:0:
256,192,8161,1,8,0:0:0:0:
256,192,8323,1,0,0:0:0:0:
256,192,8485,1,0,0:0:0:0:
256,192,8972,1,8,0:0:0:0:
256,192,9134,1,8,0:0:0:0:
256,192,9296,1,0,0:0:0:0:
256,192,9620,1,8,0:0:0:0:
256,192,9783,1,0,0:0:0:0:
256,192,9945,1,8,0:0:0:0:
256,192,10107,1,8,0:0:0:0:
256,192,10269,1,0,0:0:0:0:
256,192,10593,1,8,0:0:0:0:
256,192,10917,1,8,0:0:0:0:
256,192,11080,1,0,0:0:0:0:
256,192,11404,1,0,0:0:0:0:
256,192,11566,1,8,0:0:0:0:
256,192,11728,1,8,0:0:0:0:
256,192,11890,1,0,0:0:0:0:
256,192,12052,1,8,0:0:0:0:
256,192,12701,1,0,0:0:0:0:
256,192,12863,1,8,0:0:0:0:
256,192,13187,1,8,0:0:0:0:
256,192,13350,1,8,0:0:0:0:
256,192,13512,1,0,0:0:0:0:
256,192,13674,1,0,0:0:0:0:
256,192,13998,1,8,0:0:0:0:
256,192,14160,1,0,0:0:0:0:
256,192,14322,1,8,0:0:0:0:
256,192,14484,1,8,0:0:0:0:
256,192,14647,1,0,0:0:0:0:
256,192,15295,1,8,0:0:0:0:
256,192,15457,1,0,0:0:0:0:
256,192,15782,1,8,0:0:0:0:
256,192,15944,1,0,0:0:0:0:
256,192,16106,1,0,0:0:0:0:
256,192,16268,1,8,0:0:0:0:
256,192,16592,1,0,0:0:0:0:
256,192,16754,1,8,0:0:0:0:
256,192,16916,1,0,0:0:0:0:
256,192,17079,1,0,0:0:0:0:
256,192,17241,1,8,0:0:0:0:
256,192,17565,1,8,0:0:0:0:
256,192,17727,1,0,0:0:0:0:
256,192,17889,1,8,0:0:0:0:
256,192,18051,1,8,0:0:0:0:
256,192,18376,1,0,0:0:0:0:
256,192,18538,1,0,0:0:0:0:
256,192,18700,1,8,0:0:0:0:
256,192,18862,1,8,0:0:0:0:
256,192,19349,1,0,0:0:0:0:
256,192,19511,1,0,0:0:0:0:
256,192,19673,1,8,0:0:0:0:
256,192,19997,1,0,0:0:0:0:
256,192,20159,1,8,0:0:0:0:
256,192,20321,1,8,0:0:0:0:
256,192,20483,1,0,0:0:0:0:
256,192,20646,1,8,0:0:0:0:
256,192,20970,1,4,0:0:0:0:
256,192,21132,1,0,0:0:0:0:
256,192,21213,1,0,0:0:0:0:
256,192,21294,1,8,0:0:0:0:
256,192,21456,1,0,0:0:0:0:
256,192,21781,1,8,0:0:0:0:
256,192,21943,1,8,0:0:0:0:
256,192,22024,1,0,0:0:0:0:
256,192,22105,1,8,0:0:0:0:
256,192,22267,5,0,0:0:0:0:
256,192,22429,5,0,0:0:0:0:
256,192,22510,1,8,0:0:0:0:
256,192,22591,5,0,0:0:0:0:
256,192,22753,5,0,0:0:0:0:
256,192,22916,5,8,0:0:0:0:
256,192,23078,1,8,0:0:0:0:
256,192,23240,1,8,0:0:0:0:
256,192,23321,1,8,0:0:0:0:
256,192,23402,1,0,0:0:0:0:
256,192,23483,1,0,0:0:0:0:
256,192,23564,1,8,0:0:0:0:
256,192,23726,1,8,0:0:0:0:
256,192,23888,1,0,0:0:0:0:
256,192,24050,1,8,0:0:0:0:
256,192,24132,1,8,0:0:0:0:
256,192,24213,1,0,0:0:0:0:
256,192,24375,5,8,0:0:0:0:
256,192,24699,1,0,0:0:0:0:
256,192,24861,5,0,0:0:0:0:
256,192,25023,5,8,0:0:0:0:
256,192,25185,1,8,0:0:0:0:
256,192,25266,1,8,0:0:0:0:
256,192,25348,1,0,0:0:0:0:
256,192,25510,1,0,0:0:0:0:
256,192,25672,1,8,0:0:0:0:
256,192,25753,1,0,0:0:0:0:
256,192,25834,1,8,0:0:0:0:
256,192,25996,1,8,0:0:0:0:
256,192,26158,1,0,0:0:0:0:
256,192,26320,1,0,0:0:0:0:
256,192,26401,1,0,0:0:0:0:
256,192,26483,5,8,0:0:0:0:
256,192,26645,5,0,0:0:0:0:
256,192,26807,1,0,0:0:0:0:
256,192,26969,5,8,0:0:0:0:
256,192,27293,1,8,0:0:0:0:
256,192,27374,1,0,0:0:0:0:
256,192,27455,1,8,0:0:0:0:
256,192,27617,1,8,0:0:0:0:
256,192,27780,1,0,0:0:0:0:
256,192,27942,1,0,0:0:0:0:
256,192,28023,1,0,0:0:0:0:
256,192,28104,1,8,0:0:0:0:
256,192,28266,1,8,0:0:0:0:
256,192,28428,1,0,0:0:0:0:
256,192,28509,1,0,0:0:0:0:
256,192,28590,5,8,0:0:0:0:
256,192,28671,1,8,0:0:0:0:
256,192,28752,5,0,0:0:0:0:
256,192,28915,5,8,0:0:0:0:
256,192,28996,1,8,0:0:0:0:
256,192,29077,5,0,0:0:0:0:
256,192,29239,5,0,0:0:0:0:
256,192,29401,1,0,0:0:0:0:
256,192,29563,5,8,0:0:0:0:
256,192,29644,1,0,0:0:0:0:
256,192,29725,5,8,0:0:0:0:
256,192,30050,5,8,0:0:0:0:
256,192,30212,5,8,0:0:0:0:
256,192,30374,5,8,0:0:0:0:
256,192,30536,5,8,0:0:0:0:
256,192,30698,5,0,0:0:0:0:
256,192,30779,1,0,0:0:0:0:
256,192,30860,5,8,0:0:0:0:
256,192,31022,5,0,0:0:0:0:
256,192,31103,1,0,0:0:0:0:
256,192,31184,5,8,0:0:0:0:
256,192,31266,1,8,0:0:0:0:
256,192,31347,5,4,0:0:0:0:
256,192,31671,1,8,0:0:0:0:
256,192,31833,1,0,0:0:0:0:
256,192,32157,1,0,0:0:0:0:
256,192,32482,1,0,0:0:0:0:
256,192,32644,1,8,0:0:0:0:
256,192,32968,1,8,0:0:0:0:
256,192,33130,1,0,0:0:0:0:
256,192,33454,1,0,0:0:0:0:
256,192,33616,1,0,0:0:0:0:
256,192,33779,1,8,0:0:0:0:
256,192,33941,1,8,0:0:0:0:
256,192,34427,1,8,0:0:0:0:
256,192,34914,1,0,0:0:0:0:
256,192,35238,1,8,0:0:0:0:
256,192,35400,1,8,0:0:0:0:
256,192,35562,1,0,0:0:0:0:
256,192,35724,1,0,0:0:0:0:
256,192,36049,1,0,0:0:0:0:
256,192,36211,1,8,0:0:0:0:
256,192,36535,1,8,0:0:0:0:
256,192,36697,1,8,0:0:0:0:
256,192,36778,1,8,0:0:0:0:
256,192,36859,1,0,0:0:0:0:
256,192,37021,1,8,0:0:0:0:
256,192,37346,1,0,0:0:0:0:
256,192,37508,1,8,0:0:0:0:
256,192,37670,1,0,0:0:0:0:
256,192,37832,1,8,0:0:0:0:
256,192,38156,1,8,0:0:0:0:
256,192,38318,1,0,0:0:0:0:
256,192,38643,1,0,0:0:0:0:
256,192,38805,1,0,0:0:0:0:
256,192,38967,1,8,0:0:0:0:
256,192,39129,1,8,0:0:0:0:
256,192,39453,1,8,0:0:0:0:
256,192,39616,1,0,0:0:0:0:
256,192,39940,1,0,0:0:0:0:
256,192,40102,1,0,0:0:0:0:
256,192,40183,1,0,0:0:0:0:
256,192,40264,1,8,0:0:0:0:
256,192,40426,1,0,0:0:0:0:
256,192,41075,1,8,0:0:0:0:
256,192,41156,1,8,0:0:0:0:
256,192,41237,1,0,0:0:0:0:
256,192,41318,1,0,0:0:0:0:
256,192,41399,1,8,0:0:0:0:
256,192,41561,1,8,0:0:0:0:
256,192,41723,1,0,0:0:0:0:
256,192,41885,1,8,0:0:0:0:
256,192,42048,1,8,0:0:0:0:
256,192,42129,1,8,0:0:0:0:
256,192,42210,1,0,0:0:0:0:
256,192,42534,1,8,0:0:0:0:
256,192,42615,1,0,0:0:0:0:
256,192,42696,1,8,0:0:0:0:
256,192,42858,1,0,0:0:0:0:
256,192,43020,1,8,0:0:0:0:
256,192,43183,1,0,0:0:0:0:
256,192,43345,1,8,0:0:0:0:
256,192,43507,1,8,0:0:0:0:
256,192,43669,1,0,0:0:0:0:
256,192,43831,1,0,0:0:0:0:
256,192,43912,1,0,0:0:0:0:
256,192,43993,1,8,0:0:0:0:
256,192,44074,1,8,0:0:0:0:
256,192,44155,1,0,0:0:0:0:
256,192,44317,1,0,0:0:0:0:
256,192,44480,1,0,0:0:0:0:
256,192,44642,1,8,0:0:0:0:
256,192,44804,1,0,0:0:0:0:
256,192,45128,1,8,0:0:0:0:
256,192,45209,1,8,0:0:0:0:
256,192,45290,1,0,0:0:0:0:
256,192,45452,1,8,0:0:0:0:
256,192,45615,1,0,0:0:0:0:
256,192,45777,1,0,0:0:0:0:
256,192,45858,1,0,0:0:0:0:
256,192,45939,1,8,0:0:0:0:
256,192,46101,1,8,0:0:0:0:
256,192,46263,1,0,0:0:0:0:
256,192,46425,1,8,0:0:0:0:
256,192,46506,1,8,0:0:0:0:
256,192,46587,1,0,0:0:0:0:
256,192,46749,1,8,0:0:0:0:
256,192,46912,1,0,0:0:0:0:
256,192,47074,1,0,0:0:0:0:
256,192,47155,1,0,0:0:0:0:
256,192,47236,1,8,0:0:0:0:
256,192,47317,1,8,0:0:0:0:
256,192,47398,1,0,0:0:0:0:
256,192,47722,1,8,0:0:0:0:
256,192,47884,1,0,0:0:0:0:
256,192,48047,1,8,0:0:0:0:
256,192,48128,1,8,0:0:0:0:
256,192,48209,1,0,0:0:0:0:
256,192,48371,1,0,0:0:0:0:
256,192,48533,1,8,0:0:0:0:
256,192,48614,1,8,0:0:0:0:
256,192,48695,1,0,0:0:0:0:
256,192,48776,1,0,0:0:0:0:
256,192,48857,1,8,0:0:0:0:
256,192,49019,1,0,0:0:0:0:
256,192,49182,1,0,0:0:0:0:
256,192,49263,1,0,0:0:0:0:
256,192,49344,1,8,0:0:0:0:
256,192,49425,1,8,0:0:0:0:
256,192,49506,1,0,0:0:0:0:
256,192,49668,1,0,0:0:0:0:
256,192,49749,1,0,0:0:0:0:
256,192,49830,1,8,0:0:0:0:
256,192,49992,1,0,0:0:0:0:
256,192,50154,1,0,0:0:0:0:
256,192,50316,1,8,0:0:0:0:
256,192,50398,1,8,0:0:0:0:
256,192,50479,1,0,0:0:0:0:
256,192,50803,1,8,0:0:0:0:
256,192,50965,1,8,0:0:0:0:
256,192,51127,1,8,0:0:0:0:
256,192,51289,1,8,0:0:0:0:
256,192,51451,1,8,0:0:0:0:
256,192,51533,1,8,0:0:0:0:
256,192,51614,1,0,0:0:0:0:
256,192,51695,1,0,0:0:0:0:
256,192,51776,1,8,0:0:0:0:
256,192,51938,1,8,0:0:0:0:
256,192,52019,1,8,0:0:0:0:
256,192,52100,1,0,0:0:0:0:
256,192,52424,1,0,0:0:0:0:
256,192,52586,1,0,0:0:0:0:
256,192,52749,1,8,0:0:0:0:
256,192,52911,1,8,0:0:0:0:
256,192,53073,1,0,0:0:0:0:
256,192,53235,1,8,0:0:0:0:
256,192,53316,1,0,0:0:0:0:
256,192,53397,1,8,0:0:0:0:
256,192,53559,1,8,0:0:0:0:
256,192,53721,1,0,0:0:0:0:
256,192,53802,1,0,0:0:0:0:
256,192,53883,1,8,0:0:0:0:
256,192,53965,1,8,0:0:0:0:
256,192,54046,1,0,0:0:0:0:
256,192,54208,1,0,0:0:0:0:
256,192,54289,1,0,0:0:0:0:
256,192,54370,1,8,0:0:0:0:
256,192,54532,1,8,0:0:0:0:
256,192,54694,1,0,0:0:0:0:
256,192,54856,1,0,0:0:0:0:
256,192,55018,1,8,0:0:0:0:
256,192,55099,1,8,0:0:0:0:
256,192,55181,1,0,0:0:0:0:
256,192,55262,1,0,0:0:0:0:
256,192,55343,1,8,0:0:0:0:
256,192,55505,1,8,0:0:0:0:
256,192,55667,1,0,0:0:0:0:
256,192,55829,1,0,0:0:0:0:
256,192,55991,1,8,0:0:0:0:
256,192,56153,1,0,0:0:0:0:
256,192,56234,1,0,0:0:0:0:
256,192,56316,1,8,0:0:0:0:
256,192,56478,1,8,0:0:0:0:
256,192,56640,1,8,0:0:0:0:
256,192,56802,1,0,0:0:0:0:
256,192,56883,1,0,0:0:0:0:
256,192,56964,1,8,0:0:0:0:
256,192,57045,1,8,0:0:0:0:
256,192,57126,1,0,0:0:0:0:
256,192,57288,1,0,0:0:0:0:
256,192,57613,1,8,0:0:0:0:
256,192,57775,1,8,0:0:0:0:
256,192,57937,1,8,0:0:0:0:
256,192,58018,1,8,0:0:0:0:
256,192,58099,1,0,0:0:0:0:
256,192,58180,1,8,0:0:0:0:
256,192,58261,1,0,0:0:0:0:
256,192,58423,1,8,0:0:0:0:
256,192,58585,1,0,0:0:0:0:
256,192,58748,1,8,0:0:0:0:
256,192,58910,1,8,0:0:0:0:
256,192,59072,1,0,0:0:0:0:
256,192,59234,1,0,0:0:0:0:
256,192,59396,1,8,0:0:0:0:
256,192,59477,1,8,0:0:0:0:
256,192,59558,1,0,0:0:0:0:
256,192,59639,1,0,0:0:0:0:
256,192,59720,1,8,0:0:0:0:
256,192,59883,1,8,0:0:0:0:
256,192,60045,1,0,0:0:0:0:
256,192,60126,1,0,0:0:0:0:
256,192,60207,1,8,0:0:0:0:
256,192,60369,1,0,0:0:0:0:
256,192,60693,1,8,0:0:0:0:
256,192,60855,1,8,0:0:0:0:
256,192,60936,1,8,0:0:0:0:
256,192,61017,1,0,0:0:0:0:
256,192,61180,1,0,0:0:0:0:
256,192,61261,1,0,0:0:0:0:
256,192,61342,1,8,0:0:0:0:
256,192,61423,1,8,0:0:0:0:
256,192,61504,1,0,0:0:0:0:
256,192,61666,1,8,0:0:0:0:
256,192,61828,1,0,0:0:0:0:
256,192,61990,1,0,0:0:0:0:
256,192,62071,1,0,0:0:0:0:
256,192,62152,1,8,0:0:0:0:
256,192,62315,1,8,0:0:0:0:
256,192,62477,1,4,0:0:0:0:
256,192,62801,1,8,0:0:0:0:
256,192,62963,1,0,0:0:0:0:
256,192,63287,1,0,0:0:0:0:
256,192,63449,1,8,0:0:0:0:
256,192,63612,1,8,0:0:0:0:
256,192,63936,1,0,0:0:0:0:
256,192,64098,1,8,0:0:0:0:
256,192,64422,1,8,0:0:0:0:
256,192,64584,1,8,0:0:0:0:
256,192,64747,1,0,0:0:0:0:
256,192,64909,1,8,0:0:0:0:
256,192,64990,1,8,0:0:0:0:
256,192,65071,1,0,0:0:0:0:
256,192,65233,1,0,0:0:0:0:
256,192,65395,1,8,0:0:0:0:
256,192,65557,1,8,0:0:0:0:
256,192,65882,1,0,0:0:0:0:
256,192,66206,1,8,0:0:0:0:
256,192,66530,1,8,0:0:0:0:
256,192,66692,1,0,0:0:0:0:
256,192,66854,1,8,0:0:0:0:
256,192,67179,1,0,0:0:0:0:
256,192,67341,1,8,0:0:0:0:
256,192,67503,1,8,0:0:0:0:
256,192,67665,1,0,0:0:0:0:
256,192,67989,1,0,0:0:0:0:
256,192,68151,1,8,0:0:0:0:
256,192,68476,1,8,0:0:0:0:
256,192,68638,1,0,0:0:0:0:
256,192,68800,1,0,0:0:0:0:
256,192,69124,1,0,0:0:0:0:
256,192,69286,1,8,0:0:0:0:
256,192,69449,1,8,0:0:0:0:
256,192,69773,1,0,0:0:0:0:
256,192,69935,1,0,0:0:0:0:
256,192,70097,1,8,0:0:0:0:
256,192,70178,1,8,0:0:0:0:
256,192,70259,1,0,0:0:0:0:
256,192,70421,1,0,0:0:0:0:
256,192,70583,1,8,0:0:0:0:
256,192,70746,1,8,0:0:0:0:
256,192,71070,1,8,0:0:0:0:
256,192,71232,1,8,0:0:0:0:
256,192,71394,1,0,0:0:0:0:
256,192,71556,1,0,0:0:0:0:
256,192,71881,1,0,0:0:0:0:
256,192,72043,1,8,0:0:0:0:
256,192,72205,1,0,0:0:0:0:
256,192,72286,1,0,0:0:0:0:
256,192,72367,1,8,0:0:0:0:
256,192,72529,1,8,0:0:0:0:
256,192,72691,1,8,0:0:0:0:
256,192,72853,1,4,0:0:0:0:
256,192,73178,1,8,0:0:0:0:
256,192,73340,1,0,0:0:0:0:
256,192,73664,1,0,0:0:0:0:
256,192,73826,1,0,0:0:0:0:
256,192,73988,1,8,0:0:0:0:
256,192,74313,1,0,0:0:0:0:
256,192,74475,1,8,0:0:0:0:
256,192,74799,1,8,0:0:0:0:
256,192,74961,1,8,0:0:0:0:
256,192,75123,1,0,0:0:0:0:
256,192,75285,1,8,0:0:0:0:
256,192,75366,1,8,0:0:0:0:
256,192,75448,1,0,0:0:0:0:
256,192,75610,1,0,0:0:0:0:
256,192,75772,1,8,0:0:0:0:
256,192,75934,1,8,0:0:0:0:
256,192,76258,1,8,0:0:0:0:
256,192,76420,1,0,0:0:0:0:
256,192,76582,1,8,0:0:0:0:
256,192,76745,1,0,0:0:0:0:
256,192,77069,1,8,0:0:0:0:
256,192,77231,1,0,0:0:0:0:
256,192,77555,1,0,0:0:0:0:
256,192,77717,1,8,0:0:0:0:
256,192,77880,1,8,0:0:0:0:
256,192,78042,1,0,0:0:0:0:
256,192,78366,1,0,0:0:0:0:
256,192,78528,1,8,0:0:0:0:
256,192,78852,1,8,0:0:0:0:
256,192,79015,1,0,0:0:0:0:
256,192,79177,1,8,0:0:0:0:
256,192,79501,1,0,0:0:0:0:
256,192,79663,1,8,0:0:0:0:
256,192,79825,1,0,0:0:0:0:
256,192,79987,1,8,0:0:0:0:
256,192,80312,1,0,0:0:0:0:
256,192,80474,1,8,0:0:0:0:
256,192,80555,1,8,0:0:0:0:
256,192,80636,1,0,0:0:0:0:
256,192,80798,1,0,0:0:0:0:
256,192,80960,1,8,0:0:0:0:
256,192,81122,1,8,0:0:0:0:
256,192,81447,1,8,0:0:0:0:
256,192,81609,1,8,0:0:0:0:
256,192,81771,1,0,0:0:0:0:
256,192,81933,1,0,0:0:0:0:
256,192,82257,1,8,0:0:0:0:
256,192,82419,1,0,0:0:0:0:
256,192,82582,1,0,0:0:0:0:
256,192,82663,1,0,0:0:0:0:
256,192,82744,1,8,0:0:0:0:
256,192,82906,1,8,0:0:0:0:
256,192,83068,1,8,0:0:0:0:
256,192,83230,1,4,0:0:0:0:
256,192,83879,1,0,0:0:0:0:
256,192,83960,1,0,0:0:0:0:
256,192,84041,1,8,0:0:0:0:
256,192,84203,1,8,0:0:0:0:
256,192,84365,1,8,0:0:0:0:
256,192,84527,1,4,0:0:0:0:
256,192,84851,1,8,0:0:0:0:
256,192,85014,1,8,0:0:0:0:
256,192,85095,1,0,0:0:0:0:
256,192,85176,1,8,0:0:0:0:
256,192,85338,1,0,0:0:0:0:
256,192,85500,1,0,0:0:0:0:
256,192,85581,1,0,0:0:0:0:
256,192,85662,1,8,0:0:0:0:
256,192,85824,1,8,0:0:0:0:
256,192,85986,1,0,0:0:0:0:
256,192,86149,1,8,0:0:0:0:
256,192,86230,1,8,0:0:0:0:
256,192,86311,1,0,0:0:0:0:
256,192,86392,1,0,0:0:0:0:
256,192,86473,1,8,0:0:0:0:
256,192,86635,1,8,0:0:0:0:
256,192,86716,1,8,0:0:0:0:
256,192,86797,1,0,0:0:0:0:
256,192,86959,1,0,0:0:0:0:
256,192,87121,1,8,0:0:0:0:
256,192,87283,1,8,0:0:0:0:
256,192,87608,1,8,0:0:0:0:
256,192,87770,1,0,0:0:0:0:
256,192,87932,1,8,0:0:0:0:
256,192,88013,1,0,0:0:0:0:
256,192,88094,1,8,0:0:0:0:
256,192,88256,1,0,0:0:0:0:
256,192,88418,1,0,0:0:0:0:
256,192,88581,1,0,0:0:0:0:
256,192,88662,1,0,0:0:0:0:
256,192,88743,1,8,0:0:0:0:
256,192,88905,1,8,0:0:0:0:
256,192,89067,1,0,0:0:0:0:
256,192,89148,1,0,0:0:0:0:
256,192,89229,1,8,0:0:0:0:
256,192,89310,1,8,0:0:0:0:
256,192,89391,1,0,0:0:0:0:
256,192,89553,1,0,0:0:0:0:
256,192,89634,1,0,0:0:0:0:
256,192,89716,1,8,0:0:0:0:
256,192,89878,1,0,0:0:0:0:
256,192,90040,1,8,0:0:0:0:
256,192,90202,1,0,0:0:0:0:
256,192,90526,1,0,0:0:0:0:
256,192,90688,1,8,0:0:0:0:
256,192,90850,1,8,0:0:0:0:
256,192,91013,1,0,0:0:0:0:
256,192,91175,1,8,0:0:0:0:
256,192,91256,1,8,0:0:0:0:
256,192,91337,1,0,0:0:0:0:
256,192,91418,1,0,0:0:0:0:
256,192,91499,1,8,0:0:0:0:
256,192,91661,1,8,0:0:0:0:
256,192,91742,1,8,0:0:0:0:
256,192,91823,1,0,0:0:0:0:
256,192,91985,1,0,0:0:0:0:
256,192,92148,1,0,0:0:0:0:
256,192,92310,1,8,0:0:0:0:
256,192,92472,1,8,0:0:0:0:
256,192,92553,1,8,0:0:0:0:
256,192,92634,1,0,0:0:0:0:
256,192,92796,1,0,0:0:0:0:
256,192,92958,1,8,0:0:0:0:
256,192,93120,1,8,0:0:0:0:
256,192,93201,1,8,0:0:0:0:
256,192,93282,1,0,0:0:0:0:
256,192,93364,1,0,0:0:0:0:
256,192,93445,1,8,0:0:0:0:
256,192,93607,1,8,0:0:0:0:
256,192,93769,1,8,0:0:0:0:
256,192,93931,1,0,0:0:0:0:
256,192,94093,1,8,0:0:0:0:
256,192,94255,1,0,0:0:0:0:
256,192,94336,1,0,0:0:0:0:
256,192,94417,1,8,0:0:0:0:
256,192,94499,1,8,0:0:0:0:
256,192,94580,1,0,0:0:0:0:
256,192,94742,1,0,0:0:0:0:
256,192,94823,1,8,0:0:0:0:
256,192,94904,1,0,0:0:0:0:
256,192,95228,1,8,0:0:0:0:
256,192,95390,1,0,0:0:0:0:
205,107,95552,1,8,0:0:0:0:
256,192,95633,1,8,0:0:0:0:
256,192,95715,1,0,0:0:0:0:
256,192,95796,1,0,0:0:0:0:
256,192,95877,1,8,0:0:0:0:
256,192,96039,1,8,0:0:0:0:
256,192,96201,1,0,0:0:0:0:
256,192,96363,1,8,0:0:0:0:
256,192,96525,1,0,0:0:0:0:
256,192,96606,1,0,0:0:0:0:
256,192,96687,1,8,0:0:0:0:
256,192,96768,1,8,0:0:0:0:
256,192,96849,1,0,0:0:0:0:
256,192,97012,1,0,0:0:0:0:
256,192,97174,1,8,0:0:0:0:
256,192,97336,1,8,0:0:0:0:
256,192,97417,1,0,0:0:0:0:
256,192,97498,1,8,0:0:0:0:
256,192,97822,1,8,0:0:0:0:
256,192,97984,1,0,0:0:0:0:
256,192,98309,1,0,0:0:0:0:
256,192,98471,1,8,0:0:0:0:
256,192,98633,1,8,0:0:0:0:
256,192,98795,1,0,0:0:0:0:
256,192,98957,1,0,0:0:0:0:
256,192,99038,1,0,0:0:0:0:
256,192,99119,1,8,0:0:0:0:
256,192,99282,1,0,0:0:0:0:
256,192,99444,1,8,0:0:0:0:
256,192,99525,1,8,0:0:0:0:
256,192,99606,1,0,0:0:0:0:
256,192,99768,1,8,0:0:0:0:
256,192,99930,1,8,0:0:0:0:
256,192,100011,1,0,0:0:0:0:
256,192,100092,1,8,0:0:0:0:
256,192,100416,1,0,0:0:0:0:
256,192,100579,1,8,0:0:0:0:
256,192,100741,1,8,0:0:0:0:
256,192,100822,1,8,0:0:0:0:
256,192,100903,1,0,0:0:0:0:
256,192,101065,1,0,0:0:0:0:
256,192,101227,1,0,0:0:0:0:
256,192,101308,1,0,0:0:0:0:
256,192,101389,1,8,0:0:0:0:
256,192,101714,1,8,0:0:0:0:
256,192,101876,1,8,0:0:0:0:
256,192,101957,1,8,0:0:0:0:
256,192,102038,1,0,0:0:0:0:
256,192,102200,1,8,0:0:0:0:
256,192,102362,1,0,0:0:0:0:
256,192,102524,1,0,0:0:0:0:
256,192,102605,1,0,0:0:0:0:
256,192,102686,1,8,0:0:0:0:
256,192,102849,1,8,0:0:0:0:
256,192,103011,1,8,0:0:0:0:
256,192,103173,1,8,0:0:0:0:
256,192,103254,1,8,0:0:0:0:
256,192,103335,1,0,0:0:0:0:
256,192,103497,1,0,0:0:0:0:
256,192,103659,1,0,0:0:0:0:
256,192,103821,1,0,0:0:0:0:
256,192,103902,1,0,0:0:0:0:
256,192,103983,1,8,0:0:0:0:
256,192,104146,1,8,0:0:0:0:
256,192,104308,1,8,0:0:0:0:
256,192,104389,1,8,0:0:0:0:
256,192,104470,1,0,0:0:0:0:
256,192,104551,1,0,0:0:0:0:
256,192,104632,1,8,0:0:0:0:
256,192,104794,1,0,0:0:0:0:
256,192,104956,1,0,0:0:0:0:
256,192,105037,1,0,0:0:0:0:
256,192,105118,1,8,0:0:0:0:
256,192,105199,1,8,0:0:0:0:
256,192,105281,1,4,0:0:0:0:
256,192,105605,1,8,0:0:0:0:
256,192,105767,1,0,0:0:0:0:
256,192,106091,1,0,0:0:0:0:
256,192,106253,1,8,0:0:0:0:
256,192,106578,1,0,0:0:0:0:
256,192,106902,1,8,0:0:0:0:
256,192,107064,1,0,0:0:0:0:
256,192,107226,1,8,0:0:0:0:
256,192,107388,1,8,0:0:0:0:
256,192,107550,1,0,0:0:0:0:
256,192,107632,1,0,0:0:0:0:
256,192,107713,1,8,0:0:0:0:
256,192,107875,1,0,0:0:0:0:
256,192,108199,1,8,0:0:0:0:
256,192,108361,1,0,0:0:0:0:
256,192,108685,1,0,0:0:0:0:
256,192,108848,1,8,0:0:0:0:
256,192,109172,1,0,0:0:0:0:
256,192,109496,1,8,0:0:0:0:
256,192,109658,1,0,0:0:0:0:
256,192,109820,1,0,0:0:0:0:
256,192,109982,1,8,0:0:0:0:
256,192,110145,1,8,0:0:0:0:
256,192,110226,1,8,0:0:0:0:
256,192,110307,1,0,0:0:0:0:
256,192,110469,1,0,0:0:0:0:
256,192,110793,1,8,0:0:0:0:
256,192,110955,1,0,0:0:0:0:
256,192,111280,1,0,0:0:0:0:
256,192,111442,1,8,0:0:0:0:
256,192,111766,1,0,0:0:0:0:
256,192,112090,1,8,0:0:0:0:
256,192,112252,1,0,0:0:0:0:
256,192,112415,1,0,0:0:0:0:
256,192,112577,1,8,0:0:0:0:
256,192,112658,1,0,0:0:0:0:
256,192,112739,1,8,0:0:0:0:
256,192,112901,1,8,0:0:0:0:
256,192,113063,1,0,0:0:0:0:
256,192,113387,1,8,0:0:0:0:
256,192,113549,1,0,0:0:0:0:
256,192,113712,1,0,0:0:0:0:
256,192,114036,1,8,0:0:0:0:
256,192,114198,1,0,0:0:0:0:
256,192,114279,1,0,0:0:0:0:
256,192,114360,1,8,0:0:0:0:
256,192,114522,1,8,0:0:0:0:
256,192,114603,1,8,0:0:0:0:
256,192,114684,1,0,0:0:0:0:
256,192,114847,1,0,0:0:0:0:
256,192,115009,1,0,0:0:0:0:
256,192,115090,1,0,0:0:0:0:
256,192,115171,1,8,0:0:0:0:
256,192,115333,1,8,0:0:0:0:
256,192,115495,1,8,0:0:0:0:
256,192,115576,1,8,0:0:0:0:
256,192,115657,1,0,0:0:0:0:
