osu file format v14

[General]
AudioFilename: audio.mp3
AudioLeadIn: 0
PreviewTime: 84527
Countdown: 0
SampleSet: Normal
StackLeniency: 0.7
Mode: 1
LetterboxInBreaks: 0
WidescreenStoryboard: 1

[Editor]
Bookmarks: 217,20970,31347,41723,62477,83230,105281,115657
DistanceSpacing: 2.8
BeatDivisor: 2
GridSize: 32
TimelineZoom: 0.9999999

[Metadata]
Title:Fragments of You
TitleUnicode:Fragments of You
Artist:Fractal Dreamers
ArtistUnicode:Fractal Dreamers
Creator:Alwaysyukaz
Version:Muzukashii
Source:osu!
Tags:featured artist mappers guild fa azure of the horizon dance electronic dnb drum and bass helblinde instrumental music mpg mg skymuted piano orchestral emotional artcore chill
BeatmapID:2355172
BeatmapSetID:1126740

[Difficulty]
HPDrainRate:6
CircleSize:2
OverallDifficulty:5
ApproachRate:0
SliderMultiplier:1.4
SliderTickRate:1

[Events]
//Background and Video events
0,0,"BG.jpg",0,-55
//Break Periods
//Storyboard Layer 0 (Background)
//Storyboard Layer 1 (Fail)
//Storyboard Layer 2 (Pass)
//Storyboard Layer 3 (Foreground)
//Storyboard Layer 4 (Overlay)
//Storyboard Sound Samples

[TimingPoints]
217,324.271739717884,4,1,0,65,1,0
20970,-100,4,1,0,75,0,0
31347,-100,4,1,0,65,0,0
41723,-100,4,1,0,75,0,0
62477,-100,4,1,0,65,0,0
84527,-100,4,1,0,80,0,1
105281,-100,4,1,0,75,0,0

[HitObjects]
256,192,217,5,8,0:0:0:0:
256,192,541,1,8,0:0:0:0:
256,192,703,1,8,0:0:0:0:
256,192,1027,1,8,0:0:0:0:
256,192,1351,1,8,0:0:0:0:
256,192,1514,1,8,0:0:0:0:
256,192,1676,1,0,0:0:0:0:
256,192,2324,1,8,0:0:0:0:
256,192,2486,1,0,0:0:0:0:
256,192,2811,1,8,0:0:0:0:
256,192,3135,1,0,0:0:0:0:
256,192,3297,1,8,0:0:0:0:
256,192,3621,1,8,0:0:0:0:
256,192,3946,1,8,0:0:0:0:
256,192,4108,1,8,0:0:0:0:
256,192,4270,1,0,0:0:0:0:
256,192,4918,1,0,0:0:0:0:
256,192,5081,1,8,0:0:0:0:
256,192,5405,1,0,0:0:0:0:
256,192,5729,1,8,0:0:0:0:
256,192,5891,1,0,0:0:0:0:
256,192,6216,1,8,0:0:0:0:
256,192,6540,1,8,0:0:0:0:
256,192,6702,1,8,0:0:0:0:
256,192,6864,1,0,0:0:0:0:
256,192,7188,1,8,0:0:0:0:
256,192,7350,1,8,0:0:0:0:
256,192,7513,1,0,0:0:0:0:
256,192,7675,1,8,0:0:0:0:
256,192,7999,1,0,0:0:0:0:
256,192,8323,1,8,0:0:0:0:
256,192,8485,1,0,0:0:0:0:
256,192,8972,1,8,0:0:0:0:
256,192,9296,1,0,0:0:0:0:
256,192,9620,1,8,0:0:0:0:
256,192,9783,1,0,0:0:0:0:
256,192,9945,1,8,0:0:0:0:
256,192,10269,1,8,0:0:0:0:
256,192,10593,1,0,0:0:0:0:
256,192,10917,1,0,0:0:0:0:
256,192,11080,1,0,0:0:0:0:
256,192,11404,1,8,0:0:0:0:
256,192,11728,1,0,0:0:0:0:
256,192,11890,1,0,0:0:0:0:
256,192,12052,1,8,0:0:0:0:
256,192,12701,1,0,0:0:0:0:
256,192,12863,1,8,0:0:0:0:
256,192,13187,1,0,0:0:0:0:
256,192,13512,1,8,0:0:0:0:
256,192,13674,1,0,0:0:0:0:
256,192,13998,1,0,0:0:0:0:
256,192,14322,1,0,0:0:0:0:
256,192,14484,1,0,0:0:0:0:
256,192,14647,1,8,0:0:0:0:
256,192,15295,1,8,0:0:0:0:
256,192,15457,1,0,0:0:0:0:
256,192,15782,1,8,0:0:0:0:
256,192,16106,1,0,0:0:0:0:
256,192,16268,1,8,0:0:0:0:
256,192,16592,1,0,0:0:0:0:
256,192,16916,1,0,0:0:0:0:
256,192,17079,1,0,0:0:0:0:
256,192,17241,1,8,0:0:0:0:
256,192,17565,1,8,0:0:0:0:
256,192,17727,1,0,0:0:0:0:
256,192,17889,1,8,0:0:0:0:
256,192,18051,1,8,0:0:0:0:
256,192,18376,1,0,0:0:0:0:
256,192,18700,1,0,0:0:0:0:
256,192,18862,1,8,0:0:0:0:
256,192,19349,1,0,0:0:0:0:
256,192,19673,1,8,0:0:0:0:
256,192,19997,1,8,0:0:0:0:
256,192,20159,1,0,0:0:0:0:
256,192,20321,1,8,0:0:0:0:
256,192,20970,1,4,0:0:0:0:
256,192,21294,1,0,0:0:0:0:
256,192,21456,1,8,0:0:0:0:
256,192,21781,1,0,0:0:0:0:
256,192,21943,1,8,0:0:0:0:
256,192,22105,1,8,0:0:0:0:
256,192,22267,5,0,0:0:0:0:
256,192,22591,5,8,0:0:0:0:
256,192,22916,5,0,0:0:0:0:
256,192,23078,1,8,0:0:0:0:
256,192,23240,1,8,0:0:0:0:
256,192,23402,1,0,0:0:0:0:
256,192,23483,1,0,0:0:0:0:
256,192,23564,1,0,0:0:0:0:
256,192,23726,1,8,0:0:0:0:
256,192,23888,1,0,0:0:0:0:
256,192,24050,1,0,0:0:0:0:
256,192,24375,5,8,0:0:0:0:
256,192,24861,5,0,0:0:0:0:
256,192,25185,1,8,0:0:0:0:
256,192,25348,1,0,0:0:0:0:
256,192,25510,1,0,0:0:0:0:
256,192,25672,1,8,0:0:0:0:
256,192,25753,1,8,0:0:0:0:
256,192,25834,1,8,0:0:0:0:
256,192,25996,1,8,0:0:0:0:
256,192,26158,1,0,0:0:0:0:
256,192,26483,5,8,0:0:0:0:
256,192,26645,5,0,0:0:0:0:
256,192,26969,5,8,0:0:0:0:
256,192,27131,5,0,0:0:0:0:
256,192,27293,1,0,0:0:0:0:
256,192,27455,1,8,0:0:0:0:
256,192,27780,1,0,0:0:0:0:
256,192,27942,1,0,0:0:0:0:
256,192,28023,1,0,0:0:0:0:
256,192,28104,1,0,0:0:0:0:
256,192,28266,1,8,0:0:0:0:
256,192,28428,1,0,0:0:0:0:
256,192,28590,5,0,0:0:0:0:
256,192,28752,5,8,0:0:0:0:
256,192,29077,5,8,0:0:0:0:
256,192,29239,5,0,0:0:0:0:
256,192,29401,5,0,0:0:0:0:
256,192,29563,5,8,0:0:0:0:
256,192,29725,5,8,0:0:0:0:
256,192,30050,5,8,0:0:0:0:
256,192,30212,5,8,0:0:0:0:
256,192,30374,5,0,0:0:0:0:
256,192,30536,5,0,0:0:0:0:
256,192,30698,5,8,0:0:0:0:
256,192,30860,5,8,0:0:0:0:
256,192,31022,5,8,0:0:0:0:
256,192,31103,1,8,0:0:0:0:
256,192,31184,5,8,0:0:0:0:
256,192,31347,5,4,0:0:0:0:
256,192,31671,1,8,0:0:0:0:
256,192,31833,1,0,0:0:0:0:
256,192,32319,1,8,0:0:0:0:
256,192,32644,1,0,0:0:0:0:
256,192,32968,1,8,0:0:0:0:
256,192,33130,1,0,0:0:0:0:
256,192,33454,1,8,0:0:0:0:
256,192,33616,1,0,0:0:0:0:
256,192,33779,1,0,0:0:0:0:
256,192,33941,1,8,0:0:0:0:
256,192,34427,1,8,0:0:0:0:
256,192,34914,1,0,0:0:0:0:
256,192,35238,1,0,0:0:0:0:
256,192,35400,1,8,0:0:0:0:
256,192,35562,1,8,0:0:0:0:
256,192,35724,1,0,0:0:0:0:
256,192,36049,1,0,0:0:0:0:
256,192,36211,1,8,0:0:0:0:
256,192,36535,1,8,0:0:0:0:
256,192,36859,1,0,0:0:0:0:
256,192,37021,1,8,0:0:0:0:
256,192,37346,1,0,0:0:0:0:
256,192,37670,1,8,0:0:0:0:
256,192,37832,1,0,0:0:0:0:
256,192,38318,1,0,0:0:0:0:
256,192,38643,1,8,0:0:0:0:
256,192,38805,1,0,0:0:0:0:
256,192,39129,1,8,0:0:0:0:
256,192,39453,1,0,0:0:0:0:
256,192,39616,1,8,0:0:0:0:
256,192,39940,1,8,0:0:0:0:
256,192,40102,1,0,0:0:0:0:
256,192,40264,1,0,0:0:0:0:
256,192,40426,1,8,0:0:0:0:
256,192,41075,1,0,0:0:0:0:
256,192,41156,1,0,0:0:0:0:
256,192,41237,1,0,0:0:0:0:
256,192,41399,1,8,0:0:0:0:
256,192,41561,1,8,0:0:0:0:
256,192,41723,1,0,0:0:0:0:
256,192,42048,1,8,0:0:0:0:
256,192,42210,1,0,0:0:0:0:
256,192,42534,1,8,0:0:0:0:
256,192,42696,1,8,0:0:0:0:
256,192,42858,1,0,0:0:0:0:
256,192,43020,1,0,0:0:0:0:
256,192,43183,1,8,0:0:0:0:
256,192,43507,1,8,0:0:0:0:
256,192,43669,1,0,0:0:0:0:
256,192,43831,1,0,0:0:0:0:
256,192,43912,1,0,0:0:0:0:
256,192,43993,1,0,0:0:0:0:
256,192,44155,1,8,0:0:0:0:
256,192,44317,1,0,0:0:0:0:
256,192,44642,1,8,0:0:0:0:
256,192,44804,1,0,0:0:0:0:
256,192,45128,1,8,0:0:0:0:
256,192,45209,1,8,0:0:0:0:
256,192,45290,1,8,0:0:0:0:
256,192,45452,1,8,0:0:0:0:
256,192,45615,1,0,0:0:0:0:
256,192,45777,1,0,0:0:0:0:
256,192,45939,1,8,0:0:0:0:
256,192,46101,1,8,0:0:0:0:
256,192,46425,1,0,0:0:0:0:
256,192,46587,1,8,0:0:0:0:
256,192,46749,1,8,0:0:0:0:
256,192,46912,1,0,0:0:0:0:
256,192,47398,1,8,0:0:0:0:
256,192,47722,1,8,0:0:0:0:
256,192,47884,1,8,0:0:0:0:
256,192,48047,1,0,0:0:0:0:
256,192,48371,1,0,0:0:0:0:
256,192,48533,1,0,0:0:0:0:
256,192,48695,1,8,0:0:0:0:
256,192,48776,1,8,0:0:0:0:
256,192,48857,1,8,0:0:0:0:
256,192,49019,1,0,0:0:0:0:
256,192,49182,1,8,0:0:0:0:
256,192,49506,1,0,0:0:0:0:
256,192,49830,1,8,0:0:0:0:
256,192,49992,1,8,0:0:0:0:
256,192,50154,1,0,0:0:0:0:
256,192,50316,1,0,0:0:0:0:
256,192,50479,1,8,0:0:0:0:
256,192,50803,1,8,0:0:0:0:
256,192,50965,1,8,0:0:0:0:
256,192,51127,1,8,0:0:0:0:
256,192,51289,1,8,0:0:0:0:
256,192,51451,1,8,0:0:0:0:
256,192,51533,1,8,0:0:0:0:
256,192,51614,1,8,0:0:0:0:
256,192,51776,1,0,0:0:0:0:
256,192,51938,1,8,0:0:0:0:
256,192,52100,1,0,0:0:0:0:
256,192,52586,1,0,0:0:0:0:
256,192,52749,1,8,0:0:0:0:
256,192,52911,1,8,0:0:0:0:
256,192,53073,1,0,0:0:0:0:
256,192,53397,1,8,0:0:0:0:
256,192,53559,1,0,0:0:0:0:
256,192,53721,1,0,0:0:0:0:
256,192,53802,1,0,0:0:0:0:
256,192,53883,1,0,0:0:0:0:
256,192,54046,1,0,0:0:0:0:
256,192,54208,1,8,0:0:0:0:
256,192,54370,1,8,0:0:0:0:
256,192,54532,1,0,0:0:0:0:
256,192,54694,1,8,0:0:0:0:
256,192,55018,1,0,0:0:0:0:
256,192,55099,1,0,0:0:0:0:
256,192,55181,1,0,0:0:0:0:
256,192,55343,1,8,0:0:0:0:
256,192,55505,1,8,0:0:0:0:
256,192,55667,1,0,0:0:0:0:
256,192,55829,1,0,0:0:0:0:
256,192,55991,1,8,0:0:0:0:
256,192,56316,1,0,0:0:0:0:
256,192,56478,1,8,0:0:0:0:
256,192,56640,1,8,0:0:0:0:
256,192,56802,1,0,0:0:0:0:
256,192,56964,1,0,0:0:0:0:
256,192,57045,1,0,0:0:0:0:
256,192,57126,1,0,0:0:0:0:
256,192,57288,1,0,0:0:0:0:
256,192,57775,1,8,0:0:0:0:
256,192,58099,1,0,0:0:0:0:
256,192,58180,1,0,0:0:0:0:
256,192,58261,1,0,0:0:0:0:
256,192,58423,1,8,0:0:0:0:
256,192,58585,1,0,0:0:0:0:
256,192,58748,1,0,0:0:0:0:
256,192,58910,1,8,0:0:0:0:
256,192,59072,1,0,0:0:0:0:
256,192,59396,1,8,0:0:0:0:
256,192,59477,1,8,0:0:0:0:
256,192,59558,1,8,0:0:0:0:
256,192,59720,1,8,0:0:0:0:
256,192,59883,1,0,0:0:0:0:
256,192,60045,1,0,0:0:0:0:
256,192,60207,1,8,0:0:0:0:
256,192,60369,1,8,0:0:0:0:
256,192,60693,1,8,0:0:0:0:
256,192,60855,1,8,0:0:0:0:
256,192,61017,1,0,0:0:0:0:
256,192,61180,1,0,0:0:0:0:
256,192,61261,1,0,0:0:0:0:
256,192,61342,1,0,0:0:0:0:
256,192,61504,1,8,0:0:0:0:
256,192,61666,1,0,0:0:0:0:
256,192,61828,1,8,0:0:0:0:
256,192,61990,1,8,0:0:0:0:
256,192,62071,1,8,0:0:0:0:
256,192,62152,1,8,0:0:0:0:
256,192,62315,1,8,0:0:0:0:
256,192,62477,1,4,0:0:0:0:
256,192,62963,1,0,0:0:0:0:
256,192,63287,1,0,0:0:0:0:
256,192,63612,1,8,0:0:0:0:
256,192,63936,1,8,0:0:0:0:
256,192,64098,1,0,0:0:0:0:
256,192,64260,1,0,0:0:0:0:
256,192,64422,1,8,0:0:0:0:
256,192,64747,1,0,0:0:0:0:
256,192,64909,1,8,0:0:0:0:
256,192,65071,1,0,0:0:0:0:
256,192,65395,1,8,0:0:0:0:
256,192,65557,1,8,0:0:0:0:
256,192,65882,1,0,0:0:0:0:
256,192,66206,1,0,0:0:0:0:
256,192,66368,1,8,0:0:0:0:
256,192,67016,1,0,0:0:0:0:
256,192,67341,1,8,0:0:0:0:
256,192,67503,1,8,0:0:0:0:
256,192,67665,1,0,0:0:0:0:
256,192,67989,1,0,0:0:0:0:
256,192,68476,1,8,0:0:0:0:
256,192,68800,1,0,0:0:0:0:
256,192,69124,1,0,0:0:0:0:
256,192,69286,1,0,0:0:0:0:
256,192,69449,1,8,0:0:0:0:
256,192,70097,1,8,0:0:0:0:
256,192,70259,1,0,0:0:0:0:
256,192,70583,1,0,0:0:0:0:
256,192,70746,1,8,0:0:0:0:
256,192,71070,1,8,0:0:0:0:
256,192,71394,1,0,0:0:0:0:
256,192,71718,1,8,0:0:0:0:
256,192,71881,1,0,0:0:0:0:
256,192,72205,1,0,0:0:0:0:
256,192,72367,1,0,0:0:0:0:
256,192,72529,1,8,0:0:0:0:
256,192,72853,1,4,0:0:0:0:
256,192,73177,1,8,0:0:0:0:
256,192,73339,1,0,0:0:0:0:
256,192,73663,1,0,0:0:0:0:
256,192,73988,1,8,0:0:0:0:
256,192,74312,1,0,0:0:0:0:
256,192,74475,1,8,0:0:0:0:
256,192,74637,1,8,0:0:0:0:
256,192,74798,1,0,0:0:0:0:
256,192,75123,1,8,0:0:0:0:
256,192,75285,1,0,0:0:0:0:
256,192,75447,1,8,0:0:0:0:
256,192,75771,1,0,0:0:0:0:
256,192,75933,1,0,0:0:0:0:
256,192,76258,1,0,0:0:0:0:
256,192,76582,1,0,0:0:0:0:
256,192,76744,1,8,0:0:0:0:
256,192,77393,1,0,0:0:0:0:
256,192,77717,1,8,0:0:0:0:
256,192,77879,1,8,0:0:0:0:
256,192,78041,1,0,0:0:0:0:
256,192,78365,1,0,0:0:0:0:
256,192,78852,1,8,0:0:0:0:
256,192,79176,1,0,0:0:0:0:
256,192,79500,1,0,0:0:0:0:
256,192,79662,1,0,0:0:0:0:
256,192,79825,1,8,0:0:0:0:
256,192,79987,1,0,0:0:0:0:
256,192,80312,1,8,0:0:0:0:
256,192,80635,1,0,0:0:0:0:
256,192,80959,1,0,0:0:0:0:
256,192,81122,1,8,0:0:0:0:
256,192,81446,1,8,0:0:0:0:
256,192,81770,1,0,0:0:0:0:
256,192,82094,5,8,0:0:0:0:
256,192,82257,1,0,0:0:0:0:
256,192,82581,1,0,0:0:0:0:
256,192,82743,1,0,0:0:0:0:
256,192,82905,1,8,0:0:0:0:
256,192,83229,1,4,0:0:0:0:
256,192,83879,5,0,0:0:0:0:
256,192,83960,1,0,0:0:0:0:
256,192,84041,1,0,0:0:0:0:
256,192,84203,1,8,0:0:0:0:
256,192,84365,1,8,0:0:0:0:
256,192,84527,1,4,0:0:0:0:
256,192,84851,1,8,0:0:0:0:
256,192,85014,1,0,0:0:0:0:
256,192,85176,1,8,0:0:0:0:
256,192,85338,1,0,0:0:0:0:
256,192,85500,1,0,0:0:0:0:
256,192,85662,1,8,0:0:0:0:
256,192,85986,1,8,0:0:0:0:
256,192,86149,1,8,0:0:0:0:
256,192,86311,1,0,0:0:0:0:
256,192,86473,1,0,0:0:0:0:
256,192,86635,1,8,0:0:0:0:
256,192,86797,1,8,0:0:0:0:
256,192,86959,1,0,0:0:0:0:
256,192,87040,1,0,0:0:0:0:
256,192,87121,1,0,0:0:0:0:
256,192,87283,1,8,0:0:0:0:
256,192,87608,1,8,0:0:0:0:
256,192,87932,1,8,0:0:0:0:
256,192,88256,1,0,0:0:0:0:
256,192,88581,1,8,0:0:0:0:
256,192,88743,1,0,0:0:0:0:
256,192,88905,1,8,0:0:0:0:
256,192,89067,1,8,0:0:0:0:
256,192,89229,1,8,0:0:0:0:
256,192,89310,1,8,0:0:0:0:
256,192,89391,1,8,0:0:0:0:
256,192,89553,1,0,0:0:0:0:
256,192,89716,1,8,0:0:0:0:
256,192,89878,1,8,0:0:0:0:
256,192,90040,1,0,0:0:0:0:
256,192,90202,1,0,0:0:0:0:
256,192,90526,1,0,0:0:0:0:
256,192,90688,1,8,0:0:0:0:
256,192,90850,1,8,0:0:0:0:
256,192,91013,1,0,0:0:0:0:
256,192,91175,1,0,0:0:0:0:
256,192,91256,1,0,0:0:0:0:
256,192,91337,1,0,0:0:0:0:
256,192,91499,1,0,0:0:0:0:
256,192,91661,1,8,0:0:0:0:
256,192,91823,1,8,0:0:0:0:
256,192,91985,1,0,0:0:0:0:
256,192,92310,1,8,0:0:0:0:
256,192,92472,1,8,0:0:0:0:
256,192,92634,1,0,0:0:0:0:
256,192,92796,1,0,0:0:0:0:
256,192,92958,1,8,0:0:0:0:
256,192,93282,1,8,0:0:0:0:
256,192,93445,1,8,0:0:0:0:
256,192,93526,1,8,0:0:0:0:
256,192,93607,1,8,0:0:0:0:
256,192,93769,1,8,0:0:0:0:
256,192,93931,1,8,0:0:0:0:
256,192,94093,1,0,0:0:0:0:
256,192,94255,1,0,0:0:0:0:
256,192,94417,1,8,0:0:0:0:
256,192,94580,1,8,0:0:0:0:
256,192,94742,1,8,0:0:0:0:
256,192,94904,1,0,0:0:0:0:
256,192,95390,1,8,0:0:0:0:
256,192,95715,1,8,0:0:0:0:
256,192,95877,1,0,0:0:0:0:
256,192,96039,1,0,0:0:0:0:
256,192,96201,1,8,0:0:0:0:
256,192,96525,1,0,0:0:0:0:
256,192,96687,1,0,0:0:0:0:
256,192,96849,1,8,0:0:0:0:
256,192,97012,1,0,0:0:0:0:
256,192,97174,1,8,0:0:0:0:
256,192,97336,1,8,0:0:0:0:
256,192,97498,1,8,0:0:0:0:
256,192,97822,1,8,0:0:0:0:
256,192,97984,1,0,0:0:0:0:
256,192,98309,1,0,0:0:0:0:
256,192,98471,1,8,0:0:0:0:
256,192,98633,1,8,0:0:0:0:
256,192,98957,1,0,0:0:0:0:
256,192,99119,1,8,0:0:0:0:
256,192,99282,1,8,0:0:0:0:
256,192,99444,1,0,0:0:0:0:
256,192,99606,1,0,0:0:0:0:
256,192,99768,1,8,0:0:0:0:
256,192,99930,1,8,0:0:0:0:
256,192,100011,1,8,0:0:0:0:
256,192,100092,1,8,0:0:0:0:
256,192,100741,1,8,0:0:0:0:
256,192,100903,1,0,0:0:0:0:
256,192,101065,1,0,0:0:0:0:
256,192,101227,1,8,0:0:0:0:
256,192,101308,1,8,0:0:0:0:
256,192,101389,1,8,0:0:0:0:
256,192,102038,1,8,0:0:0:0:
256,192,102200,1,0,0:0:0:0:
256,192,102362,1,8,0:0:0:0:
256,192,102524,1,8,0:0:0:0:
256,192,102605,1,8,0:0:0:0:
256,192,102686,1,8,0:0:0:0:
256,192,102849,1,0,0:0:0:0:
256,192,103011,1,8,0:0:0:0:
256,192,103335,1,0,0:0:0:0:
256,192,103416,1,0,0:0:0:0:
256,192,103497,1,0,0:0:0:0:
256,192,103659,1,8,0:0:0:0:
256,192,103821,1,8,0:0:0:0:
256,192,103983,1,0,0:0:0:0:
256,192,104308,1,0,0:0:0:0:
256,192,104389,1,0,0:0:0:0:
256,192,104470,1,0,0:0:0:0:
256,192,104632,1,0,0:0:0:0:
256,192,104794,1,8,0:0:0:0:
256,192,104956,1,8,0:0:0:0:
256,192,105037,1,8,0:0:0:0:
256,192,105118,1,8,0:0:0:0:
256,192,105281,1,4,0:0:0:0:
256,192,105767,1,0,0:0:0:0:
256,192,106091,1,0,0:0:0:0:
256,192,106253,1,8,0:0:0:0:
256,192,106578,1,0,0:0:0:0:
256,192,106902,1,8,0:0:0:0:
256,192,107226,1,8,0:0:0:0:
256,192,107388,1,8,0:0:0:0:
256,192,107550,1,0,0:0:0:0:
256,192,107713,1,8,0:0:0:0:
256,192,107875,1,0,0:0:0:0:
256,192,108361,1,0,0:0:0:0:
256,192,108685,1,0,0:0:0:0:
256,192,108848,1,8,0:0:0:0:
256,192,109172,1,0,0:0:0:0:
256,192,109496,1,8,0:0:0:0:
256,192,109820,1,0,0:0:0:0:
256,192,109982,1,8,0:0:0:0:
256,192,110145,1,8,0:0:0:0:
256,192,110307,1,0,0:0:0:0:
256,192,110469,1,0,0:0:0:0:
256,192,110955,1,0,0:0:0:0:
256,192,111280,1,0,0:0:0:0:
256,192,111442,1,8,0:0:0:0:
256,192,111766,1,0,0:0:0:0:
256,192,112090,1,8,0:0:0:0:
256,192,112415,1,8,0:0:0:0:
256,192,112577,1,0,0:0:0:0:
256,192,112739,1,8,0:0:0:0:
256,192,112901,1,8,0:0:0:0:
256,192,113063,1,0,0:0:0:0:
256,192,113387,1,8,0:0:0:0:
256,192,113549,1,0,0:0:0:0:
256,192,113712,1,0,0:0:0:0:
256,192,114036,1,8,0:0:0:0:
256,192,114198,1,0,0:0:0:0:
256,192,114360,1,8,0:0:0:0:
256,192,114522,1,8,0:0:0:0:
256,192,114603,1,8,0:0:0:0:
256,192,114684,1,8,0:0:0:0:
256,192,114847,1,0,0:0:0:0:
256,192,115009,1,0,0:0:0:0:
256,192,115171,1,8,0:0:0:0:
256,192,115333,1,8,0:0:0:0:
256,192,115495,1,0,0:0:0:0:
256,192,115576,1,0,0:0:0:0:
256,192,115657,1,0,0:0:0:0:
