osu file format v14

[General]
AudioFilename: audio.mp3
AudioLeadIn: 0
PreviewTime: 84527
Countdown: 0
SampleSet: Normal
StackLeniency: 0.7
Mode: 1
LetterboxInBreaks: 0
WidescreenStoryboard: 1

[Editor]
Bookmarks: 217,20970,31347,41723,62477,83230,105281,115657
DistanceSpacing: 2.8
BeatDivisor: 2
GridSize: 32
TimelineZoom: 0.2999998

[Metadata]
Title:Fragments of You
TitleUnicode:Fragments of You
Artist:Fractal Dreamers
ArtistUnicode:Fractal Dreamers
Creator:Alwaysyukaz
Version:Kantan
Source:osu!
Tags:featured artist mappers guild fa azure of the horizon dance electronic dnb drum and bass helblinde instrumental music mpg mg skymuted piano orchestral emotional artcore chill
BeatmapID:2369129
BeatmapSetID:1126740

[Difficulty]
HPDrainRate:8
CircleSize:2
OverallDifficulty:3
ApproachRate:0
SliderMultiplier:1.4
SliderTickRate:1

[Events]
//Background and Video events
0,0,"BG.jpg",0,-55
//Break Periods
//Storyboard Layer 0 (Background)
//Storyboard Layer 1 (Fail)
//Storyboard Layer 2 (Pass)
//Storyboard Layer 3 (Foreground)
//Storyboard Layer 4 (Overlay)
//Storyboard Sound Samples

[TimingPoints]
217,324.271739717884,4,1,0,65,1,0
20970,-100,4,1,0,75,0,0
31347,-100,4,1,0,65,0,0
41723,-100,4,1,0,75,0,0
62477,-100,4,1,0,65,0,0
84527,-100,4,1,0,80,0,1
105281,-100,4,1,0,75,0,0

[HitObjects]
256,192,217,5,8,0:0:0:0:
256,192,1514,1,0,0:0:0:0:
256,192,2811,1,8,0:0:0:0:
256,192,4108,1,8,0:0:0:0:
256,192,5405,1,0,0:0:0:0:
256,192,6702,1,0,0:0:0:0:
256,192,7350,1,8,0:0:0:0:
256,192,7999,1,0,0:0:0:0:
256,192,9296,1,8,0:0:0:0:
256,192,9945,1,8,0:0:0:0:
256,192,10593,1,0,0:0:0:0:
256,192,11890,1,0,0:0:0:0:
256,192,13187,1,8,0:0:0:0:
256,192,14484,1,8,0:0:0:0:
256,192,15782,1,0,0:0:0:0:
256,192,17079,1,0,0:0:0:0:
256,192,17727,1,8,0:0:0:0:
256,192,18376,1,0,0:0:0:0:
256,192,19673,1,8,0:0:0:0:
256,192,20321,1,8,0:0:0:0:
256,192,20970,1,4,0:0:0:0:
256,192,21781,1,8,0:0:0:0:
256,192,22267,1,0,0:0:0:0:
256,192,22591,1,8,0:0:0:0:
256,192,23240,1,0,0:0:0:0:
256,192,23564,1,0,0:0:0:0:
256,192,23888,1,8,0:0:0:0:
256,192,24375,1,8,0:0:0:0:
256,192,24861,1,0,0:0:0:0:
256,192,25185,1,8,0:0:0:0:
256,192,26158,1,8,0:0:0:0:
256,192,26483,5,0,0:0:0:0:
256,192,26969,5,8,0:0:0:0:
256,192,27455,1,0,0:0:0:0:
256,192,27780,1,8,0:0:0:0:
256,192,28428,1,0,0:0:0:0:
256,192,28752,5,8,0:0:0:0:
256,192,29077,5,8,0:0:0:0:
256,192,29725,5,8,0:0:0:0:
256,192,30050,1,0,0:0:0:0:
256,192,30374,5,0,0:0:0:0:
256,192,30698,5,8,0:0:0:0:
256,192,31347,5,4,0:0:0:0:
256,192,32319,1,0,0:0:0:0:
256,192,32644,1,8,0:0:0:0:
256,192,33292,1,8,0:0:0:0:
256,192,33941,1,0,0:0:0:0:
256,192,34589,1,0,0:0:0:0:
256,192,35238,1,8,0:0:0:0:
256,192,35562,1,0,0:0:0:0:
256,192,36535,1,0,0:0:0:0:
256,192,37183,1,0,0:0:0:0:
256,192,37508,1,0,0:0:0:0:
256,192,37832,1,8,0:0:0:0:
256,192,39129,1,8,0:0:0:0:
256,192,39778,1,0,0:0:0:0:
256,192,40102,1,8,0:0:0:0:
256,192,40426,1,8,0:0:0:0:
256,192,41723,1,0,0:0:0:0:
256,192,42372,1,0,0:0:0:0:
256,192,43020,1,0,0:0:0:0:
256,192,43345,1,8,0:0:0:0:
256,192,43993,1,8,0:0:0:0:
256,192,44317,1,0,0:0:0:0:
256,192,44966,1,0,0:0:0:0:
256,192,45615,1,0,0:0:0:0:
256,192,45939,1,8,0:0:0:0:
256,192,46587,1,8,0:0:0:0:
256,192,46912,1,0,0:0:0:0:
256,192,47884,1,8,0:0:0:0:
256,192,48209,1,0,0:0:0:0:
256,192,48857,1,8,0:0:0:0:
256,192,49506,1,0,0:0:0:0:
256,192,49830,1,8,0:0:0:0:
256,192,50154,1,0,0:0:0:0:
256,192,50803,1,8,0:0:0:0:
256,192,51127,1,8,0:0:0:0:
256,192,51451,1,8,0:0:0:0:
256,192,52100,1,0,0:0:0:0:
256,192,53397,1,8,0:0:0:0:
256,192,53721,1,0,0:0:0:0:
256,192,54046,1,0,0:0:0:0:
256,192,54694,1,8,0:0:0:0:
256,192,55343,1,0,0:0:0:0:
256,192,55991,1,8,0:0:0:0:
256,192,56316,1,8,0:0:0:0:
256,192,56640,1,0,0:0:0:0:
256,192,57288,1,8,0:0:0:0:
256,192,58261,1,0,0:0:0:0:
256,192,58585,1,0,0:0:0:0:
256,192,58910,1,8,0:0:0:0:
256,192,59558,1,8,0:0:0:0:
256,192,59883,1,0,0:0:0:0:
256,192,60207,1,8,0:0:0:0:
256,192,60855,1,0,0:0:0:0:
256,192,61180,1,8,0:0:0:0:
256,192,61828,1,8,0:0:0:0:
256,192,62152,1,8,0:0:0:0:
256,192,62477,1,4,0:0:0:0:
256,192,63774,1,0,0:0:0:0:
256,192,64422,1,0,0:0:0:0:
256,192,64747,1,0,0:0:0:0:
256,192,65071,1,8,0:0:0:0:
256,192,65719,1,0,0:0:0:0:
256,192,66368,1,8,0:0:0:0:
256,192,67665,1,0,0:0:0:0:
256,192,68314,1,8,0:0:0:0:
256,192,68962,1,8,0:0:0:0:
256,192,69935,1,8,0:0:0:0:
256,192,70259,1,0,0:0:0:0:
256,192,70908,1,0,0:0:0:0:
256,192,71556,1,8,0:0:0:0:
256,192,72205,1,8,0:0:0:0:
256,192,72529,1,8,0:0:0:0:
256,192,72853,1,4,0:0:0:0:
256,192,74150,1,8,0:0:0:0:
256,192,74799,1,0,0:0:0:0:
256,192,75123,1,8,0:0:0:0:
256,192,75448,1,8,0:0:0:0:
256,192,76096,1,8,0:0:0:0:
256,192,76745,1,0,0:0:0:0:
256,192,78042,1,0,0:0:0:0:
256,192,78690,1,8,0:0:0:0:
256,192,79339,1,0,0:0:0:0:
256,192,79987,1,0,0:0:0:0:
256,192,80312,1,8,0:0:0:0:
256,192,80636,1,0,0:0:0:0:
256,192,81284,5,8,0:0:0:0:
256,192,81933,1,0,0:0:0:0:
256,192,82582,1,8,0:0:0:0:
256,192,82906,1,8,0:0:0:0:
256,192,83230,5,4,0:0:0:0:
256,192,84527,1,4,0:0:0:0:
256,192,85176,1,8,0:0:0:0:
256,192,85824,1,0,0:0:0:0:
256,192,86473,1,8,0:0:0:0:
256,192,86797,1,8,0:0:0:0:
256,192,87121,1,0,0:0:0:0:
256,192,87770,1,8,0:0:0:0:
256,192,88418,1,0,0:0:0:0:
256,192,89716,1,8,0:0:0:0:
256,192,90364,1,0,0:0:0:0:
256,192,91013,1,8,0:0:0:0:
256,192,91661,1,0,0:0:0:0:
256,192,91985,1,8,0:0:0:0:
256,192,92310,1,0,0:0:0:0:
256,192,92958,1,0,0:0:0:0:
256,192,93607,1,8,0:0:0:0:
256,192,93931,1,8,0:0:0:0:
256,192,94255,1,8,0:0:0:0:
256,192,94904,1,0,0:0:0:0:
256,192,95552,1,8,0:0:0:0:
256,192,95877,1,8,0:0:0:0:
256,192,96201,1,0,0:0:0:0:
256,192,96849,1,8,0:0:0:0:
256,192,97498,1,0,0:0:0:0:
256,192,97822,1,8,0:0:0:0:
256,192,98795,1,0,0:0:0:0:
256,192,99119,1,8,0:0:0:0:
256,192,99444,1,0,0:0:0:0:
256,192,100092,1,8,0:0:0:0:
256,192,100741,1,8,0:0:0:0:
256,192,101065,1,8,0:0:0:0:
256,192,101389,1,0,0:0:0:0:
256,192,102038,1,0,0:0:0:0:
256,192,102362,1,8,0:0:0:0:
256,192,102686,1,8,0:0:0:0:
256,192,103335,1,0,0:0:0:0:
256,192,103983,1,8,0:0:0:0:
256,192,104632,1,8,0:0:0:0:
256,192,104956,1,8,0:0:0:0:
256,192,105281,1,4,0:0:0:0:
256,192,106578,1,8,0:0:0:0:
256,192,107226,1,8,0:0:0:0:
256,192,107550,1,8,0:0:0:0:
256,192,107875,1,0,0:0:0:0:
256,192,108523,1,0,0:0:0:0:
256,192,109172,1,8,0:0:0:0:
256,192,110145,1,0,0:0:0:0:
256,192,110469,1,8,0:0:0:0:
256,192,111117,1,0,0:0:0:0:
256,192,111766,1,8,0:0:0:0:
256,192,112090,1,0,0:0:0:0:
256,192,112415,1,8,0:0:0:0:
256,192,113063,1,8,0:0:0:0:
256,192,113387,1,0,0:0:0:0:
256,192,114036,1,8,0:0:0:0:
256,192,114360,1,0,0:0:0:0:
256,192,114684,1,0,0:0:0:0:
256,192,115009,1,8,0:0:0:0:
256,192,115657,1,0,0:0:0:0:
