osu file format v14

[General]
AudioFilename: audio.mp3
AudioLeadIn: 0
PreviewTime: 135
Countdown: 0
SampleSet: Soft
StackLeniency: 1
Mode: 0
LetterboxInBreaks: 0
WidescreenStoryboard: 1

[Editor]
Bookmarks: 52097,105287
DistanceSpacing: 0.4
BeatDivisor: 4
GridSize: 16
TimelineZoom: 1.5

[Metadata]
Title:Fragments of You
TitleUnicode:Fragments of You
Artist:Fractal Dreamers
ArtistUnicode:Fractal Dreamers
Creator:Agatsu
Version:coco's Insane
Source:osu!
Tags:music game instrumental coco cococolaco loli catgirl fa featured artist mappers' mappers guild mpg electronic
BeatmapID:2412956
BeatmapSetID:1146874

[Difficulty]
HPDrainRate:6
CircleSize:4
OverallDifficulty:8
ApproachRate:9
SliderMultiplier:1.4
SliderTickRate:1

[Events]
//Background and Video events
0,0,"nathan-anderson-1vAnw7U6qfM-unsplash.jpg",0,0
//Break Periods
2,31552,40481
//Storyboard Layer 0 (Background)
//Storyboard Layer 1 (Fail)
//Storyboard Layer 2 (Pass)
//Storyboard Layer 3 (Foreground)
//Storyboard Layer 4 (Overlay)
//Storyboard Sound Samples

[TimingPoints]
217,324.324324324324,4,2,1,40,1,0
217,-500,4,2,1,40,0,0
8000,-133.333333333333,4,2,1,40,0,0
10595,-500,4,2,1,40,0,0
18378,-133.333333333333,4,2,1,40,0,0
20973,-111.111111111111,4,2,1,60,0,0
21622,-111.111111111111,4,2,1,60,0,0
21784,-111.111111111111,4,2,1,60,0,0
22433,-111.111111111111,4,2,1,60,0,0
22595,-111.111111111111,4,2,1,60,0,0
23730,-111.111111111111,4,2,1,60,0,0
23892,-111.111111111111,4,2,1,60,0,0
24784,-111.111111111111,4,2,1,60,0,0
24865,-111.111111111111,4,2,1,60,0,0
28027,-111.111111111111,4,2,1,60,0,0
28108,-111.111111111111,4,2,1,60,0,0
41081,-111.111111111111,4,2,1,50,0,0
41162,-111.111111111111,4,2,1,50,0,0
41244,-111.111111111111,4,2,1,50,0,0
41730,-90.9090909090908,4,2,1,70,0,0
42946,-90.9090909090908,4,2,1,70,0,0
43027,-90.9090909090908,4,2,1,70,0,0
43595,-90.9090909090908,4,2,1,70,0,0
43676,-90.9090909090908,4,2,1,70,0,0
45541,-90.9090909090908,4,2,1,70,0,0
45622,-90.9090909090908,4,2,1,70,0,0
47568,-90.9090909090908,4,2,1,70,0,0
47730,-90.9090909090908,4,2,1,70,0,0
52351,-90.9090909090908,4,2,1,70,0,0
52433,-90.9090909090908,4,2,1,70,0,0
53932,-90.9090909090908,4,2,1,70,0,0
53973,-90.9090909090908,4,2,1,70,0,0
54094,-90.9090909090908,4,2,1,70,0,0
54216,-90.9090909090908,4,2,1,70,0,0
54256,-90.9090909090908,4,2,1,70,0,0
54297,-90.9090909090908,4,2,1,70,0,0
56527,-90.9090909090908,4,2,1,70,0,0
56568,-90.9090909090908,4,2,1,70,0,0
57541,-90.9090909090908,4,2,1,70,0,0
57622,-90.9090909090908,4,2,1,70,0,0
58838,-90.9090909090908,4,2,1,70,0,0
58919,-90.9090909090908,4,2,1,70,0,0
62487,-90.9090909090908,4,2,1,50,0,0
83229,324.324324324324,4,2,1,50,1,0
83229,-90.9090909090909,4,2,1,50,0,0
84526,-90.9090909090908,4,2,1,70,0,0
84769,-90.9090909090908,4,2,1,70,0,0
84850,-90.9090909090908,4,2,1,70,0,0
85418,-90.9090909090908,4,2,1,70,0,0
85499,-90.9090909090908,4,2,1,70,0,0
101553,-90.9090909090908,4,2,1,70,0,0
101634,-90.9090909090908,4,2,1,70,0,0
105283,-90.9090909090908,4,2,1,60,0,0
105769,-100,4,2,1,60,0,0
107634,-100,4,2,1,60,0,0
107715,-100,4,2,1,60,0,0
111931,-100,4,2,1,60,0,0
112255,-100,4,2,1,60,0,0
115985,-100,4,2,1,60,0,0

[Colours]
Combo1 : 255,94,55
Combo2 : 173,255,95
Combo3 : 17,254,176
Combo4 : 255,88,100

[HitObjects]
431,113,217,6,0,L|429:98,2,14,2|0|0,0:0|0:0|0:0,0:0:0:0:
378,184,703,2,0,L|374:211,1,28,2|0,0:0|0:0,0:0:0:0:
352,95,1189,2,0,L|350:81,2,14,2|0|0,0:0|0:0|0:0,0:0:0:0:
288,191,1676,2,0,L|284:218,1,28,2|0,0:0|0:0,0:0:0:0:
217,279,2162,1,0,0:0:0:0:
98,283,2325,1,2,0:0:0:0:
38,223,2487,1,0,0:0:0:0:
56,152,2649,1,0,0:0:0:0:
75,136,2811,6,0,L|93:133,2,14,2|0|0,0:0|0:0|0:0,0:0:0:0:
152,62,3298,2,0,L|179:63,1,28,2|0,0:0|0:0,0:0:0:0:
16,65,3784,2,0,L|34:62,2,14,2|0|0,0:0|0:0|0:0,0:0:0:0:
176,146,4271,2,0,L|203:147,1,28,2|0,0:0|0:0,0:0:0:0:
281,111,4757,1,0,0:0:0:0:
378,192,4919,1,2,0:0:0:0:
370,279,5081,1,0,0:0:0:0:
313,326,5244,1,0,0:0:0:0:
294,316,5406,6,0,L|292:297,2,14,2|0|0,0:0|0:0|0:0,0:0:0:0:
215,248,5892,2,0,L|220:217,1,28,2|0,0:0|0:0,0:0:0:0:
287,153,6379,2,0,L|285:134,2,14,2|0|0,0:0|0:0|0:0,0:0:0:0:
256,62,6865,2,0,L|261:31,1,28,2|0,0:0|0:0,0:0:0:0:
173,12,7352,1,2,0:0:0:0:
78,91,7514,1,0,0:0:0:0:
127,154,7676,1,0,0:0:0:0:
180,27,7838,1,0,0:0:0:0:
288,154,8000,6,0,P|314:158|351:161,2,52.5000020027161,2|0|0,0:0|0:0|0:0,0:0:0:0:
205,248,8487,2,0,P|151:255|83:269,1,105.000004005432,2|0,0:0|0:0,0:0:0:0:
352,276,8973,2,0,P|311:257|280:251,1,52.5000020027161
304,255,9216,1,0,0:0:0:0:
304,255,9298,1,2,0:0:0:0:
237,325,9460,1,0,0:0:0:0:
238,179,9622,2,0,P|279:160|310:154,1,52.5000020027161,2|0,0:0|0:0,0:0:0:0:
409,121,9946,2,0,P|368:102|337:96,3,52.5000020027161,2|0|2|0,0:0|0:0|0:0|0:0,0:0:0:0:
456,273,10595,6,0,L|454:288,2,14,2|0|0,0:0|0:0|0:0,0:0:0:0:
403,202,11081,2,0,L|399:175,1,28,2|0,0:0|0:0,0:0:0:0:
377,291,11567,2,0,L|375:305,2,14,2|0|0,0:0|0:0|0:0,0:0:0:0:
313,195,12054,2,0,L|309:168,1,28,2|0,0:0|0:0,0:0:0:0:
242,107,12540,1,0,0:0:0:0:
123,103,12703,1,2,0:0:0:0:
63,163,12865,1,0,0:0:0:0:
81,234,13027,1,0,0:0:0:0:
100,250,13189,6,0,L|118:253,2,14,2|0|0,0:0|0:0|0:0,0:0:0:0:
177,324,13676,2,0,L|204:323,1,28,2|0,0:0|0:0,0:0:0:0:
41,321,14162,2,0,L|59:324,2,14,2|0|0,0:0|0:0|0:0,0:0:0:0:
201,240,14649,2,0,L|228:239,1,28,2|0,0:0|0:0,0:0:0:0:
306,275,15135,1,0,0:0:0:0:
403,194,15297,1,2,0:0:0:0:
395,107,15459,1,0,0:0:0:0:
338,60,15622,1,0,0:0:0:0:
319,70,15784,6,0,L|317:89,2,14,2|0|0,0:0|0:0|0:0,0:0:0:0:
240,138,16270,2,0,L|245:169,1,28,2|0,0:0|0:0,0:0:0:0:
312,233,16757,2,0,L|310:252,2,14,2|0|0,0:0|0:0|0:0,0:0:0:0:
281,324,17243,2,0,L|286:355,1,28,2|0,0:0|0:0,0:0:0:0:
198,374,17730,1,2,0:0:0:0:
103,295,17892,1,0,0:0:0:0:
152,232,18054,1,0,0:0:0:0:
205,359,18216,1,0,0:0:0:0:
313,232,18378,6,0,P|339:228|376:225,2,52.5000020027161,2|0|0,0:0|0:0|0:0,0:0:0:0:
230,138,18865,2,0,P|176:131|108:117,1,105.000004005432,2|0,0:0|0:0,0:0:0:0:
377,110,19351,2,0,P|336:129|305:135,1,52.5000020027161,2|0,0:0|0:0,0:0:0:0:
329,131,19594,1,0,0:0:0:0:
329,131,19676,1,2,0:0:0:0:
262,61,19838,1,0,0:0:0:0:
263,207,20000,2,0,P|304:226|335:232,1,52.5000020027161,2|0,0:0|0:0,0:0:0:0:
434,265,20324,2,0,P|393:284|362:290,3,52.5000020027161,2|0|2|0,0:0|0:0|0:0|0:0,0:0:0:0:
300,335,20973,6,0,P|228:326|157:320,1,125.999996154785,6|8,1:2|0:0,0:0:0:0:
204,145,21460,2,0,P|171:146|139:152,1,62.9999980773926,2|0,1:2|0:0,0:0:0:0:
141,151,21703,1,0,0:0:0:0:
141,151,21784,1,8,0:0:0:0:
95,234,21946,1,2,0:0:0:0:
0,106,22108,1,0,0:0:0:0:
95,234,22271,1,2,1:2:0:0:
105,13,22433,2,0,P|99:50|96:81,1,62.9999980773926,0|8,0:0|0:0,0:0:0:0:
281,237,22757,5,2,0:0:0:0:
281,237,22838,1,2,0:0:0:0:
281,237,22919,2,0,P|284:205|289:174,1,62.9999980773926,2|0,0:0|1:0,3:0:0:0:
362,51,23244,2,0,P|365:83|370:114,1,62.9999980773926,2|8,0:0|0:0,3:0:0:0:
451,172,23568,5,2,1:2:0:0:
262,23,23730,2,0,P|267:53|272:85,1,62.9999980773926,0|8,0:0|0:0,0:0:0:0:
370,203,24054,2,0,P|358:261|347:334,1,125.999996154785,2|10,1:2|0:0,0:0:0:0:
162,271,24541,2,0,P|127:263|87:259,1,62.9999980773926,0|2,0:0|0:0,0:0:0:0:
100,259,24784,1,0,0:0:0:0:
100,259,24865,1,0,1:0:0:0:
255,311,25027,2,0,P|198:296|131:285,1,125.999996154785,2|0,0:0|0:0,0:0:0:0:
49,183,25514,2,0,P|43:144|36:109,1,62.9999980773926,0|2,0:0|1:2,0:0:0:0:
175,6,25838,2,0,P|178:37|185:68,1,62.9999980773926,0|8,0:0|0:0,0:3:0:0:
141,142,26162,5,2,1:2:0:0:
336,85,26325,2,0,P|298:79|264:78,1,62.9999980773926,0|8,0:0|0:0,0:0:0:0:
359,181,26649,2,0,P|308:172|232:166,1,125.999996154785,2|8,1:2|0:0,0:0:0:0:
213,300,27135,2,0,P|210:349|213:381,1,62.9999980773926,2|2,0:0|0:0,0:0:0:0:
210,362,27379,1,2,0:0:0:0:
210,362,27460,1,2,1:2:0:0:
138,142,27622,2,0,P|140:173|140:204,1,62.9999980773926,2|8,0:0|0:0,0:0:0:0:
79,273,27946,5,0,0:0:0:0:
79,273,28027,1,0,0:0:0:0:
79,273,28108,1,2,0:0:0:0:
213,300,28271,1,0,1:0:0:0:
243,161,28433,1,2,0:0:0:0:
224,311,28595,1,10,0:0:0:0:
224,311,28676,1,2,0:0:0:0:
224,311,28757,2,0,P|259:305|302:298,1,62.9999980773926,2|0,1:2|0:0,0:0:0:0:
382,329,29081,5,8,0:0:0:0:
384,112,29244,2,0,P|349:106|306:99,1,62.9999980773926,2|0,1:2|1:0,0:0:0:0:
396,344,29730,5,8,0:0:0:0:
395,125,30054,5,0,1:0:0:0:
317,179,30216,1,0,1:0:0:0:
395,215,30379,1,2,1:2:0:0:
395,215,30541,1,0,1:0:0:0:
308,92,30703,5,2,1:2:0:0:
232,148,30865,1,0,1:0:0:0:
231,154,30946,1,0,1:0:0:0:
230,160,31027,1,0,1:0:0:0:
229,166,31108,1,0,1:0:0:0:
228,172,31189,1,0,1:0:0:0:
227,178,31271,1,0,0:0:0:0:
226,184,31352,1,6,1:2:0:0:
259,190,41081,6,0,L|209:183,1,31.4999990386963,4|0,0:3|0:0,0:0:0:0:
149,45,41244,1,4,0:3:0:0:
143,46,41325,1,2,0:3:0:0:
137,48,41406,2,0,L|84:56,1,31.4999990386963,4|2,0:3|0:3,0:0:0:0:
98,141,41568,2,0,L|45:149,1,31.4999990386963,4|0,0:3|0:0,0:0:0:0:
170,377,41730,6,0,P|155:299|142:223,1,154.000004699707,6|8,1:2|0:0,0:0:0:0:
372,70,42216,2,0,P|367:108|356:160,1,77.0000023498536,2|0,1:2|0:0,0:0:0:0:
241,282,42541,1,8,0:0:0:0:
327,159,42703,1,2,0:0:0:0:
450,267,42865,1,2,0:0:0:0:
450,267,42946,1,0,0:0:0:0:
450,267,43027,1,0,1:0:0:0:
363,356,43189,2,0,P|357:308|349:272,1,77.0000023498536,2|8,0:0|0:0,0:0:0:0:
237,181,43514,5,2,0:0:0:0:
237,181,43595,1,0,0:0:0:0:
237,181,43676,2,0,P|191:187|149:192,1,77.0000023498536,0|2,0:0|1:2,0:0:0:0:
362,114,44000,2,0,P|323:109|285:104,1,77.0000023498536,2|8,0:0|0:0,0:0:0:0:
64,296,44325,6,0,P|141:284|217:280,1,154.000004699707,2|8,1:2|0:0,0:0:0:0:
71,49,44811,2,0,P|73:125|72:216,1,154.000004699707,2|8,1:2|0:0,0:0:0:0:
244,146,45298,1,2,0:0:0:0:
166,55,45460,1,2,0:0:0:0:
166,55,45541,1,0,0:0:0:0:
166,55,45622,2,0,P|199:56|256:54,1,77.0000023498536,0|2,1:0|0:0,0:0:0:0:
320,209,45946,1,8,0:0:0:0:
482,203,46108,2,0,P|443:201|405:202,1,77.0000023498536,2|0,0:0|0:0,0:0:0:0:
320,209,46433,1,0,1:0:0:0:
225,340,46595,1,2,0:0:0:0:
320,209,46757,1,8,0:0:0:0:
225,340,46919,6,0,P|223:290|218:250,1,77.0000023498536,2|0,1:2|0:0,0:0:0:0:
339,63,47244,1,8,0:0:0:0:
400,126,47406,2,0,P|402:176|407:215,1,77.0000023498536,2|0,1:2|0:0,0:0:0:0:
405,202,47730,1,8,0:0:0:0:
465,277,47892,1,2,0:0:0:0:
319,240,48054,1,2,0:0:0:0:
192,197,48216,6,0,P|191:108|186:37,1,154.000004699707,0|8,1:0|0:0,0:0:0:0:
124,327,48703,2,0,P|121:283|114:244,1,77.0000023498536,2|0,0:0|0:0,0:0:0:0:
109,139,49027,1,2,1:2:0:0:
100,150,49108,1,2,0:0:0:0:
90,161,49189,2,0,L|44:172,3,38.5000011749268,2|2|10|0,0:0|0:0|0:0|0:0,0:0:0:0:
192,197,49514,5,0,1:0:0:0:
272,101,49676,1,2,0:0:0:0:
188,44,49838,1,8,0:0:0:0:
192,197,50000,5,2,1:2:0:0:
295,110,50162,1,0,1:0:0:0:
268,13,50325,1,2,0:0:0:0:
192,197,50487,5,8,0:0:0:0:
316,119,50649,1,2,0:0:0:0:
327,107,50730,1,2,0:0:0:0:
340,94,50811,1,0,1:0:0:0:
430,167,50973,1,0,1:0:0:0:
324,212,51135,5,0,1:0:0:0:
423,155,51298,1,0,1:2:0:0:
453,267,51460,5,0,1:2:0:0:
323,226,51622,1,0,1:2:0:0:
294,330,51784,5,0,1:2:0:0:
457,281,51946,1,0,1:2:0:0:
294,330,52108,2,0,P|235:328|163:325,1,115.50000352478,6|0,1:2|0:0,0:0:0:0:
157,331,52433,2,0,P|155:305|157:277,1,38.5000011749268,0|2,1:0|0:0,0:0:0:0:
73,218,52595,1,0,1:0:0:0:
110,209,52676,1,0,0:0:0:0:
147,200,52757,1,0,1:0:0:0:
184,192,52838,1,2,0:0:0:0:
221,184,52919,2,0,P|226:147|227:115,1,38.5000011749268,0|2,1:0|0:0,0:0:0:0:
158,49,53081,2,0,P|152:85|152:118,1,38.5000011749268,2|0,1:2|0:0,0:0:0:0:
307,229,53244,2,0,P|312:192|313:160,1,38.5000011749268,2|0,1:2|0:0,0:0:0:0:
261,62,53406,5,0,1:0:0:0:
298,71,53487,1,0,1:0:0:0:
335,80,53568,1,0,1:0:0:0:
372,88,53649,1,2,0:3:0:0:
409,96,53730,2,0,L|414:130,6,19.2500005874634,2|0|0|0|0|0|2,0:3|0:0|0:0|0:0|0:0|0:0|0:3,0:0:0:0:
485,216,54054,2,0,L|480:253,3,25.6666674499512,2|0|0|0,0:3|0:0|0:0|0:0,0:0:0:0:
476,203,54298,1,0,1:0:0:0:
476,203,54379,2,0,P|436:206|385:214,1,77.0000023498536,0|0,1:0|1:2,0:0:0:0:
289,341,54703,5,0,1:0:0:0:
394,241,54865,1,0,1:0:0:0:
282,144,55027,2,0,L|266:98,3,38.5000011749268,8|2|2|2,0:0|0:0|1:2|0:0,0:0:0:0:
254,224,55352,1,2,0:0:0:0:
218,238,55433,1,2,0:0:0:0:
180,227,55514,1,10,0:0:0:0:
142,217,55595,1,2,0:0:0:0:
105,228,55676,2,0,L|92:264,3,38.5000011749268,2|0|2|0,0:3|0:0|0:3|0:0,0:0:0:0:
56,152,56000,6,0,L|25:164,6,19.2500005874634,2|0|0|0|0|0|0,0:3|0:0|0:0|0:0|0:0|0:0|0:0,0:0:0:0:
60,63,56325,2,0,L|29:75,6,19.2500005874634,2|0|0|0|0|0|2,0:3|0:0|0:0|0:0|0:0|0:0|0:3,0:0:0:0:
70,48,56649,6,0,B|106:60|106:60|164:48,1,77.0000023498536,2|0,0:3|0:0,0:0:0:0:
357,108,56973,2,0,B|321:96|321:96|263:108,1,77.0000023498536,2|8,0:3|0:0,0:0:0:0:
202,151,57298,1,2,1:2:0:0:
239,22,57460,1,0,0:0:0:0:
239,22,57541,1,0,0:0:0:0:
239,22,57622,1,8,0:0:0:0:
319,196,57784,2,0,B|301:283|348:244|332:359,1,154.000004699707,2|8,1:2|0:0,0:0:0:0:
486,240,58271,2,0,P|441:215|415:217,1,77.0000023498536,2|2,0:3|0:0,0:0:0:0:
408,224,58514,1,0,0:0:0:0:
401,232,58595,1,2,1:2:0:0:
431,317,58757,2,0,L|449:362,2,38.5000011749268,0|0|8,0:0|0:0|0:0,0:0:0:0:
199,249,59081,6,0,P|231:198|330:204,1,154.000004699707,2|0,0:0|1:0,0:0:0:0:
315,206,59487,1,2,0:0:0:0:
311,216,59568,2,0,L|303:265,1,38.5000011749268,2|0,0:0|0:0,0:0:0:0:
439,166,59730,2,0,L|432:203,1,38.5000011749268,8|2,0:0|0:0,0:0:0:0:
505,88,59892,6,0,B|437:55|437:55|370:76,1,115.50000352478,2|2,1:3|0:3,0:0:0:0:
390,79,60216,1,8,0:0:0:0:
218,178,60379,1,2,1:3:0:0:
316,23,60541,2,0,B|294:60|294:60|301:104,1,77.0000023498536,2|0,1:3|0:0,0:0:0:0:
304,195,60784,2,0,B|309:161|309:161|287:124,1,77.0000023498536,2|0,0:3|0:0,0:0:0:0:
287,124,61027,1,2,0:3:0:0:
195,96,61189,6,0,P|135:107|72:116,1,115.50000352478,2|2,0:3|0:3,0:0:0:0:
73,289,61676,1,2,1:3:0:0:
147,345,61838,1,4,0:3:0:0:
158,329,61919,1,0,0:0:0:0:
164,311,62000,1,4,0:3:0:0:
166,291,62081,1,0,0:0:0:0:
161,272,62162,5,2,0:0:0:0:
162,264,62244,1,2,0:0:0:0:
163,256,62325,1,2,0:0:0:0:
164,248,62406,1,2,0:0:0:0:
165,240,62487,1,4,1:2:0:0:
360,125,64919,5,2,0:3:0:0:
360,125,65000,1,2,0:3:0:0:
360,125,65081,1,2,1:3:0:0:
338,224,66379,1,0,1:0:0:0:
338,224,67027,5,2,0:3:0:0:
307,309,67189,1,2,0:3:0:0:
223,273,67352,1,2,0:3:0:0:
255,190,67514,1,2,0:3:0:0:
338,224,67676,1,2,1:3:0:0:
82,218,70108,5,2,0:3:0:0:
82,218,70189,1,2,0:3:0:0:
82,218,70271,1,2,1:3:0:0:
168,267,71568,1,0,1:0:0:0:
168,267,72216,5,2,0:3:0:0:
261,231,72379,1,2,0:3:0:0:
107,193,72541,1,2,0:3:0:0:
263,145,72703,1,2,0:3:0:0:
165,103,72865,1,2,1:3:0:0:
355,300,75298,5,2,0:3:0:0:
355,300,75379,1,2,0:3:0:0:
355,300,75460,1,2,1:3:0:0:
388,192,76757,1,0,1:3:0:0:
388,192,77406,5,2,0:3:0:0:
471,155,77568,1,2,0:3:0:0:
320,125,77730,1,2,0:3:0:0:
186,96,77892,1,2,0:3:0:0:
266,46,78054,1,2,1:3:0:0:
92,70,80487,5,2,0:3:0:0:
92,70,80568,1,2,0:3:0:0:
92,70,80649,1,2,1:3:0:0:
154,160,81946,1,0,1:0:0:0:
154,160,82595,5,2,0:3:0:0:
262,289,82757,1,2,0:3:0:0:
110,322,82919,1,2,0:3:0:0:
268,271,83081,1,2,0:3:0:0:
179,252,83229,1,2,1:3:0:0:
359,299,83877,6,0,L|405:310,2,38.5000011749268,8|4|4,0:3|0:3|0:3,0:0:0:0:
268,271,84201,1,4,0:3:0:0:
447,216,84364,1,4,0:3:0:0:
67,187,84526,6,0,P|130:183|203:175,1,115.50000352478,6|0,1:2|0:0,0:0:0:0:
197,189,84850,2,0,P|205:146|207:109,1,77.0000023498536,8|0,0:0|1:0,0:0:0:0:
198,106,85093,1,2,0:0:0:0:
190,99,85174,1,2,0:0:0:0:
139,270,85337,2,0,L|117:320,2,38.5000011749268,8|0|2,0:0|0:0|0:0,0:0:0:0:
301,171,85661,1,2,0:0:0:0:
261,355,85823,6,0,P|254:308|250:265,1,77.0000023498536,0|2,1:0|0:0,0:0:0:0:
260,267,86066,1,2,0:0:0:0:
269,255,86147,2,0,L|337:263,1,38.5000011749268,10|0,0:0|0:0,0:0:0:0:
381,301,86310,2,0,L|419:296,1,38.5000011749268,2|0,0:0|0:0,0:0:0:0:
197,189,86472,5,2,0:0:0:0:
158,181,86553,1,2,0:0:0:0:
127,204,86634,1,0,1:2:0:0:
96,227,86715,1,2,0:0:0:0:
57,221,86796,2,0,L|11:229,1,38.5000011749268,2|2,0:0|0:0,0:0:0:0:
151,306,86958,1,8,0:0:0:0:
70,128,87120,5,0,1:0:0:0:
150,82,87283,2,0,P|157:43|161:-3,1,77.0000023498536,2|8,0:0|0:0,0:0:0:0:
307,161,87607,2,0,P|310:199|317:237,1,77.0000023498536,2|0,1:2|0:0,0:0:0:0:
386,65,87931,2,0,L|426:43,2,38.5000011749268,8|2|2,0:0|0:0|0:0,0:0:0:0:
250,73,88256,6,0,B|350:55|321:100|409:82,1,154.000004699707,2|2,0:0|0:0,0:0:0:0:
411,92,88661,1,2,0:0:0:0:
420,99,88742,1,8,0:0:0:0:
209,186,88904,1,2,0:0:0:0:
432,226,89066,5,2,0:0:0:0:
408,195,89147,1,2,0:0:0:0:
373,177,89229,1,0,1:0:0:0:
335,170,89310,1,0,0:0:0:0:
298,182,89391,2,0,L|288:235,1,38.5000011749268,2|2,0:0|0:0,0:0:0:0:
152,297,89553,2,0,L|144:259,1,38.5000011749268,8|2,0:0|0:0,0:0:0:0:
118,130,89715,5,0,1:0:0:0:
76,336,89877,1,2,0:0:0:0:
209,186,90039,1,8,0:0:0:0:
39,226,90201,2,0,B|99:214|99:214|137:230|137:230|193:220,1,154.000004699707,2|10,1:2|0:0,0:0:0:0:
187,220,90607,1,2,0:0:0:0:
187,220,90688,1,0,0:0:0:0:
83,49,90850,2,0,L|67:128,1,77.0000023498536,2|0,0:0|1:0,0:0:0:0:
237,127,91174,5,0,0:0:0:0:
227,105,91256,1,2,0:0:0:0:
218,83,91337,2,0,L|160:72,3,38.5000011749268,8|0|2|2,0:0|0:0|0:0|0:0,0:0:0:0:
335,24,91661,2,0,L|277:35,3,38.5000011749268,2|0|0|0,0:0|0:0|1:0|0:0,0:0:0:0:
317,255,91985,2,0,B|304:289|304:289|313:328,1,77.0000023498536,2|8,0:0|0:0,0:0:0:0:
398,203,92310,5,0,1:0:0:0:
465,267,92472,1,2,0:0:0:0:
480,264,92553,1,2,0:0:0:0:
495,261,92634,1,8,0:0:0:0:
389,113,92796,1,2,1:2:0:0:
374,116,92877,1,0,0:0:0:0:
359,119,92958,1,0,1:0:0:0:
274,173,93120,1,0,0:0:0:0:
259,170,93201,1,2,0:0:0:0:
244,167,93283,2,0,L|231:125,3,38.5000011749268,8|0|2|0,0:0|0:0|0:0|0:0,0:0:0:0:
152,78,93607,5,0,1:0:0:0:
146,116,93688,1,0,0:0:0:0:
140,154,93769,1,0,1:0:0:0:
134,192,93850,1,0,0:0:0:0:
129,230,93931,2,0,L|81:239,1,38.5000011749268,0|0,1:0|0:0,0:0:0:0:
8,165,94093,2,0,L|45:157,1,38.5000011749268,0|0,1:0|0:0,0:0:0:0:
279,105,94256,2,0,L|241:97,1,38.5000011749268,0|0,1:0|0:0,0:0:0:0:
23,54,94418,2,0,L|60:46,1,38.5000011749268,0|0,1:0|0:0,0:0:0:0:
230,192,94580,5,0,1:0:0:0:
268,198,94661,1,0,0:0:0:0:
306,204,94742,1,0,1:0:0:0:
344,210,94823,1,0,0:0:0:0:
382,215,94904,2,0,B|397:262|397:262|401:312|370:293|382:362,1,154.000004699707,6|8,1:2|0:0,0:0:0:0:
479,222,95391,2,0,L|481:177,1,38.5000011749268,0|0,1:0|0:0,0:0:0:0:
465,101,95553,5,2,0:0:0:0:
457,99,95634,1,2,0:0:0:0:
449,97,95715,2,0,L|398:80,1,38.5000011749268,8|2,0:0|0:0,0:0:0:0:
337,30,95877,1,2,0:0:0:0:
329,32,95958,1,0,0:0:0:0:
321,34,96039,2,0,L|270:50,1,38.5000011749268,2|2,0:0|0:0,0:0:0:0:
207,109,96201,6,0,B|113:96|113:96|54:49,1,154.000004699707,0|8,1:0|0:0,0:0:0:0:
266,229,96688,1,2,0:0:0:0:
258,231,96769,1,0,0:0:0:0:
250,233,96850,2,0,L|199:249,1,38.5000011749268,2|2,0:0|0:0,0:0:0:0:
31,270,97012,2,0,L|81:286,1,38.5000011749268,0|2,1:0|0:0,0:0:0:0:
264,251,97174,1,2,0:0:0:0:
226,261,97256,1,2,0:0:0:0:
188,271,97337,1,8,0:0:0:0:
171,305,97418,1,2,0:0:0:0:
156,340,97499,6,0,B|133:259|172:272|145:178,1,154.000004699707,0|2,1:0|0:0,0:0:0:0:
334,150,97985,2,0,P|390:147|448:231,1,154.000004699707,0|2,1:0|0:0,0:0:0:0:
447,217,98391,1,0,0:0:0:0:
447,217,98472,1,2,0:0:0:0:
255,197,98634,1,2,0:0:0:0:
512,99,98796,6,0,P|474:107|436:113,1,77.0000023498536,0|0,1:0|0:0,0:0:0:0:
426,107,99039,1,2,0:0:0:0:
416,101,99120,2,0,L|407:55,1,38.5000011749268,8|2,0:0|0:0,0:0:0:0:
310,64,99283,2,0,L|302:26,1,38.5000011749268,2|2,0:0|0:0,0:0:0:0:
219,181,99445,2,0,P|181:189|145:200,1,77.0000023498536,2|0,0:0|1:0,0:0:0:0:
20,27,99769,2,0,P|54:37|115:48,1,77.0000023498536,8|0,0:0|1:0,0:0:0:0:
105,40,100012,1,0,1:0:0:0:
116,35,100093,6,0,B|103:100|103:100|114:139|114:139|100:215,1,154.000004699707,0|8,1:0|0:0,0:0:0:0:
106,193,100499,1,2,0:0:0:0:
107,200,100580,1,2,0:0:0:0:
108,207,100661,1,2,0:0:0:0:
109,214,100742,1,8,0:0:0:0:
58,363,100904,1,2,1:2:0:0:
210,225,101066,1,8,0:0:0:0:
36,251,101229,5,0,1:0:0:0:
36,251,101310,1,0,1:0:0:0:
36,251,101391,2,0,L|121:263,1,77.0000023498536,0|0,1:0|0:0,0:0:0:0:
131,294,101634,1,0,0:0:0:0:
152,325,101715,2,0,B|263:310|263:310|296:266,1,154.000004699707,10|10,0:0|0:0,0:0:0:0:
315,128,102201,1,2,1:2:0:0:
446,320,102364,1,10,0:2:0:0:
399,89,102526,5,0,1:0:0:0:
399,89,102607,1,0,1:0:0:0:
399,89,102688,2,0,B|411:127|411:127|398:166,1,77.0000023498536,0|8,1:0|0:0,0:0:0:0:
243,266,103012,2,0,B|231:228|231:228|244:189,1,77.0000023498536,8|0,0:0|1:0,0:0:0:0:
252,186,103256,1,0,1:0:0:0:
261,180,103337,2,0,L|214:171,1,38.5000011749268,0|0,1:0|0:0,0:0:0:0:
162,93,103499,2,0,L|130:129,1,38.5000011749268,8|0,0:0|0:0,0:0:0:0:
35,129,103661,2,0,L|50:174,3,38.5000011749268,8|0|0|0,0:0|0:0|1:0|1:0,0:0:0:0:
43,184,103985,5,0,1:0:0:0:
151,83,104147,1,0,1:0:0:0:
19,33,104310,1,0,1:0:0:0:
22,48,104391,1,0,1:0:0:0:
25,63,104472,1,0,1:0:0:0:
28,78,104553,1,0,1:0:0:0:
31,92,104634,2,0,L|86:101,1,38.5000011749268,0|0,1:0|1:0,0:0:0:0:
211,175,104796,1,0,1:0:0:0:
211,175,104877,1,0,1:0:0:0:
211,175,104958,2,0,L|156:184,1,38.5000011749268,0|0,1:0|1:0,0:0:0:0:
7,258,105120,2,0,L|62:267,1,38.5000011749268,0|0,1:0|1:0,0:0:0:0:
158,192,105283,6,0,B|214:211|214:211|235:239|235:239|297:263,1,154.000004699707,6|8,1:2|0:0,0:0:0:0:
365,200,105769,2,0,B|414:192|414:192|444:166|444:166|511:153,1,140,2|10,1:2|0:0,0:0:0:0:
493,156,106174,1,0,0:0:0:0:
493,156,106256,1,2,0:0:0:0:
329,110,106418,1,2,0:0:0:0:
387,48,106580,1,0,1:0:0:0:
239,138,106742,6,0,B|231:101|231:101|247:68,1,70,2|8,0:0|0:0,0:0:0:0:
387,48,107066,1,2,0:0:0:0:
430,202,107229,2,0,P|420:158|416:123,1,70,0|2,0:0|1:2,0:0:0:0:
267,223,107553,1,2,0:0:0:0:
263,236,107634,1,0,0:0:0:0:
260,249,107715,1,10,0:0:0:0:
180,314,107877,6,0,P|142:321|98:333,2,70,2|0|8,1:2|0:0|0:0,0:0:0:0:
184,150,108364,2,0,P|124:142|24:124,1,140,2|10,1:2|0:0,0:0:0:0:
45,128,108769,1,0,0:0:0:0:
45,128,108850,2,0,B|35:94|35:94|51:57,1,70,2|2,0:0|0:0,0:0:0:0:
123,15,109174,1,0,1:0:0:0:
242,88,109337,2,0,P|278:87|321:79,1,70,2|8,0:0|0:0,0:0:0:0:
183,212,109661,1,2,0:0:0:0:
183,212,109742,1,2,0:0:0:0:
183,212,109823,2,0,P|182:176|174:133,1,70,0|2,0:0|1:2,0:0:0:0:
407,50,110147,2,0,P|401:84|400:119,1,70,2|10,0:0|0:0,0:0:0:0:
339,248,110472,6,0,B|340:332|373:287|381:408,1,140,2|8,1:2|0:0,0:0:0:0:
489,230,110958,2,0,P|457:212|420:206,1,70,2|0,1:2|0:0,0:0:0:0:
312,84,111283,1,10,0:0:0:0:
312,84,111445,2,0,P|277:90|247:107,1,70,2|2,0:0|0:0,0:0:0:0:
207,188,111769,1,2,1:2:0:0:
43,155,111931,6,0,P|112:162|201:167,1,140,0|2,0:0|0:0,0:0:0:0:
255,339,112418,2,0,P|214:342|172:349,1,70,2|2,0:0|1:2,0:0:0:0:
338,261,112742,1,2,0:0:0:0:
403,305,112904,1,10,0:0:0:0:
242,358,113066,2,0,P|252:264|257:200,1,140,2|8,1:2|0:0,0:0:0:0:
255,218,113553,5,2,1:2:0:0:
325,18,113715,2,0,P|330:87|338:157,1,140,0|10,1:0|0:0,0:0:0:0:
408,208,114201,1,0,0:0:0:0:
421,204,114283,1,2,0:0:0:0:
434,201,114364,1,0,1:0:0:0:
490,136,114526,1,0,1:0:0:0:
294,89,114688,5,0,1:0:0:0:
374,54,114850,1,0,1:0:0:0:
265,174,115012,1,0,1:0:0:0:
184,146,115174,1,0,1:0:0:0:
293,265,115337,1,0,1:0:0:0:
304,101,115499,1,0,1:0:0:0:
190,235,115661,2,0,B|106:236|142:267|50:270,1,140,2|0,1:3|0:0,0:0:0:0:
