osu file format v14

[General]
AudioFilename: audio.mp3
AudioLeadIn: 0
PreviewTime: 135
Countdown: 0
SampleSet: Soft
StackLeniency: 1
Mode: 0
LetterboxInBreaks: 0
WidescreenStoryboard: 1

[Editor]
DistanceSpacing: 1.3
BeatDivisor: 4
GridSize: 16
TimelineZoom: 2.999999

[Metadata]
Title:Fragments of You
TitleUnicode:Fragments of You
Artist:Fractal Dreamers
ArtistUnicode:Fractal Dreamers
Creator:Agatsu
Version:Hard
Source:osu!
Tags:music game instrumental coco cococolaco loli catgirl fa featured artist mappers' mappers guild mpg electronic
BeatmapID:2402408
BeatmapSetID:1146874

[Difficulty]
HPDrainRate:4.5
CircleSize:3.7
OverallDifficulty:6
ApproachRate:8
SliderMultiplier:1.51
SliderTickRate:1

[Events]
//Background and Video events
0,0,"nathan-anderson-1vAnw7U6qfM-unsplash.jpg",0,0
//Break Periods
2,31552,40331
//Storyboard Layer 0 (Background)
//Storyboard Layer 1 (Fail)
//Storyboard Layer 2 (Pass)
//Storyboard Layer 3 (Foreground)
//Storyboard Layer 4 (Overlay)
//Storyboard Sound Samples

[TimingPoints]
217,324.324324324324,4,2,1,40,1,0
217,-125,4,2,1,40,0,0
20973,-111.111111111111,4,2,1,60,0,0
21784,-111.111111111111,4,2,1,60,0,0
22595,-111.111111111111,4,2,1,60,0,0
26973,-111.111111111111,4,2,1,60,0,0
41081,-111.111111111111,4,2,1,50,0,0
41730,-111.111111111111,4,2,1,70,0,0
54216,-111.111111111111,4,2,1,70,0,0
62487,-125,4,2,1,50,0,0
67027,-125,4,2,1,50,0,0
83229,324.324324324324,4,2,1,50,1,0
83229,-125,4,2,1,50,0,0
84526,-100,4,2,1,70,0,0
100418,-100,4,2,1,70,0,0
101715,-100,4,2,1,70,0,0
105283,-111.111111111111,4,2,1,60,0,0
106093,-111.111111111111,4,2,1,60,0,0
112093,-111.111111111111,4,2,1,60,0,0
114039,-111.111111111111,4,2,1,60,0,0

[Colours]
Combo1 : 255,94,55
Combo2 : 173,255,95
Combo3 : 17,254,176
Combo4 : 255,88,100

[HitObjects]
6,102,217,6,0,L|-1:30,2,60.4,2|0|0,0:0|0:0|0:0,0:0:0:0:
67,160,703,2,0,L|52:288,1,120.8,2|0,0:0|0:0,0:0:0:0:
133,303,1189,2,0,P|141:333|144:378,2,60.4,2|0|0,0:0|0:0|0:0,0:0:0:0:
193,243,1676,2,0,P|255:238|299:186,1,120.8,2|0,0:0|0:0,0:0:0:0:
262,119,2162,1,0,0:0:0:0:
314,51,2325,1,2,0:0:0:0:
314,51,2487,2,0,L|380:47,1,60.4
456,66,2811,6,0,P|461:25|452:-12,2,60.4,2|0|0,0:0|0:0|0:0,0:0:0:0:
502,137,3298,2,0,P|468:185|465:262,1,120.8,2|0,0:0|0:0,0:0:0:0:
405,308,3784,2,0,L|336:315,1,60.4,2|0,0:0|0:0,0:0:0:0:
270,274,4108,1,0,0:0:0:0:
283,190,4271,2,0,L|152:177,1,120.8,2|0,0:0|0:0,0:0:0:0:
92,131,4757,1,0,0:0:0:0:
23,180,4919,1,2,0:0:0:0:
23,180,5081,2,0,P|15:211|17:248,1,60.4
50,316,5406,6,0,L|35:387,2,60.4,2|0|0,0:0|0:0|0:0,0:0:0:0:
129,288,5892,2,0,L|258:305,1,120.8,2|0,0:0|0:0,0:0:0:0:
328,274,6379,2,0,L|338:203,1,60.4,2|0,0:0|0:0,0:0:0:0:
299,138,6703,1,0,0:0:0:0:
370,93,6865,2,0,P|308:88|251:41,1,120.8,2|0,0:0|0:0,0:0:0:0:
191,6,7352,1,2,0:0:0:0:
114,42,7514,1,0,0:0:0:0:
114,42,7676,2,0,L|101:114,1,60.4
153,169,8000,6,0,L|225:182,2,60.4,2|0|0,0:0|0:0|0:0,0:0:0:0:
80,213,8487,2,0,P|37:268|37:331,1,120.8,2|0,0:0|0:0,0:0:0:0:
102,365,8973,1,0,0:0:0:0:
181,336,9135,1,0,0:0:0:0:
181,336,9216,1,0,0:0:0:0:
181,336,9298,2,0,L|269:331,1,60.4,2|0,0:0|0:0,0:0:0:0:
320,361,9622,1,2,0:0:0:0:
320,361,9784,1,0,0:0:0:0:
398,330,9946,1,2,0:0:0:0:
413,246,10108,1,0,0:0:0:0:
413,246,10271,2,0,L|407:162,1,60.4,2|0,0:0|0:0,0:0:0:0:
444,109,10595,6,0,P|479:106|519:93,2,60.4,2|0|0,0:0|0:0|0:0,0:0:0:0:
379,54,11081,2,0,P|312:56|269:97,1,120.8,2|0,0:0|0:0,0:0:0:0:
227,161,11568,2,0,L|215:245,1,60.4,2|0,0:0|0:0,0:0:0:0:
269,288,11892,1,0,0:0:0:0:
207,345,12054,2,0,L|79:331,1,120.8,2|0,0:0|0:0,0:0:0:0:
35,264,12541,2,0,L|29:186,1,60.4,0|2,0:0|0:0,0:0:0:0:
78,134,12865,1,0,0:0:0:0:
78,134,13027,1,0,0:0:0:0:
156,103,13189,6,0,P|158:69|146:25,2,60.4,2|0|0,0:0|0:0|0:0,0:0:0:0:
220,158,13676,2,0,P|279:171|324:221,1,120.8,2|0,0:0|0:0,0:0:0:0:
285,290,14162,2,0,P|293:332|292:374,1,60.4,2|0,0:0|0:0,0:0:0:0:
377,365,14487,1,0,0:0:0:0:
459,348,14649,2,0,P|455:283|490:221,1,120.8,2|0,0:0|0:0,0:0:0:0:
484,149,15135,1,0,0:0:0:0:
420,92,15298,1,2,0:0:0:0:
420,92,15460,2,0,L|336:86,1,60.4
282,121,15784,6,0,P|273:158|274:202,1,60.4,2|0,0:0|0:0,0:0:0:0:
314,253,16108,1,0,0:0:0:0:
251,310,16271,2,0,L|114:298,1,120.8,2|0,0:0|0:0,0:0:0:0:
52,332,16757,1,2,0:0:0:0:
8,259,16919,2,0,P|3:218|10:182,1,60.4
57,131,17244,2,0,P|132:120|171:68,1,120.8,2|0,0:0|0:0,0:0:0:0:
210,21,17730,1,2,0:0:0:0:
210,21,17892,1,0,0:0:0:0:
292,39,18054,2,0,P|298:77|297:125,1,60.4
367,148,18379,6,0,L|446:156,2,60.4,2|0|0,0:0|0:0|0:0,0:0:0:0:
301,201,18865,2,0,L|163:209,1,120.8,2|0,0:0|0:0,0:0:0:0:
115,261,19352,1,2,0:0:0:0:
176,336,19514,1,0,0:0:0:0:
176,336,19595,1,0,0:0:0:0:
176,336,19676,2,0,L|257:344,1,60.4,2|0,0:0|0:0,0:0:0:0:
313,307,20000,1,2,0:0:0:0:
313,307,20162,1,0,0:0:0:0:
390,341,20325,1,2,0:0:0:0:
463,298,20487,1,0,0:0:0:0:
463,298,20649,2,0,P|469:266|466:226,1,60.4,2|0,0:0|0:0,0:0:0:0:
413,168,20973,6,0,B|349:160|346:198|254:192,1,135.899995852661,6|8,1:2|0:0,0:0:0:0:
208,140,21460,2,0,P|200:102|201:56,1,67.9499979263306,2|0,1:2|0:0,0:0:0:0:
137,196,21784,1,8,0:0:0:0:
199,257,21946,2,0,P|197:290|190:324,1,67.9499979263306,2|0,0:0|0:0,0:0:0:0:
113,368,22271,5,2,1:2:0:0:
28,342,22433,2,0,L|18:243,1,67.9499979263306,0|8,0:0|0:0,0:0:0:0:
49,190,22757,1,2,0:0:0:0:
9,111,22919,1,2,0:0:0:0:
62,42,23081,1,0,1:0:0:0:
62,42,23244,2,0,L|152:53,1,67.9499979263306,2|8,0:0|0:0,0:0:0:0:
206,93,23568,6,0,P|278:78|314:24,1,135.899995852661,2|8,1:2|0:0,0:0:0:0:
399,15,24054,2,0,P|442:25|482:50,1,67.9499979263306,2|0,1:2|0:0,0:0:0:0:
498,116,24379,1,10,0:0:0:0:
430,173,24541,2,0,P|419:207|417:246,1,67.9499979263306,0|2,0:0|0:0,0:0:0:0:
474,305,24865,5,0,1:0:0:0:
407,363,25027,2,0,L|328:353,1,67.9499979263306,2|8,0:0|0:0,0:0:0:0:
252,369,25352,1,0,0:0:0:0:
176,323,25514,2,0,P|171:285|179:238,1,67.9499979263306,0|2,0:0|1:2,0:0:0:0:
253,134,25838,2,0,P|258:172|250:219,1,67.9499979263306,0|8,0:0|0:0,0:0:0:0:
330,246,26162,6,0,P|393:240|445:172,1,135.899995852661,2|8,1:2|0:0,0:0:0:0:
448,100,26649,2,0,P|441:65|442:18,1,67.9499979263306,2|0,1:2|0:0,0:0:0:0:
352,99,26973,1,8,0:0:0:0:
276,53,27135,2,0,L|205:47,1,67.9499979263306,2|2,0:0|0:0,0:0:0:0:
136,99,27460,5,2,1:2:0:0:
58,57,27622,2,0,P|48:94|51:141,1,67.9499979263306,2|8,0:0|0:0,0:0:0:0:
93,199,27946,1,0,0:0:0:0:
25,255,28108,2,0,L|14:337,1,67.9499979263306,2|0,0:0|1:0,0:0:0:0:
93,365,28433,1,2,0:0:0:0:
176,337,28595,1,10,0:0:0:0:
176,337,28676,1,2,0:0:0:0:
176,337,28757,6,0,L|248:348,2,67.9499979263306,2|0|8,1:2|0:0|0:0,0:0:0:0:
140,255,29244,2,0,P|136:220|143:173,1,67.9499979263306,2|0,1:2|1:0,0:0:0:0:
194,119,29568,1,2,0:0:0:0:
194,119,29730,1,8,0:0:0:0:
272,159,29892,6,0,L|354:152,1,67.9499979263306,2|0,0:0|1:0,0:0:0:0:
413,201,30216,1,0,1:0:0:0:
488,153,30379,1,2,1:2:0:0:
488,153,30541,1,0,1:0:0:0:
469,66,30703,1,2,1:2:0:0:
388,63,30865,1,0,1:0:0:0:
388,63,30946,1,0,1:0:0:0:
388,63,31027,2,0,L|330:59,3,33.9749989631653,0|0|0|0,1:0|1:0|1:0|0:0,0:0:0:0:
315,38,31352,5,6,1:2:0:0:
40,122,41081,5,4,0:3:0:0:
94,192,41244,1,4,0:3:0:0:
94,192,41325,1,2,0:3:0:0:
94,192,41406,2,0,L|87:250,3,33.9749989631653,4|2|4|0,0:3|0:3|0:3|0:0,0:0:0:0:
63,260,41730,6,0,P|145:262|201:309,1,135.899995852661,6|8,1:2|0:0,0:0:0:0:
271,264,42216,2,0,P|279:207|275:170,1,67.9499979263306,2|0,1:2|0:0,0:0:0:0:
224,126,42541,1,8,0:0:0:0:
224,126,42703,1,2,0:0:0:0:
275,54,42865,6,0,L|375:45,1,67.9499979263306,2|0,0:0|1:0,0:0:0:0:
421,8,43189,1,2,0:0:0:0:
498,51,43352,2,0,P|509:93|507:133,1,67.9499979263306,8|2,0:0|0:0,0:0:0:0:
459,190,43676,1,0,0:0:0:0:
459,190,43838,1,2,1:2:0:0:
375,160,44000,2,0,L|296:171,1,67.9499979263306,2|8,0:0|0:0,0:0:0:0:
243,231,44325,6,0,P|267:300|265:370,1,135.899995852661,2|8,1:2|0:0,0:0:0:0:
178,372,44811,2,0,L|81:369,1,67.9499979263306,2|0,1:2|0:0,0:0:0:0:
41,314,45135,1,8,0:0:0:0:
41,314,45298,1,2,0:0:0:0:
73,231,45460,6,0,P|72:191|61:151,1,67.9499979263306,2|0,0:0|1:0,0:0:0:0:
6,98,45784,1,2,0:0:0:0:
6,98,45946,1,8,0:0:0:0:
49,20,46108,2,0,L|214:13,1,135.899995852661,2|0,0:0|1:0,0:0:0:0:
259,62,46595,2,0,P|266:106|265:142,1,67.9499979263306,2|8,0:0|0:0,0:0:0:0:
205,193,46919,6,0,L|128:187,2,67.9499979263306,2|0|8,1:2|0:0|0:0,0:0:0:0:
252,267,47406,2,0,P|313:265|376:338,1,135.899995852661,2|8,1:2|0:0,0:0:0:0:
442,357,47892,1,2,0:0:0:0:
505,295,48054,6,0,P|512:258|508:216,1,67.9499979263306,2|0,0:0|1:0,0:0:0:0:
457,156,48379,1,2,0:0:0:0:
457,156,48541,1,8,0:0:0:0:
376,191,48703,2,0,L|286:183,1,67.9499979263306,2|0,0:0|0:0,0:0:0:0:
250,118,49027,1,2,1:2:0:0:
250,118,49108,1,2,0:0:0:0:
250,118,49189,2,0,L|249:72,3,33.9749989631653,2|2|10|0,0:0|0:0|0:0|0:0,0:0:0:0:
222,48,49514,6,0,L|135:40,2,67.9499979263306,0|2|8,1:0|0:0|0:0,0:0:0:0:
301,10,50000,1,2,1:2:0:0:
381,46,50162,2,0,P|392:95|390:135,1,67.9499979263306,0|2,1:0|0:0,0:0:0:0:
342,185,50487,1,8,0:0:0:0:
399,262,50649,1,2,0:0:0:0:
399,262,50730,1,2,0:0:0:0:
399,262,50811,6,0,L|479:256,1,67.9499979263306,0|0,1:0|1:0,0:0:0:0:
386,350,51135,2,0,L|306:344,1,67.9499979263306,0|0,1:0|1:2,0:0:0:0:
237,377,51460,1,0,1:2:0:0:
237,377,51622,1,0,1:2:0:0:
166,332,51784,1,0,1:2:0:0:
166,332,51946,1,0,1:2:0:0:
82,361,52108,6,0,P|64:295|77:213,1,135.899995852661,6|0,1:2|1:0,0:0:0:0:
135,167,52595,1,0,1:0:0:0:
211,210,52757,2,0,L|290:216,1,67.9499979263306,0|0,1:0|1:0,0:0:0:0:
347,270,53081,2,0,L|414:264,1,67.9499979263306,2|2,1:2|1:2,0:0:0:0:
472,197,53406,6,0,L|524:203,2,33.9749989631653,0|0|0,1:0|1:0|1:0,0:0:0:0:
424,122,53730,2,0,P|419:84|422:38,1,67.9499979263306,2|0,0:3|0:0,0:0:0:0:
318,71,54054,2,0,L|313:116,3,33.9749989631653,2|0|0|0,0:3|0:0|0:0|1:0,0:0:0:0:
281,134,54379,1,0,1:0:0:0:
206,87,54541,1,0,1:2:0:0:
134,138,54703,6,0,P|122:177|121:231,1,67.9499979263306,0|0,1:0|1:0,0:0:0:0:
184,263,55027,2,0,L|269:258,1,67.9499979263306,8|2,0:0|1:2,0:0:0:0:
329,215,55352,2,0,L|385:220,3,33.9749989631653,2|2|10|2,0:0|0:0|0:0|0:0,0:0:0:0:
400,241,55676,2,0,L|433:237,3,33.9749989631653,2|0|2|0,0:3|0:0|0:3|0:0,0:0:0:0:
472,259,56000,6,0,P|480:303|479:348,1,67.9499979263306,2|0,0:3|0:0,0:0:0:0:
404,372,56325,1,2,0:3:0:0:
324,333,56487,2,0,L|239:326,1,67.9499979263306,0|2,0:0|0:3,0:0:0:0:
173,358,56811,1,0,0:0:0:0:
97,312,56973,1,2,0:3:0:0:
97,312,57135,1,8,0:0:0:0:
95,223,57298,6,0,L|-2:211,2,67.9499979263306,2|0|8,1:2|0:0|0:0,0:0:0:0:
160,163,57784,2,0,P|229:153|274:95,1,135.899995852661,2|8,1:2|0:0,0:0:0:0:
354,54,58271,2,0,P|364:95|361:138,1,67.9499979263306,2|2,0:3|0:0,0:0:0:0:
336,204,58595,5,2,1:2:0:0:
254,238,58757,2,0,P|244:270|244:304,1,67.9499979263306,0|8,0:0|0:0,0:0:0:0:
313,358,59081,2,0,P|421:348|448:315,1,135.899995852661,2|0,0:0|1:0,0:0:0:0:
486,260,59568,2,0,L|482:211,3,33.9749989631653,2|0|8|2,0:0|0:0|0:0|0:0,0:0:0:0:
458,189,59892,6,0,L|452:80,1,101.924996889496,2|2,1:3|0:3,0:0:0:0:
416,61,60216,1,8,0:0:0:0:
333,98,60379,2,0,L|250:91,1,67.9499979263306,2|2,1:3|1:3,0:0:0:0:
199,33,60703,1,0,0:0:0:0:
199,33,60784,1,2,0:3:0:0:
199,33,60865,2,0,L|139:39,3,33.9749989631653,0|0|2|0,0:0|0:0|0:3|0:0,0:0:0:0:
130,63,61189,6,0,P|75:60|24:104,1,101.924996889496,2|2,0:3|0:3,0:0:0:0:
12,121,61514,1,2,1:2:0:0:
41,204,61676,1,2,1:3:0:0:
128,213,61838,2,0,L|209:205,1,67.9499979263306,4|4,0:3|0:3,0:0:0:0:
276,240,62162,2,0,L|281:295,3,33.9749989631653,2|2|2|2,0:0|0:0|0:0|0:0,0:0:0:0:
273,318,62487,5,4,1:2:0:0:
77,76,64919,6,0,L|70:33,2,30.2,2|2|2,0:3|0:3|1:3,0:0:0:0:
372,240,66379,5,0,1:0:0:0:
62,331,67027,2,0,L|70:259,1,60.4,2|2,0:3|0:3,0:0:0:0:
141,220,67352,1,2,0:3:0:0:
141,220,67514,1,2,0:3:0:0:
215,266,67676,5,2,1:3:0:0:
435,76,70108,6,0,L|439:46,2,30.2,2|2|2,0:3|0:3|1:3,0:0:0:0:
140,240,71568,5,0,1:0:0:0:
450,331,72216,2,0,L|443:270,1,60.4,2|2,0:3|0:3,0:0:0:0:
371,220,72541,1,2,0:3:0:0:
371,220,72703,1,2,0:3:0:0:
297,266,72865,5,2,1:3:0:0:
96,319,75298,6,0,L|46:323,2,30.2,2|2|2,0:3|0:3|1:3,0:0:0:0:
248,116,76757,5,0,1:3:0:0:
391,337,77406,2,0,P|426:333|459:318,1,60.4,2|2,0:3|0:3,0:0:0:0:
479,237,77730,1,2,0:3:0:0:
479,237,77892,1,2,0:3:0:0:
414,175,78054,5,2,1:3:0:0:
416,319,80487,6,0,L|466:323,2,30.2,2|2|2,0:3|0:3|1:3,0:0:0:0:
264,116,81946,5,0,1:0:0:0:
121,337,82595,2,0,P|86:333|53:318,1,60.4,2|2,0:3|0:3,0:0:0:0:
33,237,82919,1,2,0:3:0:0:
33,237,83081,1,2,0:3:0:0:
98,175,83229,5,2,1:3:0:0:
371,330,83877,6,0,L|376:370,2,30.2,8|4|4,0:3|0:3|0:3,0:0:0:0:
438,264,84201,1,4,0:3:0:0:
438,264,84364,1,4,0:3:0:0:
363,203,84526,6,0,B|296:196|292:228|193:221,1,151,6|8,1:2|0:0,0:0:0:0:
142,171,85012,1,0,1:0:0:0:
142,171,85093,1,2,0:0:0:0:
142,171,85174,2,0,P|142:128|154:87,1,75.5,2|8,0:0|0:0,0:0:0:0:
229,38,85499,1,2,0:0:0:0:
313,88,85661,6,0,L|405:98,1,75.5,2|0,0:0|1:0,0:0:0:0:
461,160,85985,1,2,0:0:0:0:
461,160,86066,1,2,0:0:0:0:
461,160,86147,2,0,L|465:221,3,37.75,10|0|2|0,0:0|0:0|0:0|0:0,0:0:0:0:
421,223,86472,2,0,L|417:284,3,37.75,2|2|0|2,0:0|0:0|1:2|0:0,0:0:0:0:
457,290,86796,2,0,P|467:332|468:382,1,75.5,2|8,0:0|0:0,0:0:0:0:
371,370,87120,5,0,1:0:0:0:
288,315,87283,2,0,L|181:308,1,75.5,2|8,0:0|0:0,0:0:0:0:
137,373,87607,2,0,P|162:315|161:223,1,151,2|8,1:2|0:0,0:0:0:0:
110,144,88093,1,2,0:0:0:0:
15,170,88256,6,0,P|3:213|5:262,1,75.5,2|0,0:0|1:0,0:0:0:0:
40,333,88580,2,0,L|31:380,2,37.75,2|2|8,0:0|0:0|0:0,0:0:0:0:
130,295,88904,1,2,0:0:0:0:
211,348,89066,2,0,L|278:342,3,37.75,2|2|0|0,0:0|0:0|1:0|0:0,0:0:0:0:
288,314,89391,2,0,L|325:317,3,37.75,2|2|8|2,0:0|0:0|0:0|0:0,0:0:0:0:
365,345,89715,6,0,P|410:351|452:344,1,75.5,0|2,1:0|0:0,0:0:0:0:
505,274,90039,1,8,0:0:0:0:
447,194,90201,2,0,B|373:186|368:220|270:210,1,151,2|10,1:2|0:0,0:0:0:0:
214,158,90688,1,0,0:0:0:0:
150,232,90850,6,0,P|159:278|153:325,1,75.5,2|0,0:0|1:0,0:0:0:0:
72,355,91174,1,0,0:0:0:0:
72,355,91256,1,2,0:0:0:0:
72,355,91337,2,0,L|19:348,3,37.75,8|0|2|2,0:0|0:0|0:0|0:0,0:0:0:0:
8,308,91661,2,0,L|0:247,3,37.75,2|0|0|0,0:0|0:0|1:0|0:0,0:0:0:0:
31,230,91985,2,0,P|37:186|29:139,1,75.5,2|8,0:0|0:0,0:0:0:0:
91,75,92310,6,0,L|180:73,1,75.5,0|2,1:0|0:0,0:0:0:0:
246,16,92634,1,8,0:0:0:0:
246,16,92796,1,2,1:2:0:0:
357,111,92958,2,0,L|268:109,1,75.5,0|0,1:0|0:0,0:0:0:0:
203,170,93283,2,0,L|196:229,3,37.75,8|0|2|0,0:0|0:0|0:0|0:0,0:0:0:0:
163,241,93607,6,0,P|151:282|152:331,1,75.5,0|0,1:0|1:0,0:0:0:0:
233,366,93931,1,0,1:0:0:0:
233,366,94093,1,0,1:0:0:0:
324,328,94256,1,0,1:0:0:0:
324,328,94418,1,0,1:0:0:0:
323,229,94580,2,0,P|319:185|327:135,1,75.5,0|0,1:0|1:0,0:0:0:0:
279,65,94904,6,0,P|325:108|416:103,1,151,6|8,1:2|0:0,0:0:0:0:
490,162,95391,1,0,1:0:0:0:
490,162,95472,1,0,0:0:0:0:
490,162,95553,2,0,L|502:228,3,37.75,2|2|8|2,0:0|0:0|0:0|0:0,0:0:0:0:
460,231,95877,2,0,L|448:297,3,37.75,2|0|2|2,0:0|0:0|0:0|0:0,0:0:0:0:
465,315,96201,6,0,B|396:304|390:342|299:332,1,151,0|8,1:0|0:0,0:0:0:0:
223,299,96688,1,2,0:0:0:0:
223,299,96769,1,0,0:0:0:0:
223,299,96850,2,0,L|165:308,3,37.75,2|2|0|2,0:0|0:0|1:0|0:0,0:0:0:0:
144,331,97174,2,0,L|106:325,3,37.75,2|2|8|2,0:0|0:0|0:0|0:0,0:0:0:0:
65,353,97499,6,0,P|63:273|1:213,1,151,0|2,1:0|0:0,0:0:0:0:
52,129,97985,2,0,P|129:120|181:56,1,151,0|2,1:0|0:0,0:0:0:0:
263,21,98472,2,0,P|317:26|357:48,1,75.5,2|2,0:0|0:0,0:0:0:0:
397,110,98796,5,0,1:0:0:0:
328,180,98958,1,0,0:0:0:0:
328,180,99039,1,2,0:0:0:0:
328,180,99120,2,0,L|265:187,3,37.75,8|2|2|2,0:0|0:0|0:0|0:0,0:0:0:0:
251,214,99445,2,0,L|165:206,1,75.5,2|0,0:0|1:0,0:0:0:0:
97,148,99769,1,8,0:0:0:0:
14,200,99931,1,0,1:0:0:0:
14,200,100012,1,0,1:0:0:0:
14,200,100093,6,0,L|5:283,1,75.5,0|0,1:0|0:0,0:0:0:0:
62,355,100418,2,0,L|115:348,3,37.75,8|2|2|2,0:0|0:0|0:0|0:0,0:0:0:0:
140,323,100742,2,0,L|230:335,1,75.5,8|2,0:0|1:2,0:0:0:0:
305,370,101066,1,8,0:0:0:0:
399,342,101229,1,0,1:0:0:0:
399,342,101310,1,0,1:0:0:0:
399,342,101391,6,0,P|410:295|407:246,1,75.5,0|0,1:0|0:0,0:0:0:0:
354,187,101715,2,0,L|300:180,3,37.75,10|0|2|0,0:0|0:0|0:0|0:0,0:0:0:0:
281,147,102039,1,10,0:0:0:0:
196,196,102201,1,2,1:2:0:0:
118,134,102364,1,10,0:2:0:0:
164,41,102526,1,0,1:0:0:0:
164,41,102607,1,0,1:0:0:0:
164,41,102688,6,0,L|260:33,1,75.5,0|8,1:0|0:0,0:0:0:0:
332,4,103012,2,0,L|390:14,3,37.75,8|0|0|0,0:0|0:0|1:0|1:0,0:0:0:0:
406,43,103337,2,0,L|510:33,1,75.5,0|8,1:0|0:0,0:0:0:0:
501,131,103661,1,8,0:0:0:0:
426,194,103823,1,0,1:0:0:0:
426,194,103904,1,0,1:0:0:0:
426,194,103985,6,0,L|323:183,1,75.5,0|0,1:0|1:0,0:0:0:0:
253,168,104310,2,0,L|258:213,3,37.75,0|0|0|0,1:0|1:0|1:0|1:0,0:0:0:0:
216,233,104634,2,0,L|211:278,3,37.75,0|0|0|0,1:0|1:0|1:0|1:0,0:0:0:0:
252,298,104958,2,0,L|256:335,3,37.75,0|0|0|0,1:0|1:0|1:0|1:0,0:0:0:0:
297,362,105283,6,0,P|374:364|426:311,1,135.899995852661,6|8,1:2|0:0,0:0:0:0:
463,253,105769,2,0,L|457:171,1,67.9499979263306,2|0,1:2|0:0,0:0:0:0:
389,129,106093,1,10,0:0:0:0:
317,181,106256,2,0,P|275:186|232:184,1,67.9499979263306,2|2,0:0|0:0,0:0:0:0:
177,236,106580,5,0,1:0:0:0:
104,186,106742,2,0,P|99:146|103:106,1,67.9499979263306,2|8,0:0|0:0,0:0:0:0:
130,35,107066,1,2,0:0:0:0:
214,8,107229,1,0,0:0:0:0:
293,45,107391,1,2,1:2:0:0:
293,45,107553,2,0,L|372:53,1,67.9499979263306,2|10,0:0|0:0,0:0:0:0:
443,22,107877,6,0,P|390:106|395:169,1,135.899995852661,2|8,1:2|0:0,0:0:0:0:
450,203,108364,2,0,P|503:287|498:350,1,135.899995852661,2|10,1:2|0:0,0:0:0:0:
428,366,108850,2,0,L|348:360,1,67.9499979263306,2|2,0:0|0:0,0:0:0:0:
295,301,109174,5,0,1:0:0:0:
333,220,109337,2,0,P|337:173|325:129,1,67.9499979263306,2|8,0:0|0:0,0:0:0:0:
265,83,109661,1,2,0:0:0:0:
179,103,109823,1,0,0:0:0:0:
149,186,109985,1,2,1:2:0:0:
149,186,110147,2,0,L|54:191,1,67.9499979263306,2|10,0:0|0:0,0:0:0:0:
19,253,110472,6,0,P|20:332|74:375,1,135.899995852661,2|8,1:2|0:0,0:0:0:0:
139,335,110958,2,0,B|214:331|214:364|292:357,1,135.899995852661,2|10,1:2|0:0,0:0:0:0:
355,329,111445,2,0,L|442:337,1,67.9499979263306,2|2,0:0|0:0,0:0:0:0:
492,281,111769,6,0,P|503:242|502:193,1,67.9499979263306,2|0,1:2|0:0,0:0:0:0:
449,145,112093,2,0,L|353:153,1,67.9499979263306,8|2,0:0|0:0,0:0:0:0:
305,196,112418,1,2,0:0:0:0:
231,146,112580,1,2,1:2:0:0:
231,146,112742,2,0,P|227:100|233:51,1,67.9499979263306,2|10,0:0|0:0,0:0:0:0:
156,26,113066,6,0,P|86:27|41:87,1,135.899995852661,2|8,1:2|0:0,0:0:0:0:
12,156,113553,2,0,L|21:242,1,67.9499979263306,2|0,1:2|1:0,0:0:0:0:
87,279,113877,1,0,0:0:0:0:
152,223,114039,1,10,0:0:0:0:
238,263,114201,1,0,0:0:0:0:
238,263,114283,1,2,0:0:0:0:
238,263,114364,6,0,L|323:256,1,67.9499979263306,0|0,1:0|1:0,0:0:0:0:
375,202,114688,1,0,1:0:0:0:
375,202,114850,1,0,1:0:0:0:
330,125,115012,1,0,1:0:0:0:
330,125,115174,1,0,1:0:0:0:
468,179,115337,1,0,1:0:0:0:
389,51,115499,1,0,1:0:0:0:
475,86,115661,5,2,1:3:0:0:
