osu file format v14

[General]
AudioFilename: audio.mp3
AudioLeadIn: 0
PreviewTime: 98362
Countdown: 0
SampleSet: Soft
StackLeniency: 0.7
Mode: 3
LetterboxInBreaks: 0
SpecialStyle: 0
WidescreenStoryboard: 1

[Editor]
Bookmarks: 9600,21600,40800,50400,57600,136800,139200,158400,168000,187200,225600
DistanceSpacing: 0.8
BeatDivisor: 4
GridSize: 8
TimelineZoom: 2.399999

[Metadata]
Title:Fortuna Redux
TitleUnicode:Fortuna Redux
Artist:Fractal Dreamers
ArtistUnicode:Fractal Dreamers
Creator:riunosk
Version:S O L I T U D E
Source:osu!
Tags:kingdom of silence ep
BeatmapID:1421073
BeatmapSetID:672244

[Difficulty]
HPDrainRate:9.2
CircleSize:4
OverallDifficulty:8.2
ApproachRate:5
SliderMultiplier:1.4
SliderTickRate:1

[Events]
//Background and Video events
0,0,"Fortuna.jpg",0,0
//Break Periods
//Storyboard Layer 0 (Background)
//Storyboard Layer 1 (Fail)
//Storyboard Layer 2 (Pass)
//Storyboard Layer 3 (Foreground)
//Storyboard Sound Samples

[TimingPoints]
0,300,4,2,0,33,1,0
60000,-100,4,2,0,33,0,1
79200,-100,4,2,0,33,0,0
98400,-100,4,2,0,33,0,1
117600,-100,4,2,0,33,0,0

[HitObjects]
64,192,0,5,0,0:0:0:0:
64,192,150,1,0,0:0:0:0:
320,192,300,1,0,0:0:0:0:
64,192,450,1,0,0:0:0:0:
64,192,600,1,0,0:0:0:0:
320,192,750,1,0,0:0:0:0:
64,192,900,1,0,0:0:0:0:
64,192,1050,1,0,0:0:0:0:
448,192,1200,1,0,0:0:0:0:
64,192,1350,1,0,0:0:0:0:
64,192,1500,1,0,0:0:0:0:
320,192,1650,1,0,0:0:0:0:
64,192,1800,1,0,0:0:0:0:
64,192,1950,1,0,0:0:0:0:
192,192,2100,1,0,0:0:0:0:
320,192,2250,1,0,0:0:0:0:
64,192,2400,1,0,0:0:0:0:
64,192,2550,1,0,0:0:0:0:
320,192,2700,1,0,0:0:0:0:
64,192,2850,1,0,0:0:0:0:
64,192,3000,1,0,0:0:0:0:
320,192,3150,1,0,0:0:0:0:
64,192,3300,1,0,0:0:0:0:
64,192,3450,1,0,0:0:0:0:
448,192,3600,1,0,0:0:0:0:
64,192,3750,1,0,0:0:0:0:
64,192,3900,1,0,0:0:0:0:
320,192,4050,1,0,0:0:0:0:
64,192,4200,1,0,0:0:0:0:
64,192,4350,1,0,0:0:0:0:
320,192,4500,1,0,0:0:0:0:
192,192,4650,1,0,0:0:0:0:
64,192,4800,1,0,0:0:0:0:
64,192,4950,1,0,0:0:0:0:
320,192,5100,1,0,0:0:0:0:
64,192,5250,1,0,0:0:0:0:
64,192,5400,1,0,0:0:0:0:
320,192,5550,1,0,0:0:0:0:
64,192,5700,1,0,0:0:0:0:
64,192,5850,1,0,0:0:0:0:
448,192,6000,1,0,0:0:0:0:
64,192,6150,1,0,0:0:0:0:
64,192,6300,1,0,0:0:0:0:
320,192,6450,1,0,0:0:0:0:
64,192,6600,1,0,0:0:0:0:
64,192,6750,1,0,0:0:0:0:
192,192,6900,1,0,0:0:0:0:
320,192,7050,1,0,0:0:0:0:
64,192,7200,1,0,0:0:0:0:
64,192,7350,1,0,0:0:0:0:
320,192,7500,1,0,0:0:0:0:
64,192,7650,1,0,0:0:0:0:
64,192,7800,1,0,0:0:0:0:
320,192,7950,1,0,0:0:0:0:
64,192,8100,1,0,0:0:0:0:
64,192,8250,1,0,0:0:0:0:
448,192,8400,1,0,0:0:0:0:
64,192,8550,1,0,0:0:0:0:
64,192,8700,1,0,0:0:0:0:
320,192,8850,1,0,0:0:0:0:
64,192,9000,1,0,0:0:0:0:
64,192,9150,1,0,0:0:0:0:
448,192,9300,1,0,0:0:0:0:
320,192,9450,1,0,0:0:0:0:
192,192,9600,1,0,0:0:0:0:
64,192,9600,1,0,0:0:0:0:
448,192,9600,1,0,0:0:0:0:
320,192,9600,1,0,0:0:0:0:
192,192,9750,1,0,0:0:0:0:
448,192,9862,1,0,0:0:0:0:
64,192,9900,1,0,0:0:0:0:
192,192,10050,1,0,0:0:0:0:
448,192,10162,1,0,0:0:0:0:
192,192,10200,1,0,0:0:0:0:
448,192,10275,1,0,0:0:0:0:
320,192,10350,1,0,0:0:0:0:
192,192,10500,1,0,0:0:0:0:
448,192,10650,1,0,0:0:0:0:
192,192,10650,1,0,0:0:0:0:
320,192,10800,1,0,0:0:0:0:
192,192,10950,1,0,0:0:0:0:
192,192,11100,1,0,0:0:0:0:
64,192,11250,1,0,0:0:0:0:
448,192,11362,1,0,0:0:0:0:
192,192,11400,1,0,0:0:0:0:
448,192,11475,1,0,0:0:0:0:
192,192,11550,1,0,0:0:0:0:
64,192,11700,1,0,0:0:0:0:
320,192,11850,1,0,0:0:0:0:
192,192,12000,1,0,0:0:0:0:
192,192,12150,1,0,0:0:0:0:
320,192,12300,1,0,0:0:0:0:
448,192,12450,1,0,0:0:0:0:
192,192,12450,1,0,0:0:0:0:
448,192,12562,1,0,0:0:0:0:
192,192,12600,1,0,0:0:0:0:
448,192,12675,1,0,0:0:0:0:
320,192,12750,1,0,0:0:0:0:
192,192,12900,1,0,0:0:0:0:
192,192,13050,1,0,0:0:0:0:
64,192,13200,1,0,0:0:0:0:
448,192,13350,1,0,0:0:0:0:
192,192,13350,1,0,0:0:0:0:
448,192,13462,1,0,0:0:0:0:
192,192,13500,1,0,0:0:0:0:
448,192,13650,1,0,0:0:0:0:
320,192,13650,1,0,0:0:0:0:
448,192,13800,1,0,0:0:0:0:
192,192,13800,1,0,0:0:0:0:
448,192,13875,1,0,0:0:0:0:
192,192,13950,1,0,0:0:0:0:
320,192,14100,1,0,0:0:0:0:
64,192,14250,1,0,0:0:0:0:
448,192,14400,1,0,0:0:0:0:
192,192,14400,1,0,0:0:0:0:
192,192,14550,1,0,0:0:0:0:
448,192,14662,1,0,0:0:0:0:
320,192,14700,1,0,0:0:0:0:
192,192,14850,1,0,0:0:0:0:
448,192,14962,1,0,0:0:0:0:
192,192,15000,1,0,0:0:0:0:
448,192,15075,1,0,0:0:0:0:
320,192,15150,1,0,0:0:0:0:
192,192,15300,1,0,0:0:0:0:
192,192,15450,1,0,0:0:0:0:
64,192,15600,1,0,0:0:0:0:
192,192,15750,1,0,0:0:0:0:
320,192,15825,1,0,0:0:0:0:
192,192,15900,1,0,0:0:0:0:
320,192,16050,1,0,0:0:0:0:
448,192,16162,1,0,0:0:0:0:
192,192,16200,1,0,0:0:0:0:
448,192,16275,1,0,0:0:0:0:
192,192,16350,1,0,0:0:0:0:
64,192,16500,1,0,0:0:0:0:
320,192,16650,1,0,0:0:0:0:
448,192,16762,1,0,0:0:0:0:
192,192,16800,1,0,0:0:0:0:
192,192,16950,1,0,0:0:0:0:
320,192,17100,1,0,0:0:0:0:
448,192,17250,1,0,0:0:0:0:
192,192,17250,1,0,0:0:0:0:
448,192,17362,1,0,0:0:0:0:
192,192,17400,1,0,0:0:0:0:
448,192,17475,1,0,0:0:0:0:
64,192,17550,1,0,0:0:0:0:
192,192,17700,1,0,0:0:0:0:
192,192,17850,1,0,0:0:0:0:
320,192,18000,1,0,0:0:0:0:
192,192,18150,1,0,0:0:0:0:
448,192,18150,1,0,0:0:0:0:
320,192,18225,1,0,0:0:0:0:
448,192,18225,1,0,0:0:0:0:
192,192,18300,1,0,0:0:0:0:
448,192,18450,1,0,0:0:0:0:
64,192,18450,1,0,0:0:0:0:
448,192,18600,1,0,0:0:0:0:
192,192,18600,1,0,0:0:0:0:
448,192,18675,1,0,0:0:0:0:
192,192,18750,1,0,0:0:0:0:
320,192,18900,1,0,0:0:0:0:
448,192,19012,1,0,0:0:0:0:
192,192,19050,1,0,0:0:0:0:
64,192,19200,1,0,0:0:0:0:
192,192,19350,1,0,0:0:0:0:
64,192,19650,1,0,0:0:0:0:
192,192,19950,1,0,0:0:0:0:
64,192,20100,1,0,0:0:0:0:
320,192,20625,128,0,21300:0:0:0:0:
192,192,20625,1,0,0:0:0:0:
448,192,20925,128,0,21300:0:0:0:0:
64,192,20925,1,0,0:0:0:0:
192,192,21225,1,0,0:0:0:0:
64,192,21450,1,0,0:0:0:0:
64,192,21600,1,0,0:0:0:0:
192,192,21600,1,0,0:0:0:0:
320,192,21600,1,0,0:0:0:0:
448,192,21600,1,0,0:0:0:0:
192,192,21750,1,0,0:0:0:0:
320,192,22050,1,0,0:0:0:0:
448,192,22200,1,0,0:0:0:0:
64,192,22200,1,0,0:0:0:0:
192,192,22500,1,0,0:0:0:0:
64,192,22500,1,0,0:0:0:0:
448,192,22800,1,0,0:0:0:0:
320,192,22800,1,0,0:0:0:0:
320,192,23100,1,0,0:0:0:0:
192,192,23100,1,0,0:0:0:0:
192,192,23400,1,0,0:0:0:0:
64,192,23400,1,0,0:0:0:0:
320,192,23700,1,0,0:0:0:0:
64,192,23700,1,0,0:0:0:0:
192,192,23850,1,0,0:0:0:0:
320,192,23925,1,0,0:0:0:0:
448,192,24000,1,0,0:0:0:0:
192,192,24000,1,0,0:0:0:0:
448,192,24600,1,0,0:0:0:0:
64,192,24600,1,0,0:0:0:0:
192,192,24900,1,0,0:0:0:0:
320,192,24900,1,0,0:0:0:0:
320,192,25200,1,0,0:0:0:0:
448,192,25200,128,0,25237:0:0:0:0:
448,192,25350,128,0,25387:0:0:0:0:
448,192,25500,128,0,25537:0:0:0:0:
64,192,25500,1,0,0:0:0:0:
448,192,25650,128,0,25687:0:0:0:0:
448,192,25800,128,0,25837:0:0:0:0:
192,192,25800,1,0,0:0:0:0:
448,192,25950,128,0,25987:0:0:0:0:
64,192,26100,1,0,0:0:0:0:
320,192,26100,1,0,0:0:0:0:
448,192,26400,1,0,0:0:0:0:
192,192,26400,1,0,0:0:0:0:
320,192,26475,1,0,0:0:0:0:
448,192,26550,1,0,0:0:0:0:
64,192,26700,1,0,0:0:0:0:
192,192,26775,1,0,0:0:0:0:
320,192,26850,1,0,0:0:0:0:
192,192,27000,1,0,0:0:0:0:
448,192,27000,1,0,0:0:0:0:
64,192,27300,1,0,0:0:0:0:
320,192,27300,1,0,0:0:0:0:
192,192,27600,1,0,0:0:0:0:
320,192,27600,1,0,0:0:0:0:
192,192,27900,1,0,0:0:0:0:
448,192,27900,1,0,0:0:0:0:
320,192,28200,1,0,0:0:0:0:
64,192,28200,1,0,0:0:0:0:
64,192,28500,1,0,0:0:0:0:
448,192,28500,1,0,0:0:0:0:
320,192,28650,1,0,0:0:0:0:
192,192,28725,1,0,0:0:0:0:
320,192,28800,1,0,0:0:0:0:
448,192,28800,1,0,0:0:0:0:
192,192,29250,1,0,0:0:0:0:
64,192,29250,1,0,0:0:0:0:
448,192,29400,1,0,0:0:0:0:
64,192,29400,1,0,0:0:0:0:
320,192,29700,1,0,0:0:0:0:
192,192,29700,1,0,0:0:0:0:
448,192,30000,128,0,30037:0:0:0:0:
448,192,30150,128,0,30187:0:0:0:0:
448,192,30300,128,0,30337:0:0:0:0:
192,192,30300,1,0,0:0:0:0:
448,192,30450,128,0,30487:0:0:0:0:
448,192,30600,128,0,30637:0:0:0:0:
64,192,30600,1,0,0:0:0:0:
448,192,30750,128,0,30787:0:0:0:0:
192,192,30900,1,0,0:0:0:0:
320,192,30900,1,0,0:0:0:0:
448,192,31200,1,0,0:0:0:0:
64,192,31200,1,0,0:0:0:0:
192,192,31275,1,0,0:0:0:0:
320,192,31350,1,0,0:0:0:0:
192,192,31500,1,0,0:0:0:0:
64,192,31650,1,0,0:0:0:0:
320,192,31800,1,0,0:0:0:0:
448,192,31800,1,0,0:0:0:0:
320,192,32100,1,0,0:0:0:0:
64,192,32100,1,0,0:0:0:0:
320,192,32400,1,0,0:0:0:0:
64,192,32400,1,0,0:0:0:0:
192,192,32700,1,0,0:0:0:0:
320,192,32700,1,0,0:0:0:0:
192,192,33000,1,0,0:0:0:0:
320,192,33000,1,0,0:0:0:0:
192,192,33300,1,0,0:0:0:0:
448,192,33300,1,0,0:0:0:0:
320,192,33450,1,0,0:0:0:0:
192,192,33525,1,0,0:0:0:0:
64,192,33600,1,0,0:0:0:0:
448,192,33600,1,0,0:0:0:0:
320,192,34050,1,0,0:0:0:0:
64,192,34050,1,0,0:0:0:0:
192,192,34200,1,0,0:0:0:0:
448,192,34200,1,0,0:0:0:0:
192,192,34500,1,0,0:0:0:0:
64,192,34500,1,0,0:0:0:0:
448,192,34800,128,0,34837:0:0:0:0:
320,192,34800,1,0,0:0:0:0:
448,192,34950,128,0,34987:0:0:0:0:
448,192,35100,128,0,35137:0:0:0:0:
64,192,35100,1,0,0:0:0:0:
448,192,35250,128,0,35287:0:0:0:0:
448,192,35400,128,0,35437:0:0:0:0:
192,192,35400,1,0,0:0:0:0:
448,192,35550,128,0,35587:0:0:0:0:
320,192,35700,1,0,0:0:0:0:
64,192,35700,1,0,0:0:0:0:
448,192,36000,1,0,0:0:0:0:
192,192,36000,1,0,0:0:0:0:
320,192,36075,1,0,0:0:0:0:
192,192,36150,1,0,0:0:0:0:
64,192,36300,1,0,0:0:0:0:
448,192,36450,1,0,0:0:0:0:
320,192,36600,1,0,0:0:0:0:
192,192,36600,1,0,0:0:0:0:
64,192,36900,1,0,0:0:0:0:
320,192,36900,1,0,0:0:0:0:
320,192,37200,1,0,0:0:0:0:
64,192,37200,1,0,0:0:0:0:
192,192,37500,1,0,0:0:0:0:
64,192,37500,1,0,0:0:0:0:
192,192,37800,1,0,0:0:0:0:
320,192,37800,1,0,0:0:0:0:
320,192,38100,1,0,0:0:0:0:
448,192,38100,1,0,0:0:0:0:
192,192,38250,1,0,0:0:0:0:
320,192,38325,1,0,0:0:0:0:
192,192,38400,1,0,0:0:0:0:
448,192,38400,1,0,0:0:0:0:
448,192,38850,1,0,0:0:0:0:
64,192,38850,1,0,0:0:0:0:
192,192,39000,1,0,0:0:0:0:
320,192,39000,1,0,0:0:0:0:
64,192,39150,1,0,0:0:0:0:
448,192,39300,1,0,0:0:0:0:
192,192,39300,1,0,0:0:0:0:
320,192,39375,1,0,0:0:0:0:
448,192,39450,1,0,0:0:0:0:
320,192,39525,1,0,0:0:0:0:
64,192,39600,1,0,0:0:0:0:
192,192,39650,1,0,0:0:0:0:
320,192,39700,1,0,0:0:0:0:
448,192,39750,1,0,0:0:0:0:
64,192,39800,1,0,0:0:0:0:
192,192,39850,1,0,0:0:0:0:
320,192,39900,1,0,0:0:0:0:
448,192,39950,1,0,0:0:0:0:
64,192,40000,1,0,0:0:0:0:
192,192,40050,1,0,0:0:0:0:
320,192,40100,1,0,0:0:0:0:
448,192,40150,1,0,0:0:0:0:
64,192,40200,1,0,0:0:0:0:
192,192,40237,1,0,0:0:0:0:
448,192,40275,1,0,0:0:0:0:
320,192,40312,1,0,0:0:0:0:
64,192,40350,1,0,0:0:0:0:
192,192,40387,1,0,0:0:0:0:
448,192,40425,1,0,0:0:0:0:
320,192,40462,1,0,0:0:0:0:
64,192,40500,1,0,0:0:0:0:
192,192,40537,1,0,0:0:0:0:
448,192,40575,1,0,0:0:0:0:
320,192,40612,1,0,0:0:0:0:
64,192,40650,1,0,0:0:0:0:
192,192,40687,1,0,0:0:0:0:
448,192,40725,1,0,0:0:0:0:
320,192,40762,1,0,0:0:0:0:
192,192,40800,1,0,0:0:0:0:
64,192,40800,1,0,0:0:0:0:
64,192,41100,1,0,0:0:0:0:
192,192,41175,1,0,0:0:0:0:
192,192,41400,1,0,0:0:0:0:
448,192,41400,1,0,0:0:0:0:
320,192,41475,1,0,0:0:0:0:
448,192,41475,1,0,0:0:0:0:
320,192,41700,1,0,0:0:0:0:
448,192,41775,1,0,0:0:0:0:
448,192,42000,1,0,0:0:0:0:
320,192,42075,1,0,0:0:0:0:
192,192,42150,1,0,0:0:0:0:
448,192,42225,1,0,0:0:0:0:
320,192,42300,1,0,0:0:0:0:
192,192,42375,1,0,0:0:0:0:
320,192,42450,1,0,0:0:0:0:
192,192,42525,1,0,0:0:0:0:
448,192,42562,1,0,0:0:0:0:
64,192,42600,1,0,0:0:0:0:
320,192,42675,1,0,0:0:0:0:
448,192,42675,1,0,0:0:0:0:
192,192,42750,1,0,0:0:0:0:
64,192,42825,1,0,0:0:0:0:
192,192,42900,1,0,0:0:0:0:
320,192,42975,1,0,0:0:0:0:
64,192,43050,1,0,0:0:0:0:
192,192,43125,1,0,0:0:0:0:
320,192,43200,1,0,0:0:0:0:
192,192,43350,1,0,0:0:0:0:
320,192,43425,1,0,0:0:0:0:
64,192,43500,1,0,0:0:0:0:
192,192,43575,1,0,0:0:0:0:
320,192,43650,1,0,0:0:0:0:
64,192,43650,1,0,0:0:0:0:
448,192,43725,1,0,0:0:0:0:
320,192,43762,1,0,0:0:0:0:
192,192,43800,1,0,0:0:0:0:
320,192,43875,1,0,0:0:0:0:
448,192,43875,1,0,0:0:0:0:
64,192,43950,1,0,0:0:0:0:
192,192,44025,1,0,0:0:0:0:
320,192,44100,1,0,0:0:0:0:
192,192,44175,1,0,0:0:0:0:
448,192,44250,1,0,0:0:0:0:
64,192,44250,1,0,0:0:0:0:
320,192,44325,1,0,0:0:0:0:
192,192,44400,1,0,0:0:0:0:
448,192,44400,1,0,0:0:0:0:
64,192,44475,1,0,0:0:0:0:
192,192,44550,1,0,0:0:0:0:
320,192,44550,1,0,0:0:0:0:
320,192,44625,1,0,0:0:0:0:
64,192,44850,1,0,0:0:0:0:
448,192,44850,1,0,0:0:0:0:
192,192,44925,1,0,0:0:0:0:
320,192,45000,1,0,0:0:0:0:
448,192,45000,1,0,0:0:0:0:
320,192,45075,1,0,0:0:0:0:
64,192,45075,1,0,0:0:0:0:
192,192,45150,1,0,0:0:0:0:
64,192,45300,1,0,0:0:0:0:
192,192,45375,1,0,0:0:0:0:
320,192,45450,1,0,0:0:0:0:
448,192,45525,1,0,0:0:0:0:
192,192,45600,1,0,0:0:0:0:
64,192,45675,1,0,0:0:0:0:
192,192,45750,1,0,0:0:0:0:
320,192,45825,1,0,0:0:0:0:
64,192,45900,1,0,0:0:0:0:
448,192,45900,1,0,0:0:0:0:
192,192,45975,1,0,0:0:0:0:
448,192,46050,1,0,0:0:0:0:
192,192,46162,1,0,0:0:0:0:
320,192,46200,1,0,0:0:0:0:
192,192,46275,1,0,0:0:0:0:
64,192,46275,1,0,0:0:0:0:
320,192,46350,1,0,0:0:0:0:
448,192,46425,1,0,0:0:0:0:
320,192,46500,1,0,0:0:0:0:
448,192,46575,1,0,0:0:0:0:
192,192,46650,1,0,0:0:0:0:
64,192,46725,1,0,0:0:0:0:
192,192,46800,1,0,0:0:0:0:
320,192,46875,1,0,0:0:0:0:
192,192,46950,1,0,0:0:0:0:
64,192,47025,1,0,0:0:0:0:
448,192,47100,1,0,0:0:0:0:
320,192,47175,1,0,0:0:0:0:
192,192,47250,1,0,0:0:0:0:
448,192,47325,1,0,0:0:0:0:
320,192,47362,1,0,0:0:0:0:
192,192,47400,1,0,0:0:0:0:
64,192,47475,1,0,0:0:0:0:
320,192,47475,1,0,0:0:0:0:
192,192,47550,1,0,0:0:0:0:
320,192,47700,1,0,0:0:0:0:
192,192,47775,1,0,0:0:0:0:
320,192,47850,1,0,0:0:0:0:
448,192,47925,1,0,0:0:0:0:
192,192,47962,1,0,0:0:0:0:
64,192,48000,1,0,0:0:0:0:
64,192,48150,1,0,0:0:0:0:
192,192,48225,1,0,0:0:0:0:
320,192,48300,1,0,0:0:0:0:
448,192,48375,1,0,0:0:0:0:
320,192,48450,1,0,0:0:0:0:
64,192,48562,1,0,0:0:0:0:
192,192,48600,1,0,0:0:0:0:
64,192,48675,1,0,0:0:0:0:
448,192,48675,1,0,0:0:0:0:
320,192,48750,1,0,0:0:0:0:
192,192,48825,1,0,0:0:0:0:
64,192,48900,1,0,0:0:0:0:
448,192,48975,1,0,0:0:0:0:
320,192,49050,1,0,0:0:0:0:
192,192,49125,1,0,0:0:0:0:
320,192,49200,1,0,0:0:0:0:
448,192,49275,1,0,0:0:0:0:
192,192,49350,1,0,0:0:0:0:
64,192,49425,1,0,0:0:0:0:
448,192,49500,1,0,0:0:0:0:
320,192,49575,1,0,0:0:0:0:
192,192,49650,1,0,0:0:0:0:
64,192,49725,1,0,0:0:0:0:
192,192,49800,1,0,0:0:0:0:
448,192,49800,1,0,0:0:0:0:
448,192,49875,1,0,0:0:0:0:
64,192,50100,1,0,0:0:0:0:
192,192,50175,1,0,0:0:0:0:
320,192,50212,1,0,0:0:0:0:
448,192,50250,1,0,0:0:0:0:
320,192,50325,1,0,0:0:0:0:
64,192,50400,1,0,0:0:0:0:
192,192,50550,1,0,0:0:0:0:
320,192,50625,1,0,0:0:0:0:
64,192,50700,1,0,0:0:0:0:
448,192,50700,1,0,0:0:0:0:
320,192,50775,1,0,0:0:0:0:
448,192,50850,1,0,0:0:0:0:
192,192,50850,1,0,0:0:0:0:
64,192,51000,1,0,0:0:0:0:
320,192,51000,1,0,0:0:0:0:
192,192,51075,1,0,0:0:0:0:
448,192,51150,1,0,0:0:0:0:
320,192,51225,1,0,0:0:0:0:
64,192,51300,1,0,0:0:0:0:
192,192,51300,1,0,0:0:0:0:
320,192,51450,1,0,0:0:0:0:
448,192,51450,1,0,0:0:0:0:
192,192,51525,1,0,0:0:0:0:
64,192,51600,1,0,0:0:0:0:
192,192,51675,1,0,0:0:0:0:
64,192,51750,1,0,0:0:0:0:
192,192,51900,1,0,0:0:0:0:
448,192,51900,1,0,0:0:0:0:
320,192,51975,1,0,0:0:0:0:
448,192,52050,1,0,0:0:0:0:
64,192,52050,1,0,0:0:0:0:
192,192,52125,1,0,0:0:0:0:
320,192,52200,1,0,0:0:0:0:
192,192,52275,1,0,0:0:0:0:
64,192,52500,1,0,0:0:0:0:
320,192,52500,1,0,0:0:0:0:
192,192,52575,1,0,0:0:0:0:
448,192,52650,1,0,0:0:0:0:
320,192,52650,1,0,0:0:0:0:
192,192,52725,1,0,0:0:0:0:
64,192,52800,1,0,0:0:0:0:
192,192,52950,1,0,0:0:0:0:
320,192,53025,1,0,0:0:0:0:
64,192,53100,1,0,0:0:0:0:
448,192,53100,1,0,0:0:0:0:
192,192,53175,1,0,0:0:0:0:
64,192,53250,1,0,0:0:0:0:
320,192,53250,1,0,0:0:0:0:
448,192,53325,1,0,0:0:0:0:
320,192,53400,1,0,0:0:0:0:
192,192,53475,1,0,0:0:0:0:
64,192,53550,1,0,0:0:0:0:
320,192,53625,1,0,0:0:0:0:
192,192,53700,1,0,0:0:0:0:
448,192,53700,1,0,0:0:0:0:
64,192,53850,1,0,0:0:0:0:
320,192,53850,1,0,0:0:0:0:
192,192,53925,1,0,0:0:0:0:
320,192,54000,1,0,0:0:0:0:
64,192,54075,1,0,0:0:0:0:
192,192,54150,1,0,0:0:0:0:
320,192,54225,1,0,0:0:0:0:
448,192,54300,1,0,0:0:0:0:
64,192,54300,1,0,0:0:0:0:
64,192,54450,1,0,0:0:0:0:
192,192,54450,1,0,0:0:0:0:
320,192,54525,1,0,0:0:0:0:
448,192,54600,1,0,0:0:0:0:
192,192,54675,1,0,0:0:0:0:
64,192,54750,1,0,0:0:0:0:
192,192,54900,1,0,0:0:0:0:
448,192,54900,1,0,0:0:0:0:
320,192,54975,1,0,0:0:0:0:
64,192,55050,1,0,0:0:0:0:
192,192,55050,1,0,0:0:0:0:
320,192,55125,1,0,0:0:0:0:
64,192,55200,1,0,0:0:0:0:
448,192,55200,1,0,0:0:0:0:
320,192,55350,1,0,0:0:0:0:
448,192,55425,1,0,0:0:0:0:
192,192,55500,1,0,0:0:0:0:
320,192,55575,1,0,0:0:0:0:
64,192,55650,1,0,0:0:0:0:
448,192,55650,1,0,0:0:0:0:
192,192,55725,1,0,0:0:0:0:
320,192,55800,1,0,0:0:0:0:
192,192,55875,1,0,0:0:0:0:
448,192,55875,1,0,0:0:0:0:
64,192,55950,1,0,0:0:0:0:
320,192,56025,1,0,0:0:0:0:
448,192,56100,1,0,0:0:0:0:
192,192,56100,1,0,0:0:0:0:
320,192,56175,1,0,0:0:0:0:
192,192,56250,1,0,0:0:0:0:
64,192,56250,1,0,0:0:0:0:
448,192,56325,1,0,0:0:0:0:
320,192,56400,1,0,0:0:0:0:
192,192,56475,1,0,0:0:0:0:
64,192,56550,1,0,0:0:0:0:
320,192,56700,1,0,0:0:0:0:
448,192,56700,1,0,0:0:0:0:
192,192,56775,1,0,0:0:0:0:
64,192,56850,1,0,0:0:0:0:
448,192,56850,1,0,0:0:0:0:
320,192,56925,1,0,0:0:0:0:
64,192,57000,1,0,0:0:0:0:
192,192,57075,1,0,0:0:0:0:
320,192,57300,1,0,0:0:0:0:
192,192,57375,1,0,0:0:0:0:
64,192,57450,1,0,0:0:0:0:
448,192,57450,1,0,0:0:0:0:
320,192,57525,1,0,0:0:0:0:
448,192,57600,128,0,57637:0:0:0:0:
192,192,57750,1,0,0:0:0:0:
448,192,57825,128,0,57862:0:0:0:0:
320,192,57825,1,0,0:0:0:0:
192,192,57900,1,0,0:0:0:0:
64,192,57975,1,0,0:0:0:0:
448,192,58050,128,0,58087:0:0:0:0:
192,192,58050,1,0,0:0:0:0:
320,192,58200,128,0,58237:0:0:0:0:
192,192,58350,1,0,0:0:0:0:
320,192,58425,128,0,58462:0:0:0:0:
448,192,58425,1,0,0:0:0:0:
64,192,58500,1,0,0:0:0:0:
192,192,58500,1,0,0:0:0:0:
448,192,58575,1,0,0:0:0:0:
64,192,58650,1,0,0:0:0:0:
320,192,58650,128,0,58687:0:0:0:0:
192,192,58800,128,0,58837:0:0:0:0:
192,192,59025,128,0,59062:0:0:0:0:
320,192,59100,1,0,0:0:0:0:
448,192,59175,1,0,0:0:0:0:
320,192,59250,1,0,0:0:0:0:
192,192,59250,128,0,59287:0:0:0:0:
448,192,59325,1,0,0:0:0:0:
192,192,59400,1,0,0:0:0:0:
64,192,59400,1,0,0:0:0:0:
192,192,59550,1,0,0:0:0:0:
64,192,59550,1,0,0:0:0:0:
448,192,59700,1,0,0:0:0:0:
64,192,59700,1,0,0:0:0:0:
192,192,59775,1,0,0:0:0:0:
320,192,59775,1,0,0:0:0:0:
64,192,59850,1,0,0:0:0:0:
448,192,59850,1,0,0:0:0:0:
192,192,60000,1,0,0:0:0:0:
320,192,60000,1,0,0:0:0:0:
448,192,60075,1,0,0:0:0:0:
64,192,60150,1,0,0:0:0:0:
192,192,60225,1,0,0:0:0:0:
64,192,60300,128,0,60375:0:0:0:0:
320,192,60300,128,0,60375:0:0:0:0:
448,192,60300,128,0,60375:0:0:0:0:
192,192,60375,128,0,60450:0:0:0:0:
320,192,60450,128,0,60525:0:0:0:0:
448,192,60525,128,0,60600:0:0:0:0:
192,192,60600,128,0,60675:0:0:0:0:
64,192,60675,128,0,60750:0:0:0:0:
320,192,60750,128,0,60825:0:0:0:0:
448,192,60750,128,0,60825:0:0:0:0:
64,192,60825,128,0,60900:0:0:0:0:
192,192,60900,128,0,60975:0:0:0:0:
320,192,60900,128,0,60975:0:0:0:0:
448,192,60900,128,0,60975:0:0:0:0:
64,192,60975,128,0,61050:0:0:0:0:
320,192,61050,128,0,61125:0:0:0:0:
192,192,61125,128,0,61200:0:0:0:0:
448,192,61200,128,0,61275:0:0:0:0:
64,192,61200,128,0,61275:0:0:0:0:
192,192,61275,128,0,61350:0:0:0:0:
320,192,61350,128,0,61425:0:0:0:0:
448,192,61425,128,0,61500:0:0:0:0:
320,192,61500,128,0,61575:0:0:0:0:
192,192,61500,128,0,61575:0:0:0:0:
64,192,61500,128,0,61575:0:0:0:0:
448,192,61575,128,0,61650:0:0:0:0:
64,192,61650,128,0,61725:0:0:0:0:
192,192,61725,128,0,61800:0:0:0:0:
320,192,61800,128,0,61875:0:0:0:0:
448,192,61875,128,0,61950:0:0:0:0:
64,192,61950,128,0,62025:0:0:0:0:
192,192,61950,128,0,62025:0:0:0:0:
448,192,62025,128,0,62100:0:0:0:0:
320,192,62100,128,0,62175:0:0:0:0:
192,192,62100,128,0,62175:0:0:0:0:
64,192,62100,128,0,62175:0:0:0:0:
448,192,62175,128,0,62250:0:0:0:0:
320,192,62250,128,0,62325:0:0:0:0:
192,192,62325,128,0,62400:0:0:0:0:
320,192,62400,128,0,62475:0:0:0:0:
64,192,62400,128,0,62475:0:0:0:0:
448,192,62475,128,0,62550:0:0:0:0:
192,192,62550,128,0,62625:0:0:0:0:
320,192,62625,128,0,62700:0:0:0:0:
448,192,62700,128,0,62775:0:0:0:0:
192,192,62700,128,0,62775:0:0:0:0:
64,192,62700,128,0,62775:0:0:0:0:
320,192,62775,128,0,62850:0:0:0:0:
448,192,62850,128,0,62925:0:0:0:0:
192,192,62925,128,0,63000:0:0:0:0:
64,192,63000,128,0,63075:0:0:0:0:
448,192,63075,128,0,63150:0:0:0:0:
320,192,63150,128,0,63225:0:0:0:0:
64,192,63150,128,0,63225:0:0:0:0:
192,192,63225,128,0,63300:0:0:0:0:
64,192,63300,128,0,63375:0:0:0:0:
320,192,63300,128,0,63375:0:0:0:0:
448,192,63300,128,0,63375:0:0:0:0:
192,192,63375,128,0,63450:0:0:0:0:
448,192,63450,128,0,63525:0:0:0:0:
320,192,63525,128,0,63600:0:0:0:0:
448,192,63600,128,0,63675:0:0:0:0:
192,192,63600,128,0,63675:0:0:0:0:
64,192,63675,128,0,63750:0:0:0:0:
320,192,63750,128,0,63825:0:0:0:0:
192,192,63825,128,0,63900:0:0:0:0:
320,192,63900,128,0,63975:0:0:0:0:
64,192,63900,128,0,63975:0:0:0:0:
448,192,63900,128,0,63975:0:0:0:0:
192,192,63975,128,0,64050:0:0:0:0:
64,192,64050,128,0,64125:0:0:0:0:
320,192,64050,128,0,64125:0:0:0:0:
448,192,64125,128,0,64200:0:0:0:0:
64,192,64200,128,0,64275:0:0:0:0:
192,192,64275,128,0,64350:0:0:0:0:
320,192,64350,128,0,64425:0:0:0:0:
448,192,64350,128,0,64425:0:0:0:0:
64,192,64425,128,0,64500:0:0:0:0:
192,192,64500,128,0,64575:0:0:0:0:
320,192,64500,128,0,64575:0:0:0:0:
448,192,64500,128,0,64575:0:0:0:0:
64,192,64575,128,0,64650:0:0:0:0:
320,192,64650,128,0,64725:0:0:0:0:
448,192,64650,128,0,64725:0:0:0:0:
192,192,64725,128,0,64800:0:0:0:0:
320,192,64800,1,0,0:0:0:0:
448,192,64800,1,0,0:0:0:0:
64,192,64875,1,0,0:0:0:0:
192,192,64950,1,0,0:0:0:0:
320,192,65025,1,0,0:0:0:0:
448,192,65100,128,0,65175:0:0:0:0:
192,192,65100,128,0,65175:0:0:0:0:
64,192,65100,128,0,65175:0:0:0:0:
320,192,65175,128,0,65250:0:0:0:0:
64,192,65250,128,0,65325:0:0:0:0:
192,192,65325,128,0,65400:0:0:0:0:
448,192,65400,128,0,65475:0:0:0:0:
320,192,65475,128,0,65550:0:0:0:0:
192,192,65550,128,0,65625:0:0:0:0:
64,192,65550,128,0,65625:0:0:0:0:
320,192,65625,128,0,65700:0:0:0:0:
192,192,65700,128,0,65775:0:0:0:0:
448,192,65700,128,0,65775:0:0:0:0:
64,192,65700,128,0,65775:0:0:0:0:
320,192,65775,128,0,65850:0:0:0:0:
64,192,65850,128,0,65925:0:0:0:0:
192,192,65925,128,0,66000:0:0:0:0:
320,192,66000,128,0,66075:0:0:0:0:
448,192,66000,128,0,66075:0:0:0:0:
192,192,66075,128,0,66150:0:0:0:0:
64,192,66150,128,0,66225:0:0:0:0:
448,192,66225,128,0,66300:0:0:0:0:
320,192,66300,128,0,66375:0:0:0:0:
192,192,66300,128,0,66375:0:0:0:0:
64,192,66300,128,0,66375:0:0:0:0:
448,192,66375,128,0,66450:0:0:0:0:
320,192,66450,128,0,66525:0:0:0:0:
192,192,66525,128,0,66600:0:0:0:0:
320,192,66600,128,0,66675:0:0:0:0:
64,192,66675,128,0,66750:0:0:0:0:
192,192,66750,128,0,66825:0:0:0:0:
448,192,66750,128,0,66825:0:0:0:0:
320,192,66825,128,0,66900:0:0:0:0:
448,192,66900,128,0,66975:0:0:0:0:
192,192,66900,128,0,66975:0:0:0:0:
64,192,66900,128,0,66975:0:0:0:0:
320,192,66975,128,0,67050:0:0:0:0:
192,192,67050,128,0,67125:0:0:0:0:
320,192,67125,128,0,67200:0:0:0:0:
64,192,67200,1,0,0:0:0:0:
448,192,67200,1,0,0:0:0:0:
320,192,67275,1,0,0:0:0:0:
192,192,67350,1,0,0:0:0:0:
64,192,67425,1,0,0:0:0:0:
192,192,67500,128,0,67575:0:0:0:0:
320,192,67500,128,0,67575:0:0:0:0:
448,192,67500,128,0,67575:0:0:0:0:
64,192,67575,128,0,67650:0:0:0:0:
320,192,67650,128,0,67725:0:0:0:0:
448,192,67650,128,0,67725:0:0:0:0:
64,192,67725,128,0,67800:0:0:0:0:
192,192,67800,128,0,67875:0:0:0:0:
320,192,67875,128,0,67950:0:0:0:0:
448,192,67950,128,0,68025:0:0:0:0:
64,192,68025,128,0,68100:0:0:0:0:
192,192,68100,128,0,68175:0:0:0:0:
320,192,68100,128,0,68175:0:0:0:0:
448,192,68100,128,0,68175:0:0:0:0:
64,192,68175,128,0,68250:0:0:0:0:
192,192,68250,128,0,68325:0:0:0:0:
320,192,68325,128,0,68400:0:0:0:0:
448,192,68400,128,0,68475:0:0:0:0:
64,192,68400,128,0,68475:0:0:0:0:
320,192,68475,128,0,68550:0:0:0:0:
192,192,68550,128,0,68625:0:0:0:0:
64,192,68625,128,0,68700:0:0:0:0:
192,192,68700,128,0,68775:0:0:0:0:
320,192,68700,128,0,68775:0:0:0:0:
448,192,68700,128,0,68775:0:0:0:0:
64,192,68775,128,0,68850:0:0:0:0:
320,192,68850,128,0,68925:0:0:0:0:
448,192,68850,128,0,68925:0:0:0:0:
192,192,68925,128,0,69000:0:0:0:0:
64,192,69000,128,0,69075:0:0:0:0:
320,192,69075,128,0,69150:0:0:0:0:
448,192,69150,128,0,69225:0:0:0:0:
64,192,69225,128,0,69300:0:0:0:0:
192,192,69300,128,0,69375:0:0:0:0:
320,192,69300,128,0,69375:0:0:0:0:
448,192,69300,128,0,69375:0:0:0:0:
64,192,69375,128,0,69450:0:0:0:0:
320,192,69450,128,0,69525:0:0:0:0:
192,192,69525,128,0,69600:0:0:0:0:
64,192,69600,1,0,0:0:0:0:
448,192,69600,1,0,0:0:0:0:
192,192,69675,1,0,0:0:0:0:
320,192,69750,1,0,0:0:0:0:
448,192,69825,1,0,0:0:0:0:
320,192,69900,128,0,69975:0:0:0:0:
192,192,69900,128,0,69975:0:0:0:0:
64,192,69900,128,0,69975:0:0:0:0:
448,192,69975,128,0,70050:0:0:0:0:
192,192,70050,128,0,70125:0:0:0:0:
64,192,70125,128,0,70200:0:0:0:0:
320,192,70200,128,0,70275:0:0:0:0:
448,192,70275,128,0,70350:0:0:0:0:
64,192,70350,128,0,70425:0:0:0:0:
192,192,70350,128,0,70425:0:0:0:0:
320,192,70425,128,0,70500:0:0:0:0:
192,192,70500,128,0,70575:0:0:0:0:
64,192,70500,128,0,70575:0:0:0:0:
448,192,70500,128,0,70575:0:0:0:0:
320,192,70575,128,0,70650:0:0:0:0:
448,192,70650,128,0,70725:0:0:0:0:
64,192,70725,128,0,70800:0:0:0:0:
192,192,70800,128,0,70875:0:0:0:0:
320,192,70800,128,0,70875:0:0:0:0:
448,192,70875,128,0,70950:0:0:0:0:
320,192,70950,128,0,71025:0:0:0:0:
192,192,71025,128,0,71100:0:0:0:0:
448,192,71100,128,0,71175:0:0:0:0:
320,192,71100,128,0,71175:0:0:0:0:
64,192,71100,128,0,71175:0:0:0:0:
192,192,71175,128,0,71250:0:0:0:0:
448,192,71250,128,0,71325:0:0:0:0:
192,192,71325,128,0,71400:0:0:0:0:
64,192,71400,128,0,71475:0:0:0:0:
320,192,71475,128,0,71550:0:0:0:0:
64,192,71550,128,0,71625:0:0:0:0:
192,192,71550,128,0,71625:0:0:0:0:
448,192,71625,128,0,71700:0:0:0:0:
320,192,71700,128,0,71775:0:0:0:0:
192,192,71700,128,0,71775:0:0:0:0:
64,192,71700,128,0,71775:0:0:0:0:
448,192,71775,128,0,71850:0:0:0:0:
192,192,71850,128,0,71925:0:0:0:0:
64,192,71925,128,0,72000:0:0:0:0:
320,192,72000,128,0,72075:0:0:0:0:
448,192,72000,128,0,72075:0:0:0:0:
64,192,72075,128,0,72150:0:0:0:0:
192,192,72150,128,0,72225:0:0:0:0:
320,192,72225,128,0,72300:0:0:0:0:
448,192,72300,128,0,72375:0:0:0:0:
192,192,72300,128,0,72375:0:0:0:0:
64,192,72300,128,0,72375:0:0:0:0:
320,192,72375,128,0,72450:0:0:0:0:
448,192,72450,128,0,72525:0:0:0:0:
192,192,72525,128,0,72600:0:0:0:0:
64,192,72600,128,0,72675:0:0:0:0:
320,192,72675,128,0,72750:0:0:0:0:
448,192,72750,128,0,72825:0:0:0:0:
192,192,72750,128,0,72825:0:0:0:0:
64,192,72825,128,0,72900:0:0:0:0:
192,192,72900,128,0,72975:0:0:0:0:
320,192,72900,128,0,72975:0:0:0:0:
448,192,72900,128,0,72975:0:0:0:0:
64,192,72975,128,0,73050:0:0:0:0:
448,192,73050,128,0,73125:0:0:0:0:
320,192,73125,128,0,73200:0:0:0:0:
192,192,73200,128,0,73275:0:0:0:0:
64,192,73200,128,0,73275:0:0:0:0:
320,192,73275,128,0,73350:0:0:0:0:
448,192,73350,128,0,73425:0:0:0:0:
192,192,73425,128,0,73500:0:0:0:0:
64,192,73500,128,0,73575:0:0:0:0:
320,192,73500,128,0,73575:0:0:0:0:
448,192,73500,128,0,73575:0:0:0:0:
192,192,73575,128,0,73650:0:0:0:0:
64,192,73650,128,0,73725:0:0:0:0:
320,192,73650,128,0,73725:0:0:0:0:
448,192,73725,128,0,73800:0:0:0:0:
320,192,73800,128,0,73875:0:0:0:0:
192,192,73875,128,0,73950:0:0:0:0:
64,192,73950,128,0,74025:0:0:0:0:
448,192,73950,128,0,74025:0:0:0:0:
320,192,74025,128,0,74100:0:0:0:0:
448,192,74100,128,0,74175:0:0:0:0:
192,192,74100,128,0,74175:0:0:0:0:
64,192,74100,128,0,74175:0:0:0:0:
320,192,74175,128,0,74250:0:0:0:0:
64,192,74250,128,0,74325:0:0:0:0:
192,192,74325,128,0,74400:0:0:0:0:
320,192,74400,1,0,0:0:0:0:
448,192,74400,1,0,0:0:0:0:
64,192,74475,1,0,0:0:0:0:
192,192,74550,1,0,0:0:0:0:
320,192,74625,1,0,0:0:0:0:
192,192,74700,128,0,74775:0:0:0:0:
64,192,74700,128,0,74775:0:0:0:0:
448,192,74700,128,0,74775:0:0:0:0:
320,192,74775,128,0,74850:0:0:0:0:
64,192,74850,128,0,74925:0:0:0:0:
192,192,74925,128,0,75000:0:0:0:0:
320,192,75000,128,0,75075:0:0:0:0:
448,192,75075,128,0,75150:0:0:0:0:
192,192,75150,128,0,75225:0:0:0:0:
64,192,75150,128,0,75225:0:0:0:0:
320,192,75225,128,0,75300:0:0:0:0:
192,192,75300,128,0,75375:0:0:0:0:
448,192,75300,128,0,75375:0:0:0:0:
64,192,75300,128,0,75375:0:0:0:0:
320,192,75375,128,0,75450:0:0:0:0:
448,192,75450,128,0,75525:0:0:0:0:
64,192,75525,128,0,75600:0:0:0:0:
192,192,75600,128,0,75675:0:0:0:0:
448,192,75600,128,0,75675:0:0:0:0:
320,192,75675,128,0,75750:0:0:0:0:
192,192,75750,128,0,75825:0:0:0:0:
64,192,75825,128,0,75900:0:0:0:0:
192,192,75900,128,0,75975:0:0:0:0:
448,192,75900,128,0,75975:0:0:0:0:
320,192,75900,128,0,75975:0:0:0:0:
64,192,75975,128,0,76050:0:0:0:0:
320,192,76050,128,0,76125:0:0:0:0:
448,192,76125,128,0,76200:0:0:0:0:
192,192,76200,128,0,76275:0:0:0:0:
320,192,76275,128,0,76350:0:0:0:0:
448,192,76350,128,0,76425:0:0:0:0:
64,192,76350,128,0,76425:0:0:0:0:
192,192,76425,128,0,76500:0:0:0:0:
320,192,76500,128,0,76575:0:0:0:0:
448,192,76500,128,0,76575:0:0:0:0:
64,192,76500,128,0,76575:0:0:0:0:
192,192,76575,128,0,76650:0:0:0:0:
320,192,76650,128,0,76725:0:0:0:0:
448,192,76725,128,0,76800:0:0:0:0:
320,192,76800,128,0,76837:0:0:0:0:
192,192,76800,1,0,0:0:0:0:
320,192,77025,128,0,77062:0:0:0:0:
320,192,77250,128,0,77287:0:0:0:0:
192,192,77400,128,0,77437:0:0:0:0:
192,192,77625,128,0,77662:0:0:0:0:
192,192,77850,128,0,77887:0:0:0:0:
64,192,78000,128,0,78037:0:0:0:0:
64,192,78225,128,0,78262:0:0:0:0:
64,192,78450,128,0,78487:0:0:0:0:
320,192,78600,1,0,0:0:0:0:
192,192,78600,1,0,0:0:0:0:
320,192,78900,1,0,0:0:0:0:
448,192,78900,1,0,0:0:0:0:
64,192,78900,1,0,0:0:0:0:
64,192,79050,1,0,0:0:0:0:
192,192,79050,1,0,0:0:0:0:
192,192,79200,1,0,0:0:0:0:
320,192,79200,1,0,0:0:0:0:
448,192,79275,1,0,0:0:0:0:
320,192,79350,1,0,0:0:0:0:
192,192,79425,1,0,0:0:0:0:
64,192,79500,1,0,0:0:0:0:
448,192,79500,1,0,0:0:0:0:
320,192,79500,1,0,0:0:0:0:
192,192,79575,1,0,0:0:0:0:
64,192,79650,1,0,0:0:0:0:
320,192,79725,1,0,0:0:0:0:
448,192,79800,1,0,0:0:0:0:
192,192,79875,1,0,0:0:0:0:
64,192,79950,1,0,0:0:0:0:
320,192,79950,1,0,0:0:0:0:
448,192,80025,1,0,0:0:0:0:
64,192,80100,1,0,0:0:0:0:
192,192,80100,1,0,0:0:0:0:
320,192,80100,1,0,0:0:0:0:
448,192,80175,1,0,0:0:0:0:
192,192,80250,1,0,0:0:0:0:
64,192,80325,1,0,0:0:0:0:
320,192,80400,1,0,0:0:0:0:
448,192,80400,1,0,0:0:0:0:
192,192,80475,1,0,0:0:0:0:
64,192,80550,1,0,0:0:0:0:
320,192,80625,1,0,0:0:0:0:
64,192,80700,1,0,0:0:0:0:
192,192,80700,1,0,0:0:0:0:
448,192,80700,1,0,0:0:0:0:
320,192,80775,1,0,0:0:0:0:
448,192,80850,1,0,0:0:0:0:
192,192,80925,1,0,0:0:0:0:
320,192,81000,1,0,0:0:0:0:
192,192,81075,1,0,0:0:0:0:
64,192,81150,1,0,0:0:0:0:
448,192,81150,1,0,0:0:0:0:
320,192,81225,1,0,0:0:0:0:
64,192,81300,1,0,0:0:0:0:
192,192,81300,1,0,0:0:0:0:
448,192,81300,1,0,0:0:0:0:
320,192,81375,1,0,0:0:0:0:
192,192,81450,1,0,0:0:0:0:
64,192,81525,1,0,0:0:0:0:
448,192,81600,1,0,0:0:0:0:
320,192,81600,1,0,0:0:0:0:
192,192,81675,1,0,0:0:0:0:
320,192,81750,1,0,0:0:0:0:
448,192,81825,1,0,0:0:0:0:
64,192,81900,1,0,0:0:0:0:
192,192,81900,1,0,0:0:0:0:
320,192,81900,1,0,0:0:0:0:
448,192,81975,1,0,0:0:0:0:
64,192,82050,1,0,0:0:0:0:
192,192,82125,1,0,0:0:0:0:
320,192,82200,1,0,0:0:0:0:
192,192,82275,1,0,0:0:0:0:
64,192,82350,1,0,0:0:0:0:
320,192,82350,1,0,0:0:0:0:
448,192,82425,1,0,0:0:0:0:
64,192,82500,1,0,0:0:0:0:
192,192,82500,1,0,0:0:0:0:
320,192,82500,1,0,0:0:0:0:
448,192,82575,1,0,0:0:0:0:
192,192,82650,1,0,0:0:0:0:
64,192,82725,1,0,0:0:0:0:
320,192,82800,1,0,0:0:0:0:
448,192,82800,1,0,0:0:0:0:
192,192,82875,1,0,0:0:0:0:
64,192,82950,1,0,0:0:0:0:
448,192,83025,1,0,0:0:0:0:
64,192,83100,1,0,0:0:0:0:
192,192,83100,1,0,0:0:0:0:
320,192,83100,1,0,0:0:0:0:
448,192,83175,1,0,0:0:0:0:
64,192,83250,1,0,0:0:0:0:
320,192,83250,1,0,0:0:0:0:
192,192,83325,1,0,0:0:0:0:
320,192,83400,1,0,0:0:0:0:
448,192,83475,1,0,0:0:0:0:
64,192,83550,1,0,0:0:0:0:
192,192,83550,1,0,0:0:0:0:
448,192,83625,1,0,0:0:0:0:
64,192,83700,1,0,0:0:0:0:
192,192,83700,1,0,0:0:0:0:
320,192,83700,1,0,0:0:0:0:
448,192,83775,1,0,0:0:0:0:
320,192,83850,1,0,0:0:0:0:
192,192,83925,1,0,0:0:0:0:
64,192,84000,1,0,0:0:0:0:
448,192,84000,1,0,0:0:0:0:
320,192,84075,1,0,0:0:0:0:
192,192,84150,1,0,0:0:0:0:
64,192,84225,1,0,0:0:0:0:
192,192,84300,1,0,0:0:0:0:
320,192,84300,1,0,0:0:0:0:
448,192,84300,1,0,0:0:0:0:
64,192,84375,1,0,0:0:0:0:
320,192,84450,1,0,0:0:0:0:
448,192,84525,1,0,0:0:0:0:
192,192,84600,1,0,0:0:0:0:
320,192,84675,1,0,0:0:0:0:
64,192,84750,1,0,0:0:0:0:
448,192,84750,1,0,0:0:0:0:
320,192,84825,1,0,0:0:0:0:
64,192,84900,1,0,0:0:0:0:
192,192,84900,1,0,0:0:0:0:
448,192,84900,1,0,0:0:0:0:
320,192,84975,1,0,0:0:0:0:
192,192,85050,1,0,0:0:0:0:
64,192,85125,1,0,0:0:0:0:
448,192,85200,1,0,0:0:0:0:
320,192,85200,1,0,0:0:0:0:
192,192,85275,1,0,0:0:0:0:
64,192,85350,1,0,0:0:0:0:
320,192,85425,1,0,0:0:0:0:
64,192,85500,1,0,0:0:0:0:
192,192,85500,1,0,0:0:0:0:
448,192,85500,1,0,0:0:0:0:
320,192,85575,1,0,0:0:0:0:
448,192,85650,1,0,0:0:0:0:
64,192,85725,1,0,0:0:0:0:
192,192,85800,1,0,0:0:0:0:
320,192,85875,1,0,0:0:0:0:
448,192,85950,1,0,0:0:0:0:
192,192,85950,1,0,0:0:0:0:
64,192,86025,1,0,0:0:0:0:
192,192,86100,1,0,0:0:0:0:
448,192,86100,1,0,0:0:0:0:
320,192,86100,1,0,0:0:0:0:
64,192,86175,1,0,0:0:0:0:
448,192,86250,1,0,0:0:0:0:
320,192,86325,1,0,0:0:0:0:
64,192,86400,1,0,0:0:0:0:
192,192,86400,1,0,0:0:0:0:
320,192,86475,1,0,0:0:0:0:
448,192,86550,1,0,0:0:0:0:
192,192,86625,1,0,0:0:0:0:
64,192,86700,1,0,0:0:0:0:
320,192,86700,1,0,0:0:0:0:
448,192,86700,1,0,0:0:0:0:
192,192,86775,1,0,0:0:0:0:
64,192,86850,1,0,0:0:0:0:
320,192,86850,1,0,0:0:0:0:
448,192,86925,1,0,0:0:0:0:
192,192,87000,1,0,0:0:0:0:
64,192,87075,1,0,0:0:0:0:
320,192,87150,1,0,0:0:0:0:
448,192,87225,1,0,0:0:0:0:
64,192,87300,1,0,0:0:0:0:
192,192,87300,1,0,0:0:0:0:
320,192,87375,1,0,0:0:0:0:
448,192,87450,1,0,0:0:0:0:
320,192,87525,1,0,0:0:0:0:
192,192,87600,1,0,0:0:0:0:
448,192,87600,1,0,0:0:0:0:
64,192,87675,1,0,0:0:0:0:
192,192,87750,1,0,0:0:0:0:
320,192,87825,1,0,0:0:0:0:
64,192,87900,1,0,0:0:0:0:
192,192,87900,1,0,0:0:0:0:
448,192,87900,1,0,0:0:0:0:
320,192,87975,1,0,0:0:0:0:
64,192,88050,1,0,0:0:0:0:
448,192,88050,1,0,0:0:0:0:
192,192,88125,1,0,0:0:0:0:
320,192,88200,1,0,0:0:0:0:
192,192,88275,1,0,0:0:0:0:
64,192,88350,1,0,0:0:0:0:
320,192,88425,1,0,0:0:0:0:
448,192,88500,1,0,0:0:0:0:
192,192,88500,1,0,0:0:0:0:
64,192,88575,1,0,0:0:0:0:
320,192,88650,1,0,0:0:0:0:
448,192,88725,1,0,0:0:0:0:
64,192,88800,1,0,0:0:0:0:
192,192,88800,1,0,0:0:0:0:
320,192,88875,1,0,0:0:0:0:
448,192,88950,1,0,0:0:0:0:
64,192,89025,1,0,0:0:0:0:
192,192,89100,1,0,0:0:0:0:
320,192,89100,1,0,0:0:0:0:
448,192,89100,1,0,0:0:0:0:
64,192,89175,1,0,0:0:0:0:
320,192,89250,1,0,0:0:0:0:
192,192,89325,1,0,0:0:0:0:
320,192,89400,1,0,0:0:0:0:
448,192,89475,1,0,0:0:0:0:
64,192,89550,1,0,0:0:0:0:
192,192,89550,1,0,0:0:0:0:
320,192,89625,1,0,0:0:0:0:
192,192,89700,1,0,0:0:0:0:
64,192,89700,1,0,0:0:0:0:
448,192,89700,1,0,0:0:0:0:
320,192,89775,1,0,0:0:0:0:
448,192,89850,1,0,0:0:0:0:
192,192,89925,1,0,0:0:0:0:
64,192,90000,1,0,0:0:0:0:
320,192,90075,1,0,0:0:0:0:
448,192,90150,1,0,0:0:0:0:
192,192,90225,1,0,0:0:0:0:
64,192,90300,1,0,0:0:0:0:
320,192,90300,1,0,0:0:0:0:
448,192,90300,1,0,0:0:0:0:
192,192,90375,1,0,0:0:0:0:
64,192,90450,1,0,0:0:0:0:
448,192,90450,1,0,0:0:0:0:
320,192,90525,1,0,0:0:0:0:
192,192,90600,1,0,0:0:0:0:
64,192,90675,1,0,0:0:0:0:
192,192,90750,1,0,0:0:0:0:
448,192,90750,1,0,0:0:0:0:
320,192,90825,1,0,0:0:0:0:
64,192,90900,1,0,0:0:0:0:
192,192,90900,1,0,0:0:0:0:
448,192,90900,1,0,0:0:0:0:
320,192,90975,1,0,0:0:0:0:
448,192,91050,1,0,0:0:0:0:
64,192,91125,1,0,0:0:0:0:
192,192,91200,1,0,0:0:0:0:
320,192,91200,1,0,0:0:0:0:
448,192,91275,1,0,0:0:0:0:
64,192,91350,1,0,0:0:0:0:
192,192,91425,1,0,0:0:0:0:
64,192,91500,1,0,0:0:0:0:
320,192,91500,1,0,0:0:0:0:
448,192,91500,1,0,0:0:0:0:
192,192,91575,1,0,0:0:0:0:
320,192,91650,1,0,0:0:0:0:
448,192,91725,1,0,0:0:0:0:
192,192,91800,1,0,0:0:0:0:
64,192,91875,1,0,0:0:0:0:
192,192,91950,1,0,0:0:0:0:
448,192,91950,1,0,0:0:0:0:
320,192,92025,1,0,0:0:0:0:
64,192,92100,1,0,0:0:0:0:
192,192,92100,1,0,0:0:0:0:
448,192,92100,1,0,0:0:0:0:
320,192,92175,1,0,0:0:0:0:
448,192,92250,1,0,0:0:0:0:
64,192,92325,1,0,0:0:0:0:
192,192,92400,1,0,0:0:0:0:
320,192,92400,1,0,0:0:0:0:
448,192,92475,1,0,0:0:0:0:
320,192,92550,1,0,0:0:0:0:
192,192,92625,1,0,0:0:0:0:
64,192,92700,1,0,0:0:0:0:
320,192,92700,1,0,0:0:0:0:
448,192,92700,1,0,0:0:0:0:
192,192,92775,1,0,0:0:0:0:
64,192,92850,1,0,0:0:0:0:
448,192,92850,1,0,0:0:0:0:
320,192,92925,1,0,0:0:0:0:
192,192,93000,1,0,0:0:0:0:
64,192,93075,1,0,0:0:0:0:
448,192,93150,1,0,0:0:0:0:
320,192,93150,1,0,0:0:0:0:
192,192,93225,1,0,0:0:0:0:
64,192,93300,1,0,0:0:0:0:
320,192,93300,1,0,0:0:0:0:
448,192,93300,1,0,0:0:0:0:
192,192,93375,1,0,0:0:0:0:
448,192,93450,1,0,0:0:0:0:
320,192,93450,1,0,0:0:0:0:
64,192,93525,1,0,0:0:0:0:
320,192,93600,1,0,0:0:0:0:
448,192,93600,1,0,0:0:0:0:
192,192,93675,1,0,0:0:0:0:
320,192,93750,1,0,0:0:0:0:
448,192,93750,1,0,0:0:0:0:
64,192,93825,1,0,0:0:0:0:
192,192,93900,1,0,0:0:0:0:
320,192,93900,1,0,0:0:0:0:
448,192,93900,1,0,0:0:0:0:
64,192,93975,1,0,0:0:0:0:
192,192,94050,1,0,0:0:0:0:
320,192,94125,1,0,0:0:0:0:
448,192,94200,1,0,0:0:0:0:
192,192,94275,1,0,0:0:0:0:
64,192,94350,1,0,0:0:0:0:
320,192,94350,1,0,0:0:0:0:
448,192,94425,1,0,0:0:0:0:
64,192,94500,1,0,0:0:0:0:
192,192,94500,1,0,0:0:0:0:
320,192,94500,1,0,0:0:0:0:
448,192,94575,1,0,0:0:0:0:
192,192,94650,1,0,0:0:0:0:
64,192,94725,1,0,0:0:0:0:
320,192,94800,1,0,0:0:0:0:
448,192,94800,1,0,0:0:0:0:
192,192,94875,1,0,0:0:0:0:
320,192,94950,1,0,0:0:0:0:
192,192,95025,1,0,0:0:0:0:
64,192,95100,1,0,0:0:0:0:
320,192,95100,1,0,0:0:0:0:
448,192,95100,1,0,0:0:0:0:
192,192,95175,1,0,0:0:0:0:
64,192,95250,1,0,0:0:0:0:
448,192,95250,1,0,0:0:0:0:
320,192,95325,1,0,0:0:0:0:
192,192,95400,1,0,0:0:0:0:
448,192,95475,1,0,0:0:0:0:
64,192,95550,1,0,0:0:0:0:
320,192,95550,1,0,0:0:0:0:
192,192,95625,1,0,0:0:0:0:
64,192,95700,1,0,0:0:0:0:
320,192,95700,1,0,0:0:0:0:
448,192,95700,1,0,0:0:0:0:
192,192,95775,1,0,0:0:0:0:
64,192,95850,1,0,0:0:0:0:
320,192,95925,1,0,0:0:0:0:
448,192,96000,1,0,0:0:0:0:
192,192,96000,1,0,0:0:0:0:
64,192,96075,1,0,0:0:0:0:
320,192,96150,1,0,0:0:0:0:
448,192,96225,1,0,0:0:0:0:
64,192,96300,1,0,0:0:0:0:
192,192,96300,1,0,0:0:0:0:
320,192,96300,1,0,0:0:0:0:
448,192,96375,1,0,0:0:0:0:
64,192,96450,1,0,0:0:0:0:
320,192,96450,1,0,0:0:0:0:
192,192,96525,1,0,0:0:0:0:
64,192,96600,1,0,0:0:0:0:
320,192,96675,1,0,0:0:0:0:
448,192,96750,1,0,0:0:0:0:
192,192,96825,1,0,0:0:0:0:
64,192,96900,1,0,0:0:0:0:
320,192,96900,1,0,0:0:0:0:
448,192,96900,1,0,0:0:0:0:
192,192,96975,1,0,0:0:0:0:
64,192,97050,1,0,0:0:0:0:
320,192,97125,1,0,0:0:0:0:
64,192,97200,1,0,0:0:0:0:
192,192,97200,1,0,0:0:0:0:
320,192,97275,1,0,0:0:0:0:
448,192,97350,1,0,0:0:0:0:
192,192,97425,1,0,0:0:0:0:
64,192,97500,1,0,0:0:0:0:
320,192,97500,1,0,0:0:0:0:
448,192,97500,1,0,0:0:0:0:
192,192,97575,1,0,0:0:0:0:
64,192,97650,1,0,0:0:0:0:
320,192,97650,1,0,0:0:0:0:
448,192,97725,1,0,0:0:0:0:
192,192,97800,1,0,0:0:0:0:
320,192,97875,1,0,0:0:0:0:
64,192,97950,1,0,0:0:0:0:
192,192,98025,1,0,0:0:0:0:
64,192,98100,1,0,0:0:0:0:
320,192,98100,1,0,0:0:0:0:
448,192,98175,1,0,0:0:0:0:
192,192,98250,1,0,0:0:0:0:
64,192,98325,1,0,0:0:0:0:
320,192,98400,1,0,0:0:0:0:
448,192,98400,1,0,0:0:0:0:
192,192,98400,1,0,0:0:0:0:
64,192,98475,1,0,0:0:0:0:
320,192,98550,1,0,0:0:0:0:
448,192,98625,1,0,0:0:0:0:
320,192,98700,128,0,98775:0:0:0:0:
192,192,98700,128,0,98775:0:0:0:0:
64,192,98700,128,0,98775:0:0:0:0:
448,192,98775,128,0,98850:0:0:0:0:
192,192,98850,128,0,98925:0:0:0:0:
64,192,98925,128,0,99000:0:0:0:0:
320,192,99000,128,0,99075:0:0:0:0:
448,192,99075,128,0,99150:0:0:0:0:
64,192,99150,128,0,99225:0:0:0:0:
192,192,99150,128,0,99225:0:0:0:0:
320,192,99225,128,0,99300:0:0:0:0:
192,192,99300,128,0,99375:0:0:0:0:
64,192,99300,128,0,99375:0:0:0:0:
448,192,99300,128,0,99375:0:0:0:0:
320,192,99375,128,0,99450:0:0:0:0:
448,192,99450,128,0,99525:0:0:0:0:
192,192,99525,128,0,99600:0:0:0:0:
64,192,99600,128,0,99675:0:0:0:0:
320,192,99600,128,0,99675:0:0:0:0:
448,192,99675,128,0,99750:0:0:0:0:
192,192,99750,128,0,99825:0:0:0:0:
64,192,99825,128,0,99900:0:0:0:0:
192,192,99900,128,0,99975:0:0:0:0:
320,192,99900,128,0,99975:0:0:0:0:
448,192,99900,128,0,99975:0:0:0:0:
64,192,99975,128,0,100050:0:0:0:0:
320,192,100050,128,0,100125:0:0:0:0:
448,192,100050,128,0,100125:0:0:0:0:
192,192,100125,128,0,100200:0:0:0:0:
64,192,100200,128,0,100275:0:0:0:0:
192,192,100275,128,0,100350:0:0:0:0:
320,192,100350,128,0,100425:0:0:0:0:
448,192,100350,128,0,100425:0:0:0:0:
64,192,100425,128,0,100500:0:0:0:0:
192,192,100500,128,0,100575:0:0:0:0:
320,192,100500,128,0,100575:0:0:0:0:
448,192,100500,128,0,100575:0:0:0:0:
64,192,100575,128,0,100650:0:0:0:0:
448,192,100650,128,0,100725:0:0:0:0:
192,192,100725,128,0,100800:0:0:0:0:
320,192,100800,128,0,100875:0:0:0:0:
64,192,100800,128,0,100875:0:0:0:0:
448,192,100875,128,0,100950:0:0:0:0:
192,192,100950,128,0,101025:0:0:0:0:
320,192,101025,128,0,101100:0:0:0:0:
448,192,101100,128,0,101175:0:0:0:0:
192,192,101100,128,0,101175:0:0:0:0:
64,192,101100,128,0,101175:0:0:0:0:
320,192,101175,128,0,101250:0:0:0:0:
64,192,101250,128,0,101325:0:0:0:0:
192,192,101325,128,0,101400:0:0:0:0:
448,192,101400,128,0,101475:0:0:0:0:
320,192,101475,128,0,101550:0:0:0:0:
448,192,101550,128,0,101625:0:0:0:0:
192,192,101550,128,0,101625:0:0:0:0:
64,192,101625,128,0,101700:0:0:0:0:
192,192,101700,128,0,101775:0:0:0:0:
320,192,101700,128,0,101775:0:0:0:0:
448,192,101700,128,0,101775:0:0:0:0:
64,192,101775,128,0,101850:0:0:0:0:
320,192,101850,128,0,101925:0:0:0:0:
192,192,101925,128,0,102000:0:0:0:0:
64,192,102000,128,0,102075:0:0:0:0:
448,192,102000,128,0,102075:0:0:0:0:
320,192,102075,128,0,102150:0:0:0:0:
192,192,102150,128,0,102225:0:0:0:0:
64,192,102225,128,0,102300:0:0:0:0:
192,192,102300,128,0,102375:0:0:0:0:
320,192,102300,128,0,102375:0:0:0:0:
448,192,102300,128,0,102375:0:0:0:0:
64,192,102375,128,0,102450:0:0:0:0:
448,192,102450,128,0,102525:0:0:0:0:
64,192,102525,128,0,102600:0:0:0:0:
192,192,102525,128,0,102600:0:0:0:0:
320,192,102600,128,0,102675:0:0:0:0:
448,192,102675,128,0,102750:0:0:0:0:
64,192,102750,128,0,102825:0:0:0:0:
192,192,102750,128,0,102825:0:0:0:0:
320,192,102825,128,0,102900:0:0:0:0:
448,192,102900,128,0,102975:0:0:0:0:
192,192,102900,128,0,102975:0:0:0:0:
64,192,102900,128,0,102975:0:0:0:0:
320,192,102975,128,0,103050:0:0:0:0:
192,192,103050,128,0,103125:0:0:0:0:
64,192,103050,128,0,103125:0:0:0:0:
320,192,103125,128,0,103200:0:0:0:0:
64,192,103200,1,0,0:0:0:0:
192,192,103200,1,0,0:0:0:0:
448,192,103275,1,0,0:0:0:0:
320,192,103350,1,0,0:0:0:0:
192,192,103425,1,0,0:0:0:0:
448,192,103500,128,0,103575:0:0:0:0:
320,192,103500,128,0,103575:0:0:0:0:
64,192,103500,128,0,103575:0:0:0:0:
192,192,103575,128,0,103650:0:0:0:0:
64,192,103650,128,0,103725:0:0:0:0:
320,192,103725,128,0,103800:0:0:0:0:
448,192,103800,128,0,103875:0:0:0:0:
64,192,103875,128,0,103950:0:0:0:0:
192,192,103950,128,0,104025:0:0:0:0:
320,192,103950,128,0,104025:0:0:0:0:
448,192,104025,128,0,104100:0:0:0:0:
320,192,104100,128,0,104175:0:0:0:0:
192,192,104100,128,0,104175:0:0:0:0:
64,192,104100,128,0,104175:0:0:0:0:
448,192,104175,128,0,104250:0:0:0:0:
64,192,104250,128,0,104325:0:0:0:0:
192,192,104325,128,0,104400:0:0:0:0:
320,192,104400,128,0,104475:0:0:0:0:
448,192,104400,128,0,104475:0:0:0:0:
192,192,104475,128,0,104550:0:0:0:0:
64,192,104550,128,0,104625:0:0:0:0:
320,192,104625,128,0,104700:0:0:0:0:
448,192,104700,128,0,104775:0:0:0:0:
192,192,104700,128,0,104775:0:0:0:0:
64,192,104700,128,0,104775:0:0:0:0:
320,192,104775,128,0,104850:0:0:0:0:
192,192,104850,128,0,104925:0:0:0:0:
64,192,104925,128,0,105000:0:0:0:0:
320,192,105000,128,0,105075:0:0:0:0:
448,192,105075,128,0,105150:0:0:0:0:
64,192,105150,128,0,105225:0:0:0:0:
192,192,105150,128,0,105225:0:0:0:0:
320,192,105225,128,0,105300:0:0:0:0:
448,192,105300,128,0,105375:0:0:0:0:
192,192,105300,128,0,105375:0:0:0:0:
64,192,105300,128,0,105375:0:0:0:0:
320,192,105375,128,0,105450:0:0:0:0:
64,192,105450,128,0,105525:0:0:0:0:
192,192,105525,128,0,105600:0:0:0:0:
448,192,105600,1,0,0:0:0:0:
320,192,105600,1,0,0:0:0:0:
64,192,105675,1,0,0:0:0:0:
192,192,105750,1,0,0:0:0:0:
320,192,105825,1,0,0:0:0:0:
448,192,105900,128,0,105975:0:0:0:0:
192,192,105900,128,0,105975:0:0:0:0:
64,192,105900,128,0,105975:0:0:0:0:
320,192,105975,128,0,106050:0:0:0:0:
448,192,106050,128,0,106125:0:0:0:0:
64,192,106050,128,0,106125:0:0:0:0:
320,192,106125,128,0,106200:0:0:0:0:
192,192,106200,128,0,106275:0:0:0:0:
64,192,106275,128,0,106350:0:0:0:0:
448,192,106350,128,0,106425:0:0:0:0:
320,192,106425,128,0,106500:0:0:0:0:
448,192,106500,128,0,106575:0:0:0:0:
192,192,106500,128,0,106575:0:0:0:0:
64,192,106500,128,0,106575:0:0:0:0:
320,192,106575,128,0,106650:0:0:0:0:
192,192,106650,128,0,106725:0:0:0:0:
64,192,106725,128,0,106800:0:0:0:0:
320,192,106800,128,0,106875:0:0:0:0:
448,192,106800,128,0,106875:0:0:0:0:
64,192,106875,128,0,106950:0:0:0:0:
192,192,106950,128,0,107025:0:0:0:0:
320,192,107025,128,0,107100:0:0:0:0:
448,192,107100,128,0,107175:0:0:0:0:
192,192,107100,128,0,107175:0:0:0:0:
64,192,107100,128,0,107175:0:0:0:0:
320,192,107175,128,0,107250:0:0:0:0:
64,192,107250,128,0,107325:0:0:0:0:
448,192,107250,128,0,107325:0:0:0:0:
192,192,107325,128,0,107400:0:0:0:0:
320,192,107400,128,0,107475:0:0:0:0:
192,192,107475,128,0,107550:0:0:0:0:
64,192,107550,128,0,107625:0:0:0:0:
320,192,107625,128,0,107700:0:0:0:0:
448,192,107700,128,0,107775:0:0:0:0:
192,192,107700,128,0,107775:0:0:0:0:
64,192,107700,128,0,107775:0:0:0:0:
320,192,107775,128,0,107850:0:0:0:0:
192,192,107850,128,0,107925:0:0:0:0:
448,192,107850,128,0,107925:0:0:0:0:
64,192,107925,128,0,108000:0:0:0:0:
448,192,108000,1,0,0:0:0:0:
320,192,108000,1,0,0:0:0:0:
192,192,108075,1,0,0:0:0:0:
64,192,108150,1,0,0:0:0:0:
448,192,108225,1,0,0:0:0:0:
64,192,108300,128,0,108375:0:0:0:0:
192,192,108300,128,0,108375:0:0:0:0:
320,192,108300,128,0,108375:0:0:0:0:
448,192,108375,128,0,108450:0:0:0:0:
320,192,108450,128,0,108525:0:0:0:0:
64,192,108525,128,0,108600:0:0:0:0:
192,192,108600,128,0,108675:0:0:0:0:
320,192,108675,128,0,108750:0:0:0:0:
448,192,108750,128,0,108825:0:0:0:0:
64,192,108750,128,0,108825:0:0:0:0:
192,192,108825,128,0,108900:0:0:0:0:
64,192,108900,128,0,108975:0:0:0:0:
320,192,108900,128,0,108975:0:0:0:0:
448,192,108900,128,0,108975:0:0:0:0:
192,192,108975,128,0,109050:0:0:0:0:
320,192,109050,128,0,109125:0:0:0:0:
448,192,109125,128,0,109200:0:0:0:0:
192,192,109200,128,0,109275:0:0:0:0:
64,192,109200,128,0,109275:0:0:0:0:
320,192,109275,128,0,109350:0:0:0:0:
192,192,109350,128,0,109425:0:0:0:0:
64,192,109425,128,0,109500:0:0:0:0:
192,192,109500,128,0,109575:0:0:0:0:
320,192,109500,128,0,109575:0:0:0:0:
448,192,109500,128,0,109575:0:0:0:0:
64,192,109575,128,0,109650:0:0:0:0:
448,192,109650,128,0,109725:0:0:0:0:
320,192,109725,128,0,109800:0:0:0:0:
192,192,109800,128,0,109875:0:0:0:0:
320,192,109875,128,0,109950:0:0:0:0:
192,192,109950,128,0,110025:0:0:0:0:
64,192,109950,128,0,110025:0:0:0:0:
448,192,110025,128,0,110100:0:0:0:0:
320,192,110100,128,0,110175:0:0:0:0:
192,192,110100,128,0,110175:0:0:0:0:
64,192,110100,128,0,110175:0:0:0:0:
448,192,110175,128,0,110250:0:0:0:0:
64,192,110250,128,0,110325:0:0:0:0:
192,192,110325,128,0,110400:0:0:0:0:
320,192,110400,128,0,110475:0:0:0:0:
448,192,110400,128,0,110475:0:0:0:0:
192,192,110475,128,0,110550:0:0:0:0:
64,192,110550,128,0,110625:0:0:0:0:
448,192,110625,128,0,110700:0:0:0:0:
320,192,110700,128,0,110775:0:0:0:0:
192,192,110700,128,0,110775:0:0:0:0:
64,192,110700,128,0,110775:0:0:0:0:
448,192,110775,128,0,110850:0:0:0:0:
192,192,110850,128,0,110925:0:0:0:0:
320,192,110925,128,0,111000:0:0:0:0:
192,192,111000,128,0,111075:0:0:0:0:
64,192,111075,128,0,111150:0:0:0:0:
320,192,111150,128,0,111225:0:0:0:0:
448,192,111150,128,0,111225:0:0:0:0:
64,192,111225,128,0,111300:0:0:0:0:
192,192,111300,128,0,111375:0:0:0:0:
448,192,111300,128,0,111375:0:0:0:0:
320,192,111300,128,0,111375:0:0:0:0:
64,192,111375,128,0,111450:0:0:0:0:
192,192,111450,128,0,111525:0:0:0:0:
448,192,111525,128,0,111600:0:0:0:0:
320,192,111600,128,0,111675:0:0:0:0:
64,192,111600,128,0,111675:0:0:0:0:
192,192,111675,128,0,111750:0:0:0:0:
320,192,111750,128,0,111825:0:0:0:0:
448,192,111825,128,0,111900:0:0:0:0:
320,192,111900,128,0,111975:0:0:0:0:
192,192,111900,128,0,111975:0:0:0:0:
64,192,111900,128,0,111975:0:0:0:0:
448,192,111975,128,0,112050:0:0:0:0:
64,192,112050,128,0,112125:0:0:0:0:
192,192,112125,128,0,112200:0:0:0:0:
320,192,112200,128,0,112275:0:0:0:0:
448,192,112200,128,0,112275:0:0:0:0:
64,192,112275,128,0,112350:0:0:0:0:
448,192,112350,128,0,112425:0:0:0:0:
320,192,112350,128,0,112425:0:0:0:0:
64,192,112425,128,0,112500:0:0:0:0:
448,192,112500,128,0,112575:0:0:0:0:
192,192,112500,128,0,112575:0:0:0:0:
320,192,112500,128,0,112575:0:0:0:0:
64,192,112575,128,0,112650:0:0:0:0:
192,192,112650,128,0,112725:0:0:0:0:
320,192,112725,128,0,112800:0:0:0:0:
64,192,112800,1,0,0:0:0:0:
448,192,112800,1,0,0:0:0:0:
320,192,112875,1,0,0:0:0:0:
192,192,112950,128,0,113025:0:0:0:0:
64,192,113025,128,0,113100:0:0:0:0:
192,192,113100,128,0,113175:0:0:0:0:
320,192,113175,128,0,113250:0:0:0:0:
448,192,113250,128,0,113325:0:0:0:0:
64,192,113325,128,0,113400:0:0:0:0:
192,192,113400,128,0,113475:0:0:0:0:
320,192,113475,128,0,113550:0:0:0:0:
64,192,113550,128,0,113625:0:0:0:0:
192,192,113625,128,0,113700:0:0:0:0:
320,192,113700,128,0,113775:0:0:0:0:
448,192,113775,128,0,113850:0:0:0:0:
320,192,113850,128,0,113925:0:0:0:0:
192,192,113925,128,0,114000:0:0:0:0:
64,192,114000,128,0,114075:0:0:0:0:
448,192,114075,128,0,114150:0:0:0:0:
320,192,114150,128,0,114225:0:0:0:0:
192,192,114225,128,0,114300:0:0:0:0:
64,192,114300,128,0,114375:0:0:0:0:
192,192,114375,128,0,114450:0:0:0:0:
320,192,114450,128,0,114525:0:0:0:0:
64,192,114525,128,0,114600:0:0:0:0:
192,192,114600,128,0,114675:0:0:0:0:
448,192,114675,128,0,114750:0:0:0:0:
320,192,114750,128,0,114825:0:0:0:0:
192,192,114825,128,0,114900:0:0:0:0:
64,192,114900,128,0,114975:0:0:0:0:
448,192,114900,128,0,114975:0:0:0:0:
320,192,114975,128,0,115050:0:0:0:0:
192,192,115050,128,0,115125:0:0:0:0:
64,192,115125,128,0,115200:0:0:0:0:
320,192,115200,1,0,0:0:0:0:
448,192,115200,128,0,115237:0:0:0:0:
448,192,115425,128,0,115462:0:0:0:0:
448,192,115650,128,0,115687:0:0:0:0:
320,192,115800,128,0,115837:0:0:0:0:
320,192,116025,128,0,116062:0:0:0:0:
320,192,116250,128,0,116287:0:0:0:0:
192,192,116400,128,0,116437:0:0:0:0:
192,192,116625,128,0,116662:0:0:0:0:
192,192,116850,128,0,116887:0:0:0:0:
64,192,117000,1,0,0:0:0:0:
320,192,117000,1,0,0:0:0:0:
64,192,117150,1,0,0:0:0:0:
320,192,117150,1,0,0:0:0:0:
448,192,117300,1,0,0:0:0:0:
320,192,117375,1,0,0:0:0:0:
192,192,117450,1,0,0:0:0:0:
64,192,117525,1,0,0:0:0:0:
320,192,117600,1,0,0:0:0:0:
448,192,117600,1,0,0:0:0:0:
448,192,117750,1,0,0:0:0:0:
64,192,117900,1,0,0:0:0:0:
320,192,117900,1,0,0:0:0:0:
192,192,117900,1,0,0:0:0:0:
320,192,118050,1,0,0:0:0:0:
448,192,118125,1,0,0:0:0:0:
192,192,118200,128,0,118275:0:0:0:0:
320,192,118275,1,0,0:0:0:0:
64,192,118350,1,0,0:0:0:0:
448,192,118350,1,0,0:0:0:0:
320,192,118500,1,0,0:0:0:0:
448,192,118500,1,0,0:0:0:0:
192,192,118500,1,0,0:0:0:0:
64,192,118650,128,0,118725:0:0:0:0:
192,192,118725,1,0,0:0:0:0:
320,192,118800,1,0,0:0:0:0:
448,192,118800,1,0,0:0:0:0:
192,192,118950,1,0,0:0:0:0:
64,192,119025,1,0,0:0:0:0:
448,192,119100,128,0,119175:0:0:0:0:
320,192,119100,1,0,0:0:0:0:
192,192,119100,1,0,0:0:0:0:
64,192,119250,1,0,0:0:0:0:
192,192,119325,1,0,0:0:0:0:
320,192,119400,128,0,119475:0:0:0:0:
192,192,119475,1,0,0:0:0:0:
64,192,119550,1,0,0:0:0:0:
448,192,119550,1,0,0:0:0:0:
64,192,119700,1,0,0:0:0:0:
192,192,119700,1,0,0:0:0:0:
320,192,119700,1,0,0:0:0:0:
192,192,119850,1,0,0:0:0:0:
320,192,119925,1,0,0:0:0:0:
448,192,120000,128,0,120075:0:0:0:0:
64,192,120000,1,0,0:0:0:0:
192,192,120150,1,0,0:0:0:0:
320,192,120225,1,0,0:0:0:0:
448,192,120300,1,0,0:0:0:0:
192,192,120300,1,0,0:0:0:0:
64,192,120300,1,0,0:0:0:0:
320,192,120450,1,0,0:0:0:0:
64,192,120525,1,0,0:0:0:0:
192,192,120600,128,0,120675:0:0:0:0:
320,192,120675,1,0,0:0:0:0:
448,192,120750,1,0,0:0:0:0:
64,192,120750,1,0,0:0:0:0:
320,192,120900,1,0,0:0:0:0:
448,192,120900,1,0,0:0:0:0:
192,192,120900,1,0,0:0:0:0:
64,192,121050,128,0,121125:0:0:0:0:
192,192,121125,1,0,0:0:0:0:
448,192,121200,1,0,0:0:0:0:
320,192,121200,1,0,0:0:0:0:
192,192,121350,1,0,0:0:0:0:
64,192,121425,1,0,0:0:0:0:
320,192,121500,128,0,121575:0:0:0:0:
448,192,121500,1,0,0:0:0:0:
192,192,121500,1,0,0:0:0:0:
320,192,121650,1,0,0:0:0:0:
448,192,121725,1,0,0:0:0:0:
192,192,121800,128,0,121875:0:0:0:0:
64,192,121875,1,0,0:0:0:0:
320,192,121950,1,0,0:0:0:0:
448,192,121950,1,0,0:0:0:0:
64,192,122100,1,0,0:0:0:0:
448,192,122100,1,0,0:0:0:0:
192,192,122100,1,0,0:0:0:0:
320,192,122250,1,0,0:0:0:0:
192,192,122325,1,0,0:0:0:0:
448,192,122400,128,0,122475:0:0:0:0:
320,192,122400,1,0,0:0:0:0:
192,192,122550,1,0,0:0:0:0:
320,192,122625,1,0,0:0:0:0:
192,192,122700,1,0,0:0:0:0:
64,192,122700,1,0,0:0:0:0:
448,192,122700,1,0,0:0:0:0:
64,192,122850,1,0,0:0:0:0:
192,192,122925,1,0,0:0:0:0:
320,192,123000,128,0,123075:0:0:0:0:
64,192,123075,1,0,0:0:0:0:
192,192,123150,1,0,0:0:0:0:
448,192,123150,1,0,0:0:0:0:
64,192,123300,1,0,0:0:0:0:
320,192,123300,1,0,0:0:0:0:
448,192,123300,1,0,0:0:0:0:
64,192,123450,128,0,123525:0:0:0:0:
192,192,123525,1,0,0:0:0:0:
320,192,123600,1,0,0:0:0:0:
448,192,123600,1,0,0:0:0:0:
64,192,123750,1,0,0:0:0:0:
192,192,123825,1,0,0:0:0:0:
448,192,123900,128,0,123975:0:0:0:0:
320,192,123900,1,0,0:0:0:0:
64,192,123900,1,0,0:0:0:0:
448,192,124050,1,0,0:0:0:0:
320,192,124125,1,0,0:0:0:0:
192,192,124200,128,0,124275:0:0:0:0:
64,192,124275,1,0,0:0:0:0:
320,192,124350,1,0,0:0:0:0:
448,192,124350,1,0,0:0:0:0:
448,192,124500,1,0,0:0:0:0:
192,192,124500,1,0,0:0:0:0:
64,192,124500,1,0,0:0:0:0:
320,192,124650,1,0,0:0:0:0:
192,192,124725,1,0,0:0:0:0:
320,192,124800,128,0,124875:0:0:0:0:
448,192,124800,1,0,0:0:0:0:
320,192,124950,1,0,0:0:0:0:
64,192,125100,1,0,0:0:0:0:
64,192,125250,1,0,0:0:0:0:
192,192,125400,128,0,125475:0:0:0:0:
192,192,125550,1,0,0:0:0:0:
448,192,125700,1,0,0:0:0:0:
320,192,125775,1,0,0:0:0:0:
64,192,125850,128,0,125925:0:0:0:0:
448,192,126150,1,0,0:0:0:0:
448,192,126300,128,0,126375:0:0:0:0:
320,192,126450,1,0,0:0:0:0:
320,192,126600,128,0,126675:0:0:0:0:
192,192,126750,1,0,0:0:0:0:
192,192,126900,1,0,0:0:0:0:
64,192,127050,1,0,0:0:0:0:
320,192,127200,1,0,0:0:0:0:
448,192,127200,1,0,0:0:0:0:
192,192,127350,1,0,0:0:0:0:
320,192,127425,1,0,0:0:0:0:
448,192,127500,1,0,0:0:0:0:
192,192,127500,1,0,0:0:0:0:
64,192,127500,1,0,0:0:0:0:
64,192,127650,1,0,0:0:0:0:
192,192,127725,1,0,0:0:0:0:
320,192,127800,128,0,127875:0:0:0:0:
192,192,127875,1,0,0:0:0:0:
448,192,127950,1,0,0:0:0:0:
64,192,127950,1,0,0:0:0:0:
320,192,128100,1,0,0:0:0:0:
448,192,128100,1,0,0:0:0:0:
192,192,128100,1,0,0:0:0:0:
64,192,128250,128,0,128325:0:0:0:0:
448,192,128325,1,0,0:0:0:0:
320,192,128400,1,0,0:0:0:0:
192,192,128400,1,0,0:0:0:0:
320,192,128550,1,0,0:0:0:0:
192,192,128625,1,0,0:0:0:0:
448,192,128700,128,0,128775:0:0:0:0:
64,192,128700,1,0,0:0:0:0:
320,192,128700,1,0,0:0:0:0:
192,192,128850,1,0,0:0:0:0:
64,192,128925,1,0,0:0:0:0:
320,192,129000,128,0,129075:0:0:0:0:
448,192,129000,1,0,0:0:0:0:
192,192,129075,1,0,0:0:0:0:
320,192,129150,1,0,0:0:0:0:
448,192,129150,1,0,0:0:0:0:
64,192,129225,1,0,0:0:0:0:
320,192,129300,1,0,0:0:0:0:
448,192,129300,1,0,0:0:0:0:
192,192,129300,1,0,0:0:0:0:
448,192,129450,1,0,0:0:0:0:
320,192,129450,1,0,0:0:0:0:
192,192,129525,1,0,0:0:0:0:
448,192,129600,128,0,129675:0:0:0:0:
64,192,129600,1,0,0:0:0:0:
320,192,129750,1,0,0:0:0:0:
448,192,129825,1,0,0:0:0:0:
320,192,129900,1,0,0:0:0:0:
192,192,129900,1,0,0:0:0:0:
64,192,129900,1,0,0:0:0:0:
192,192,130050,1,0,0:0:0:0:
320,192,130125,1,0,0:0:0:0:
64,192,130200,128,0,130275:0:0:0:0:
320,192,130275,1,0,0:0:0:0:
192,192,130350,1,0,0:0:0:0:
448,192,130350,1,0,0:0:0:0:
64,192,130425,1,0,0:0:0:0:
192,192,130500,1,0,0:0:0:0:
320,192,130500,1,0,0:0:0:0:
448,192,130500,1,0,0:0:0:0:
192,192,130650,128,0,130725:0:0:0:0:
64,192,130725,1,0,0:0:0:0:
320,192,130800,1,0,0:0:0:0:
448,192,130800,1,0,0:0:0:0:
64,192,130950,1,0,0:0:0:0:
192,192,131025,1,0,0:0:0:0:
320,192,131100,128,0,131175:0:0:0:0:
64,192,131100,1,0,0:0:0:0:
448,192,131100,1,0,0:0:0:0:
192,192,131250,1,0,0:0:0:0:
64,192,131325,1,0,0:0:0:0:
192,192,131400,128,0,131475:0:0:0:0:
448,192,131400,1,0,0:0:0:0:
320,192,131475,1,0,0:0:0:0:
192,192,131550,1,0,0:0:0:0:
448,192,131550,1,0,0:0:0:0:
64,192,131625,1,0,0:0:0:0:
192,192,131700,1,0,0:0:0:0:
448,192,131700,1,0,0:0:0:0:
320,192,131700,1,0,0:0:0:0:
64,192,131775,1,0,0:0:0:0:
320,192,131850,1,0,0:0:0:0:
192,192,131925,1,0,0:0:0:0:
448,192,132000,128,0,132075:0:0:0:0:
320,192,132000,1,0,0:0:0:0:
448,192,132150,1,0,0:0:0:0:
320,192,132300,1,0,0:0:0:0:
320,192,132450,1,0,0:0:0:0:
192,192,132600,128,0,132675:0:0:0:0:
192,192,132750,1,0,0:0:0:0:
320,192,132900,1,0,0:0:0:0:
64,192,133050,128,0,133125:0:0:0:0:
448,192,133350,1,0,0:0:0:0:
448,192,133500,128,0,133575:0:0:0:0:
320,192,133650,1,0,0:0:0:0:
320,192,133800,128,0,133875:0:0:0:0:
192,192,133950,1,0,0:0:0:0:
192,192,134100,1,0,0:0:0:0:
64,192,134250,1,0,0:0:0:0:
448,192,134400,1,0,0:0:0:0:
320,192,134400,1,0,0:0:0:0:
448,192,134550,1,0,0:0:0:0:
320,192,134700,1,0,0:0:0:0:
320,192,134850,1,0,0:0:0:0:
192,192,135000,128,0,135075:0:0:0:0:
192,192,135150,1,0,0:0:0:0:
320,192,135300,1,0,0:0:0:0:
64,192,135450,128,0,135525:0:0:0:0:
448,192,135750,1,0,0:0:0:0:
448,192,135900,128,0,135975:0:0:0:0:
320,192,136050,1,0,0:0:0:0:
320,192,136200,128,0,136275:0:0:0:0:
192,192,136350,1,0,0:0:0:0:
64,192,136500,1,0,0:0:0:0:
192,192,136650,1,0,0:0:0:0:
448,192,136800,128,0,136837:0:0:0:0:
64,192,136800,1,0,0:0:0:0:
448,192,137025,128,0,137062:0:0:0:0:
448,192,137250,128,0,137287:0:0:0:0:
192,192,137325,1,0,0:0:0:0:
320,192,137400,128,0,137437:0:0:0:0:
64,192,137475,1,0,0:0:0:0:
192,192,137550,1,0,0:0:0:0:
320,192,137625,128,0,137662:0:0:0:0:
448,192,137700,1,0,0:0:0:0:
64,192,137775,1,0,0:0:0:0:
320,192,137850,128,0,137887:0:0:0:0:
448,192,137925,1,0,0:0:0:0:
192,192,138000,128,0,138037:0:0:0:0:
64,192,138075,1,0,0:0:0:0:
320,192,138150,1,0,0:0:0:0:
192,192,138225,128,0,138262:0:0:0:0:
64,192,138300,1,0,0:0:0:0:
320,192,138375,1,0,0:0:0:0:
192,192,138450,128,0,138487:0:0:0:0:
320,192,138525,1,0,0:0:0:0:
64,192,138600,1,0,0:0:0:0:
192,192,138600,1,0,0:0:0:0:
448,192,138675,1,0,0:0:0:0:
64,192,138750,1,0,0:0:0:0:
192,192,138750,1,0,0:0:0:0:
320,192,138825,1,0,0:0:0:0:
64,192,138900,1,0,0:0:0:0:
192,192,138900,1,0,0:0:0:0:
320,192,138975,1,0,0:0:0:0:
448,192,138975,1,0,0:0:0:0:
192,192,139050,1,0,0:0:0:0:
64,192,139050,1,0,0:0:0:0:
320,192,139200,1,0,0:0:0:0:
448,192,139200,1,0,0:0:0:0:
320,192,139425,1,0,0:0:0:0:
320,192,139650,1,0,0:0:0:0:
320,192,139875,1,0,0:0:0:0:
192,192,140100,1,0,0:0:0:0:
448,192,140100,1,0,0:0:0:0:
320,192,140400,1,0,0:0:0:0:
64,192,140400,1,0,0:0:0:0:
448,192,141000,1,0,0:0:0:0:
448,192,141300,1,0,0:0:0:0:
448,192,141525,1,0,0:0:0:0:
192,192,141600,1,0,0:0:0:0:
64,192,141600,1,0,0:0:0:0:
64,192,141825,1,0,0:0:0:0:
64,192,142050,1,0,0:0:0:0:
64,192,142275,1,0,0:0:0:0:
192,192,142500,1,0,0:0:0:0:
320,192,142500,1,0,0:0:0:0:
320,192,142800,1,0,0:0:0:0:
192,192,143400,1,0,0:0:0:0:
64,192,143700,1,0,0:0:0:0:
192,192,144000,128,0,144075:0:0:0:0:
320,192,144000,128,0,144075:0:0:0:0:
448,192,144000,1,0,0:0:0:0:
192,192,144150,128,0,144225:0:0:0:0:
320,192,144150,128,0,144225:0:0:0:0:
192,192,144450,128,0,144525:0:0:0:0:
448,192,144450,128,0,144525:0:0:0:0:
192,192,144600,128,0,144675:0:0:0:0:
448,192,144600,128,0,144675:0:0:0:0:
320,192,144900,128,0,144975:0:0:0:0:
448,192,144900,128,0,144975:0:0:0:0:
320,192,145050,128,0,145125:0:0:0:0:
448,192,145050,128,0,145125:0:0:0:0:
320,192,145350,128,0,145425:0:0:0:0:
64,192,145350,128,0,145425:0:0:0:0:
64,192,145500,128,0,145575:0:0:0:0:
192,192,145500,128,0,145575:0:0:0:0:
320,192,145800,128,0,145875:0:0:0:0:
192,192,145800,128,0,145875:0:0:0:0:
192,192,146400,128,0,146475:0:0:0:0:
320,192,146400,128,0,146475:0:0:0:0:
192,192,146550,128,0,146625:0:0:0:0:
320,192,146550,128,0,146625:0:0:0:0:
192,192,146850,128,0,146925:0:0:0:0:
448,192,146850,128,0,146925:0:0:0:0:
192,192,147000,128,0,147075:0:0:0:0:
448,192,147000,128,0,147075:0:0:0:0:
64,192,147300,128,0,147375:0:0:0:0:
448,192,147300,128,0,147375:0:0:0:0:
64,192,147450,128,0,147525:0:0:0:0:
448,192,147450,128,0,147525:0:0:0:0:
320,192,147750,128,0,147825:0:0:0:0:
192,192,147750,128,0,147825:0:0:0:0:
192,192,147900,128,0,147975:0:0:0:0:
64,192,147900,128,0,147975:0:0:0:0:
64,192,148200,128,0,148275:0:0:0:0:
320,192,148200,128,0,148275:0:0:0:0:
192,192,148800,1,0,0:0:0:0:
64,192,148800,1,0,0:0:0:0:
192,192,149025,1,0,0:0:0:0:
192,192,149250,1,0,0:0:0:0:
320,192,149700,1,0,0:0:0:0:
64,192,149700,1,0,0:0:0:0:
192,192,150000,1,0,0:0:0:0:
448,192,150000,1,0,0:0:0:0:
320,192,150600,1,0,0:0:0:0:
448,192,151200,1,0,0:0:0:0:
64,192,151200,1,0,0:0:0:0:
448,192,151425,1,0,0:0:0:0:
448,192,151650,1,0,0:0:0:0:
448,192,151875,1,0,0:0:0:0:
320,192,152100,1,0,0:0:0:0:
192,192,152100,1,0,0:0:0:0:
448,192,152400,1,0,0:0:0:0:
320,192,152700,1,0,0:0:0:0:
192,192,153000,1,0,0:0:0:0:
64,192,153300,1,0,0:0:0:0:
448,192,153600,128,0,153675:0:0:0:0:
320,192,153600,128,0,153675:0:0:0:0:
192,192,153600,1,0,0:0:0:0:
448,192,153750,128,0,153825:0:0:0:0:
320,192,153750,128,0,153825:0:0:0:0:
320,192,154050,128,0,154125:0:0:0:0:
192,192,154050,128,0,154125:0:0:0:0:
320,192,154200,128,0,154275:0:0:0:0:
192,192,154200,128,0,154275:0:0:0:0:
64,192,154500,128,0,154575:0:0:0:0:
320,192,154500,128,0,154575:0:0:0:0:
320,192,154650,128,0,154725:0:0:0:0:
64,192,154650,128,0,154725:0:0:0:0:
448,192,154950,128,0,155100:0:0:0:0:
320,192,154950,128,0,155025:0:0:0:0:
192,192,155100,128,0,155250:0:0:0:0:
64,192,155100,128,0,155175:0:0:0:0:
320,192,155250,128,0,155400:0:0:0:0:
448,192,155250,128,0,155325:0:0:0:0:
64,192,155400,128,0,155550:0:0:0:0:
192,192,155400,128,0,155475:0:0:0:0:
448,192,156000,128,0,156075:0:0:0:0:
64,192,156000,128,0,156075:0:0:0:0:
448,192,156150,128,0,156225:0:0:0:0:
64,192,156150,128,0,156225:0:0:0:0:
192,192,156450,128,0,156525:0:0:0:0:
448,192,156450,128,0,156525:0:0:0:0:
192,192,156600,128,0,156675:0:0:0:0:
448,192,156600,128,0,156675:0:0:0:0:
320,192,156900,128,0,156975:0:0:0:0:
64,192,156900,128,0,156975:0:0:0:0:
64,192,157050,128,0,157125:0:0:0:0:
320,192,157050,128,0,157125:0:0:0:0:
320,192,157350,128,0,157500:0:0:0:0:
448,192,157350,128,0,157425:0:0:0:0:
192,192,157500,128,0,157650:0:0:0:0:
64,192,157500,128,0,157575:0:0:0:0:
448,192,157650,128,0,157800:0:0:0:0:
320,192,157650,128,0,157725:0:0:0:0:
64,192,157800,128,0,157950:0:0:0:0:
192,192,157800,128,0,157875:0:0:0:0:
448,192,158400,1,0,0:0:0:0:
64,192,158400,1,0,0:0:0:0:
320,192,158550,1,0,0:0:0:0:
448,192,158662,1,0,0:0:0:0:
192,192,158700,1,0,0:0:0:0:
320,192,158850,1,0,0:0:0:0:
448,192,158962,1,0,0:0:0:0:
64,192,159000,1,0,0:0:0:0:
448,192,159075,1,0,0:0:0:0:
320,192,159150,1,0,0:0:0:0:
192,192,159300,1,0,0:0:0:0:
448,192,159450,1,0,0:0:0:0:
64,192,159450,1,0,0:0:0:0:
320,192,159750,1,0,0:0:0:0:
192,192,159900,1,0,0:0:0:0:
320,192,160050,1,0,0:0:0:0:
448,192,160162,1,0,0:0:0:0:
64,192,160200,1,0,0:0:0:0:
448,192,160275,1,0,0:0:0:0:
192,192,160350,1,0,0:0:0:0:
320,192,160500,1,0,0:0:0:0:
64,192,160650,1,0,0:0:0:0:
320,192,160800,1,0,0:0:0:0:
192,192,160950,1,0,0:0:0:0:
64,192,161100,1,0,0:0:0:0:
448,192,161250,1,0,0:0:0:0:
320,192,161250,1,0,0:0:0:0:
448,192,161362,1,0,0:0:0:0:
192,192,161400,1,0,0:0:0:0:
448,192,161475,1,0,0:0:0:0:
64,192,161550,1,0,0:0:0:0:
192,192,161700,1,0,0:0:0:0:
320,192,161850,1,0,0:0:0:0:
192,192,162000,1,0,0:0:0:0:
448,192,162150,1,0,0:0:0:0:
64,192,162150,1,0,0:0:0:0:
448,192,162225,1,0,0:0:0:0:
192,192,162300,1,0,0:0:0:0:
448,192,162450,1,0,0:0:0:0:
64,192,162450,1,0,0:0:0:0:
448,192,162600,1,0,0:0:0:0:
192,192,162600,128,0,162900:0:0:0:0:
448,192,162675,1,0,0:0:0:0:
320,192,162900,128,0,163200:0:0:0:0:
64,192,163200,1,0,0:0:0:0:
448,192,163200,128,0,163350:0:0:0:0:
320,192,163350,128,0,163500:0:0:0:0:
64,192,163462,1,0,0:0:0:0:
192,192,163500,128,0,163650:0:0:0:0:
320,192,163650,128,0,163800:0:0:0:0:
64,192,163762,1,0,0:0:0:0:
448,192,163800,128,0,163950:0:0:0:0:
64,192,163875,1,0,0:0:0:0:
192,192,163950,128,0,164100:0:0:0:0:
320,192,164100,128,0,164250:0:0:0:0:
192,192,164250,128,0,164400:0:0:0:0:
448,192,164400,128,0,164550:0:0:0:0:
320,192,164550,128,0,164700:0:0:0:0:
192,192,164700,128,0,164850:0:0:0:0:
448,192,164850,128,0,165000:0:0:0:0:
64,192,165000,1,0,0:0:0:0:
320,192,165000,128,0,165150:0:0:0:0:
64,192,165075,1,0,0:0:0:0:
448,192,165150,128,0,165300:0:0:0:0:
192,192,165300,128,0,165450:0:0:0:0:
320,192,165450,128,0,165600:0:0:0:0:
64,192,165562,1,0,0:0:0:0:
448,192,165600,128,0,165750:0:0:0:0:
320,192,165750,128,0,165900:0:0:0:0:
192,192,165900,128,0,166050:0:0:0:0:
64,192,166050,1,0,0:0:0:0:
320,192,166050,128,0,166200:0:0:0:0:
64,192,166162,1,0,0:0:0:0:
448,192,166200,128,0,166350:0:0:0:0:
64,192,166275,1,0,0:0:0:0:
192,192,166350,128,0,166500:0:0:0:0:
320,192,166500,128,0,166650:0:0:0:0:
192,192,166650,128,0,166800:0:0:0:0:
448,192,166800,128,0,166950:0:0:0:0:
320,192,166950,128,0,167100:0:0:0:0:
64,192,166950,1,0,0:0:0:0:
64,192,167025,1,0,0:0:0:0:
192,192,167100,128,0,167250:0:0:0:0:
64,192,167250,1,0,0:0:0:0:
320,192,167250,128,0,167400:0:0:0:0:
64,192,167400,1,0,0:0:0:0:
448,192,167400,128,0,167700:0:0:0:0:
64,192,167475,1,0,0:0:0:0:
320,192,167700,128,0,168000:0:0:0:0:
64,192,167812,1,0,0:0:0:0:
64,192,168000,1,0,0:0:0:0:
192,192,168000,1,0,0:0:0:0:
448,192,168000,1,0,0:0:0:0:
64,192,168150,128,0,168300:0:0:0:0:
320,192,168300,128,0,168450:0:0:0:0:
320,192,168750,128,0,168900:0:0:0:0:
192,192,169050,128,0,169200:0:0:0:0:
448,192,169200,128,0,169350:0:0:0:0:
320,192,169350,128,0,169500:0:0:0:0:
448,192,169650,128,0,169800:0:0:0:0:
192,192,169950,128,0,170100:0:0:0:0:
320,192,170100,128,0,170250:0:0:0:0:
448,192,170250,128,0,170400:0:0:0:0:
64,192,170400,128,0,170437:0:0:0:0:
192,192,170400,128,0,170475:0:0:0:0:
192,192,170550,128,0,170625:0:0:0:0:
320,192,170700,128,0,170850:0:0:0:0:
320,192,171150,128,0,171300:0:0:0:0:
192,192,171450,128,0,171600:0:0:0:0:
448,192,171600,128,0,171750:0:0:0:0:
320,192,171750,128,0,171900:0:0:0:0:
448,192,172050,128,0,172200:0:0:0:0:
192,192,172350,128,0,172500:0:0:0:0:
320,192,172500,128,0,172650:0:0:0:0:
192,192,172650,128,0,172800:0:0:0:0:
64,192,172950,128,0,173100:0:0:0:0:
320,192,173100,128,0,173250:0:0:0:0:
192,192,173400,128,0,173550:0:0:0:0:
320,192,173550,128,0,173700:0:0:0:0:
192,192,173850,128,0,174000:0:0:0:0:
320,192,174000,128,0,174150:0:0:0:0:
192,192,174150,128,0,174300:0:0:0:0:
320,192,174450,128,0,174600:0:0:0:0:
192,192,174750,128,0,174900:0:0:0:0:
320,192,174900,128,0,175050:0:0:0:0:
448,192,175050,128,0,175200:0:0:0:0:
192,192,175350,128,0,175500:0:0:0:0:
320,192,175500,128,0,175650:0:0:0:0:
320,192,175950,128,0,176100:0:0:0:0:
192,192,176250,128,0,176400:0:0:0:0:
320,192,176400,128,0,176550:0:0:0:0:
192,192,176550,128,0,176700:0:0:0:0:
64,192,176850,128,0,177000:0:0:0:0:
64,192,177150,128,0,177300:0:0:0:0:
320,192,177300,128,0,177450:0:0:0:0:
64,192,177450,128,0,177600:0:0:0:0:
64,192,177750,128,0,177900:0:0:0:0:
192,192,177900,128,0,178050:0:0:0:0:
192,192,178350,128,0,178500:0:0:0:0:
192,192,178650,128,0,178800:0:0:0:0:
320,192,178800,128,0,178950:0:0:0:0:
192,192,178950,128,0,179100:0:0:0:0:
320,192,179250,128,0,179400:0:0:0:0:
192,192,179550,128,0,179700:0:0:0:0:
320,192,179700,128,0,179850:0:0:0:0:
448,192,179850,128,0,180000:0:0:0:0:
192,192,180300,128,0,180450:0:0:0:0:
192,192,180750,128,0,180900:0:0:0:0:
448,192,181200,128,0,181275:0:0:0:0:
448,192,181650,128,0,181725:0:0:0:0:
320,192,182100,128,0,182175:0:0:0:0:
192,192,182250,128,0,182325:0:0:0:0:
64,192,182700,128,0,182737:0:0:0:0:
192,192,182850,1,0,0:0:0:0:
192,192,183000,1,0,0:0:0:0:
64,192,183150,128,0,183187:0:0:0:0:
192,192,183300,1,0,0:0:0:0:
192,192,183450,1,0,0:0:0:0:
320,192,183600,128,0,183637:0:0:0:0:
192,192,183750,1,0,0:0:0:0:
192,192,183900,1,0,0:0:0:0:
320,192,184050,128,0,184087:0:0:0:0:
192,192,184200,1,0,0:0:0:0:
192,192,184350,1,0,0:0:0:0:
320,192,184500,128,0,184537:0:0:0:0:
448,192,184650,128,0,184687:0:0:0:0:
320,192,184800,1,0,0:0:0:0:
192,192,184800,1,0,0:0:0:0:
64,192,184800,1,0,0:0:0:0:
320,192,185250,128,0,185287:0:0:0:0:
320,192,185400,128,0,185437:0:0:0:0:
448,192,185700,128,0,185737:0:0:0:0:
320,192,186150,128,0,186187:0:0:0:0:
192,192,186300,128,0,186337:0:0:0:0:
320,192,186600,128,0,186637:0:0:0:0:
64,192,187200,1,0,0:0:0:0:
192,192,187200,1,0,0:0:0:0:
320,192,187200,1,0,0:0:0:0:
192,192,187350,1,0,0:0:0:0:
320,192,187500,1,0,0:0:0:0:
448,192,187500,1,0,0:0:0:0:
64,192,187500,1,0,0:0:0:0:
320,192,187650,1,0,0:0:0:0:
192,192,187725,1,0,0:0:0:0:
64,192,187800,1,0,0:0:0:0:
448,192,187875,1,0,0:0:0:0:
64,192,187950,1,0,0:0:0:0:
320,192,187950,1,0,0:0:0:0:
192,192,188100,128,0,188325:0:0:0:0:
448,192,188100,1,0,0:0:0:0:
320,192,188100,1,0,0:0:0:0:
448,192,188250,1,0,0:0:0:0:
320,192,188325,1,0,0:0:0:0:
192,192,188400,128,0,188700:0:0:0:0:
64,192,188400,1,0,0:0:0:0:
448,192,188550,1,0,0:0:0:0:
320,192,188700,128,0,189300:0:0:0:0:
448,192,188700,1,0,0:0:0:0:
64,192,188700,1,0,0:0:0:0:
192,192,188850,1,0,0:0:0:0:
448,192,188925,1,0,0:0:0:0:
64,192,189000,1,0,0:0:0:0:
192,192,189075,1,0,0:0:0:0:
448,192,189150,1,0,0:0:0:0:
64,192,189150,1,0,0:0:0:0:
192,192,189300,128,0,189600:0:0:0:0:
64,192,189300,1,0,0:0:0:0:
448,192,189300,1,0,0:0:0:0:
320,192,189450,1,0,0:0:0:0:
448,192,189525,1,0,0:0:0:0:
64,192,189600,128,0,190050:0:0:0:0:
320,192,189600,1,0,0:0:0:0:
192,192,189750,1,0,0:0:0:0:
448,192,189900,1,0,0:0:0:0:
192,192,189900,1,0,0:0:0:0:
320,192,189900,1,0,0:0:0:0:
320,192,190050,128,0,190500:0:0:0:0:
192,192,190125,1,0,0:0:0:0:
448,192,190200,1,0,0:0:0:0:
192,192,190275,1,0,0:0:0:0:
64,192,190350,1,0,0:0:0:0:
448,192,190350,1,0,0:0:0:0:
448,192,190500,128,0,191400:0:0:0:0:
192,192,190500,1,0,0:0:0:0:
64,192,190500,1,0,0:0:0:0:
192,192,190650,1,0,0:0:0:0:
320,192,190725,1,0,0:0:0:0:
64,192,190800,1,0,0:0:0:0:
192,192,190800,1,0,0:0:0:0:
320,192,190950,1,0,0:0:0:0:
64,192,191100,1,0,0:0:0:0:
192,192,191100,1,0,0:0:0:0:
320,192,191100,1,0,0:0:0:0:
64,192,191250,1,0,0:0:0:0:
320,192,191325,1,0,0:0:0:0:
192,192,191400,128,0,191700:0:0:0:0:
64,192,191475,1,0,0:0:0:0:
320,192,191550,1,0,0:0:0:0:
448,192,191550,1,0,0:0:0:0:
448,192,191700,128,0,192000:0:0:0:0:
320,192,191700,1,0,0:0:0:0:
64,192,191700,1,0,0:0:0:0:
192,192,191850,1,0,0:0:0:0:
64,192,191925,1,0,0:0:0:0:
320,192,192000,128,0,192450:0:0:0:0:
192,192,192000,1,0,0:0:0:0:
448,192,192150,1,0,0:0:0:0:
64,192,192300,1,0,0:0:0:0:
192,192,192300,1,0,0:0:0:0:
448,192,192300,1,0,0:0:0:0:
192,192,192450,128,0,192900:0:0:0:0:
448,192,192450,1,0,0:0:0:0:
320,192,192525,1,0,0:0:0:0:
64,192,192600,1,0,0:0:0:0:
320,192,192675,1,0,0:0:0:0:
448,192,192750,1,0,0:0:0:0:
64,192,192750,1,0,0:0:0:0:
64,192,192900,128,0,193800:0:0:0:0:
320,192,192900,1,0,0:0:0:0:
448,192,192900,1,0,0:0:0:0:
320,192,193050,1,0,0:0:0:0:
448,192,193125,1,0,0:0:0:0:
192,192,193200,1,0,0:0:0:0:
320,192,193200,1,0,0:0:0:0:
192,192,193350,1,0,0:0:0:0:
320,192,193500,1,0,0:0:0:0:
448,192,193500,1,0,0:0:0:0:
192,192,193500,1,0,0:0:0:0:
320,192,193650,1,0,0:0:0:0:
192,192,193725,1,0,0:0:0:0:
448,192,193800,128,0,194100:0:0:0:0:
320,192,193875,1,0,0:0:0:0:
64,192,193950,1,0,0:0:0:0:
192,192,193950,1,0,0:0:0:0:
320,192,194100,128,0,194400:0:0:0:0:
64,192,194100,1,0,0:0:0:0:
192,192,194100,1,0,0:0:0:0:
448,192,194250,1,0,0:0:0:0:
192,192,194325,1,0,0:0:0:0:
64,192,194400,128,0,195600:0:0:0:0:
448,192,194400,1,0,0:0:0:0:
448,192,194550,1,0,0:0:0:0:
192,192,194550,1,0,0:0:0:0:
448,192,194700,1,0,0:0:0:0:
320,192,194700,1,0,0:0:0:0:
192,192,194700,1,0,0:0:0:0:
320,192,194850,1,0,0:0:0:0:
192,192,194850,1,0,0:0:0:0:
448,192,195000,1,0,0:0:0:0:
320,192,195000,1,0,0:0:0:0:
192,192,195150,1,0,0:0:0:0:
448,192,195225,1,0,0:0:0:0:
320,192,195225,1,0,0:0:0:0:
192,192,195300,1,0,0:0:0:0:
320,192,195300,1,0,0:0:0:0:
448,192,195450,1,0,0:0:0:0:
320,192,195450,1,0,0:0:0:0:
192,192,195600,128,0,195900:0:0:0:0:
320,192,195675,1,0,0:0:0:0:
448,192,195750,1,0,0:0:0:0:
64,192,195750,1,0,0:0:0:0:
320,192,195900,128,0,196200:0:0:0:0:
448,192,195900,1,0,0:0:0:0:
64,192,195900,1,0,0:0:0:0:
192,192,196050,1,0,0:0:0:0:
64,192,196050,1,0,0:0:0:0:
448,192,196200,128,0,196500:0:0:0:0:
192,192,196200,1,0,0:0:0:0:
64,192,196350,1,0,0:0:0:0:
320,192,196500,128,0,196800:0:0:0:0:
64,192,196500,1,0,0:0:0:0:
192,192,196500,1,0,0:0:0:0:
192,192,196650,1,0,0:0:0:0:
448,192,196725,1,0,0:0:0:0:
192,192,196800,128,0,197700:0:0:0:0:
64,192,196800,1,0,0:0:0:0:
320,192,196950,1,0,0:0:0:0:
320,192,197100,1,0,0:0:0:0:
448,192,197100,1,0,0:0:0:0:
64,192,197100,1,0,0:0:0:0:
448,192,197250,1,0,0:0:0:0:
64,192,197325,1,0,0:0:0:0:
320,192,197400,1,0,0:0:0:0:
64,192,197475,1,0,0:0:0:0:
320,192,197550,1,0,0:0:0:0:
448,192,197550,1,0,0:0:0:0:
64,192,197700,128,0,198300:0:0:0:0:
448,192,197700,1,0,0:0:0:0:
320,192,197700,1,0,0:0:0:0:
448,192,197850,1,0,0:0:0:0:
192,192,198000,1,0,0:0:0:0:
320,192,198000,1,0,0:0:0:0:
320,192,198150,1,0,0:0:0:0:
192,192,198300,128,0,198525:0:0:0:0:
448,192,198300,1,0,0:0:0:0:
320,192,198300,1,0,0:0:0:0:
64,192,198450,1,0,0:0:0:0:
320,192,198525,1,0,0:0:0:0:
192,192,198600,128,0,198900:0:0:0:0:
64,192,198675,1,0,0:0:0:0:
448,192,198750,1,0,0:0:0:0:
320,192,198750,1,0,0:0:0:0:
320,192,198900,128,0,199200:0:0:0:0:
448,192,198900,1,0,0:0:0:0:
64,192,198900,1,0,0:0:0:0:
192,192,199050,1,0,0:0:0:0:
64,192,199125,1,0,0:0:0:0:
448,192,199200,128,0,199650:0:0:0:0:
192,192,199200,1,0,0:0:0:0:
320,192,199350,1,0,0:0:0:0:
64,192,199500,1,0,0:0:0:0:
192,192,199500,1,0,0:0:0:0:
320,192,199500,1,0,0:0:0:0:
320,192,199650,128,0,200100:0:0:0:0:
64,192,199650,1,0,0:0:0:0:
192,192,199725,1,0,0:0:0:0:
448,192,199800,1,0,0:0:0:0:
64,192,199875,1,0,0:0:0:0:
192,192,199950,1,0,0:0:0:0:
448,192,199950,1,0,0:0:0:0:
192,192,200100,128,0,201000:0:0:0:0:
64,192,200100,1,0,0:0:0:0:
448,192,200100,1,0,0:0:0:0:
320,192,200250,1,0,0:0:0:0:
64,192,200325,1,0,0:0:0:0:
448,192,200400,1,0,0:0:0:0:
320,192,200400,1,0,0:0:0:0:
448,192,200550,1,0,0:0:0:0:
320,192,200700,1,0,0:0:0:0:
448,192,200700,1,0,0:0:0:0:
64,192,200700,1,0,0:0:0:0:
320,192,200850,1,0,0:0:0:0:
64,192,200925,1,0,0:0:0:0:
320,192,201000,128,0,201300:0:0:0:0:
448,192,201075,1,0,0:0:0:0:
64,192,201150,1,0,0:0:0:0:
192,192,201150,1,0,0:0:0:0:
448,192,201300,128,0,201600:0:0:0:0:
64,192,201300,1,0,0:0:0:0:
192,192,201300,1,0,0:0:0:0:
320,192,201450,1,0,0:0:0:0:
192,192,201525,1,0,0:0:0:0:
320,192,201600,128,0,202050:0:0:0:0:
64,192,201600,1,0,0:0:0:0:
448,192,201750,1,0,0:0:0:0:
64,192,201900,1,0,0:0:0:0:
192,192,201900,1,0,0:0:0:0:
448,192,201900,1,0,0:0:0:0:
192,192,202050,128,0,202500:0:0:0:0:
64,192,202125,1,0,0:0:0:0:
320,192,202200,1,0,0:0:0:0:
448,192,202275,1,0,0:0:0:0:
64,192,202350,1,0,0:0:0:0:
320,192,202350,1,0,0:0:0:0:
64,192,202500,128,0,203400:0:0:0:0:
320,192,202500,1,0,0:0:0:0:
448,192,202500,1,0,0:0:0:0:
192,192,202650,1,0,0:0:0:0:
320,192,202725,1,0,0:0:0:0:
448,192,202800,1,0,0:0:0:0:
192,192,202800,1,0,0:0:0:0:
320,192,202950,1,0,0:0:0:0:
320,192,203100,1,0,0:0:0:0:
448,192,203100,1,0,0:0:0:0:
192,192,203100,1,0,0:0:0:0:
192,192,203250,1,0,0:0:0:0:
320,192,203325,1,0,0:0:0:0:
448,192,203400,128,0,203700:0:0:0:0:
192,192,203475,1,0,0:0:0:0:
64,192,203550,1,0,0:0:0:0:
320,192,203550,1,0,0:0:0:0:
320,192,203700,128,0,204000:0:0:0:0:
64,192,203700,1,0,0:0:0:0:
192,192,203700,1,0,0:0:0:0:
192,192,204000,128,0,204450:0:0:0:0:
448,192,204000,1,0,0:0:0:0:
64,192,204150,1,0,0:0:0:0:
448,192,204150,1,0,0:0:0:0:
320,192,204450,128,0,204900:0:0:0:0:
64,192,204450,1,0,0:0:0:0:
64,192,204600,1,0,0:0:0:0:
192,192,204600,1,0,0:0:0:0:
448,192,204900,128,0,205350:0:0:0:0:
192,192,204900,1,0,0:0:0:0:
192,192,205050,1,0,0:0:0:0:
64,192,205050,1,0,0:0:0:0:
320,192,205350,128,0,205500:0:0:0:0:
192,192,205350,1,0,0:0:0:0:
64,192,205500,128,0,205800:0:0:0:0:
192,192,205500,1,0,0:0:0:0:
192,192,205800,128,0,206400:0:0:0:0:
448,192,205800,128,0,206100:0:0:0:0:
64,192,206100,128,0,206400:0:0:0:0:
320,192,206400,1,0,0:0:0:0:
448,192,206400,1,0,0:0:0:0:
320,192,206550,1,0,0:0:0:0:
448,192,206700,1,0,0:0:0:0:
192,192,206700,1,0,0:0:0:0:
64,192,206700,1,0,0:0:0:0:
320,192,206850,1,0,0:0:0:0:
192,192,206925,1,0,0:0:0:0:
64,192,207000,1,0,0:0:0:0:
320,192,207075,1,0,0:0:0:0:
448,192,207150,1,0,0:0:0:0:
192,192,207150,1,0,0:0:0:0:
64,192,207300,128,0,207525:0:0:0:0:
320,192,207300,1,0,0:0:0:0:
448,192,207300,1,0,0:0:0:0:
192,192,207450,1,0,0:0:0:0:
320,192,207525,1,0,0:0:0:0:
64,192,207600,128,0,207900:0:0:0:0:
448,192,207600,1,0,0:0:0:0:
192,192,207750,1,0,0:0:0:0:
192,192,207900,128,0,208500:0:0:0:0:
320,192,207900,1,0,0:0:0:0:
448,192,207900,1,0,0:0:0:0:
64,192,208050,1,0,0:0:0:0:
320,192,208125,1,0,0:0:0:0:
448,192,208200,1,0,0:0:0:0:
64,192,208275,1,0,0:0:0:0:
448,192,208350,1,0,0:0:0:0:
320,192,208350,1,0,0:0:0:0:
320,192,208500,128,0,208725:0:0:0:0:
448,192,208500,1,0,0:0:0:0:
64,192,208500,1,0,0:0:0:0:
192,192,208650,1,0,0:0:0:0:
64,192,208725,1,0,0:0:0:0:
320,192,208800,128,0,209250:0:0:0:0:
448,192,208800,1,0,0:0:0:0:
64,192,208950,1,0,0:0:0:0:
448,192,209100,1,0,0:0:0:0:
192,192,209100,1,0,0:0:0:0:
64,192,209100,1,0,0:0:0:0:
192,192,209250,128,0,209700:0:0:0:0:
448,192,209250,1,0,0:0:0:0:
320,192,209325,1,0,0:0:0:0:
64,192,209400,1,0,0:0:0:0:
320,192,209475,1,0,0:0:0:0:
448,192,209550,1,0,0:0:0:0:
64,192,209550,1,0,0:0:0:0:
448,192,209700,128,0,210600:0:0:0:0:
320,192,209700,1,0,0:0:0:0:
64,192,209700,1,0,0:0:0:0:
192,192,209850,1,0,0:0:0:0:
320,192,209925,1,0,0:0:0:0:
64,192,210000,1,0,0:0:0:0:
192,192,210000,1,0,0:0:0:0:
320,192,210150,1,0,0:0:0:0:
64,192,210300,1,0,0:0:0:0:
192,192,210300,1,0,0:0:0:0:
320,192,210300,1,0,0:0:0:0:
192,192,210450,1,0,0:0:0:0:
320,192,210525,1,0,0:0:0:0:
64,192,210600,128,0,210900:0:0:0:0:
192,192,210675,1,0,0:0:0:0:
448,192,210750,1,0,0:0:0:0:
320,192,210750,1,0,0:0:0:0:
448,192,210900,128,0,211200:0:0:0:0:
192,192,210900,1,0,0:0:0:0:
320,192,210900,1,0,0:0:0:0:
64,192,211050,1,0,0:0:0:0:
192,192,211125,1,0,0:0:0:0:
320,192,211200,128,0,211650:0:0:0:0:
64,192,211200,1,0,0:0:0:0:
448,192,211350,1,0,0:0:0:0:
64,192,211500,1,0,0:0:0:0:
448,192,211500,1,0,0:0:0:0:
192,192,211500,1,0,0:0:0:0:
192,192,211650,128,0,212100:0:0:0:0:
64,192,211725,1,0,0:0:0:0:
320,192,211800,1,0,0:0:0:0:
448,192,211875,1,0,0:0:0:0:
64,192,211950,1,0,0:0:0:0:
320,192,211950,1,0,0:0:0:0:
64,192,212100,128,0,213000:0:0:0:0:
448,192,212100,1,0,0:0:0:0:
320,192,212100,1,0,0:0:0:0:
192,192,212250,1,0,0:0:0:0:
320,192,212325,1,0,0:0:0:0:
448,192,212400,1,0,0:0:0:0:
192,192,212400,1,0,0:0:0:0:
320,192,212550,1,0,0:0:0:0:
448,192,212700,1,0,0:0:0:0:
320,192,212700,1,0,0:0:0:0:
192,192,212700,1,0,0:0:0:0:
192,192,212850,1,0,0:0:0:0:
320,192,212925,1,0,0:0:0:0:
448,192,213000,128,0,213300:0:0:0:0:
192,192,213075,1,0,0:0:0:0:
64,192,213150,1,0,0:0:0:0:
320,192,213150,1,0,0:0:0:0:
320,192,213300,128,0,213600:0:0:0:0:
64,192,213300,1,0,0:0:0:0:
192,192,213300,1,0,0:0:0:0:
192,192,213450,1,0,0:0:0:0:
64,192,213525,1,0,0:0:0:0:
192,192,213600,128,0,214800:0:0:0:0:
448,192,213600,1,0,0:0:0:0:
64,192,213750,1,0,0:0:0:0:
320,192,213900,1,0,0:0:0:0:
448,192,213900,1,0,0:0:0:0:
64,192,213900,1,0,0:0:0:0:
448,192,214050,1,0,0:0:0:0:
320,192,214125,1,0,0:0:0:0:
64,192,214200,1,0,0:0:0:0:
448,192,214275,1,0,0:0:0:0:
320,192,214350,1,0,0:0:0:0:
64,192,214350,1,0,0:0:0:0:
320,192,214500,1,0,0:0:0:0:
448,192,214500,1,0,0:0:0:0:
64,192,214500,1,0,0:0:0:0:
448,192,214650,1,0,0:0:0:0:
320,192,214725,1,0,0:0:0:0:
64,192,214800,128,0,215100:0:0:0:0:
448,192,214800,1,0,0:0:0:0:
320,192,214950,1,0,0:0:0:0:
320,192,215100,128,0,215400:0:0:0:0:
192,192,215100,1,0,0:0:0:0:
448,192,215100,1,0,0:0:0:0:
64,192,215250,1,0,0:0:0:0:
192,192,215325,1,0,0:0:0:0:
448,192,215400,128,0,215700:0:0:0:0:
320,192,215475,1,0,0:0:0:0:
64,192,215550,1,0,0:0:0:0:
192,192,215550,1,0,0:0:0:0:
320,192,215700,128,0,216000:0:0:0:0:
64,192,215700,1,0,0:0:0:0:
192,192,215700,1,0,0:0:0:0:
448,192,215850,1,0,0:0:0:0:
192,192,216000,128,0,216900:0:0:0:0:
448,192,216000,1,0,0:0:0:0:
64,192,216000,1,0,0:0:0:0:
320,192,216150,1,0,0:0:0:0:
320,192,216300,1,0,0:0:0:0:
448,192,216300,1,0,0:0:0:0:
64,192,216300,1,0,0:0:0:0:
448,192,216450,1,0,0:0:0:0:
320,192,216525,1,0,0:0:0:0:
64,192,216600,1,0,0:0:0:0:
320,192,216675,1,0,0:0:0:0:
448,192,216750,1,0,0:0:0:0:
64,192,216750,1,0,0:0:0:0:
64,192,216900,128,0,217500:0:0:0:0:
448,192,216900,1,0,0:0:0:0:
320,192,216900,1,0,0:0:0:0:
192,192,217050,1,0,0:0:0:0:
448,192,217125,1,0,0:0:0:0:
320,192,217200,1,0,0:0:0:0:
192,192,217200,1,0,0:0:0:0:
448,192,217350,1,0,0:0:0:0:
192,192,217500,128,0,218100:0:0:0:0:
320,192,217500,1,0,0:0:0:0:
448,192,217500,1,0,0:0:0:0:
448,192,217650,1,0,0:0:0:0:
320,192,217725,1,0,0:0:0:0:
64,192,217800,1,0,0:0:0:0:
448,192,217875,1,0,0:0:0:0:
320,192,217950,1,0,0:0:0:0:
64,192,217950,1,0,0:0:0:0:
320,192,218100,128,0,218400:0:0:0:0:
448,192,218100,1,0,0:0:0:0:
64,192,218100,1,0,0:0:0:0:
448,192,218250,1,0,0:0:0:0:
192,192,218325,1,0,0:0:0:0:
448,192,218400,128,0,218850:0:0:0:0:
64,192,218400,1,0,0:0:0:0:
192,192,218550,1,0,0:0:0:0:
64,192,218700,1,0,0:0:0:0:
192,192,218700,1,0,0:0:0:0:
320,192,218700,1,0,0:0:0:0:
320,192,218850,128,0,219300:0:0:0:0:
448,192,218925,1,0,0:0:0:0:
64,192,219000,1,0,0:0:0:0:
192,192,219075,1,0,0:0:0:0:
64,192,219150,1,0,0:0:0:0:
448,192,219150,1,0,0:0:0:0:
192,192,219300,128,0,220200:0:0:0:0:
64,192,219300,1,0,0:0:0:0:
448,192,219300,1,0,0:0:0:0:
320,192,219450,1,0,0:0:0:0:
64,192,219525,1,0,0:0:0:0:
448,192,219600,1,0,0:0:0:0:
320,192,219600,1,0,0:0:0:0:
448,192,219750,1,0,0:0:0:0:
320,192,219900,1,0,0:0:0:0:
448,192,219900,1,0,0:0:0:0:
64,192,219900,1,0,0:0:0:0:
320,192,220050,1,0,0:0:0:0:
64,192,220125,1,0,0:0:0:0:
320,192,220200,128,0,220650:0:0:0:0:
448,192,220275,1,0,0:0:0:0:
64,192,220350,1,0,0:0:0:0:
192,192,220350,1,0,0:0:0:0:
64,192,220500,1,0,0:0:0:0:
192,192,220500,1,0,0:0:0:0:
448,192,220500,1,0,0:0:0:0:
448,192,220650,128,0,220800:0:0:0:0:
192,192,220650,1,0,0:0:0:0:
320,192,220800,128,0,221250:0:0:0:0:
64,192,220800,1,0,0:0:0:0:
192,192,220950,1,0,0:0:0:0:
192,192,221100,1,0,0:0:0:0:
64,192,221100,1,0,0:0:0:0:
448,192,221100,1,0,0:0:0:0:
192,192,221250,128,0,221700:0:0:0:0:
64,192,221325,1,0,0:0:0:0:
448,192,221400,1,0,0:0:0:0:
320,192,221475,1,0,0:0:0:0:
448,192,221550,1,0,0:0:0:0:
64,192,221550,1,0,0:0:0:0:
64,192,221700,128,0,222600:0:0:0:0:
320,192,221700,1,0,0:0:0:0:
448,192,221700,1,0,0:0:0:0:
192,192,221850,1,0,0:0:0:0:
320,192,221925,1,0,0:0:0:0:
448,192,222000,1,0,0:0:0:0:
192,192,222000,1,0,0:0:0:0:
320,192,222150,1,0,0:0:0:0:
320,192,222300,1,0,0:0:0:0:
448,192,222300,1,0,0:0:0:0:
192,192,222300,1,0,0:0:0:0:
448,192,222450,1,0,0:0:0:0:
320,192,222525,1,0,0:0:0:0:
448,192,222600,128,0,222900:0:0:0:0:
192,192,222675,1,0,0:0:0:0:
64,192,222750,1,0,0:0:0:0:
320,192,222750,1,0,0:0:0:0:
320,192,222900,128,0,223200:0:0:0:0:
64,192,222900,1,0,0:0:0:0:
192,192,222900,1,0,0:0:0:0:
192,192,223050,1,0,0:0:0:0:
448,192,223125,1,0,0:0:0:0:
192,192,223200,128,0,223650:0:0:0:0:
64,192,223200,1,0,0:0:0:0:
64,192,223350,1,0,0:0:0:0:
320,192,223350,1,0,0:0:0:0:
320,192,223650,128,0,224100:0:0:0:0:
448,192,223650,1,0,0:0:0:0:
64,192,223800,1,0,0:0:0:0:
448,192,223800,1,0,0:0:0:0:
448,192,224100,128,0,224550:0:0:0:0:
192,192,224100,1,0,0:0:0:0:
192,192,224250,1,0,0:0:0:0:
320,192,224250,1,0,0:0:0:0:
320,192,224550,128,0,224700:0:0:0:0:
64,192,224550,1,0,0:0:0:0:
64,192,224700,128,0,225000:0:0:0:0:
192,192,224700,1,0,0:0:0:0:
192,192,225000,128,0,225600:0:0:0:0:
448,192,225000,1,0,0:0:0:0:
448,192,225600,1,0,0:0:0:0:
64,192,225600,128,0,225637:0:0:0:0:
64,192,225750,128,0,225787:0:0:0:0:
192,192,225825,1,0,0:0:0:0:
448,192,225900,1,0,0:0:0:0:
320,192,225900,128,0,225937:0:0:0:0:
64,192,225900,1,0,0:0:0:0:
64,192,226050,128,0,226087:0:0:0:0:
320,192,226125,1,0,0:0:0:0:
64,192,226200,128,0,226237:0:0:0:0:
192,192,226275,1,0,0:0:0:0:
448,192,226350,1,0,0:0:0:0:
320,192,226350,128,0,226387:0:0:0:0:
448,192,226500,1,0,0:0:0:0:
64,192,226500,128,0,226537:0:0:0:0:
192,192,226500,1,0,0:0:0:0:
64,192,226650,128,0,226687:0:0:0:0:
320,192,226725,1,0,0:0:0:0:
448,192,226800,128,0,226837:0:0:0:0:
192,192,226800,1,0,0:0:0:0:
64,192,226950,128,0,226987:0:0:0:0:
192,192,227025,1,0,0:0:0:0:
320,192,227100,1,0,0:0:0:0:
448,192,227100,1,0,0:0:0:0:
64,192,227100,128,0,227137:0:0:0:0:
320,192,227250,128,0,227287:0:0:0:0:
448,192,227325,1,0,0:0:0:0:
64,192,227400,128,0,227437:0:0:0:0:
320,192,227475,1,0,0:0:0:0:
448,192,227550,1,0,0:0:0:0:
64,192,227550,128,0,227587:0:0:0:0:
448,192,227700,1,0,0:0:0:0:
192,192,227700,128,0,227737:0:0:0:0:
320,192,227700,1,0,0:0:0:0:
320,192,227850,128,0,227887:0:0:0:0:
192,192,227925,1,0,0:0:0:0:
448,192,228000,1,0,0:0:0:0:
64,192,228000,128,0,228037:0:0:0:0:
64,192,228150,128,0,228187:0:0:0:0:
192,192,228225,1,0,0:0:0:0:
448,192,228300,1,0,0:0:0:0:
320,192,228300,128,0,228337:0:0:0:0:
64,192,228300,1,0,0:0:0:0:
64,192,228450,128,0,228487:0:0:0:0:
448,192,228525,1,0,0:0:0:0:
64,192,228600,128,0,228637:0:0:0:0:
192,192,228675,1,0,0:0:0:0:
448,192,228750,1,0,0:0:0:0:
320,192,228750,128,0,228787:0:0:0:0:
448,192,228900,1,0,0:0:0:0:
64,192,228900,128,0,228937:0:0:0:0:
192,192,228900,1,0,0:0:0:0:
64,192,229050,128,0,229087:0:0:0:0:
192,192,229125,1,0,0:0:0:0:
448,192,229200,128,0,229237:0:0:0:0:
320,192,229200,1,0,0:0:0:0:
64,192,229350,128,0,229387:0:0:0:0:
320,192,229425,1,0,0:0:0:0:
448,192,229500,1,0,0:0:0:0:
64,192,229500,128,0,229537:0:0:0:0:
192,192,229500,1,0,0:0:0:0:
320,192,229650,128,0,229687:0:0:0:0:
192,192,229725,1,0,0:0:0:0:
64,192,229800,128,0,229837:0:0:0:0:
320,192,229875,1,0,0:0:0:0:
64,192,229950,128,0,229987:0:0:0:0:
192,192,229950,1,0,0:0:0:0:
320,192,230100,1,0,0:0:0:0:
448,192,230100,128,0,230137:0:0:0:0:
192,192,230100,1,0,0:0:0:0:
320,192,230250,128,0,230287:0:0:0:0:
192,192,230325,1,0,0:0:0:0:
64,192,230400,1,0,0:0:0:0:
448,192,230400,128,0,230437:0:0:0:0:
448,192,230550,128,0,230587:0:0:0:0:
320,192,230625,1,0,0:0:0:0:
64,192,230700,1,0,0:0:0:0:
192,192,230700,128,0,230737:0:0:0:0:
448,192,230700,1,0,0:0:0:0:
448,192,230850,128,0,230887:0:0:0:0:
320,192,230925,1,0,0:0:0:0:
448,192,231000,128,0,231037:0:0:0:0:
64,192,231075,1,0,0:0:0:0:
192,192,231150,128,0,231187:0:0:0:0:
320,192,231150,1,0,0:0:0:0:
192,192,231300,1,0,0:0:0:0:
64,192,231300,1,0,0:0:0:0:
448,192,231300,128,0,231337:0:0:0:0:
448,192,231450,128,0,231487:0:0:0:0:
320,192,231525,1,0,0:0:0:0:
64,192,231600,128,0,231637:0:0:0:0:
192,192,231600,1,0,0:0:0:0:
448,192,231750,128,0,231787:0:0:0:0:
192,192,231825,1,0,0:0:0:0:
320,192,231900,1,0,0:0:0:0:
448,192,231900,128,0,231937:0:0:0:0:
64,192,231900,1,0,0:0:0:0:
192,192,232050,128,0,232087:0:0:0:0:
64,192,232125,1,0,0:0:0:0:
448,192,232200,128,0,232237:0:0:0:0:
192,192,232275,1,0,0:0:0:0:
448,192,232350,128,0,232387:0:0:0:0:
320,192,232350,1,0,0:0:0:0:
448,192,232500,1,0,0:0:0:0:
320,192,232500,128,0,232537:0:0:0:0:
64,192,232500,1,0,0:0:0:0:
192,192,232650,128,0,232687:0:0:0:0:
320,192,232725,1,0,0:0:0:0:
448,192,232800,128,0,232837:0:0:0:0:
64,192,232800,1,0,0:0:0:0:
448,192,232950,128,0,232987:0:0:0:0:
64,192,233025,1,0,0:0:0:0:
320,192,233100,1,0,0:0:0:0:
448,192,233100,1,0,0:0:0:0:
192,192,233100,128,0,233137:0:0:0:0:
448,192,233250,128,0,233287:0:0:0:0:
320,192,233325,1,0,0:0:0:0:
448,192,233400,128,0,233437:0:0:0:0:
64,192,233475,1,0,0:0:0:0:
448,192,233550,1,0,0:0:0:0:
192,192,233550,128,0,233587:0:0:0:0:
320,192,233700,1,0,0:0:0:0:
448,192,233700,128,0,233737:0:0:0:0:
64,192,233700,1,0,0:0:0:0:
448,192,233850,128,0,233887:0:0:0:0:
192,192,233925,1,0,0:0:0:0:
448,192,234000,1,0,0:0:0:0:
64,192,234000,128,0,234037:0:0:0:0:
448,192,234150,128,0,234187:0:0:0:0:
192,192,234225,1,0,0:0:0:0:
320,192,234300,1,0,0:0:0:0:
448,192,234300,128,0,234337:0:0:0:0:
64,192,234300,1,0,0:0:0:0:
192,192,234450,128,0,234487:0:0:0:0:
320,192,234525,1,0,0:0:0:0:
448,192,234600,128,0,234637:0:0:0:0:
192,192,234675,1,0,0:0:0:0:
448,192,234750,128,0,234787:0:0:0:0:
64,192,234750,1,0,0:0:0:0:
448,192,234900,1,0,0:0:0:0:
64,192,234900,128,0,234937:0:0:0:0:
320,192,234900,1,0,0:0:0:0:
192,192,235050,128,0,235087:0:0:0:0:
320,192,235125,1,0,0:0:0:0:
448,192,235200,1,0,0:0:0:0:
64,192,235200,128,0,235237:0:0:0:0:
64,192,235350,128,0,235387:0:0:0:0:
192,192,235425,1,0,0:0:0:0:
448,192,235500,1,0,0:0:0:0:
320,192,235500,128,0,235537:0:0:0:0:
64,192,235500,1,0,0:0:0:0:
64,192,235650,128,0,235687:0:0:0:0:
192,192,235725,1,0,0:0:0:0:
64,192,235800,128,0,235837:0:0:0:0:
192,192,235875,1,0,0:0:0:0:
448,192,235950,1,0,0:0:0:0:
320,192,235950,128,0,235987:0:0:0:0:
448,192,236100,1,0,0:0:0:0:
64,192,236100,128,0,236137:0:0:0:0:
192,192,236100,1,0,0:0:0:0:
64,192,236250,128,0,236287:0:0:0:0:
320,192,236325,1,0,0:0:0:0:
448,192,236400,128,0,236437:0:0:0:0:
192,192,236400,1,0,0:0:0:0:
64,192,236550,128,0,236587:0:0:0:0:
192,192,236625,1,0,0:0:0:0:
320,192,236700,1,0,0:0:0:0:
448,192,236700,1,0,0:0:0:0:
64,192,236700,128,0,236737:0:0:0:0:
320,192,236850,128,0,236887:0:0:0:0:
448,192,236925,1,0,0:0:0:0:
64,192,237000,128,0,237037:0:0:0:0:
320,192,237075,1,0,0:0:0:0:
448,192,237150,1,0,0:0:0:0:
64,192,237150,128,0,237187:0:0:0:0:
320,192,237300,1,0,0:0:0:0:
448,192,237300,1,0,0:0:0:0:
192,192,237300,128,0,237337:0:0:0:0:
320,192,237450,128,0,237487:0:0:0:0:
192,192,237525,1,0,0:0:0:0:
448,192,237600,1,0,0:0:0:0:
64,192,237600,128,0,237637:0:0:0:0:
64,192,237750,128,0,237787:0:0:0:0:
192,192,237825,1,0,0:0:0:0:
448,192,237900,1,0,0:0:0:0:
320,192,237900,128,0,237937:0:0:0:0:
64,192,237900,1,0,0:0:0:0:
64,192,238050,128,0,238087:0:0:0:0:
320,192,238125,1,0,0:0:0:0:
64,192,238200,128,0,238237:0:0:0:0:
192,192,238275,1,0,0:0:0:0:
448,192,238350,1,0,0:0:0:0:
320,192,238350,128,0,238387:0:0:0:0:
448,192,238500,1,0,0:0:0:0:
64,192,238500,128,0,238537:0:0:0:0:
192,192,238500,1,0,0:0:0:0:
64,192,238650,128,0,238687:0:0:0:0:
192,192,238725,1,0,0:0:0:0:
448,192,238800,128,0,238837:0:0:0:0:
320,192,238800,1,0,0:0:0:0:
64,192,238950,128,0,238987:0:0:0:0:
448,192,239025,1,0,0:0:0:0:
320,192,239100,1,0,0:0:0:0:
64,192,239100,128,0,239137:0:0:0:0:
192,192,239100,1,0,0:0:0:0:
320,192,239250,128,0,239287:0:0:0:0:
448,192,239325,1,0,0:0:0:0:
64,192,239400,128,0,239437:0:0:0:0:
320,192,239475,1,0,0:0:0:0:
64,192,239550,128,0,239587:0:0:0:0:
192,192,239550,1,0,0:0:0:0:
320,192,239700,1,0,0:0:0:0:
448,192,239700,128,0,239737:0:0:0:0:
192,192,239700,1,0,0:0:0:0:
320,192,239850,128,0,239887:0:0:0:0:
192,192,239925,1,0,0:0:0:0:
64,192,240000,1,0,0:0:0:0:
448,192,240000,128,0,240037:0:0:0:0:
448,192,240150,128,0,240187:0:0:0:0:
320,192,240225,1,0,0:0:0:0:
64,192,240300,1,0,0:0:0:0:
192,192,240300,128,0,240337:0:0:0:0:
448,192,240300,1,0,0:0:0:0:
448,192,240450,128,0,240487:0:0:0:0:
320,192,240525,1,0,0:0:0:0:
448,192,240600,128,0,240637:0:0:0:0:
64,192,240675,1,0,0:0:0:0:
192,192,240750,128,0,240787:0:0:0:0:
320,192,240750,1,0,0:0:0:0:
192,192,240900,1,0,0:0:0:0:
64,192,240900,1,0,0:0:0:0:
448,192,240900,128,0,240937:0:0:0:0:
448,192,241050,128,0,241087:0:0:0:0:
320,192,241125,1,0,0:0:0:0:
64,192,241200,128,0,241237:0:0:0:0:
192,192,241200,1,0,0:0:0:0:
448,192,241350,128,0,241387:0:0:0:0:
320,192,241425,1,0,0:0:0:0:
448,192,241500,128,0,241537:0:0:0:0:
64,192,241500,1,0,0:0:0:0:
192,192,241500,1,0,0:0:0:0:
192,192,241650,128,0,241687:0:0:0:0:
320,192,241725,1,0,0:0:0:0:
448,192,241800,128,0,241837:0:0:0:0:
64,192,241875,1,0,0:0:0:0:
448,192,241950,128,0,241987:0:0:0:0:
192,192,241950,1,0,0:0:0:0:
320,192,242100,1,0,0:0:0:0:
448,192,242100,1,0,0:0:0:0:
192,192,242100,128,0,242137:0:0:0:0:
64,192,242250,128,0,242287:0:0:0:0:
320,192,242325,1,0,0:0:0:0:
448,192,242400,128,0,242437:0:0:0:0:
192,192,242400,1,0,0:0:0:0:
448,192,242550,128,0,242587:0:0:0:0:
64,192,242625,1,0,0:0:0:0:
320,192,242700,1,0,0:0:0:0:
448,192,242700,1,0,0:0:0:0:
192,192,242700,128,0,242737:0:0:0:0:
448,192,242850,128,0,242887:0:0:0:0:
320,192,242925,1,0,0:0:0:0:
448,192,243000,128,0,243037:0:0:0:0:
64,192,243075,1,0,0:0:0:0:
448,192,243150,1,0,0:0:0:0:
192,192,243150,128,0,243187:0:0:0:0:
320,192,243300,1,0,0:0:0:0:
448,192,243300,128,0,243337:0:0:0:0:
64,192,243300,1,0,0:0:0:0:
448,192,243450,128,0,243487:0:0:0:0:
192,192,243525,1,0,0:0:0:0:
64,192,243600,128,0,243637:0:0:0:0:
448,192,243600,128,0,243675:0:0:0:0:
448,192,243750,128,0,243787:0:0:0:0:
192,192,243825,128,0,243900:0:0:0:0:
448,192,243900,128,0,243937:0:0:0:0:
320,192,243900,128,0,243975:0:0:0:0:
64,192,243900,128,0,243975:0:0:0:0:
192,192,244050,128,0,244087:0:0:0:0:
320,192,244125,128,0,244200:0:0:0:0:
448,192,244200,128,0,244237:0:0:0:0:
192,192,244275,128,0,244350:0:0:0:0:
448,192,244350,128,0,244387:0:0:0:0:
64,192,244350,128,0,244425:0:0:0:0:
64,192,244500,128,0,244537:0:0:0:0:
448,192,244500,128,0,244575:0:0:0:0:
320,192,244500,128,0,244575:0:0:0:0:
192,192,244650,128,0,244687:0:0:0:0:
448,192,244725,128,0,244800:0:0:0:0:
64,192,244800,128,0,244875:0:0:0:0:
192,192,244800,128,0,244875:0:0:0:0:
320,192,244800,128,0,244875:0:0:0:0:
