osu file format v14

[General]
AudioFilename: audio.mp3
AudioLeadIn: 0
PreviewTime: 59977
Countdown: 0
SampleSet: Normal
StackLeniency: 0.7
Mode: 1
LetterboxInBreaks: 0
WidescreenStoryboard: 0

[Editor]
Bookmarks: 188752
DistanceSpacing: 0.8
BeatDivisor: 4
GridSize: 8
TimelineZoom: 2.2

[Metadata]
Title:Fortuna Redux
TitleUnicode:Fortuna Redux
Artist:Fractal Dreamers
ArtistUnicode:Fractal Dreamers
Creator:kiminokokoro
Version:Tanoshii Oni
Source:
Tags:
BeatmapID:1502439
BeatmapSetID:710695

[Difficulty]
HPDrainRate:5
CircleSize:5
OverallDifficulty:6
ApproachRate:5
SliderMultiplier:1.4
SliderTickRate:1

[Events]
//Background and Video events
0,0,"bg.jpg",0,0
//Break Periods
//Storyboard Layer 0 (Background)
//Storyboard Layer 1 (Fail)
//Storyboard Layer 2 (Pass)
//Storyboard Layer 3 (Foreground)
//Storyboard Sound Samples

[TimingPoints]
2377,300,4,1,0,100,1,0
9577,-100,4,1,0,100,0,0
21577,-100,4,1,0,100,0,0
40777,-100,4,1,0,100,0,0
59977,-100,4,1,0,100,0,1
79177,-100,4,1,0,100,0,0
98377,-100,4,1,0,100,0,1
117577,-100,4,1,0,100,0,0
136777,-100,4,1,0,100,0,0
139177,-100,4,1,0,100,0,0
158377,-100,4,1,0,100,0,0
184777,-100,4,1,0,100,0,0
187177,-100,4,1,0,100,0,1
225577,-100,4,1,0,100,0,0
244777,-100,4,1,0,100,0,0

[HitObjects]
256,192,9577,5,0,0:0:0:0:
328,104,9877,1,8,0:0:0:0:
256,192,10177,1,0,0:0:0:0:
296,152,10327,1,8,0:0:0:0:
368,112,10627,1,8,0:0:0:0:
328,152,10777,1,0,0:0:0:0:
328,152,11077,1,8,0:0:0:0:
272,152,11227,1,0,0:0:0:0:
320,72,11377,1,0,0:0:0:0:
336,152,11527,1,8,0:0:0:0:
280,176,11677,1,0,0:0:0:0:
280,176,11827,1,8,0:0:0:0:
256,192,11977,1,0,0:0:0:0:
328,104,12277,1,8,0:0:0:0:
256,192,12577,1,0,0:0:0:0:
296,152,12727,1,8,0:0:0:0:
368,112,13027,1,8,0:0:0:0:
328,152,13177,1,0,0:0:0:0:
328,152,13477,1,8,0:0:0:0:
272,152,13627,1,0,0:0:0:0:
320,72,13777,1,0,0:0:0:0:
336,152,13927,1,8,0:0:0:0:
280,176,14077,1,0,0:0:0:0:
280,176,14227,1,8,0:0:0:0:
256,192,14377,1,0,0:0:0:0:
328,104,14677,1,8,0:0:0:0:
256,192,14977,1,0,0:0:0:0:
296,152,15127,1,8,0:0:0:0:
368,112,15427,1,8,0:0:0:0:
328,152,15577,1,0,0:0:0:0:
328,152,15877,1,8,0:0:0:0:
272,152,16027,1,0,0:0:0:0:
296,152,16102,1,0,0:0:0:0:
320,72,16177,1,0,0:0:0:0:
336,152,16327,1,8,0:0:0:0:
280,176,16477,1,0,0:0:0:0:
280,176,16627,1,8,0:0:0:0:
256,192,16777,1,0,0:0:0:0:
328,104,17077,1,8,0:0:0:0:
256,192,17377,1,0,0:0:0:0:
296,152,17527,1,8,0:0:0:0:
368,112,17827,1,8,0:0:0:0:
328,152,17977,1,0,0:0:0:0:
272,160,18127,1,0,0:0:0:0:
248,160,18202,1,0,0:0:0:0:
328,152,18277,1,0,0:0:0:0:
272,152,18427,1,8,0:0:0:0:
320,72,18577,1,0,0:0:0:0:
296,72,18652,1,0,0:0:0:0:
336,152,18727,1,0,0:0:0:0:
280,176,18877,1,0,0:0:0:0:
280,176,19027,1,8,0:0:0:0:
248,160,20977,2,0,L|288:160,4,35
256,192,21577,1,0,0:0:0:0:
288,24,22027,1,8,0:0:0:0:
256,72,22177,1,0,0:0:0:0:
256,192,22477,1,0,0:0:0:0:
272,80,22777,1,8,0:0:0:0:
288,192,23077,1,0,0:0:0:0:
272,80,23377,1,8,0:0:0:0:
304,184,23677,1,0,0:0:0:0:
272,80,23977,1,8,0:0:0:0:
440,232,24577,1,8,0:0:0:0:
344,176,24877,1,8,0:0:0:0:
264,96,25177,1,0,0:0:0:0:
336,184,25477,1,8,0:0:0:0:
264,96,25777,1,0,0:0:0:0:
344,176,26077,1,8,0:0:0:0:
280,88,26377,1,0,0:0:0:0:
288,144,26527,1,0,0:0:0:0:
392,192,26827,1,0,0:0:0:0:
344,168,26977,1,8,0:0:0:0:
256,192,27277,1,0,0:0:0:0:
312,96,27577,1,8,0:0:0:0:
256,72,27877,1,0,0:0:0:0:
256,192,28177,1,0,0:0:0:0:
272,80,28477,1,8,0:0:0:0:
288,192,28777,1,0,0:0:0:0:
272,80,28927,1,0,0:0:0:0:
272,104,29227,1,8,0:0:0:0:
304,184,29377,1,0,0:0:0:0:
272,80,29677,1,8,0:0:0:0:
272,80,30277,1,0,0:0:0:0:
272,80,30577,1,8,0:0:0:0:
368,136,30877,1,8,0:0:0:0:
256,144,31177,1,0,0:0:0:0:
256,144,31327,1,0,0:0:0:0:
152,104,31627,1,8,0:0:0:0:
200,128,31777,1,0,0:0:0:0:
256,224,32077,1,8,0:0:0:0:
216,184,32227,1,0,0:0:0:0:
272,176,32377,1,0,0:0:0:0:
32,240,32677,1,8,0:0:0:0:
128,176,32977,1,8,0:0:0:0:
224,112,33277,1,0,0:0:0:0:
280,208,33577,1,8,0:0:0:0:
264,152,33727,1,8,0:0:0:0:
232,48,34027,1,8,0:0:0:0:
248,104,34177,1,0,0:0:0:0:
248,104,34477,1,8,0:0:0:0:
248,104,34777,1,0,0:0:0:0:
248,104,35077,1,0,0:0:0:0:
248,104,35377,1,8,0:0:0:0:
248,104,35677,1,0,0:0:0:0:
248,104,35977,1,8,0:0:0:0:
248,104,36127,1,8,0:0:0:0:
328,24,36427,1,0,0:0:0:0:
288,64,36577,1,8,0:0:0:0:
200,136,36877,1,0,0:0:0:0:
304,184,37177,1,0,0:0:0:0:
224,112,37477,1,0,0:0:0:0:
304,192,37777,1,8,0:0:0:0:
304,184,38077,1,0,0:0:0:0:
248,104,38377,1,8,0:0:0:0:
248,104,38527,1,8,0:0:0:0:
328,24,38827,1,0,0:0:0:0:
288,64,38977,1,8,0:0:0:0:
200,136,39277,1,0,0:0:0:0:
304,184,39577,1,0,0:0:0:0:
280,176,39727,1,0,0:0:0:0:
224,112,39877,1,8,0:0:0:0:
168,128,40027,1,0,0:0:0:0:
304,192,40177,1,8,0:0:0:0:
248,176,40327,1,0,0:0:0:0:
304,184,40477,1,0,0:0:0:0:
416,160,40777,1,0,0:0:0:0:
304,136,41077,1,0,0:0:0:0:
280,128,41977,1,0,0:0:0:0:
280,128,42277,1,0,0:0:0:0:
280,128,43177,1,0,0:0:0:0:
280,128,43477,1,0,0:0:0:0:
280,128,44377,1,0,0:0:0:0:
280,128,44677,1,0,0:0:0:0:
280,128,45577,1,0,0:0:0:0:
280,128,45877,1,0,0:0:0:0:
280,128,46777,1,0,0:0:0:0:
280,128,47077,1,0,0:0:0:0:
280,128,47977,1,0,0:0:0:0:
280,128,48277,1,0,0:0:0:0:
288,104,49177,1,0,0:0:0:0:
288,104,49477,1,0,0:0:0:0:
88,376,50377,1,0,0:0:0:0:
152,288,50677,1,0,0:0:0:0:
208,192,50977,1,8,0:0:0:0:
272,176,51052,1,0,0:0:0:0:
264,120,51202,1,0,0:0:0:0:
352,160,51277,1,8,0:0:0:0:
408,144,51427,1,8,0:0:0:0:
408,144,51577,1,0,0:0:0:0:
408,144,51877,1,0,0:0:0:0:
328,64,52177,1,8,0:0:0:0:
304,64,52252,1,0,0:0:0:0:
280,64,52327,1,0,0:0:0:0:
224,56,52477,1,8,0:0:0:0:
272,80,52627,1,8,0:0:0:0:
88,376,52777,1,0,0:0:0:0:
152,288,53077,1,0,0:0:0:0:
208,192,53377,1,8,0:0:0:0:
272,176,53452,1,0,0:0:0:0:
264,120,53602,1,0,0:0:0:0:
352,160,53677,1,8,0:0:0:0:
408,144,53827,1,8,0:0:0:0:
408,144,53977,1,0,0:0:0:0:
408,144,54277,1,0,0:0:0:0:
328,64,54577,1,8,0:0:0:0:
304,64,54652,1,0,0:0:0:0:
280,64,54727,1,0,0:0:0:0:
224,56,54877,1,8,0:0:0:0:
272,80,55027,1,8,0:0:0:0:
88,376,55177,1,0,0:0:0:0:
152,288,55477,1,0,0:0:0:0:
208,192,55777,1,8,0:0:0:0:
272,176,55852,1,0,0:0:0:0:
264,120,56002,1,0,0:0:0:0:
352,160,56077,1,8,0:0:0:0:
408,144,56227,1,8,0:0:0:0:
408,144,56377,1,0,0:0:0:0:
408,144,56677,1,0,0:0:0:0:
328,64,56977,1,8,0:0:0:0:
304,64,57052,1,0,0:0:0:0:
280,64,57127,1,0,0:0:0:0:
248,72,57277,1,8,0:0:0:0:
232,112,57577,1,8,0:0:0:0:
312,128,57802,1,8,0:0:0:0:
312,128,58027,1,8,0:0:0:0:
336,80,58177,1,8,0:0:0:0:
344,56,58402,1,8,0:0:0:0:
344,56,58627,1,8,0:0:0:0:
344,56,58777,1,8,0:0:0:0:
320,64,58852,1,0,0:0:0:0:
296,64,58927,1,0,0:0:0:0:
344,56,59002,1,8,0:0:0:0:
288,48,59152,1,0,0:0:0:0:
344,56,59227,1,8,0:0:0:0:
280,80,59302,1,0,0:0:0:0:
304,96,59377,1,8,0:0:0:0:
280,80,59452,1,0,0:0:0:0:
256,72,59527,1,0,0:0:0:0:
240,152,59602,1,8,0:0:0:0:
256,72,59677,1,0,0:0:0:0:
216,104,59752,1,0,0:0:0:0:
304,104,59827,1,8,0:0:0:0:
216,104,59977,1,0,0:0:0:0:
216,104,60202,1,8,0:0:0:0:
192,112,60277,1,8,0:0:0:0:
304,160,60427,1,0,0:0:0:0:
248,144,60577,1,8,0:0:0:0:
192,128,60727,1,0,0:0:0:0:
168,120,60802,1,0,0:0:0:0:
168,120,60877,1,8,0:0:0:0:
208,104,61027,1,8,0:0:0:0:
208,128,61102,1,0,0:0:0:0:
192,128,61177,1,0,0:0:0:0:
248,144,61252,1,0,0:0:0:0:
288,112,61402,1,8,0:0:0:0:
264,128,61477,1,0,0:0:0:0:
192,128,61627,1,8,0:0:0:0:
224,88,61777,1,0,0:0:0:0:
272,56,61927,1,8,0:0:0:0:
224,88,62077,1,8,0:0:0:0:
248,72,62152,1,0,0:0:0:0:
248,72,62227,1,0,0:0:0:0:
248,72,62302,1,8,0:0:0:0:
272,72,62377,1,0,0:0:0:0:
248,88,62452,1,0,0:0:0:0:
216,104,62602,1,8,0:0:0:0:
192,112,62677,1,8,0:0:0:0:
304,160,62827,1,0,0:0:0:0:
248,144,62977,1,8,0:0:0:0:
192,128,63127,1,0,0:0:0:0:
168,120,63202,1,0,0:0:0:0:
168,120,63277,1,8,0:0:0:0:
208,104,63427,1,8,0:0:0:0:
208,128,63502,1,0,0:0:0:0:
192,128,63577,1,0,0:0:0:0:
248,144,63652,1,0,0:0:0:0:
288,112,63802,1,8,0:0:0:0:
264,128,63877,1,0,0:0:0:0:
192,128,64027,1,8,0:0:0:0:
224,88,64177,1,0,0:0:0:0:
272,56,64327,1,8,0:0:0:0:
224,88,64477,1,0,0:0:0:0:
248,72,64627,1,8,0:0:0:0:
248,72,64702,1,8,0:0:0:0:
288,112,64777,1,0,0:0:0:0:
280,136,64852,1,8,0:0:0:0:
280,136,64927,1,0,0:0:0:0:
192,112,65077,1,8,0:0:0:0:
304,160,65227,1,0,0:0:0:0:
248,144,65377,1,8,0:0:0:0:
192,128,65527,1,0,0:0:0:0:
168,120,65602,1,0,0:0:0:0:
168,120,65677,1,8,0:0:0:0:
208,104,65827,1,8,0:0:0:0:
208,128,65902,1,0,0:0:0:0:
192,128,65977,1,0,0:0:0:0:
248,144,66052,1,0,0:0:0:0:
288,112,66202,1,8,0:0:0:0:
264,128,66277,1,0,0:0:0:0:
192,128,66427,1,8,0:0:0:0:
224,88,66577,1,0,0:0:0:0:
272,56,66727,1,8,0:0:0:0:
224,88,66877,1,8,0:0:0:0:
248,72,66952,1,0,0:0:0:0:
248,72,67027,1,0,0:0:0:0:
248,72,67102,1,8,0:0:0:0:
272,72,67177,1,0,0:0:0:0:
248,88,67252,1,0,0:0:0:0:
216,104,67402,1,8,0:0:0:0:
192,112,67477,1,8,0:0:0:0:
304,160,67627,1,0,0:0:0:0:
248,144,67777,1,8,0:0:0:0:
192,128,67927,1,0,0:0:0:0:
168,120,68002,1,0,0:0:0:0:
168,120,68077,1,8,0:0:0:0:
208,104,68227,1,8,0:0:0:0:
208,128,68302,1,0,0:0:0:0:
192,128,68377,1,0,0:0:0:0:
248,144,68452,1,0,0:0:0:0:
288,112,68602,1,8,0:0:0:0:
264,128,68677,1,0,0:0:0:0:
192,128,68827,1,8,0:0:0:0:
224,88,68977,1,0,0:0:0:0:
272,56,69127,1,8,0:0:0:0:
224,88,69277,1,0,0:0:0:0:
248,72,69427,1,8,0:0:0:0:
248,72,69502,1,8,0:0:0:0:
216,104,69577,1,0,0:0:0:0:
192,112,69652,1,0,0:0:0:0:
216,104,69802,1,8,0:0:0:0:
192,112,69877,1,8,0:0:0:0:
304,160,70027,1,0,0:0:0:0:
248,144,70177,1,8,0:0:0:0:
192,128,70327,1,0,0:0:0:0:
168,120,70402,1,0,0:0:0:0:
168,120,70477,1,8,0:0:0:0:
208,104,70627,1,8,0:0:0:0:
208,128,70702,1,0,0:0:0:0:
192,128,70777,1,0,0:0:0:0:
248,144,70852,1,0,0:0:0:0:
288,112,71002,1,8,0:0:0:0:
264,128,71077,1,0,0:0:0:0:
192,128,71227,1,8,0:0:0:0:
224,88,71377,1,0,0:0:0:0:
272,56,71527,1,8,0:0:0:0:
224,88,71677,1,8,0:0:0:0:
248,72,71752,1,0,0:0:0:0:
248,72,71827,1,0,0:0:0:0:
248,72,71902,1,8,0:0:0:0:
272,72,71977,1,0,0:0:0:0:
248,88,72052,1,0,0:0:0:0:
216,104,72202,1,8,0:0:0:0:
192,112,72277,1,8,0:0:0:0:
304,160,72427,1,0,0:0:0:0:
248,144,72577,1,8,0:0:0:0:
192,128,72727,1,0,0:0:0:0:
168,120,72802,1,0,0:0:0:0:
168,120,72877,1,8,0:0:0:0:
208,104,73027,1,8,0:0:0:0:
208,128,73102,1,0,0:0:0:0:
192,128,73177,1,0,0:0:0:0:
248,144,73252,1,0,0:0:0:0:
288,112,73402,1,8,0:0:0:0:
264,128,73477,1,0,0:0:0:0:
192,128,73627,1,8,0:0:0:0:
224,88,73777,1,0,0:0:0:0:
272,56,73927,1,8,0:0:0:0:
224,88,74077,1,0,0:0:0:0:
248,72,74227,1,8,0:0:0:0:
248,72,74302,1,8,0:0:0:0:
288,112,74377,1,0,0:0:0:0:
280,136,74452,1,8,0:0:0:0:
280,136,74527,1,0,0:0:0:0:
192,112,74677,1,8,0:0:0:0:
304,160,74827,1,0,0:0:0:0:
248,144,74977,1,8,0:0:0:0:
192,128,75127,1,0,0:0:0:0:
168,120,75202,1,0,0:0:0:0:
168,120,75277,1,8,0:0:0:0:
208,104,75427,1,8,0:0:0:0:
208,128,75502,1,0,0:0:0:0:
192,128,75577,1,0,0:0:0:0:
248,144,75652,1,0,0:0:0:0:
288,112,75802,1,8,0:0:0:0:
264,128,75877,1,0,0:0:0:0:
192,128,76027,1,8,0:0:0:0:
224,88,76177,1,0,0:0:0:0:
272,56,76327,1,8,0:0:0:0:
224,88,76477,1,8,0:0:0:0:
248,72,76552,1,0,0:0:0:0:
248,72,76627,1,0,0:0:0:0:
248,72,76702,1,8,0:0:0:0:
272,72,76777,1,0,0:0:0:0:
248,88,76852,1,0,0:0:0:0:
216,104,77002,1,8,0:0:0:0:
192,112,77077,1,8,0:0:0:0:
304,160,77227,1,0,0:0:0:0:
248,144,77377,1,8,0:0:0:0:
224,136,77452,1,0,0:0:0:0:
168,120,77602,1,8,0:0:0:0:
192,128,77677,1,8,0:0:0:0:
168,120,77752,1,0,0:0:0:0:
208,104,77827,1,8,0:0:0:0:
208,128,77902,1,8,0:0:0:0:
192,128,77977,1,0,0:0:0:0:
176,144,78052,1,0,0:0:0:0:
248,144,78202,1,8,0:0:0:0:
264,128,78277,1,0,0:0:0:0:
192,128,78427,1,8,0:0:0:0:
224,88,78577,1,0,0:0:0:0:
272,56,78727,1,8,0:0:0:0:
224,88,78877,1,0,0:0:0:0:
248,72,79027,1,8,0:0:0:0:
88,376,79177,1,0,0:0:0:0:
152,288,79477,1,0,0:0:0:0:
192,248,79627,1,0,0:0:0:0:
208,192,79777,1,8,0:0:0:0:
272,176,79852,1,0,0:0:0:0:
264,120,80002,1,0,0:0:0:0:
352,160,80077,1,8,0:0:0:0:
408,144,80227,1,8,0:0:0:0:
408,144,80377,1,0,0:0:0:0:
408,144,80677,1,0,0:0:0:0:
352,144,80827,1,0,0:0:0:0:
328,64,80977,1,8,0:0:0:0:
304,64,81052,1,0,0:0:0:0:
280,64,81127,1,0,0:0:0:0:
224,56,81277,1,8,0:0:0:0:
272,80,81427,1,8,0:0:0:0:
88,376,81577,1,0,0:0:0:0:
152,288,81877,1,0,0:0:0:0:
160,232,82027,1,0,0:0:0:0:
208,192,82177,1,8,0:0:0:0:
272,176,82252,1,0,0:0:0:0:
264,120,82402,1,0,0:0:0:0:
352,160,82477,1,8,0:0:0:0:
408,144,82627,1,8,0:0:0:0:
408,144,82777,1,0,0:0:0:0:
408,144,83077,1,0,0:0:0:0:
360,176,83227,1,0,0:0:0:0:
328,64,83377,1,8,0:0:0:0:
304,64,83452,1,0,0:0:0:0:
280,64,83527,1,0,0:0:0:0:
224,56,83677,1,8,0:0:0:0:
272,80,83827,1,8,0:0:0:0:
88,376,83977,1,0,0:0:0:0:
152,288,84277,1,0,0:0:0:0:
192,248,84427,1,0,0:0:0:0:
208,192,84577,1,8,0:0:0:0:
272,176,84652,1,0,0:0:0:0:
264,120,84802,1,0,0:0:0:0:
352,160,84877,1,8,0:0:0:0:
408,144,85027,1,8,0:0:0:0:
408,144,85177,1,0,0:0:0:0:
408,144,85477,1,0,0:0:0:0:
352,144,85627,1,0,0:0:0:0:
328,64,85777,1,8,0:0:0:0:
304,64,85852,1,0,0:0:0:0:
280,64,85927,1,0,0:0:0:0:
224,56,86077,1,8,0:0:0:0:
272,80,86227,1,8,0:0:0:0:
88,376,86377,1,0,0:0:0:0:
152,288,86677,1,0,0:0:0:0:
160,232,86827,1,0,0:0:0:0:
208,192,86977,1,8,0:0:0:0:
272,176,87052,1,0,0:0:0:0:
264,120,87202,1,0,0:0:0:0:
352,160,87277,1,8,0:0:0:0:
408,144,87427,1,8,0:0:0:0:
408,144,87577,1,0,0:0:0:0:
384,144,87652,1,0,0:0:0:0:
360,144,87727,1,0,0:0:0:0:
328,136,87802,1,0,0:0:0:0:
408,144,87877,1,8,0:0:0:0:
384,128,87952,1,0,0:0:0:0:
352,152,88027,1,0,0:0:0:0:
328,152,88102,1,0,0:0:0:0:
328,64,88177,1,8,0:0:0:0:
304,64,88252,1,0,0:0:0:0:
280,64,88327,1,0,0:0:0:0:
272,88,88402,1,0,0:0:0:0:
224,56,88477,1,8,0:0:0:0:
232,80,88552,1,0,0:0:0:0:
272,80,88627,1,8,0:0:0:0:
288,104,88702,1,0,0:0:0:0:
88,376,88777,1,0,0:0:0:0:
152,288,89077,1,0,0:0:0:0:
192,248,89227,1,0,0:0:0:0:
208,192,89377,1,8,0:0:0:0:
272,176,89452,1,0,0:0:0:0:
264,120,89602,1,0,0:0:0:0:
352,160,89677,1,8,0:0:0:0:
408,144,89827,1,8,0:0:0:0:
408,144,89977,1,0,0:0:0:0:
408,144,90277,1,0,0:0:0:0:
352,144,90427,1,0,0:0:0:0:
328,64,90577,1,8,0:0:0:0:
304,64,90652,1,0,0:0:0:0:
280,64,90727,1,0,0:0:0:0:
224,56,90877,1,8,0:0:0:0:
272,80,91027,1,8,0:0:0:0:
88,376,91177,1,0,0:0:0:0:
152,288,91477,1,0,0:0:0:0:
160,232,91627,1,0,0:0:0:0:
208,192,91777,1,8,0:0:0:0:
272,176,91852,1,0,0:0:0:0:
264,120,92002,1,0,0:0:0:0:
352,160,92077,1,8,0:0:0:0:
408,144,92227,1,8,0:0:0:0:
408,144,92377,1,0,0:0:0:0:
408,144,92677,1,0,0:0:0:0:
360,176,92827,1,0,0:0:0:0:
328,64,92977,1,8,0:0:0:0:
304,64,93052,1,0,0:0:0:0:
280,64,93127,1,0,0:0:0:0:
224,56,93277,1,8,0:0:0:0:
272,80,93427,1,8,0:0:0:0:
88,376,93577,1,0,0:0:0:0:
152,288,93877,1,0,0:0:0:0:
192,248,94027,1,0,0:0:0:0:
208,192,94177,1,8,0:0:0:0:
272,176,94252,1,0,0:0:0:0:
264,120,94402,1,0,0:0:0:0:
352,160,94477,1,8,0:0:0:0:
408,144,94627,1,8,0:0:0:0:
408,144,94777,1,0,0:0:0:0:
408,144,95077,1,0,0:0:0:0:
352,144,95227,1,0,0:0:0:0:
328,64,95377,1,8,0:0:0:0:
304,64,95452,1,0,0:0:0:0:
280,64,95527,1,0,0:0:0:0:
224,56,95677,1,8,0:0:0:0:
272,80,95827,1,8,0:0:0:0:
88,376,95977,1,0,0:0:0:0:
96,384,96277,1,0,0:0:0:0:
160,232,96427,1,0,0:0:0:0:
208,192,96577,1,8,0:0:0:0:
272,176,96652,1,0,0:0:0:0:
264,120,96802,1,0,0:0:0:0:
352,160,96877,1,8,0:0:0:0:
408,144,97027,1,8,0:0:0:0:
256,192,97177,12,0,98077,0:0:0:0:
104,376,98377,5,0,0:0:0:0:
96,352,98452,1,0,0:0:0:0:
112,328,98527,1,0,0:0:0:0:
144,288,98677,1,8,0:0:0:0:
184,248,98827,1,0,0:0:0:0:
208,232,98902,1,0,0:0:0:0:
200,192,98977,1,8,0:0:0:0:
264,176,99052,1,0,0:0:0:0:
256,120,99202,1,0,0:0:0:0:
344,160,99277,1,8,0:0:0:0:
400,144,99427,1,8,0:0:0:0:
400,144,99577,1,0,0:0:0:0:
376,144,99652,1,0,0:0:0:0:
320,136,99802,1,8,0:0:0:0:
400,144,99877,1,0,0:0:0:0:
344,144,100027,1,0,0:0:0:0:
320,64,100177,1,8,0:0:0:0:
296,64,100252,1,0,0:0:0:0:
272,64,100327,1,0,0:0:0:0:
216,56,100477,1,8,0:0:0:0:
264,80,100627,1,8,0:0:0:0:
80,376,100777,1,0,0:0:0:0:
96,352,100852,1,0,0:0:0:0:
112,328,100927,1,0,0:0:0:0:
144,288,101077,1,8,0:0:0:0:
184,248,101227,1,0,0:0:0:0:
208,232,101302,1,0,0:0:0:0:
200,192,101377,1,8,0:0:0:0:
264,176,101452,1,0,0:0:0:0:
256,120,101602,1,0,0:0:0:0:
344,160,101677,1,8,0:0:0:0:
400,144,101827,1,8,0:0:0:0:
400,144,101977,1,0,0:0:0:0:
376,144,102052,1,0,0:0:0:0:
320,136,102202,1,8,0:0:0:0:
400,144,102277,1,0,0:0:0:0:
344,144,102427,1,0,0:0:0:0:
320,64,102577,1,8,0:0:0:0:
296,64,102652,1,0,0:0:0:0:
272,64,102727,1,0,0:0:0:0:
216,56,102877,1,8,0:0:0:0:
264,80,103027,1,8,0:0:0:0:
80,376,103177,1,0,0:0:0:0:
96,352,103252,1,0,0:0:0:0:
112,328,103327,1,0,0:0:0:0:
144,288,103477,1,8,0:0:0:0:
184,248,103627,1,0,0:0:0:0:
208,232,103702,1,0,0:0:0:0:
200,192,103777,1,8,0:0:0:0:
264,176,103852,1,0,0:0:0:0:
256,120,104002,1,0,0:0:0:0:
344,160,104077,1,8,0:0:0:0:
400,144,104227,1,8,0:0:0:0:
400,144,104377,1,0,0:0:0:0:
376,144,104452,1,0,0:0:0:0:
320,136,104602,1,8,0:0:0:0:
400,144,104677,1,0,0:0:0:0:
344,144,104827,1,0,0:0:0:0:
320,64,104977,1,8,0:0:0:0:
296,64,105052,1,0,0:0:0:0:
272,64,105127,1,0,0:0:0:0:
216,56,105277,1,8,0:0:0:0:
264,80,105427,1,8,0:0:0:0:
80,376,105577,1,0,0:0:0:0:
96,352,105652,1,0,0:0:0:0:
112,328,105727,1,0,0:0:0:0:
144,288,105877,1,8,0:0:0:0:
184,248,106027,1,0,0:0:0:0:
208,232,106102,1,0,0:0:0:0:
200,192,106177,1,8,0:0:0:0:
264,176,106252,1,0,0:0:0:0:
256,120,106402,1,0,0:0:0:0:
344,160,106477,1,8,0:0:0:0:
400,144,106627,1,8,0:0:0:0:
400,144,106777,1,0,0:0:0:0:
376,144,106852,1,0,0:0:0:0:
352,144,106927,1,0,0:0:0:0:
320,136,107002,1,0,0:0:0:0:
400,144,107077,1,8,0:0:0:0:
376,128,107152,1,0,0:0:0:0:
344,152,107227,1,0,0:0:0:0:
320,152,107302,1,0,0:0:0:0:
320,64,107377,1,8,0:0:0:0:
296,64,107452,1,0,0:0:0:0:
272,64,107527,1,0,0:0:0:0:
264,88,107602,1,0,0:0:0:0:
216,56,107677,1,8,0:0:0:0:
224,80,107752,1,0,0:0:0:0:
264,80,107827,1,8,0:0:0:0:
280,104,107902,1,0,0:0:0:0:
80,376,107977,1,0,0:0:0:0:
136,312,108127,1,8,0:0:0:0:
144,288,108277,1,0,0:0:0:0:
280,104,108352,1,0,0:0:0:0:
184,248,108427,1,0,0:0:0:0:
200,192,108577,1,8,0:0:0:0:
264,176,108652,1,0,0:0:0:0:
256,120,108802,1,0,0:0:0:0:
344,160,108877,1,8,0:0:0:0:
400,144,109027,1,8,0:0:0:0:
400,144,109177,1,0,0:0:0:0:
376,128,109252,1,0,0:0:0:0:
256,120,109402,1,8,0:0:0:0:
400,144,109477,1,0,0:0:0:0:
344,144,109627,1,0,0:0:0:0:
320,64,109777,1,8,0:0:0:0:
296,64,109852,1,0,0:0:0:0:
272,64,109927,1,0,0:0:0:0:
216,56,110077,1,8,0:0:0:0:
264,80,110227,1,8,0:0:0:0:
80,376,110377,1,0,0:0:0:0:
136,312,110527,1,8,0:0:0:0:
144,288,110677,1,0,0:0:0:0:
280,104,110752,1,0,0:0:0:0:
184,248,110827,1,0,0:0:0:0:
200,192,110977,1,8,0:0:0:0:
264,176,111052,1,0,0:0:0:0:
256,120,111202,1,0,0:0:0:0:
344,160,111277,1,8,0:0:0:0:
400,144,111427,1,8,0:0:0:0:
400,144,111577,1,0,0:0:0:0:
376,128,111652,1,0,0:0:0:0:
256,120,111802,1,8,0:0:0:0:
400,144,111877,1,0,0:0:0:0:
344,144,112027,1,0,0:0:0:0:
320,64,112177,1,8,0:0:0:0:
296,64,112252,1,0,0:0:0:0:
272,64,112327,1,0,0:0:0:0:
216,56,112477,1,8,0:0:0:0:
264,80,112627,1,8,0:0:0:0:
80,376,112777,1,0,0:0:0:0:
152,288,113077,1,0,0:0:0:0:
192,248,113227,1,0,0:0:0:0:
208,192,113377,1,8,0:0:0:0:
272,176,113452,1,0,0:0:0:0:
264,120,113602,1,0,0:0:0:0:
352,160,113677,1,8,0:0:0:0:
408,144,113827,1,8,0:0:0:0:
408,144,113977,1,0,0:0:0:0:
408,144,114277,1,0,0:0:0:0:
352,144,114427,1,0,0:0:0:0:
328,64,114577,1,8,0:0:0:0:
304,64,114652,1,0,0:0:0:0:
280,64,114727,1,0,0:0:0:0:
224,56,114877,1,8,0:0:0:0:
272,80,115027,1,8,0:0:0:0:
320,112,115177,1,8,0:0:0:0:
320,112,115402,1,8,0:0:0:0:
320,112,115627,1,8,0:0:0:0:
320,112,115777,1,8,0:0:0:0:
320,112,116002,1,8,0:0:0:0:
400,120,116227,1,8,0:0:0:0:
344,128,116377,1,8,0:0:0:0:
264,144,116602,1,8,0:0:0:0:
184,120,116827,1,8,0:0:0:0:
128,104,116977,1,8,0:0:0:0:
152,112,117052,1,8,0:0:0:0:
152,112,117127,1,8,0:0:0:0:
152,112,117202,1,8,0:0:0:0:
152,112,117277,1,8,0:0:0:0:
152,112,117352,1,8,0:0:0:0:
152,112,117427,1,8,0:0:0:0:
152,112,117502,1,8,0:0:0:0:
176,104,117577,1,0,0:0:0:0:
160,128,117652,1,0,0:0:0:0:
272,160,117877,1,0,0:0:0:0:
368,224,118177,1,8,0:0:0:0:
336,176,118327,1,0,0:0:0:0:
328,120,118477,1,0,0:0:0:0:
272,160,118627,1,8,0:0:0:0:
168,112,118927,1,0,0:0:0:0:
168,112,119002,1,0,0:0:0:0:
136,216,119227,1,8,0:0:0:0:
176,112,119527,1,8,0:0:0:0:
160,168,119677,1,0,0:0:0:0:
176,112,119827,1,8,0:0:0:0:
176,104,119977,1,0,0:0:0:0:
200,96,120052,1,0,0:0:0:0:
272,160,120277,1,0,0:0:0:0:
368,224,120577,1,8,0:0:0:0:
336,176,120727,1,0,0:0:0:0:
328,120,120877,1,0,0:0:0:0:
272,160,121027,1,8,0:0:0:0:
168,112,121327,1,0,0:0:0:0:
192,112,121402,1,0,0:0:0:0:
136,216,121627,1,8,0:0:0:0:
176,112,121927,1,8,0:0:0:0:
160,168,122077,1,0,0:0:0:0:
176,112,122227,1,8,0:0:0:0:
176,104,122377,1,0,0:0:0:0:
200,112,122452,1,0,0:0:0:0:
272,160,122677,1,0,0:0:0:0:
368,224,122977,1,8,0:0:0:0:
336,176,123127,1,0,0:0:0:0:
328,120,123277,1,0,0:0:0:0:
272,160,123427,1,8,0:0:0:0:
168,112,123727,1,0,0:0:0:0:
192,112,123802,1,0,0:0:0:0:
136,216,124027,1,8,0:0:0:0:
176,112,124327,1,8,0:0:0:0:
160,168,124477,1,0,0:0:0:0:
176,112,124627,1,8,0:0:0:0:
176,104,124777,1,0,0:0:0:0:
272,160,125077,1,0,0:0:0:0:
368,224,125377,1,8,0:0:0:0:
336,176,125527,1,0,0:0:0:0:
328,120,125677,1,0,0:0:0:0:
272,160,125827,1,8,0:0:0:0:
168,112,126127,1,0,0:0:0:0:
136,216,126427,1,8,0:0:0:0:
176,112,126727,1,8,0:0:0:0:
160,168,126877,1,0,0:0:0:0:
176,112,127027,1,8,0:0:0:0:
176,104,127177,1,0,0:0:0:0:
200,120,127252,1,0,0:0:0:0:
272,160,127477,1,0,0:0:0:0:
368,224,127777,1,8,0:0:0:0:
336,176,127927,1,0,0:0:0:0:
328,120,128077,1,0,0:0:0:0:
272,160,128227,1,8,0:0:0:0:
168,112,128527,1,0,0:0:0:0:
192,128,128602,1,0,0:0:0:0:
136,216,128827,1,8,0:0:0:0:
176,112,129127,1,8,0:0:0:0:
160,168,129277,1,0,0:0:0:0:
176,112,129427,1,8,0:0:0:0:
176,104,129577,1,0,0:0:0:0:
200,120,129652,1,0,0:0:0:0:
272,160,129877,1,0,0:0:0:0:
368,224,130177,1,8,0:0:0:0:
336,176,130327,1,0,0:0:0:0:
328,120,130477,1,0,0:0:0:0:
272,160,130627,1,8,0:0:0:0:
168,112,130927,1,0,0:0:0:0:
192,128,131002,1,0,0:0:0:0:
136,216,131227,1,8,0:0:0:0:
176,112,131527,1,8,0:0:0:0:
160,168,131677,1,0,0:0:0:0:
176,112,131827,1,8,0:0:0:0:
176,104,131977,1,0,0:0:0:0:
272,160,132277,1,0,0:0:0:0:
368,224,132577,1,8,0:0:0:0:
336,176,132727,1,0,0:0:0:0:
328,120,132877,1,0,0:0:0:0:
272,160,133027,1,8,0:0:0:0:
168,112,133327,1,0,0:0:0:0:
136,216,133627,1,8,0:0:0:0:
176,112,133927,1,8,0:0:0:0:
160,168,134077,1,0,0:0:0:0:
176,112,134227,1,8,0:0:0:0:
176,104,134377,1,0,0:0:0:0:
200,120,134452,1,0,0:0:0:0:
272,160,134677,1,0,0:0:0:0:
368,224,134977,1,8,0:0:0:0:
336,176,135127,1,0,0:0:0:0:
328,120,135277,1,0,0:0:0:0:
272,160,135427,1,8,0:0:0:0:
168,112,135727,1,0,0:0:0:0:
192,120,135802,1,0,0:0:0:0:
136,216,136027,1,8,0:0:0:0:
176,112,136327,1,8,0:0:0:0:
160,168,136477,1,0,0:0:0:0:
176,112,136627,1,8,0:0:0:0:
232,128,136777,1,8,0:0:0:0:
248,104,136852,1,0,0:0:0:0:
256,80,136927,1,0,0:0:0:0:
192,56,137002,1,8,0:0:0:0:
240,56,137152,1,0,0:0:0:0:
272,80,137227,1,8,0:0:0:0:
248,96,137302,1,0,0:0:0:0:
320,112,137377,1,8,0:0:0:0:
304,88,137452,1,0,0:0:0:0:
256,80,137527,1,0,0:0:0:0:
304,88,137602,1,8,0:0:0:0:
256,80,137677,1,0,0:0:0:0:
256,80,137752,1,0,0:0:0:0:
288,168,137827,1,8,0:0:0:0:
240,144,137977,1,8,0:0:0:0:
240,144,138052,1,0,0:0:0:0:
240,144,138127,1,0,0:0:0:0:
240,144,138202,1,8,0:0:0:0:
240,144,138352,1,0,0:0:0:0:
224,120,138427,1,8,0:0:0:0:
248,128,138502,1,0,0:0:0:0:
232,128,138577,1,8,0:0:0:0:
248,104,138652,1,0,0:0:0:0:
256,80,138727,1,0,0:0:0:0:
192,56,138802,1,8,0:0:0:0:
216,56,138877,1,0,0:0:0:0:
240,56,138952,1,0,0:0:0:0:
272,80,139027,1,8,0:0:0:0:
216,96,139177,1,0,0:0:0:0:
216,168,140077,1,8,0:0:0:0:
216,168,140377,1,0,0:0:0:0:
432,112,140977,1,8,0:0:0:0:
216,168,141577,1,0,0:0:0:0:
296,152,142477,1,8,0:0:0:0:
344,248,143377,1,0,0:0:0:0:
144,152,143977,1,8,0:0:0:0:
192,176,144127,1,8,0:0:0:0:
296,216,144427,1,0,0:0:0:0:
296,216,144577,1,0,0:0:0:0:
296,216,144877,1,8,0:0:0:0:
296,216,145027,1,8,0:0:0:0:
256,112,145327,1,0,0:0:0:0:
288,160,145477,1,0,0:0:0:0:
344,256,145777,1,12,0:0:0:0:
144,152,146377,1,8,0:0:0:0:
192,176,146527,1,8,0:0:0:0:
296,216,146827,1,0,0:0:0:0:
296,216,146977,1,0,0:0:0:0:
296,216,147277,1,8,0:0:0:0:
296,216,147427,1,8,0:0:0:0:
256,112,147727,1,0,0:0:0:0:
288,160,147877,1,0,0:0:0:0:
344,256,148177,1,12,0:0:0:0:
216,96,148777,1,0,0:0:0:0:
216,168,149677,1,8,0:0:0:0:
216,168,149977,1,0,0:0:0:0:
432,112,150577,1,8,0:0:0:0:
216,168,151177,1,0,0:0:0:0:
296,152,152077,1,8,0:0:0:0:
384,88,152377,1,8,0:0:0:0:
280,128,152677,1,8,0:0:0:0:
344,248,152977,1,0,0:0:0:0:
352,136,153277,1,0,0:0:0:0:
144,152,153577,1,8,0:0:0:0:
192,176,153727,1,8,0:0:0:0:
296,216,154027,1,0,0:0:0:0:
296,216,154177,1,0,0:0:0:0:
296,216,154477,1,8,0:0:0:0:
296,216,154627,1,8,0:0:0:0:
256,112,154927,1,0,0:0:0:0:
288,160,155077,1,0,0:0:0:0:
344,168,155227,1,0,0:0:0:0:
344,256,155377,1,12,0:0:0:0:
144,152,155977,1,8,0:0:0:0:
192,176,156127,1,8,0:0:0:0:
296,216,156427,1,0,0:0:0:0:
296,216,156577,1,0,0:0:0:0:
296,216,156877,1,8,0:0:0:0:
296,216,157027,1,8,0:0:0:0:
256,112,157327,1,0,0:0:0:0:
288,160,157477,1,0,0:0:0:0:
336,184,157627,1,0,0:0:0:0:
344,256,157777,1,12,0:0:0:0:
232,64,158377,1,0,0:0:0:0:
248,120,158527,1,0,0:0:0:0:
304,112,158677,1,8,0:0:0:0:
288,56,158827,1,0,0:0:0:0:
248,88,158977,1,8,0:0:0:0:
216,40,159127,1,0,0:0:0:0:
256,80,159277,1,0,0:0:0:0:
296,120,159427,1,8,0:0:0:0:
232,64,159577,1,0,0:0:0:0:
248,120,159727,1,0,0:0:0:0:
304,112,159877,1,8,0:0:0:0:
288,56,160027,1,0,0:0:0:0:
248,88,160177,1,8,0:0:0:0:
216,40,160327,1,0,0:0:0:0:
256,80,160477,1,0,0:0:0:0:
296,120,160627,1,8,0:0:0:0:
232,64,160777,1,0,0:0:0:0:
248,120,160927,1,0,0:0:0:0:
304,112,161077,1,8,0:0:0:0:
288,56,161227,1,0,0:0:0:0:
248,88,161377,1,8,0:0:0:0:
216,40,161527,1,0,0:0:0:0:
256,80,161677,1,0,0:0:0:0:
296,120,161827,1,8,0:0:0:0:
232,64,161977,1,0,0:0:0:0:
248,120,162127,1,0,0:0:0:0:
304,112,162277,1,8,0:0:0:0:
288,56,162427,1,0,0:0:0:0:
248,88,162577,1,8,0:0:0:0:
216,40,162727,1,0,0:0:0:0:
256,80,162877,1,8,0:0:0:0:
296,120,163027,1,8,0:0:0:0:
232,64,163177,1,0,0:0:0:0:
248,120,163327,1,0,0:0:0:0:
304,112,163477,1,8,0:0:0:0:
288,56,163627,1,0,0:0:0:0:
248,88,163777,1,8,0:0:0:0:
216,40,163927,1,0,0:0:0:0:
256,80,164077,1,0,0:0:0:0:
296,120,164227,1,8,0:0:0:0:
232,64,164377,1,0,0:0:0:0:
248,120,164527,1,0,0:0:0:0:
304,112,164677,1,8,0:0:0:0:
288,56,164827,1,0,0:0:0:0:
248,88,164977,1,8,0:0:0:0:
216,40,165127,1,0,0:0:0:0:
256,80,165277,1,0,0:0:0:0:
296,120,165427,1,8,0:0:0:0:
232,64,165577,1,0,0:0:0:0:
248,120,165727,1,0,0:0:0:0:
304,112,165877,1,8,0:0:0:0:
288,56,166027,1,0,0:0:0:0:
248,88,166177,1,8,0:0:0:0:
216,40,166327,1,0,0:0:0:0:
256,80,166477,1,0,0:0:0:0:
296,120,166627,1,8,0:0:0:0:
232,64,166777,1,0,0:0:0:0:
248,120,166927,1,0,0:0:0:0:
304,112,167077,1,8,0:0:0:0:
288,56,167227,1,0,0:0:0:0:
248,88,167377,1,8,0:0:0:0:
216,40,167527,1,0,0:0:0:0:
256,80,167677,1,8,0:0:0:0:
296,120,167827,1,8,0:0:0:0:
296,120,167977,1,0,0:0:0:0:
240,112,168127,1,0,0:0:0:0:
184,128,168277,1,8,0:0:0:0:
88,176,168577,1,0,0:0:0:0:
40,48,168727,1,8,0:0:0:0:
136,104,169027,1,0,0:0:0:0:
136,104,169177,1,8,0:0:0:0:
144,216,169477,1,0,0:0:0:0:
136,104,169627,1,8,0:0:0:0:
136,104,169927,1,0,0:0:0:0:
136,104,170077,1,8,0:0:0:0:
192,96,170227,1,8,0:0:0:0:
296,120,170377,1,0,0:0:0:0:
240,112,170527,1,0,0:0:0:0:
184,128,170677,1,8,0:0:0:0:
88,176,170977,1,0,0:0:0:0:
40,48,171127,1,8,0:0:0:0:
136,104,171427,1,0,0:0:0:0:
136,104,171577,1,8,0:0:0:0:
144,216,171877,1,0,0:0:0:0:
136,104,172027,1,8,0:0:0:0:
136,104,172327,1,0,0:0:0:0:
136,104,172477,1,8,0:0:0:0:
192,96,172627,1,0,0:0:0:0:
296,120,172777,1,0,0:0:0:0:
240,112,172927,1,0,0:0:0:0:
184,128,173077,1,8,0:0:0:0:
88,176,173377,1,0,0:0:0:0:
40,48,173527,1,8,0:0:0:0:
136,104,173827,1,0,0:0:0:0:
136,104,173977,1,8,0:0:0:0:
144,216,174277,1,0,0:0:0:0:
136,104,174427,1,8,0:0:0:0:
136,104,174727,1,0,0:0:0:0:
136,104,174877,1,8,0:0:0:0:
192,96,175027,1,8,0:0:0:0:
296,120,175177,1,0,0:0:0:0:
240,112,175327,1,0,0:0:0:0:
184,128,175477,1,8,0:0:0:0:
88,176,175777,1,0,0:0:0:0:
40,48,175927,1,8,0:0:0:0:
136,104,176227,1,0,0:0:0:0:
136,104,176377,1,8,0:0:0:0:
144,216,176677,1,0,0:0:0:0:
136,104,176827,1,8,0:0:0:0:
136,104,177127,1,0,0:0:0:0:
136,104,177277,1,8,0:0:0:0:
192,96,177427,1,0,0:0:0:0:
296,120,177577,1,0,0:0:0:0:
240,112,177727,1,0,0:0:0:0:
184,128,177877,1,8,0:0:0:0:
88,176,178177,1,0,0:0:0:0:
40,48,178327,1,8,0:0:0:0:
136,104,178627,1,0,0:0:0:0:
136,104,178777,1,8,0:0:0:0:
144,216,179077,1,0,0:0:0:0:
136,104,179227,1,8,0:0:0:0:
136,104,179527,1,0,0:0:0:0:
136,104,179677,1,8,0:0:0:0:
192,96,179827,1,8,0:0:0:0:
296,120,179977,1,0,0:0:0:0:
240,112,180127,1,0,0:0:0:0:
184,128,180277,1,8,0:0:0:0:
88,176,180577,1,0,0:0:0:0:
40,48,180727,1,8,0:0:0:0:
136,104,181027,1,0,0:0:0:0:
136,104,181177,1,8,0:0:0:0:
144,216,181477,1,0,0:0:0:0:
136,104,181627,1,8,0:0:0:0:
136,104,181927,1,0,0:0:0:0:
136,104,182077,1,8,0:0:0:0:
192,96,182227,1,0,0:0:0:0:
296,120,182377,1,0,0:0:0:0:
240,112,182527,1,0,0:0:0:0:
184,128,182677,1,8,0:0:0:0:
88,176,182977,1,0,0:0:0:0:
40,48,183127,1,8,0:0:0:0:
136,104,183427,1,0,0:0:0:0:
136,104,183577,1,8,0:0:0:0:
144,216,183877,1,0,0:0:0:0:
136,104,184027,1,8,0:0:0:0:
136,104,184327,1,0,0:0:0:0:
136,104,184477,1,8,0:0:0:0:
192,96,184627,1,8,0:0:0:0:
176,152,184777,1,0,0:0:0:0:
344,144,185227,1,8,0:0:0:0:
176,152,185677,1,0,0:0:0:0:
344,152,186127,1,8,0:0:0:0:
288,152,186277,1,0,0:0:0:0:
288,152,186577,1,8,0:0:0:0:
296,120,187177,1,0,0:0:0:0:
240,112,187327,1,0,0:0:0:0:
184,128,187477,1,8,0:0:0:0:
216,112,187627,1,0,0:0:0:0:
88,176,187777,1,0,0:0:0:0:
296,120,187852,1,0,0:0:0:0:
40,48,187927,1,8,0:0:0:0:
296,120,188077,1,0,0:0:0:0:
136,104,188227,1,0,0:0:0:0:
296,120,188302,1,0,0:0:0:0:
136,104,188377,1,8,0:0:0:0:
296,120,188527,1,0,0:0:0:0:
144,216,188677,1,0,0:0:0:0:
296,120,188752,1,0,0:0:0:0:
136,104,188827,1,8,0:0:0:0:
296,120,188977,1,0,0:0:0:0:
136,104,189127,1,0,0:0:0:0:
160,104,189202,1,0,0:0:0:0:
136,104,189277,1,8,0:0:0:0:
160,104,189352,1,0,0:0:0:0:
192,96,189427,1,8,0:0:0:0:
216,96,189502,1,0,0:0:0:0:
296,120,189577,1,0,0:0:0:0:
240,112,189727,1,0,0:0:0:0:
184,128,189877,1,8,0:0:0:0:
240,120,190027,1,0,0:0:0:0:
88,176,190177,1,0,0:0:0:0:
112,168,190252,1,0,0:0:0:0:
40,48,190327,1,8,0:0:0:0:
96,56,190477,1,0,0:0:0:0:
136,104,190627,1,0,0:0:0:0:
160,104,190702,1,0,0:0:0:0:
136,104,190777,1,8,0:0:0:0:
192,104,190927,1,0,0:0:0:0:
144,216,191077,1,0,0:0:0:0:
168,200,191152,1,0,0:0:0:0:
136,104,191227,1,8,0:0:0:0:
192,96,191377,1,0,0:0:0:0:
136,104,191527,1,0,0:0:0:0:
160,96,191602,1,0,0:0:0:0:
136,104,191677,1,8,0:0:0:0:
160,120,191752,1,0,0:0:0:0:
192,96,191827,1,0,0:0:0:0:
208,120,191902,1,8,0:0:0:0:
296,120,191977,1,0,0:0:0:0:
240,112,192127,1,0,0:0:0:0:
184,128,192277,1,8,0:0:0:0:
240,144,192427,1,0,0:0:0:0:
88,176,192577,1,0,0:0:0:0:
112,176,192652,1,0,0:0:0:0:
40,48,192727,1,8,0:0:0:0:
96,72,192877,1,0,0:0:0:0:
136,104,193027,1,0,0:0:0:0:
160,112,193102,1,0,0:0:0:0:
136,104,193177,1,8,0:0:0:0:
192,112,193327,1,0,0:0:0:0:
144,216,193477,1,0,0:0:0:0:
168,200,193552,1,0,0:0:0:0:
136,104,193627,1,8,0:0:0:0:
192,104,193777,1,0,0:0:0:0:
136,104,193927,1,0,0:0:0:0:
160,104,194002,1,0,0:0:0:0:
136,104,194077,1,8,0:0:0:0:
160,104,194152,1,0,0:0:0:0:
192,96,194227,1,8,0:0:0:0:
216,88,194302,1,0,0:0:0:0:
296,120,194377,1,0,0:0:0:0:
240,112,194527,1,0,0:0:0:0:
184,128,194677,1,8,0:0:0:0:
88,176,194827,1,0,0:0:0:0:
184,128,194902,1,0,0:0:0:0:
168,72,195052,1,0,0:0:0:0:
40,48,195127,1,8,0:0:0:0:
168,72,195277,1,0,0:0:0:0:
136,104,195427,1,0,0:0:0:0:
136,104,195577,1,8,0:0:0:0:
168,72,195727,1,0,0:0:0:0:
144,216,195802,1,0,0:0:0:0:
184,128,195952,1,0,0:0:0:0:
136,104,196027,1,8,0:0:0:0:
192,112,196177,1,0,0:0:0:0:
136,104,196327,1,0,0:0:0:0:
136,104,196477,1,12,0:0:0:0:
192,96,196627,1,0,0:0:0:0:
296,120,196777,1,0,0:0:0:0:
240,112,196927,1,0,0:0:0:0:
184,128,197077,1,8,0:0:0:0:
216,112,197227,1,0,0:0:0:0:
88,176,197377,1,0,0:0:0:0:
296,120,197452,1,0,0:0:0:0:
40,48,197527,1,8,0:0:0:0:
296,120,197677,1,0,0:0:0:0:
136,104,197827,1,0,0:0:0:0:
296,120,197902,1,0,0:0:0:0:
136,104,197977,1,8,0:0:0:0:
296,120,198127,1,0,0:0:0:0:
144,216,198277,1,0,0:0:0:0:
296,120,198352,1,0,0:0:0:0:
136,104,198427,1,8,0:0:0:0:
296,120,198577,1,0,0:0:0:0:
136,104,198727,1,0,0:0:0:0:
160,104,198802,1,0,0:0:0:0:
136,104,198877,1,8,0:0:0:0:
160,104,198952,1,0,0:0:0:0:
192,96,199027,1,8,0:0:0:0:
216,96,199102,1,0,0:0:0:0:
296,120,199177,1,0,0:0:0:0:
240,112,199327,1,0,0:0:0:0:
184,128,199477,1,8,0:0:0:0:
240,120,199627,1,0,0:0:0:0:
88,176,199777,1,0,0:0:0:0:
112,168,199852,1,0,0:0:0:0:
40,48,199927,1,8,0:0:0:0:
96,56,200077,1,0,0:0:0:0:
136,104,200227,1,0,0:0:0:0:
160,104,200302,1,0,0:0:0:0:
136,104,200377,1,8,0:0:0:0:
192,104,200527,1,0,0:0:0:0:
144,216,200677,1,0,0:0:0:0:
168,200,200752,1,0,0:0:0:0:
136,104,200827,1,8,0:0:0:0:
192,96,200977,1,0,0:0:0:0:
136,104,201127,1,0,0:0:0:0:
160,96,201202,1,0,0:0:0:0:
136,104,201277,1,8,0:0:0:0:
160,120,201352,1,0,0:0:0:0:
192,96,201427,1,0,0:0:0:0:
208,120,201502,1,8,0:0:0:0:
296,120,201577,1,0,0:0:0:0:
240,112,201727,1,0,0:0:0:0:
184,128,201877,1,8,0:0:0:0:
240,144,202027,1,0,0:0:0:0:
88,176,202177,1,0,0:0:0:0:
112,176,202252,1,0,0:0:0:0:
40,48,202327,1,8,0:0:0:0:
96,72,202477,1,0,0:0:0:0:
136,104,202627,1,0,0:0:0:0:
160,112,202702,1,0,0:0:0:0:
136,104,202777,1,8,0:0:0:0:
192,112,202927,1,0,0:0:0:0:
144,216,203077,1,0,0:0:0:0:
168,200,203152,1,0,0:0:0:0:
136,104,203227,1,8,0:0:0:0:
192,104,203377,1,0,0:0:0:0:
136,104,203527,1,0,0:0:0:0:
160,104,203602,1,0,0:0:0:0:
136,104,203677,1,8,0:0:0:0:
160,104,203752,1,0,0:0:0:0:
192,96,203827,1,8,0:0:0:0:
216,88,203902,1,0,0:0:0:0:
296,120,203977,1,0,0:0:0:0:
240,112,204127,1,0,0:0:0:0:
184,128,204277,1,8,0:0:0:0:
88,176,204427,1,0,0:0:0:0:
184,128,204502,1,0,0:0:0:0:
168,72,204652,1,0,0:0:0:0:
40,48,204727,1,8,0:0:0:0:
64,64,204802,1,0,0:0:0:0:
168,72,204877,1,0,0:0:0:0:
136,104,205027,1,0,0:0:0:0:
136,104,205177,1,8,0:0:0:0:
168,72,205327,1,0,0:0:0:0:
144,216,205402,1,0,0:0:0:0:
184,128,205552,1,0,0:0:0:0:
136,104,205627,1,8,0:0:0:0:
120,128,205702,1,0,0:0:0:0:
192,112,205777,1,0,0:0:0:0:
136,104,205927,1,0,0:0:0:0:
136,104,206077,1,12,0:0:0:0:
192,96,206227,1,0,0:0:0:0:
296,120,206377,1,0,0:0:0:0:
240,112,206452,1,0,0:0:0:0:
216,112,206527,1,8,0:0:0:0:
208,160,206602,1,0,0:0:0:0:
184,128,206677,1,0,0:0:0:0:
160,120,206752,1,8,0:0:0:0:
176,72,206827,1,0,0:0:0:0:
88,176,206977,1,0,0:0:0:0:
40,48,207127,1,8,0:0:0:0:
64,56,207202,1,0,0:0:0:0:
88,48,207277,1,0,0:0:0:0:
112,40,207427,1,8,0:0:0:0:
144,88,207502,1,0,0:0:0:0:
136,104,207577,1,8,0:0:0:0:
160,112,207652,1,0,0:0:0:0:
216,120,207802,1,8,0:0:0:0:
144,216,207877,1,0,0:0:0:0:
136,104,208027,1,8,0:0:0:0:
192,112,208177,1,0,0:0:0:0:
136,104,208327,1,0,0:0:0:0:
136,104,208477,1,8,0:0:0:0:
184,128,208552,1,8,0:0:0:0:
192,96,208627,1,8,0:0:0:0:
192,96,208702,1,8,0:0:0:0:
296,120,208777,1,0,0:0:0:0:
272,104,208852,1,0,0:0:0:0:
240,112,209002,1,0,0:0:0:0:
184,128,209077,1,8,0:0:0:0:
192,96,209227,1,0,0:0:0:0:
88,176,209377,1,0,0:0:0:0:
40,48,209527,1,8,0:0:0:0:
64,64,209602,1,0,0:0:0:0:
88,48,209677,1,8,0:0:0:0:
136,104,209827,1,0,0:0:0:0:
160,104,209902,1,0,0:0:0:0:
136,104,209977,1,8,0:0:0:0:
160,104,210052,1,8,0:0:0:0:
216,96,210202,1,8,0:0:0:0:
144,216,210277,1,0,0:0:0:0:
136,104,210427,1,8,0:0:0:0:
216,96,210577,1,0,0:0:0:0:
136,104,210727,1,0,0:0:0:0:
136,104,210877,1,8,0:0:0:0:
192,96,210952,1,0,0:0:0:0:
216,112,211027,1,8,0:0:0:0:
240,104,211102,1,8,0:0:0:0:
296,120,211177,1,0,0:0:0:0:
296,96,211252,1,8,0:0:0:0:
240,112,211327,1,8,0:0:0:0:
184,128,211477,1,0,0:0:0:0:
240,128,211627,1,8,0:0:0:0:
88,176,211777,1,0,0:0:0:0:
40,48,211927,1,8,0:0:0:0:
64,48,212002,1,8,0:0:0:0:
88,48,212077,1,0,0:0:0:0:
136,104,212227,1,0,0:0:0:0:
160,96,212302,1,8,0:0:0:0:
136,104,212377,1,8,0:0:0:0:
160,96,212452,1,0,0:0:0:0:
184,88,212527,1,8,0:0:0:0:
216,80,212602,1,8,0:0:0:0:
144,216,212677,1,0,0:0:0:0:
160,192,212752,1,8,0:0:0:0:
136,104,212827,1,0,0:0:0:0:
192,112,212977,1,0,0:0:0:0:
136,104,213127,1,8,0:0:0:0:
136,104,213277,1,0,0:0:0:0:
192,96,213427,1,8,0:0:0:0:
296,120,213577,1,0,0:0:0:0:
320,128,213652,1,0,0:0:0:0:
240,112,213727,1,0,0:0:0:0:
184,128,213877,1,12,0:0:0:0:
128,112,214027,1,0,0:0:0:0:
152,120,214102,1,0,0:0:0:0:
88,176,214177,1,0,0:0:0:0:
40,48,214327,1,12,0:0:0:0:
56,104,214477,1,0,0:0:0:0:
80,112,214552,1,0,0:0:0:0:
136,104,214627,1,0,0:0:0:0:
136,104,214777,1,12,0:0:0:0:
56,104,214927,1,0,0:0:0:0:
80,112,215002,1,0,0:0:0:0:
144,216,215077,1,0,0:0:0:0:
136,104,215227,1,12,0:0:0:0:
56,104,215377,1,0,0:0:0:0:
80,112,215452,1,0,0:0:0:0:
136,104,215527,1,0,0:0:0:0:
136,104,215677,1,12,0:0:0:0:
192,96,215827,1,12,0:0:0:0:
296,120,215977,1,0,0:0:0:0:
272,136,216052,1,0,0:0:0:0:
240,112,216127,1,0,0:0:0:0:
184,128,216277,1,8,0:0:0:0:
224,88,216427,1,0,0:0:0:0:
248,104,216502,1,0,0:0:0:0:
88,176,216577,1,0,0:0:0:0:
112,176,216652,1,8,0:0:0:0:
40,48,216802,1,8,0:0:0:0:
64,56,216877,1,0,0:0:0:0:
136,104,217027,1,0,0:0:0:0:
136,104,217177,1,8,0:0:0:0:
160,104,217252,1,0,0:0:0:0:
184,104,217327,1,0,0:0:0:0:
208,104,217402,1,8,0:0:0:0:
144,216,217477,1,0,0:0:0:0:
168,200,217552,1,0,0:0:0:0:
136,104,217627,1,8,0:0:0:0:
136,104,217777,1,0,0:0:0:0:
176,96,217877,1,8,0:0:0:0:
216,96,217977,1,8,0:0:0:0:
136,104,218077,1,8,0:0:0:0:
192,96,218227,1,8,0:0:0:0:
296,120,218377,1,0,0:0:0:0:
280,96,218452,1,0,0:0:0:0:
240,112,218527,1,0,0:0:0:0:
184,128,218677,1,8,0:0:0:0:
224,160,218827,1,0,0:0:0:0:
248,176,218902,1,0,0:0:0:0:
88,176,218977,1,0,0:0:0:0:
40,48,219052,1,8,0:0:0:0:
296,120,219202,1,8,0:0:0:0:
304,96,219277,1,0,0:0:0:0:
136,104,219427,1,0,0:0:0:0:
136,104,219577,1,8,0:0:0:0:
304,96,219652,1,0,0:0:0:0:
304,96,219727,1,0,0:0:0:0:
304,96,219802,1,0,0:0:0:0:
144,216,219877,1,8,0:0:0:0:
168,200,219952,1,8,0:0:0:0:
136,104,220027,1,8,0:0:0:0:
192,88,220177,1,0,0:0:0:0:
136,104,220277,1,8,0:0:0:0:
176,104,220377,1,8,0:0:0:0:
136,104,220477,1,8,0:0:0:0:
192,96,220627,1,0,0:0:0:0:
296,120,220777,1,0,0:0:0:0:
240,112,220877,1,0,0:0:0:0:
224,144,220977,1,0,0:0:0:0:
184,128,221077,1,8,0:0:0:0:
128,112,221227,1,0,0:0:0:0:
88,176,221377,1,0,0:0:0:0:
112,160,221452,1,8,0:0:0:0:
40,48,221527,1,8,0:0:0:0:
64,48,221602,1,0,0:0:0:0:
88,48,221677,1,8,0:0:0:0:
112,48,221752,1,8,0:0:0:0:
136,104,221827,1,0,0:0:0:0:
136,104,221977,1,8,0:0:0:0:
296,120,222052,1,8,0:0:0:0:
296,120,222127,1,0,0:0:0:0:
144,216,222277,1,8,0:0:0:0:
136,104,222427,1,8,0:0:0:0:
296,120,222577,1,8,0:0:0:0:
296,120,222652,1,8,0:0:0:0:
136,104,222727,1,0,0:0:0:0:
136,104,222877,1,8,0:0:0:0:
192,96,223027,1,8,0:0:0:0:
296,120,223177,1,4,0:0:0:0:
240,112,223327,1,4,0:0:0:0:
280,216,223627,1,4,0:0:0:0:
256,168,223777,1,4,0:0:0:0:
256,168,224077,1,12,0:0:0:0:
288,120,224227,1,4,0:0:0:0:
224,216,224527,1,4,0:0:0:0:
248,168,224677,1,4,0:0:0:0:
312,72,224977,1,12,0:0:0:0:
232,280,225577,1,0,0:0:0:0:
200,232,225727,1,0,0:0:0:0:
176,184,225877,1,8,0:0:0:0:
280,152,225952,1,8,0:0:0:0:
200,120,226177,1,0,0:0:0:0:
176,104,226252,1,8,0:0:0:0:
200,112,226327,1,8,0:0:0:0:
144,152,226402,1,0,0:0:0:0:
200,120,226477,1,8,0:0:0:0:
128,168,226552,1,8,0:0:0:0:
184,176,226702,1,0,0:0:0:0:
208,176,226777,1,0,0:0:0:0:
264,168,226927,1,0,0:0:0:0:
320,160,227077,1,8,0:0:0:0:
288,160,227152,1,8,0:0:0:0:
288,160,227377,1,0,0:0:0:0:
296,104,227527,1,0,0:0:0:0:
312,80,227602,1,0,0:0:0:0:
312,80,227677,1,8,0:0:0:0:
352,40,227827,1,8,0:0:0:0:
232,280,227977,1,0,0:0:0:0:
200,232,228127,1,0,0:0:0:0:
176,184,228277,1,8,0:0:0:0:
280,152,228352,1,8,0:0:0:0:
200,120,228577,1,0,0:0:0:0:
176,104,228652,1,8,0:0:0:0:
200,112,228727,1,8,0:0:0:0:
144,152,228802,1,0,0:0:0:0:
160,128,228877,1,0,0:0:0:0:
128,168,228952,1,8,0:0:0:0:
184,176,229102,1,0,0:0:0:0:
208,176,229177,1,0,0:0:0:0:
264,168,229327,1,0,0:0:0:0:
320,160,229477,1,8,0:0:0:0:
288,160,229552,1,8,0:0:0:0:
288,160,229777,1,0,0:0:0:0:
296,104,229927,1,0,0:0:0:0:
312,80,230002,1,0,0:0:0:0:
312,80,230077,1,8,0:0:0:0:
352,40,230227,1,8,0:0:0:0:
232,280,230377,1,0,0:0:0:0:
200,232,230527,1,0,0:0:0:0:
176,184,230677,1,8,0:0:0:0:
280,152,230752,1,8,0:0:0:0:
200,120,230977,1,0,0:0:0:0:
176,104,231052,1,8,0:0:0:0:
200,112,231127,1,8,0:0:0:0:
144,152,231202,1,0,0:0:0:0:
200,120,231277,1,8,0:0:0:0:
128,168,231352,1,8,0:0:0:0:
184,176,231502,1,0,0:0:0:0:
208,176,231577,1,0,0:0:0:0:
264,168,231727,1,0,0:0:0:0:
320,160,231877,1,8,0:0:0:0:
288,160,231952,1,8,0:0:0:0:
288,160,232177,1,0,0:0:0:0:
296,104,232327,1,0,0:0:0:0:
312,80,232402,1,0,0:0:0:0:
312,80,232477,1,8,0:0:0:0:
352,40,232627,1,8,0:0:0:0:
232,280,232777,1,0,0:0:0:0:
200,232,232927,1,0,0:0:0:0:
176,184,233077,1,8,0:0:0:0:
280,152,233152,1,8,0:0:0:0:
200,120,233377,1,0,0:0:0:0:
176,104,233452,1,8,0:0:0:0:
200,112,233527,1,8,0:0:0:0:
144,152,233602,1,0,0:0:0:0:
200,120,233677,1,0,0:0:0:0:
128,168,233752,1,8,0:0:0:0:
184,176,233902,1,0,0:0:0:0:
208,176,233977,1,0,0:0:0:0:
264,168,234127,1,0,0:0:0:0:
320,160,234277,1,8,0:0:0:0:
288,160,234352,1,8,0:0:0:0:
288,160,234577,1,0,0:0:0:0:
296,104,234727,1,0,0:0:0:0:
312,80,234802,1,0,0:0:0:0:
312,80,234877,1,8,0:0:0:0:
352,40,235027,1,8,0:0:0:0:
232,280,235177,1,0,0:0:0:0:
200,232,235327,1,0,0:0:0:0:
176,184,235477,1,8,0:0:0:0:
280,152,235552,1,8,0:0:0:0:
200,120,235777,1,0,0:0:0:0:
176,104,235852,1,8,0:0:0:0:
200,112,235927,1,8,0:0:0:0:
144,152,236002,1,0,0:0:0:0:
200,120,236077,1,8,0:0:0:0:
128,168,236152,1,8,0:0:0:0:
184,176,236302,1,0,0:0:0:0:
208,176,236377,1,0,0:0:0:0:
264,168,236527,1,0,0:0:0:0:
320,160,236677,1,8,0:0:0:0:
288,160,236752,1,8,0:0:0:0:
288,160,236977,1,0,0:0:0:0:
296,104,237127,1,0,0:0:0:0:
312,80,237202,1,0,0:0:0:0:
312,80,237277,1,8,0:0:0:0:
352,40,237427,1,8,0:0:0:0:
232,280,237577,1,0,0:0:0:0:
200,232,237727,1,0,0:0:0:0:
176,184,237877,1,8,0:0:0:0:
280,152,237952,1,8,0:0:0:0:
200,120,238177,1,0,0:0:0:0:
176,104,238252,1,8,0:0:0:0:
200,112,238327,1,8,0:0:0:0:
144,152,238402,1,0,0:0:0:0:
200,120,238477,1,0,0:0:0:0:
128,168,238552,1,8,0:0:0:0:
184,176,238702,1,0,0:0:0:0:
208,176,238777,1,0,0:0:0:0:
264,168,238927,1,0,0:0:0:0:
320,160,239077,1,8,0:0:0:0:
288,160,239152,1,8,0:0:0:0:
288,160,239377,1,0,0:0:0:0:
296,104,239527,1,0,0:0:0:0:
312,80,239602,1,0,0:0:0:0:
312,80,239677,1,8,0:0:0:0:
352,40,239827,1,8,0:0:0:0:
232,280,239977,1,0,0:0:0:0:
200,232,240127,1,0,0:0:0:0:
176,184,240277,1,8,0:0:0:0:
280,152,240352,1,8,0:0:0:0:
200,120,240577,1,0,0:0:0:0:
176,104,240652,1,8,0:0:0:0:
200,112,240727,1,8,0:0:0:0:
144,152,240802,1,0,0:0:0:0:
200,120,240877,1,8,0:0:0:0:
128,168,240952,1,8,0:0:0:0:
184,176,241102,1,0,0:0:0:0:
208,176,241177,1,0,0:0:0:0:
264,168,241327,1,0,0:0:0:0:
320,160,241477,1,8,0:0:0:0:
288,160,241552,1,8,0:0:0:0:
288,160,241777,1,0,0:0:0:0:
296,104,241927,1,0,0:0:0:0:
312,80,242002,1,0,0:0:0:0:
312,80,242077,1,8,0:0:0:0:
352,40,242227,1,8,0:0:0:0:
232,280,242377,1,0,0:0:0:0:
200,232,242527,1,0,0:0:0:0:
176,184,242677,1,8,0:0:0:0:
280,152,242752,1,8,0:0:0:0:
200,120,242977,1,0,0:0:0:0:
176,104,243052,1,8,0:0:0:0:
200,112,243127,1,8,0:0:0:0:
144,152,243202,1,0,0:0:0:0:
200,120,243277,1,0,0:0:0:0:
128,168,243352,1,8,0:0:0:0:
184,176,243502,1,0,0:0:0:0:
208,176,243577,1,0,0:0:0:0:
264,168,243727,1,0,0:0:0:0:
320,160,243877,1,8,0:0:0:0:
288,160,243952,1,8,0:0:0:0:
288,160,244177,1,0,0:0:0:0:
264,160,244252,1,0,0:0:0:0:
296,104,244327,1,0,0:0:0:0:
312,80,244402,1,0,0:0:0:0:
312,80,244477,1,8,0:0:0:0:
288,88,244552,1,8,0:0:0:0:
352,40,244627,1,8,0:0:0:0:
328,56,244702,1,8,0:0:0:0:
320,88,244777,1,0,0:0:0:0:
