osu file format v14

[General]
AudioFilename: audio.mp3
AudioLeadIn: 0
PreviewTime: -1
Countdown: 0
SampleSet: Soft
StackLeniency: 0.2
Mode: 0
LetterboxInBreaks: 0
WidescreenStoryboard: 1

[Editor]
DistanceSpacing: 1
BeatDivisor: 4
GridSize: 16
TimelineZoom: 1.6

[Metadata]
Title:Fortuna Redux
TitleUnicode:Fortuna Redux
Artist:Fractal Dreamers
ArtistUnicode:Fractal Dreamers
Creator:Weriko
Version:Fortuna
Source:
Tags:
BeatmapID:1468874
BeatmapSetID:694278

[Difficulty]
HPDrainRate:5
CircleSize:4
OverallDifficulty:10
ApproachRate:10
SliderMultiplier:2.2
SliderTickRate:1

[Events]
//Background and Video events
0,0,"Redux.jpg",0,0
//Break Periods
2,12050,21150
2,44750,49950
//Storyboard Layer 0 (Background)
//Storyboard Layer 1 (Fail)
//Storyboard Layer 2 (Pass)
//Storyboard Layer 3 (Foreground)
//Storyboard Sound Samples

[TimingPoints]
0,300,4,2,1,100,1,0
0,-133.333333333333,4,2,1,100,0,0
1425,-133.333333333333,4,2,1,5,0,0
1650,-133.333333333333,4,2,1,100,0,0
1875,-133.333333333333,4,2,1,5,0,0
2100,-133.333333333333,4,2,1,100,0,0
9600,-66.6666666666667,4,2,1,100,0,0
10800,-133.333333333333,4,2,1,100,0,0
11400,-100,4,2,1,100,0,0
21600,-100,4,2,1,100,0,0
41100,-200,4,2,1,100,0,0
42900,-200,4,2,1,100,0,0
50700,-100,4,2,1,100,0,0
60000,-90.9090909090909,4,2,1,100,0,0
76800,-62.5,4,2,1,100,0,0
77400,-71.4285714285714,4,2,1,100,0,0
78000,-83.3333333333333,4,2,1,100,0,0
79200,-100,4,2,1,100,0,0
81600,-55.5555555555556,4,2,1,100,0,0
81750,-100,4,2,1,100,0,0
83550,-50,4,2,1,100,0,0
84150,-100,4,2,1,100,0,0
110700,-83.3333333333333,4,2,1,100,0,0
111600,-71.4285714285714,4,2,1,100,0,0
112200,-62.5,4,2,1,100,0,0
112800,-100,4,2,1,100,0,0
117600,-50,4,2,1,100,0,0
125100,-200,4,2,1,100,0,0
127200,-50,4,2,1,100,0,0
134400,-100,4,2,1,100,0,0
136800,-71.4285714285714,4,2,1,100,0,0
139200,-155.27950310559,4,2,1,100,0,0
168300,-100,4,2,1,100,0,0
182400,-133.333333333333,4,2,1,100,0,0
184800,-200,4,2,1,100,0,0
187200,-76.9230769230769,4,2,1,100,0,0

[Colours]
Combo1 : 128,255,0
Combo2 : 250,79,5
Combo3 : 250,176,5
Combo4 : 255,0,0

[HitObjects]
55,95,0,6,0,P|95:79|158:113,1,82.5000031471254
96,187,300,6,0,L|6:241,2,82.5000031471254
217,247,750,2,0,L|307:301,2,82.5000031471254
214,121,1200,6,0,B|250:99|257:57|257:57|355:158,1,206.250007867813
408,106,1650,2,0,B|290:-16|290:-16|357:9,1,206.250007867813
419,14,2100,2,0,L|487:84,1,82.5000031471254
409,190,2400,6,0,P|343:145|340:113,2,82.5000031471254
103,190,2850,2,0,P|169:145|172:113,2,82.5000031471254
256,288,3300,2,0,L|256:192,1,82.5000031471254
53,117,3600,6,0,P|22:157|89:278,1,206.250007867813
172,250,4050,2,0,P|77:274|16:198,1,206.250007867813
103,190,4500,2,0,P|169:145|172:113,1,82.5000031471254
307,74,4800,6,0,L|352:161,2,82.5000031471254
167,147,5250,2,0,L|205:74,2,82.5000031471254
256,320,5700,2,0,L|256:224,1,82.5000031471254
306,73,6000,2,0,B|386:229|386:229|410:189,1,206.250007867813
400,91,6450,2,0,B|415:64|415:64|495:220,1,206.250007867813
386,227,6900,2,0,L|339:139,1,82.5000031471254
96,128,7200,2,0,P|64:96|64:32,2,82.5000031471254
96,256,7650,2,0,P|64:288|64:352,2,82.5000031471254
256,192,8100,2,0,L|160:192,1,82.5000031471254
293,60,8400,2,0,P|325:124|441:69,1,206.250007867813
426,18,8850,2,0,P|421:112|327:125,1,206.250007867813
368,64,9300,1,0,0:0:0:0:
256,192,9450,1,0,0:0:0:0:
175,89,9600,2,0,B|148:25|72:25|27:75|28:144|87:175|87:175|170:202|152:268|127:326|41:320|41:320|157:363,1,577.500022029878
163,295,10200,2,0,P|177:228|168:206,1,82.5000031471254
113,113,10350,1,0,0:0:0:0:
256,176,10500,1,0,0:0:0:0:
239,20,10650,1,0,0:0:0:0:
397,124,10800,2,0,P|469:125|495:104,2,82.5000031471254
239,20,11250,1,0,0:0:0:0:
256,176,11400,2,0,L|319:197,1,55
457,204,11550,1,0,0:0:0:0:
239,20,11700,1,0,0:0:0:0:
267,229,11850,1,0,0:0:0:0:
459,216,21600,6,0,P|379:271|270:185,1,220
206,131,22050,6,0,P|116:77|28:133,1,220
40,317,22500,2,0,P|118:300|121:214,1,165
127,225,22800,2,0,P|139:302|216:317,1,165
216,316,23100,2,0,P|294:299|297:213,1,165
303,224,23400,2,0,P|315:300|391:315,1,165
391,315,23700,2,0,P|461:291|465:278,1,55
383,135,23850,1,0,0:0:0:0:
383,135,23925,1,0,0:0:0:0:
383,135,24000,2,0,B|317:94|317:94|242:120|242:120|188:89|188:89|145:100|81:49|81:49|28:73|28:73|-5:28,1,440
181,122,24900,2,0,P|215:178|297:148,1,165
296,149,25200,2,0,P|262:205|180:175,1,165
180,176,25500,2,0,P|214:232|296:202,1,165
295,203,25800,2,0,P|261:259|179:229,1,165
179,230,26100,2,0,P|213:286|295:256,1,165
294,257,26400,2,0,B|295:318|217:346|176:284|176:284|102:318|102:318|63:263|63:263|7:239|7:239|24:140,1,440
155,25,27300,2,0,P|168:97|240:80,1,165
324,25,27600,2,0,P|311:97|240:80,1,165
155,57,27900,2,0,P|168:129|240:112,1,165
324,57,28200,2,0,P|311:129|240:112,1,165
155,105,28500,2,0,P|168:177|192:192,1,55
315,293,28650,1,0,0:0:0:0:
315,293,28725,1,0,0:0:0:0:
315,293,28800,2,0,B|378:263|365:211|365:211|428:191|428:191|389:117|389:117|434:57|434:57|437:2|437:2|395:64,1,440
197,293,29700,2,0,B|134:263|147:211|147:211|84:191|84:191|123:117|123:117|78:57|78:57|75:2|75:2|117:64,1,440
256,32,30600,2,0,B|240:128|240:128|272:176|272:176|256:288,1,220
61,311,31125,2,0,B|126:284|126:284|201:353|260:260|260:260|330:330|330:330|434:317|434:317|495:287,1,495
512,67,32100,2,0,P|446:28|359:73,1,165
438,108,32400,2,0,P|364:138|295:99,1,165
369,58,32700,2,0,P|303:19|216:64,1,165
295,99,33000,2,0,P|221:129|152:90,1,165
226,49,33300,2,0,P|198:22|141:18,1,55
55,189,33450,1,0,0:0:0:0:
55,189,33525,1,0,0:0:0:0:
55,189,33600,2,0,B|126:213|126:213|137:270|137:270|191:219|191:219|217:273|294:269|330:248|330:248|410:279,1,440
457,195,34500,2,0,B|386:171|386:171|375:114|375:114|321:165|321:165|295:111|218:115|182:136|182:136|102:105,1,440
303,59,35400,2,0,P|388:30|469:133,1,220
111,108,36000,2,0,B|114:196|114:196|215:186|197:264|197:264|249:266|249:266|256:321|256:321|312:337|312:337|373:315,1,440
401,108,36900,2,0,B|398:196|398:196|297:186|315:264|315:264|263:266|263:266|256:321|256:321|200:337|200:337|139:315,1,440
256,16,37800,2,0,B|240:80|240:80|272:160|272:160|256:240,1,220
382,59,38250,1,0,0:0:0:0:
382,59,38325,1,0,0:0:0:0:
382,59,38400,2,0,B|339:105|299:78|299:78|258:128|258:128|170:95|170:95|152:143|152:143|123:160|123:160|135:158,1,330
56,268,39000,2,0,P|81:325|155:304,1,110
324,333,39300,2,0,P|443:303|349:56,1,440
129,156,40050,1,0,0:0:0:0:
256,80,40200,1,0,0:0:0:0:
256,85,40250,1,0,0:0:0:0:
256,91,40300,1,0,0:0:0:0:
256,97,40350,1,0,0:0:0:0:
256,103,40400,1,0,0:0:0:0:
256,109,40450,1,0,0:0:0:0:
255,113,40500,2,0,B|231:175|231:175|276:228|276:228|266:278|266:278|277:325,1,220
387,198,40950,1,0,0:0:0:0:
451,80,41100,2,0,L|455:111,3,27.5
387,198,41400,2,0,L|383:229,3,27.5
305,85,41700,2,0,L|309:116,3,27.5
219,182,42000,2,0,L|215:213,3,27.5
123,98,42300,2,0,L|127:129,4,27.5
43,273,42900,1,0,0:0:0:0:
58,295,42975,1,0,0:0:0:0:
82,307,43050,1,0,0:0:0:0:
110,307,43125,1,0,0:0:0:0:
134,294,43200,1,0,0:0:0:0:
236,235,43350,1,0,0:0:0:0:
260,222,43425,1,0,0:0:0:0:
287,221,43500,1,0,0:0:0:0:
311,233,43575,1,0,0:0:0:0:
328,255,43650,1,0,0:0:0:0:
333,281,43725,1,0,0:0:0:0:
326,308,43800,1,0,0:0:0:0:
307,327,43875,1,0,0:0:0:0:
285,338,43950,1,0,0:0:0:0:
268,317,44025,1,0,0:0:0:0:
262,291,44100,1,0,0:0:0:0:
268,264,44175,1,0,0:0:0:0:
286,243,44250,1,0,0:0:0:0:
311,233,44325,1,0,0:0:0:0:
338,234,44400,1,0,0:0:0:0:
361,248,44475,1,0,0:0:0:0:
376,270,44550,1,0,0:0:0:0:
55,100,50400,5,0,0:0:0:0:
120,186,50550,1,0,0:0:0:0:
328,199,50700,2,0,P|272:220|222:223,1,110
55,100,51000,1,0,0:0:0:0:
55,100,51300,1,0,0:0:0:0:
55,100,51600,1,0,0:0:0:0:
55,100,51900,1,0,0:0:0:0:
55,100,52200,5,0,0:0:0:0:
120,186,52350,1,0,0:0:0:0:
328,199,52500,2,0,P|272:220|222:223,1,110
55,100,52800,1,0,0:0:0:0:
55,100,53100,1,0,0:0:0:0:
55,100,53400,1,0,0:0:0:0:
55,100,53700,1,0,0:0:0:0:
221,69,54000,1,0,0:0:0:0:
123,184,54300,1,0,0:0:0:0:
264,85,54450,1,0,0:0:0:0:
222,223,54600,1,0,0:0:0:0:
222,223,54900,1,0,0:0:0:0:
400,106,55200,1,0,0:0:0:0:
413,96,55275,1,0,0:0:0:0:
428,89,55350,1,0,0:0:0:0:
444,87,55425,1,0,0:0:0:0:
463,89,55500,1,0,0:0:0:0:
493,134,55575,1,0,0:0:0:0:
493,188,55650,1,0,0:0:0:0:
465,234,55725,1,0,0:0:0:0:
415,257,55800,1,0,0:0:0:0:
362,249,55875,1,0,0:0:0:0:
321,214,55950,1,0,0:0:0:0:
306,162,56025,1,0,0:0:0:0:
293,109,56100,1,0,0:0:0:0:
249,77,56175,1,0,0:0:0:0:
196,82,56250,1,0,0:0:0:0:
157,119,56325,1,0,0:0:0:0:
158,172,56400,1,0,0:0:0:0:
196,135,56475,1,0,0:0:0:0:
195,81,56550,1,0,0:0:0:0:
75,81,56700,1,0,0:0:0:0:
50,129,56775,1,0,0:0:0:0:
46,184,56850,1,0,0:0:0:0:
61,236,56925,1,0,0:0:0:0:
95,280,57000,1,0,0:0:0:0:
256,294,57150,1,0,0:0:0:0:
278,267,57225,1,0,0:0:0:0:
261,232,57300,1,0,0:0:0:0:
287,210,57375,1,0,0:0:0:0:
312,178,57450,1,0,0:0:0:0:
329,137,57525,1,0,0:0:0:0:
336,92,57600,2,0,P|265:73|205:112,2,146.666666666667
0,205,58200,2,0,P|71:186|131:225,2,146.666666666667
207,336,58800,2,0,P|136:355|76:316,2,146.666666666667
340,116,59400,1,0,0:0:0:0:
374,264,59550,1,0,0:0:0:0:
197,220,59700,1,0,0:0:0:0:
197,220,59775,1,0,0:0:0:0:
197,220,59850,1,0,0:0:0:0:
60,356,60000,5,12,0:0:0:0:
37,302,60075,1,0,0:0:0:0:
71,255,60150,1,0,0:0:0:0:
129,260,60225,1,0,0:0:0:0:
159,307,60300,5,8,0:0:0:0:
101,305,60375,1,0,0:0:0:0:
71,255,60450,1,0,0:0:0:0:
96,203,60525,1,0,0:0:0:0:
153,195,60600,1,0,0:0:0:0:
203,165,60675,1,0,0:0:0:0:
209,107,60750,2,0,B|199:71|199:71|169:48,1,60.5000018463135,8|0,0:0|0:0,0:0:0:0:
160,307,60900,5,8,0:0:0:0:
219,315,60975,1,0,0:0:0:0:
274,294,61050,1,0,0:0:0:0:
312,247,61125,1,0,0:0:0:0:
325,191,61200,5,12,0:0:0:0:
285,235,61275,1,0,0:0:0:0:
274,294,61350,1,0,0:0:0:0:
296,349,61425,1,0,0:0:0:0:
342,382,61500,5,8,0:0:0:0:
384,339,61575,1,0,0:0:0:0:
395,281,61650,1,0,0:0:0:0:
373,225,61725,1,0,0:0:0:0:
325,191,61800,1,0,0:0:0:0:
280,151,61875,1,0,0:0:0:0:
266,93,61950,2,0,B|293:69|293:69|329:54,1,60.5000018463135,8|0,0:0|0:0,0:0:0:0:
274,294,62100,5,8,0:0:0:0:
217,274,62175,1,0,0:0:0:0:
172,235,62250,1,0,0:0:0:0:
146,181,62325,1,0,0:0:0:0:
141,122,62400,5,12,0:0:0:0:
169,175,62475,1,0,0:0:0:0:
172,235,62550,1,0,0:0:0:0:
149,290,62625,1,0,0:0:0:0:
104,330,62700,5,8,0:0:0:0:
75,277,62775,1,0,0:0:0:0:
73,217,62850,1,0,0:0:0:0:
96,162,62925,1,0,0:0:0:0:
141,122,63000,1,0,0:0:0:0:
194,96,63075,1,0,0:0:0:0:
217,42,63150,2,0,B|195:18|195:18|147:9,1,60.5000018463135,8|0,0:0|0:0,0:0:0:0:
172,235,63300,5,8,0:0:0:0:
230,220,63375,1,0,0:0:0:0:
278,184,63450,1,0,0:0:0:0:
308,132,63525,1,0,0:0:0:0:
315,72,63600,5,12,0:0:0:0:
368,99,63675,1,0,0:0:0:0:
427,89,63750,1,0,0:0:0:0:
483,105,63825,1,0,0:0:0:0:
512,157,63900,2,0,P|509:202|479:229,1,60.5000018463135,8|0,0:0|0:0,0:0:0:0:
220,284,64050,5,8,0:0:0:0:
221,217,64125,1,0,0:0:0:0:
278,184,64200,1,0,0:0:0:0:
336,217,64275,1,0,0:0:0:0:
333,285,64350,2,0,L|270:322,1,60.5000018463135,8|0,0:0|0:0,0:0:0:0:
112,207,64500,2,0,B|99:176|99:176|105:119,1,60.5000018463135,8|0,0:0|0:0,0:0:0:0:
213,35,64650,2,0,B|226:66|226:66|220:123,1,60.5000018463135,8|0,0:0|0:0,0:0:0:0:
55,224,64800,5,12,0:0:0:0:
30,170,64875,1,0,0:0:0:0:
55,117,64950,1,0,0:0:0:0:
111,100,65025,1,0,0:0:0:0:
158,133,65100,5,8,0:0:0:0:
102,150,65175,1,0,0:0:0:0:
55,117,65250,1,0,0:0:0:0:
53,58,65325,1,0,0:0:0:0:
98,21,65400,1,0,0:0:0:0:
155,29,65475,1,0,0:0:0:0:
181,78,65550,2,0,B|173:111|173:111|153:139,1,60.5000018463135,8|0,0:0|0:0,0:0:0:0:
43,314,65700,5,8,0:0:0:0:
6,267,65775,1,0,0:0:0:0:
6,208,65850,1,0,0:0:0:0:
43,161,65925,1,0,0:0:0:0:
102,150,66000,5,12,0:0:0:0:
138,196,66075,1,0,0:0:0:0:
137,256,66150,1,0,0:0:0:0:
100,302,66225,1,0,0:0:0:0:
43,314,66300,5,8,0:0:0:0:
44,254,66375,1,0,0:0:0:0:
82,208,66450,1,0,0:0:0:0:
138,196,66525,1,0,0:0:0:0:
194,219,66600,1,0,0:0:0:0:
222,271,66675,1,0,0:0:0:0:
213,330,66750,2,0,B|182:354|182:354|135:357,1,60.5000018463135,8|0,0:0|0:0,0:0:0:0:
220,111,66900,5,8,0:0:0:0:
260,66,66975,1,0,0:0:0:0:
317,51,67050,1,0,0:0:0:0:
374,68,67125,1,0,0:0:0:0:
417,114,67200,5,12,0:0:0:0:
366,146,67275,1,0,0:0:0:0:
307,146,67350,1,0,0:0:0:0:
256,114,67425,1,0,0:0:0:0:
227,60,67500,2,0,B|200:38|200:38|159:25,1,60.5000018463135,8|0,0:0|0:0,0:0:0:0:
82,208,67650,5,8,0:0:0:0:
112,258,67725,1,0,0:0:0:0:
167,281,67800,1,0,0:0:0:0:
225,267,67875,1,0,0:0:0:0:
280,245,67950,1,0,0:0:0:0:
339,257,68025,1,0,0:0:0:0:
379,297,68100,5,8,0:0:0:0:
325,321,68175,1,0,0:0:0:0:
266,310,68250,1,0,0:0:0:0:
225,267,68325,1,0,0:0:0:0:
182,224,68400,5,12,0:0:0:0:
167,281,68475,1,0,0:0:0:0:
118,313,68550,1,0,0:0:0:0:
60,303,68625,1,0,0:0:0:0:
24,255,68700,2,0,B|8:220|8:220|13:176,1,60.5000018463135,8|0,0:0|0:0,0:0:0:0:
189,7,68850,5,8,0:0:0:0:
248,6,68925,1,0,0:0:0:0:
296,41,69000,1,0,0:0:0:0:
314,97,69075,1,0,0:0:0:0:
295,154,69150,1,0,0:0:0:0:
246,188,69225,1,0,0:0:0:0:
189,183,69300,5,8,0:0:0:0:
236,147,69375,1,0,0:0:0:0:
295,154,69450,1,0,0:0:0:0:
353,165,69525,1,0,0:0:0:0:
407,140,69600,5,12,0:0:0:0:
407,200,69675,1,0,0:0:0:0:
406,261,69750,1,0,0:0:0:0:
406,321,69825,1,0,0:0:0:0:
406,382,69900,5,8,0:0:0:0:
366,337,69975,1,0,0:0:0:0:
310,315,70050,1,0,0:0:0:0:
250,320,70125,1,0,0:0:0:0:
199,350,70200,1,0,0:0:0:0:
141,364,70275,1,0,0:0:0:0:
84,346,70350,2,0,B|58:333|58:333|31:304,1,60.5000018463135
100,109,70500,5,0,0:0:0:0:
145,73,70575,1,0,0:0:0:0:
199,94,70650,1,0,0:0:0:0:
208,152,70725,1,0,0:0:0:0:
168,194,70800,5,0,0:0:0:0:
159,136,70875,1,0,0:0:0:0:
199,94,70950,1,0,0:0:0:0:
257,102,71025,1,0,0:0:0:0:
291,152,71100,5,0,0:0:0:0:
232,142,71175,1,0,0:0:0:0:
199,94,71250,1,0,0:0:0:0:
213,36,71325,1,0,0:0:0:0:
264,7,71400,1,0,0:0:0:0:
320,24,71475,1,0,0:0:0:0:
345,77,71550,2,0,B|354:119|354:119|334:161,1,60.5000018463135
59,230,71700,5,0,0:0:0:0:
25,180,71775,1,0,0:0:0:0:
14,121,71850,1,0,0:0:0:0:
28,62,71925,1,0,0:0:0:0:
60,14,72000,5,0,0:0:0:0:
94,63,72075,1,0,0:0:0:0:
106,122,72150,1,0,0:0:0:0:
93,180,72225,1,0,0:0:0:0:
59,230,72300,5,0,0:0:0:0:
46,171,72375,1,0,0:0:0:0:
59,112,72450,1,0,0:0:0:0:
94,63,72525,1,0,0:0:0:0:
146,33,72600,1,0,0:0:0:0:
205,26,72675,1,0,0:0:0:0:
263,44,72750,2,0,B|299:58|299:58|337:103,1,60.5000018463135
211,257,72900,5,0,0:0:0:0:
156,281,72975,1,0,0:0:0:0:
98,271,73050,1,0,0:0:0:0:
59,230,73125,1,0,0:0:0:0:
46,171,73200,5,0,0:0:0:0:
100,145,73275,1,0,0:0:0:0:
158,154,73350,1,0,0:0:0:0:
200,196,73425,1,0,0:0:0:0:
211,257,73500,2,0,B|198:290|198:290|157:324,1,60.5000018463135
29,73,73650,5,0,0:0:0:0:
86,55,73725,1,0,0:0:0:0:
146,58,73800,1,0,0:0:0:0:
201,82,73875,1,0,0:0:0:0:
245,123,73950,2,0,L|292:198,1,60.5000018463135
59,230,74100,5,0,0:0:0:0:
34,175,74175,1,0,0:0:0:0:
44,116,74250,1,0,0:0:0:0:
85,73,74325,1,0,0:0:0:0:
146,58,74400,5,0,0:0:0:0:
169,112,74475,1,0,0:0:0:0:
159,171,74550,1,0,0:0:0:0:
118,215,74625,1,0,0:0:0:0:
59,230,74700,5,0,0:0:0:0:
69,171,74775,1,0,0:0:0:0:
110,127,74850,1,0,0:0:0:0:
169,112,74925,1,0,0:0:0:0:
228,116,75000,1,0,0:0:0:0:
279,86,75075,1,0,0:0:0:0:
304,31,75150,2,0,B|293:-3|293:-3|272:-24,1,60.5000018463135
174,235,75300,5,0,0:0:0:0:
233,245,75375,1,0,0:0:0:0:
291,233,75450,1,0,0:0:0:0:
341,198,75525,1,0,0:0:0:0:
374,148,75600,5,0,0:0:0:0:
315,136,75675,1,0,0:0:0:0:
256,149,75750,1,0,0:0:0:0:
207,183,75825,1,0,0:0:0:0:
174,235,75900,5,0,0:0:0:0:
233,224,75975,1,0,0:0:0:0:
282,190,76050,1,0,0:0:0:0:
315,136,76125,1,0,0:0:0:0:
346,85,76200,1,0,0:0:0:0:
397,53,76275,1,0,0:0:0:0:
456,47,76350,2,0,B|492:49|492:49|529:78,1,60.5000018463135
252,331,76500,5,0,0:0:0:0:
181,344,76575,1,0,0:0:0:0:
115,318,76650,1,0,0:0:0:0:
73,259,76725,1,0,0:0:0:0:
69,188,76800,6,0,B|74:9|74:9|127:105,2,234.666666666667
221,142,77400,6,0,B|249:125|247:93|247:93|282:151|365:146|386:65,2,205.333327067058
263,304,78000,6,0,B|256:215|325:173|325:173|349:206,2,175.999994628906
452,223,78600,1,0,0:0:0:0:
452,223,78900,1,0,0:0:0:0:
232,315,79050,1,0,0:0:0:0:
482,177,79200,5,0,0:0:0:0:
484,123,79275,1,0,0:0:0:0:
457,76,79350,1,0,0:0:0:0:
409,50,79425,1,0,0:0:0:0:
355,53,79500,1,0,0:0:0:0:
311,84,79575,1,0,0:0:0:0:
289,134,79650,1,0,0:0:0:0:
260,180,79725,1,0,0:0:0:0:
210,201,79800,1,0,0:0:0:0:
157,190,79875,1,0,0:0:0:0:
119,151,79950,1,0,0:0:0:0:
110,98,80025,1,0,0:0:0:0:
132,47,80100,5,0,0:0:0:0:
185,58,80175,1,0,0:0:0:0:
222,98,80250,1,0,0:0:0:0:
232,151,80325,1,0,0:0:0:0:
210,201,80400,1,0,0:0:0:0:
186,249,80475,1,0,0:0:0:0:
203,299,80550,1,0,0:0:0:0:
250,324,80625,1,0,0:0:0:0:
301,307,80700,1,0,0:0:0:0:
326,260,80775,1,0,0:0:0:0:
310,209,80850,1,0,0:0:0:0:
260,180,80925,1,0,0:0:0:0:
210,201,81000,5,0,0:0:0:0:
157,211,81075,1,0,0:0:0:0:
110,185,81150,1,0,0:0:0:0:
91,134,81225,1,0,0:0:0:0:
109,83,81300,1,0,0:0:0:0:
156,56,81375,1,0,0:0:0:0:
209,66,81450,1,0,0:0:0:0:
243,107,81525,1,0,0:0:0:0:
243,161,81600,2,0,P|180:159|196:97,1,98.9999969787599
365,52,81750,5,0,0:0:0:0:
417,64,81825,1,0,0:0:0:0:
457,101,81900,1,0,0:0:0:0:
475,153,81975,1,0,0:0:0:0:
464,206,82050,1,0,0:0:0:0:
429,248,82125,1,0,0:0:0:0:
378,267,82200,1,0,0:0:0:0:
325,259,82275,1,0,0:0:0:0:
274,238,82350,1,0,0:0:0:0:
219,239,82425,1,0,0:0:0:0:
170,261,82500,2,0,B|159:302|159:302|175:333,1,55
369,157,82650,5,0,0:0:0:0:
304,142,82725,1,0,0:0:0:0:
238,140,82800,1,0,0:0:0:0:
174,151,82875,1,0,0:0:0:0:
112,175,82950,2,0,P|46:171|4:62,1,165
88,86,83250,5,0,0:0:0:0:
58,131,83325,1,0,0:0:0:0:
52,185,83400,1,0,0:0:0:0:
72,236,83475,1,0,0:0:0:0:
110,273,83550,2,0,P|132:212|103:168,1,110
18,37,83700,5,0,0:0:0:0:
65,11,83775,1,0,0:0:0:0:
119,18,83850,1,0,0:0:0:0:
159,54,83925,1,0,0:0:0:0:
172,107,84000,2,0,P|242:138|341:77,1,110
397,40,84150,5,0,0:0:0:0:
449,30,84225,1,0,0:0:0:0:
496,57,84300,1,0,0:0:0:0:
512,108,84375,1,0,0:0:0:0:
490,158,84450,1,0,0:0:0:0:
441,180,84525,1,0,0:0:0:0:
390,164,84600,1,0,0:0:0:0:
336,158,84675,1,0,0:0:0:0:
291,188,84750,1,0,0:0:0:0:
277,240,84825,1,0,0:0:0:0:
300,289,84900,1,0,0:0:0:0:
349,311,84975,1,0,0:0:0:0:
401,296,85050,1,0,0:0:0:0:
430,251,85125,1,0,0:0:0:0:
425,199,85200,5,0,0:0:0:0:
371,210,85275,1,0,0:0:0:0:
327,241,85350,1,0,0:0:0:0:
300,289,85425,1,0,0:0:0:0:
229,346,85500,1,0,0:0:0:0:
200,299,85575,1,0,0:0:0:0:
192,245,85650,1,0,0:0:0:0:
206,192,85725,1,0,0:0:0:0:
233,106,85800,1,0,0:0:0:0:
242,55,85875,1,0,0:0:0:0:
197,31,85950,1,0,0:0:0:0:
161,68,86025,1,0,0:0:0:0:
187,113,86100,1,0,0:0:0:0:
245,151,86175,1,0,0:0:0:0:
314,138,86250,1,0,0:0:0:0:
355,82,86325,1,0,0:0:0:0:
301,38,86400,5,0,0:0:0:0:
289,90,86475,1,0,0:0:0:0:
314,138,86550,1,0,0:0:0:0:
364,157,86625,1,0,0:0:0:0:
415,140,86700,1,0,0:0:0:0:
468,133,86775,1,0,0:0:0:0:
509,167,86850,2,0,B|503:211|503:211|475:248,1,55
239,208,87000,5,0,0:0:0:0:
205,164,87075,1,0,0:0:0:0:
187,113,87150,1,0,0:0:0:0:
186,58,87225,1,0,0:0:0:0:
204,7,87300,5,0,0:0:0:0:
156,35,87375,1,0,0:0:0:0:
83,80,87450,5,0,0:0:0:0:
86,134,87525,1,0,0:0:0:0:
102,187,87600,1,0,0:0:0:0:
130,234,87675,1,0,0:0:0:0:
167,274,87750,1,0,0:0:0:0:
213,305,87825,1,0,0:0:0:0:
267,304,87900,5,0,0:0:0:0:
233,261,87975,1,0,0:0:0:0:
184,237,88050,1,0,0:0:0:0:
130,234,88125,1,0,0:0:0:0:
75,224,88200,2,0,P|9:171|45:109,1,165
85,80,88500,1,0,0:0:0:0:
70,30,88575,1,0,0:0:0:0:
19,29,88650,1,0,0:0:0:0:
2,77,88725,1,0,0:0:0:0:
40,111,88800,1,0,0:0:0:0:
97,115,88875,5,0,0:0:0:0:
152,114,88950,1,0,0:0:0:0:
205,100,89025,1,0,0:0:0:0:
253,73,89100,1,0,0:0:0:0:
298,44,89175,1,0,0:0:0:0:
351,56,89250,1,0,0:0:0:0:
380,101,89325,1,0,0:0:0:0:
370,153,89400,1,0,0:0:0:0:
326,184,89475,1,0,0:0:0:0:
273,175,89550,1,0,0:0:0:0:
222,193,89625,1,0,0:0:0:0:
196,240,89700,1,0,0:0:0:0:
208,293,89775,1,0,0:0:0:0:
252,324,89850,1,0,0:0:0:0:
306,318,89925,1,0,0:0:0:0:
341,278,90000,5,0,0:0:0:0:
298,247,90075,1,0,0:0:0:0:
244,253,90150,1,0,0:0:0:0:
208,293,90225,1,0,0:0:0:0:
156,306,90300,1,0,0:0:0:0:
106,284,90375,1,0,0:0:0:0:
80,237,90450,1,0,0:0:0:0:
88,184,90525,1,0,0:0:0:0:
126,145,90600,1,0,0:0:0:0:
154,100,90675,1,0,0:0:0:0:
137,49,90750,1,0,0:0:0:0:
87,32,90825,1,0,0:0:0:0:
42,60,90900,1,0,0:0:0:0:
36,113,90975,1,0,0:0:0:0:
74,150,91050,1,0,0:0:0:0:
126,145,91125,1,0,0:0:0:0:
179,132,91200,2,0,L|243:130,1,55
410,88,91350,5,0,0:0:0:0:
460,107,91425,1,0,0:0:0:0:
487,153,91500,1,0,0:0:0:0:
480,206,91575,1,0,0:0:0:0:
440,243,91650,1,0,0:0:0:0:
387,247,91725,1,0,0:0:0:0:
342,217,91800,1,0,0:0:0:0:
290,199,91875,1,0,0:0:0:0:
236,201,91950,1,0,0:0:0:0:
185,222,92025,1,0,0:0:0:0:
152,259,92100,2,0,B|138:287|138:287|150:331,1,55
387,139,92250,5,0,0:0:0:0:
337,115,92325,1,0,0:0:0:0:
283,105,92400,1,0,0:0:0:0:
228,109,92475,1,0,0:0:0:0:
176,127,92550,2,0,P|106:176|54:278,1,165
185,222,92850,5,0,0:0:0:0:
235,202,92925,1,0,0:0:0:0:
271,160,93000,1,0,0:0:0:0:
283,105,93075,1,0,0:0:0:0:
280,50,93150,2,0,B|266:26|266:26|225:-11,1,55
105,66,93300,2,0,B|119:90|119:90|160:127,1,55
257,54,93450,2,0,B|243:30|243:30|202:-7,1,55
84,103,93600,2,0,L|147:108,1,55
325,156,93750,2,0,L|262:161,1,55
64,242,93900,1,0,0:0:0:0:
118,244,93975,1,0,0:0:0:0:
173,247,94050,2,0,L|257:250,1,55
445,281,94200,5,0,0:0:0:0:
482,241,94275,1,0,0:0:0:0:
490,188,94350,1,0,0:0:0:0:
466,139,94425,1,0,0:0:0:0:
419,113,94500,1,0,0:0:0:0:
365,120,94575,1,0,0:0:0:0:
324,155,94650,1,0,0:0:0:0:
275,177,94725,1,0,0:0:0:0:
221,167,94800,1,0,0:0:0:0:
182,129,94875,1,0,0:0:0:0:
171,76,94950,2,0,B|159:53|159:53|166:6,1,55
361,234,95100,5,0,0:0:0:0:
311,257,95175,1,0,0:0:0:0:
257,264,95250,1,0,0:0:0:0:
203,253,95325,1,0,0:0:0:0:
156,226,95400,1,0,0:0:0:0:
119,184,95475,1,0,0:0:0:0:
91,140,95550,1,0,0:0:0:0:
39,141,95625,1,0,0:0:0:0:
12,187,95700,1,0,0:0:0:0:
38,233,95775,1,0,0:0:0:0:
95,234,95850,2,0,L|121:180,1,55
273,28,96000,5,0,0:0:0:0:
326,41,96075,1,0,0:0:0:0:
368,77,96150,1,0,0:0:0:0:
389,127,96225,1,0,0:0:0:0:
385,181,96300,1,0,0:0:0:0:
357,228,96375,1,0,0:0:0:0:
311,257,96450,1,0,0:0:0:0:
257,262,96525,1,0,0:0:0:0:
203,266,96600,1,0,0:0:0:0:
173,309,96675,1,0,0:0:0:0:
188,361,96750,1,0,0:0:0:0:
237,381,96825,1,0,0:0:0:0:
284,356,96900,1,0,0:0:0:0:
294,304,96975,1,0,0:0:0:0:
257,262,97050,1,0,0:0:0:0:
204,248,97125,1,0,0:0:0:0:
162,213,97200,1,0,0:0:0:0:
141,163,97275,1,0,0:0:0:0:
146,108,97350,1,0,0:0:0:0:
174,62,97425,1,0,0:0:0:0:
218,30,97500,2,0,L|284:26,1,55
424,86,97650,2,0,L|418:156,1,55
257,144,97800,1,0,0:0:0:0:
272,27,98100,6,0,L|267:81,1,55
419,140,98250,2,0,L|424:86,1,55
97,25,98400,5,0,0:0:0:0:
59,64,98475,1,0,0:0:0:0:
44,116,98550,1,0,0:0:0:0:
56,169,98625,1,0,0:0:0:0:
93,210,98700,1,0,0:0:0:0:
144,228,98775,1,0,0:0:0:0:
198,220,98850,1,0,0:0:0:0:
241,187,98925,1,0,0:0:0:0:
288,160,99000,1,0,0:0:0:0:
342,163,99075,1,0,0:0:0:0:
386,195,99150,1,0,0:0:0:0:
405,246,99225,1,0,0:0:0:0:
394,299,99300,1,0,0:0:0:0:
356,337,99375,1,0,0:0:0:0:
303,349,99450,1,0,0:0:0:0:
252,329,99525,1,0,0:0:0:0:
220,286,99600,1,0,0:0:0:0:
213,232,99675,1,0,0:0:0:0:
241,187,99750,1,0,0:0:0:0:
282,152,99825,1,0,0:0:0:0:
299,100,99900,1,0,0:0:0:0:
284,48,99975,1,0,0:0:0:0:
244,12,100050,1,0,0:0:0:0:
191,3,100125,1,0,0:0:0:0:
141,25,100200,1,0,0:0:0:0:
111,70,100275,1,0,0:0:0:0:
110,124,100350,1,0,0:0:0:0:
138,170,100425,1,0,0:0:0:0:
187,194,100500,1,0,0:0:0:0:
241,187,100575,1,0,0:0:0:0:
278,147,100650,1,0,0:0:0:0:
284,94,100725,1,0,0:0:0:0:
258,46,100800,5,0,0:0:0:0:
209,23,100875,1,0,0:0:0:0:
156,34,100950,1,0,0:0:0:0:
119,73,101025,1,0,0:0:0:0:
110,124,101100,1,0,0:0:0:0:
138,170,101175,1,0,0:0:0:0:
187,194,101250,1,0,0:0:0:0:
223,234,101325,1,0,0:0:0:0:
225,287,101400,1,0,0:0:0:0:
192,330,101475,1,0,0:0:0:0:
139,341,101550,1,0,0:0:0:0:
91,316,101625,1,0,0:0:0:0:
71,266,101700,1,0,0:0:0:0:
87,215,101775,1,0,0:0:0:0:
132,185,101850,1,0,0:0:0:0:
187,194,101925,1,0,0:0:0:0:
223,234,102000,1,0,0:0:0:0:
267,266,102075,1,0,0:0:0:0:
321,272,102150,1,0,0:0:0:0:
371,252,102225,1,0,0:0:0:0:
405,209,102300,1,0,0:0:0:0:
415,156,102375,1,0,0:0:0:0:
397,104,102450,1,0,0:0:0:0:
356,68,102525,1,0,0:0:0:0:
303,56,102600,1,0,0:0:0:0:
251,72,102675,1,0,0:0:0:0:
202,96,102750,6,0,P|167:104|120:97,1,55
0,222,102900,2,0,P|35:229|82:222,1,55
216,321,103050,2,0,P|180:328|133:321,1,55
0,197,103200,2,0,P|27:196|54:190,3,55
202,96,103500,5,0,0:0:0:0:
193,44,103575,1,0,0:0:0:0:
147,18,103650,1,0,0:0:0:0:
97,37,103725,1,0,0:0:0:0:
81,87,103800,1,0,0:0:0:0:
110,132,103875,1,0,0:0:0:0:
162,138,103950,1,0,0:0:0:0:
215,148,104025,1,0,0:0:0:0:
251,187,104100,1,0,0:0:0:0:
257,241,104175,1,0,0:0:0:0:
231,288,104250,1,0,0:0:0:0:
181,310,104325,1,0,0:0:0:0:
128,298,104400,1,0,0:0:0:0:
93,258,104475,1,0,0:0:0:0:
88,204,104550,1,0,0:0:0:0:
116,158,104625,1,0,0:0:0:0:
162,138,104700,1,0,0:0:0:0:
215,148,104775,1,0,0:0:0:0:
251,187,104850,1,0,0:0:0:0:
284,231,104925,1,0,0:0:0:0:
333,253,105000,1,0,0:0:0:0:
388,248,105075,1,0,0:0:0:0:
432,217,105150,1,0,0:0:0:0:
455,167,105225,1,0,0:0:0:0:
451,113,105300,1,0,0:0:0:0:
421,68,105375,1,0,0:0:0:0:
373,44,105450,1,0,0:0:0:0:
318,46,105525,1,0,0:0:0:0:
272,75,105600,6,0,L|321:136,3,55
85,54,105900,2,0,L|50:96,1,55
145,245,106050,2,0,L|179:202,1,55
104,75,106200,5,0,0:0:0:0:
64,112,106275,1,0,0:0:0:0:
41,162,106350,1,0,0:0:0:0:
39,217,106425,1,0,0:0:0:0:
58,268,106500,1,0,0:0:0:0:
94,309,106575,1,0,0:0:0:0:
143,333,106650,1,0,0:0:0:0:
198,337,106725,1,0,0:0:0:0:
250,320,106800,1,0,0:0:0:0:
292,284,106875,1,0,0:0:0:0:
317,236,106950,1,0,0:0:0:0:
337,186,107025,1,0,0:0:0:0:
386,165,107100,1,0,0:0:0:0:
436,186,107175,1,0,0:0:0:0:
456,236,107250,1,0,0:0:0:0:
435,285,107325,1,0,0:0:0:0:
385,305,107400,1,0,0:0:0:0:
336,283,107475,1,0,0:0:0:0:
317,236,107550,1,0,0:0:0:0:
337,186,107625,1,0,0:0:0:0:
335,130,107700,2,0,P|338:99|317:50,1,55
119,16,107850,2,0,P|116:47|137:96,1,55
357,115,108000,2,0,P|359:83|338:34,3,55
90,33,108300,5,0,0:0:0:0:
86,87,108375,1,0,0:0:0:0:
109,136,108450,1,0,0:0:0:0:
152,169,108525,1,0,0:0:0:0:
206,176,108600,1,0,0:0:0:0:
259,176,108675,1,0,0:0:0:0:
301,210,108750,1,0,0:0:0:0:
310,263,108825,1,0,0:0:0:0:
283,310,108900,1,0,0:0:0:0:
233,329,108975,1,0,0:0:0:0:
182,311,109050,1,0,0:0:0:0:
155,264,109125,1,0,0:0:0:0:
163,211,109200,1,0,0:0:0:0:
206,176,109275,1,0,0:0:0:0:
259,172,109350,1,0,0:0:0:0:
295,132,109425,1,0,0:0:0:0:
292,79,109500,1,0,0:0:0:0:
253,43,109575,1,0,0:0:0:0:
199,45,109650,1,0,0:0:0:0:
162,84,109725,1,0,0:0:0:0:
165,136,109800,5,0,0:0:0:0:
218,137,109875,1,0,0:0:0:0:
257,99,109950,1,0,0:0:0:0:
253,43,110025,1,0,0:0:0:0:
220,7,110100,1,0,0:0:0:0:
167,7,110175,1,0,0:0:0:0:
128,44,110250,1,0,0:0:0:0:
128,98,110325,1,0,0:0:0:0:
165,136,110400,1,0,0:0:0:0:
218,137,110475,1,0,0:0:0:0:
271,152,110550,1,0,0:0:0:0:
312,188,110625,1,0,0:0:0:0:
341,241,110700,5,0,0:0:0:0:
371,184,110775,1,0,0:0:0:0:
433,166,110850,1,0,0:0:0:0:
489,196,110925,1,0,0:0:0:0:
508,258,111000,1,0,0:0:0:0:
478,315,111075,1,0,0:0:0:0:
416,333,111150,1,0,0:0:0:0:
359,303,111225,1,0,0:0:0:0:
307,263,111300,1,0,0:0:0:0:
243,250,111375,1,0,0:0:0:0:
180,268,111450,1,0,0:0:0:0:
131,311,111525,1,0,0:0:0:0:
107,372,111600,5,0,0:0:0:0:
181,354,111675,1,0,0:0:0:0:
228,295,111750,1,0,0:0:0:0:
231,219,111825,1,0,0:0:0:0:
188,157,111900,1,0,0:0:0:0:
116,134,111975,1,0,0:0:0:0:
44,158,112050,1,0,0:0:0:0:
2,220,112125,1,0,0:0:0:0:
5,296,112200,5,0,0:0:0:0:
84,261,112275,1,0,0:0:0:0:
123,184,112350,1,0,0:0:0:0:
179,117,112425,1,0,0:0:0:0:
261,89,112500,1,0,0:0:0:0:
346,109,112575,1,0,0:0:0:0:
407,170,112650,1,0,0:0:0:0:
428,254,112725,1,0,0:0:0:0:
401,337,112800,2,0,L|336:346,3,55
111,337,113100,2,0,L|176:346,3,55
256,192,113400,2,0,L|256:96,3,55
352,96,113700,1,0,0:0:0:0:
352,107,113775,1,0,0:0:0:0:
352,118,113850,1,0,0:0:0:0:
352,129,113925,1,0,0:0:0:0:
352,140,114000,1,0,0:0:0:0:
352,151,114075,1,0,0:0:0:0:
352,162,114150,1,0,0:0:0:0:
352,173,114225,1,0,0:0:0:0:
352,186,114300,2,0,L|352:256,3,55
160,186,114600,2,0,L|160:256,3,55
256,32,114900,1,0,0:0:0:0:
256,320,115200,6,0,P|160:352|96:320,2,146.666666666667
391,338,115800,2,0,P|320:352|256:320,2,146.666666666667
256,96,116400,2,0,L|256:256,2,146.666666666667
416,192,117000,1,0,0:0:0:0:
96,192,117150,1,0,0:0:0:0:
365,48,117300,1,0,0:0:0:0:
365,48,117375,1,0,0:0:0:0:
365,48,117450,1,0,0:0:0:0:
192,112,117600,6,0,B|176:144|176:144|208:176|208:176|192:208,1,110
334,276,117750,2,0,B|350:244|350:244|318:212|318:212|334:180,1,110
192,112,117900,6,0,B|184:144|184:144|200:176|200:176|194:216,1,110
334,276,118050,2,0,B|342:244|342:244|326:212|326:212|331:171,1,110
192,112,118200,6,0,B|188:144|188:144|196:176|196:176|192:248,1,110
334,276,118350,2,0,B|338:244|338:244|330:212|330:212|332:167,1,110
192,112,118500,6,0,L|192:222,1,110
334,276,118650,2,0,B|336:101|336:101|205:-2|298:97,1,330
332,167,118950,6,0,L|476:167,1,110
263,351,119100,2,0,L|119:351,1,110
332,167,119250,6,0,B|364:171|364:171|396:163|396:163|468:167,1,110
263,351,119400,2,0,B|231:355|231:355|199:347|199:347|127:351,1,110
332,167,119550,6,0,B|364:175|364:175|396:159|396:159|452:167,1,110
263,351,119700,2,0,B|231:359|231:359|199:343|199:343|143:351,1,110
332,167,119850,6,0,B|364:183|364:183|396:151|396:151|428:167,1,110
263,351,120000,6,0,B|231:367|231:367|199:335|199:335|167:351,1,110
0,235,120150,2,0,B|32:251|32:251|64:219|64:219|96:235,1,110
263,351,120300,6,0,B|231:359|231:359|199:343|199:343|143:351,1,110
0,235,120450,2,0,B|32:243|32:243|64:227|64:227|120:235,1,110
263,351,120600,6,0,B|231:355|231:355|199:347|199:347|127:351,1,110
0,235,120750,2,0,B|32:239|32:239|64:231|64:231|136:235,1,110
263,351,120900,6,0,L|119:351,1,110
0,235,121050,2,0,B|7:209|7:209|-4:144|83:236|212:284|272:217|263:155|215:106,1,330
150,78,121350,6,0,L|6:78,1,110
219,262,121500,2,0,L|363:262,1,110
150,78,121650,6,0,B|118:82|118:82|86:74|86:74|14:78,1,110
219,262,121800,2,0,B|251:266|251:266|283:258|283:258|355:262,1,110
150,78,121950,6,0,B|118:86|118:86|86:70|86:70|30:78,1,110
219,262,122100,2,0,B|251:270|251:270|283:254|283:254|339:262,1,110
150,78,122250,6,0,B|118:94|118:94|86:62|86:62|54:78,1,110
219,262,122400,6,0,B|251:278|251:278|283:246|283:246|315:262,1,110
482,146,122550,2,0,B|450:162|450:162|418:130|418:130|386:146,1,110
219,262,122700,6,0,B|251:270|251:270|283:254|283:254|339:262,1,110
482,146,122850,2,0,B|450:154|450:154|418:138|418:138|362:146,1,110
219,262,123000,6,0,B|251:266|251:266|283:258|283:258|355:262,1,110
482,146,123150,2,0,B|450:150|450:150|418:142|418:142|346:146,1,110
219,262,123300,6,0,L|363:262,1,110
482,146,123450,2,0,B|363:145|363:145|321:94|321:94|268:132|268:132|172:105,1,330
77,98,123750,6,0,B|61:130|61:130|93:162|93:162|77:194,1,110
219,262,123900,2,0,B|235:230|235:230|203:198|203:198|219:166,1,110
77,98,124050,6,0,B|69:130|69:130|85:162|85:162|77:218,1,110
219,262,124200,2,0,B|227:230|227:230|211:198|211:198|219:142,1,110
77,98,124350,6,0,B|73:130|73:130|81:162|81:162|77:234,1,110
219,262,124500,2,0,B|223:230|223:230|215:198|215:198|219:126,1,110
77,98,124650,6,0,L|77:242,1,110
102,335,124800,5,0,0:0:0:0:
232,351,124950,1,0,0:0:0:0:
58,337,125100,2,0,L|59:273,1,55
232,319,125400,1,0,0:0:0:0:
102,335,125550,1,0,0:0:0:0:
276,321,125700,2,0,L|275:257,1,55
450,339,126150,6,0,L|449:275,1,55
276,321,126450,1,0,0:0:0:0:
406,337,126600,1,0,0:0:0:0:
232,323,126750,2,0,L|233:259,1,55
406,337,127050,1,0,0:0:0:0:
217,137,127200,6,0,P|222:79|272:64,1,110
404,105,127350,2,0,P|399:163|349:178,1,110
217,137,127500,6,0,P|212:79|171:41,1,110
404,105,127650,2,0,P|409:163|450:201,1,110
217,137,127800,6,0,P|222:79|247:19,1,110
404,105,127950,2,0,P|399:163|374:223,1,110
217,137,128100,6,0,L|221:5,1,110
404,105,128250,2,0,B|395:156|395:156|409:184|409:184|412:231|412:231|379:303|379:303|294:271|225:331,1,330
152,302,128550,6,0,L|284:306,1,110
217,137,128700,2,0,L|85:141,1,110
152,302,128850,6,0,P|210:307|270:332,1,110
217,137,129000,2,0,P|159:142|99:167,1,110
152,302,129150,6,0,P|210:297|248:256,1,110
217,137,129300,2,0,P|159:132|121:91,1,110
152,302,129450,6,0,P|210:307|225:357,1,110
217,137,129600,6,0,P|159:142|144:192,1,110
333,288,129750,2,0,P|391:283|406:233,1,110
217,137,129900,6,0,P|159:132|121:91,1,110
333,288,130050,2,0,P|391:293|429:334,1,110
217,137,130200,6,0,P|159:142|99:167,1,110
333,288,130350,2,0,P|391:283|451:258,1,110
217,137,130500,6,0,L|85:141,1,110
333,288,130650,2,0,B|378:274|378:274|432:295|432:295|506:248|506:248|453:204|453:204|526:169|472:106,1,330
425,129,130950,6,0,P|420:71|370:56,1,110
217,137,131100,2,0,P|222:195|272:210,1,110
425,129,131250,6,0,P|430:71|471:33,1,110
217,137,131400,2,0,P|212:195|171:233,1,110
425,129,131550,6,0,P|420:71|395:11,1,110
217,137,131700,2,0,P|222:195|247:255,1,110
425,129,131850,6,0,L|421:-3,1,110
184,29,132000,5,0,0:0:0:0:
79,68,132150,1,0,0:0:0:0:
164,128,132300,1,0,0:0:0:0:
184,29,132450,1,0,0:0:0:0:
79,68,132600,5,0,0:0:0:0:
164,128,132750,1,0,0:0:0:0:
184,29,132900,1,0,0:0:0:0:
83,249,133050,1,0,0:0:0:0:
83,249,133350,5,0,0:0:0:0:
164,128,133500,1,0,0:0:0:0:
169,275,133650,5,0,0:0:0:0:
88,154,133800,1,0,0:0:0:0:
257,252,133950,5,0,0:0:0:0:
223,68,134100,1,0,0:0:0:0:
326,198,134250,1,0,0:0:0:0:
89,49,134400,6,0,P|74:118|95:164,1,110
369,208,134700,2,0,P|384:139|363:93,1,110
97,188,135000,5,0,0:0:0:0:
198,116,135150,1,0,0:0:0:0:
79,278,135300,1,0,0:0:0:0:
180,206,135450,1,0,0:0:0:0:
316,49,135750,6,0,P|346:89|415:88,1,110
266,160,136050,2,0,P|236:200|167:199,1,110
198,24,136350,5,0,0:0:0:0:
400,197,136500,1,0,0:0:0:0:
103,97,136650,1,0,0:0:0:0:
3,210,136800,6,0,B|116:279|157:210|157:210|125:191,2,205.333327067058
103,97,137400,2,0,P|143:48|227:128,2,205.333327067058
336,185,138000,2,0,P|335:92|295:-11,2,205.333327067058
197,57,138600,1,0,0:0:0:0:
348,100,138750,1,0,0:0:0:0:
168,294,138900,1,0,0:0:0:0:
168,294,138975,1,0,0:0:0:0:
168,294,139050,1,0,0:0:0:0:
143,126,139200,6,0,B|198:131|177:191|172:271|93:235|-8:240|7:159|-14:47|46:25|88:-21|164:-10|243:-11|254:37|281:63|283:91|346:117|297:236|297:236|267:312|307:351|307:351,1,850.079959529885
422,103,141600,2,0,B|362:62|362:62|289:87|289:87|330:148|298:235|298:235|274:291|298:338|298:338|357:302|435:340|435:340|508:274|499:185|426:132|374:184|345:242|430:259,1,850.079959529885
483,52,143700,1,0,0:0:0:0:
154,286,144000,5,0,0:0:0:0:
153,44,144150,1,0,0:0:0:0:
12,240,144450,5,0,0:0:0:0:
241,165,144600,1,0,0:0:0:0:
12,91,144900,5,0,0:0:0:0:
154,286,145050,1,0,0:0:0:0:
153,44,145350,5,0,0:0:0:0:
12,240,145500,1,0,0:0:0:0:
153,44,145800,1,0,0:0:0:0:
12,240,146400,5,0,0:0:0:0:
153,44,146550,1,0,0:0:0:0:
154,286,146850,5,0,0:0:0:0:
12,91,147000,1,0,0:0:0:0:
241,165,147300,5,0,0:0:0:0:
12,240,147450,1,0,0:0:0:0:
153,44,147750,5,0,0:0:0:0:
154,286,147900,1,0,0:0:0:0:
153,44,148200,1,0,0:0:0:0:
153,44,148800,2,0,B|223:24|337:79|337:79|171:109|140:201|140:201|300:152|361:217|361:217|380:276|368:297|313:361|243:330|261:275|261:275,1,850.079959529885
393,87,151200,2,0,P|458:95|360:113,1,389.619981451197
393,87,152100,2,0,P|454:92|487:154,1,106.259994941236
381,213,152400,2,0,P|350:171|355:120,1,106.259994941236
486,157,152700,2,0,P|464:205|416:222,1,106.259994941236
393,87,153000,2,0,P|454:92|487:154,1,106.259994941236
381,213,153300,2,0,P|350:171|355:120,1,106.259994941236
393,87,153600,5,0,0:0:0:0:
271,257,153750,1,0,0:0:0:0:
271,48,154050,5,0,0:0:0:0:
381,213,154200,1,0,0:0:0:0:
195,152,154500,5,0,0:0:0:0:
393,87,154650,1,0,0:0:0:0:
271,257,154950,5,0,0:0:0:0:
271,48,155100,1,0,0:0:0:0:
381,213,155250,1,0,0:0:0:0:
195,152,155400,1,0,0:0:0:0:
271,257,156000,5,0,0:0:0:0:
393,87,156150,1,0,0:0:0:0:
195,152,156450,5,0,0:0:0:0:
381,213,156600,1,0,0:0:0:0:
271,48,156900,5,0,0:0:0:0:
271,257,157050,1,0,0:0:0:0:
393,87,157350,5,0,0:0:0:0:
195,152,157500,1,0,0:0:0:0:
381,213,157650,1,0,0:0:0:0:
271,48,157800,1,0,0:0:0:0:
222,252,158400,6,0,L|133:251,1,70.8399966274904
157,132,158700,2,0,L|246:133,1,70.8399966274904
306,251,159000,6,0,P|295:303|263:321,1,70.8399966274904
73,133,159300,2,0,P|84:81|116:63,1,70.8399966274904
306,251,159600,6,0,L|395:250,1,70.8399966274904
371,131,159900,2,0,L|282:132,1,70.8399966274904
222,250,160200,6,0,P|233:302|265:320,1,70.8399966274904
455,132,160500,2,0,P|444:80|412:62,1,70.8399966274904
222,252,160800,6,0,L|133:251,1,70.8399966274904
157,132,161100,2,0,L|246:133,1,70.8399966274904
306,251,161400,6,0,P|295:303|263:321,1,70.8399966274904
73,133,161700,2,0,P|84:81|116:63,1,70.8399966274904
306,251,162000,6,0,L|395:250,1,70.8399966274904
371,131,162300,2,0,L|282:132,1,70.8399966274904
222,250,162600,6,0,P|233:302|280:328,1,106.259994941236
300,131,162900,6,0,P|289:79|242:53,1,106.259994941236
166,28,163200,5,0,0:0:0:0:
158,63,163350,1,0,0:0:0:0:
166,99,163500,1,0,0:0:0:0:
188,128,163650,1,0,0:0:0:0:
222,250,163800,5,0,0:0:0:0:
229,281,163950,1,0,0:0:0:0:
222,313,164100,1,0,0:0:0:0:
202,339,164250,1,0,0:0:0:0:
66,257,164400,5,0,0:0:0:0:
93,250,164550,1,0,0:0:0:0:
122,257,164700,1,0,0:0:0:0:
146,274,164850,1,0,0:0:0:0:
302,321,165000,5,0,0:0:0:0:
324,336,165150,1,0,0:0:0:0:
350,343,165300,1,0,0:0:0:0:
374,336,165450,1,0,0:0:0:0:
366,191,165600,5,0,0:0:0:0:
373,213,165750,1,0,0:0:0:0:
366,236,165900,1,0,0:0:0:0:
353,256,166050,1,0,0:0:0:0:
246,222,166200,5,0,0:0:0:0:
233,204,166350,1,0,0:0:0:0:
228,182,166500,1,0,0:0:0:0:
233,163,166650,1,0,0:0:0:0:
297,61,166800,5,0,0:0:0:0:
313,45,166950,1,0,0:0:0:0:
328,61,167100,1,0,0:0:0:0:
313,76,167250,1,0,0:0:0:0:
297,61,167400,2,0,P|260:34|167:75,1,141.679993254981
48,151,168000,5,0,0:0:0:0:
199,189,168150,1,0,0:0:0:0:
26,179,168300,2,0,B|-10:203|-14:244|32:272|32:272|160:272,1,220
16,352,168750,2,0,L|240:352,1,220
416,320,169200,1,0,0:0:0:0:
416,96,169350,2,0,L|416:288,1,165
336,320,169650,2,0,L|336:96,1,220
256,320,170100,1,0,0:0:0:0:
256,96,170250,1,0,0:0:0:0:
64,192,170400,5,0,0:0:0:0:
256,192,170550,1,0,0:0:0:0:
96,64,170700,2,0,L|96:304,1,220
176,0,171150,2,0,L|176:240,1,220
256,96,171600,1,0,0:0:0:0:
256,320,171750,2,0,L|256:112,1,165
336,96,172050,2,0,L|336:336,1,220
416,96,172500,1,0,0:0:0:0:
416,320,172650,1,0,0:0:0:0:
160,256,172800,6,0,L|160:320,1,55
128,256,172950,2,0,L|128:320,1,55
96,256,173100,2,0,L|96:320,3,55
0,128,173400,6,0,L|0:192,1,55
32,128,173550,2,0,L|32:192,3,55
128,0,173850,6,0,L|128:64,1,55
160,0,174000,2,0,L|160:64,1,55
192,0,174150,2,0,L|192:64,3,55
288,128,174450,2,0,L|288:192,3,55
384,0,174750,2,0,L|384:64,1,55
416,0,174900,2,0,L|416:64,1,55
448,0,175050,2,0,L|448:64,1,55
384,128,175200,2,0,L|384:192,1,55
416,128,175350,2,0,L|416:192,1,55
448,128,175500,2,0,L|448:192,3,55
352,256,175800,2,0,L|352:320,1,55
320,256,175950,2,0,L|320:320,1,55
288,256,176100,2,0,L|288:320,1,55
352,128,176250,2,0,L|352:192,1,55
320,128,176400,2,0,L|320:192,1,55
288,128,176550,2,0,L|288:192,3,55
160,96,176850,2,0,L|160:160,3,55
64,224,177150,2,0,L|64:288,1,55
96,224,177300,2,0,L|96:288,1,55
128,224,177450,2,0,L|128:288,1,55
192,96,177600,2,0,L|192:160,1,55
224,96,177750,2,0,L|224:160,1,55
256,96,177900,2,0,L|256:160,3,55
352,224,178200,2,0,L|352:288,1,55
384,224,178350,2,0,L|384:288,3,55
480,96,178650,2,0,L|480:160,1,55
448,96,178800,2,0,L|448:160,1,55
416,96,178950,2,0,L|416:160,3,55
320,224,179250,2,0,L|320:288,3,55
192,320,179550,2,0,L|192:384,1,55
160,320,179700,2,0,L|160:384,1,55
128,320,179850,2,0,L|128:384,1,55
64,160,180000,2,0,L|64:224,1,55
32,160,180150,2,0,L|32:224,1,55
0,160,180300,2,0,L|0:224,3,55
187,144,180600,1,0,0:0:0:0:
425,104,180750,2,0,P|365:75|368:202,1,220
493,188,181200,1,0,0:0:0:0:
186,188,181350,2,0,P|212:254|354:339,2,220
306,39,182100,1,0,0:0:0:0:
330,186,182250,1,0,0:0:0:0:
139,33,182400,2,0,P|90:100|95:155,1,110.000004196167
186,188,182700,2,0,L|155:286,3,55.0000020980836
260,78,183150,1,0,0:0:0:0:
260,78,183450,1,0,0:0:0:0:
395,229,183600,1,0,0:0:0:0:
260,78,183750,1,0,0:0:0:0:
260,78,184050,1,0,0:0:0:0:
260,78,184350,1,0,0:0:0:0:
395,229,184500,1,0,0:0:0:0:
260,78,184650,1,0,0:0:0:0:
59,108,184800,2,0,P|58:126|106:135,1,73.3333333333333
453,108,185250,2,0,P|454:126|406:135,1,73.3333333333333
260,78,185700,1,0,0:0:0:0:
260,78,186150,2,0,L|260:146,1,55
256,256,186600,1,0,0:0:0:0:
6,279,187200,6,0,P|61:297|81:284,1,71.4999967269899
148,149,187350,5,0,0:0:0:0:
220,149,187425,1,0,0:0:0:0:
255,211,187500,1,0,0:0:0:0:
220,273,187575,1,0,0:0:0:0:
148,273,187650,6,0,L|114:211,1,71.4999967269899
255,87,187800,1,0,0:0:0:0:
327,87,187875,1,0,0:0:0:0:
362,149,187950,1,0,0:0:0:0:
327,211,188025,1,0,0:0:0:0:
255,211,188100,6,0,L|220:148,1,71.4999967269899
362,25,188250,1,0,0:0:0:0:
434,25,188325,1,0,0:0:0:0:
469,87,188400,1,0,0:0:0:0:
434,149,188475,1,0,0:0:0:0:
362,149,188550,6,0,L|326:88,1,71.4999967269899
449,230,188700,1,0,0:0:0:0:
448,300,188775,1,0,0:0:0:0:
404,354,188850,1,0,0:0:0:0:
335,369,188925,1,0,0:0:0:0:
273,337,189000,2,0,P|261:315|262:255,1,71.4999967269899
325,87,189150,2,0,P|324:51|309:19,1,71.4999967269899
273,337,189300,2,0,P|285:314|284:254,1,71.4999967269899
294,86,189450,2,0,P|294:50|309:18,1,71.4999967269899
229,268,189600,6,0,P|193:268|161:253,1,71.4999967269899
427,7,189750,1,0,0:0:0:0:
487,40,189825,1,0,0:0:0:0:
494,108,189900,1,0,0:0:0:0:
442,153,189975,1,0,0:0:0:0:
375,137,190050,6,0,L|310:71,1,71.4999967269899
123,77,190200,1,0,0:0:0:0:
63,110,190275,1,0,0:0:0:0:
56,178,190350,1,0,0:0:0:0:
108,223,190425,1,0,0:0:0:0:
175,207,190500,6,0,L|240:141,1,71.4999967269899
442,153,190650,1,0,0:0:0:0:
502,186,190725,1,0,0:0:0:0:
509,254,190800,1,0,0:0:0:0:
457,299,190875,1,0,0:0:0:0:
390,283,190950,6,0,L|325:217,1,71.4999967269899
138,223,191100,1,0,0:0:0:0:
78,256,191175,1,0,0:0:0:0:
71,324,191250,1,0,0:0:0:0:
123,369,191325,1,0,0:0:0:0:
190,353,191400,6,0,P|229:335|255:287,1,71.4999967269899
282,79,191550,2,0,P|305:52|338:39,1,71.4999967269899
189,352,191700,2,0,P|202:319|229:296,1,71.4999967269899
298,95,191850,2,0,P|324:71|338:39,1,71.4999967269899
203,262,192000,6,0,P|172:227|154:180,1,71.4999967269899
338,38,192150,5,0,0:0:0:0:
395,79,192225,1,0,0:0:0:0:
418,146,192300,1,0,0:0:0:0:
400,214,192375,1,0,0:0:0:0:
346,260,192450,6,0,P|306:278|269:276,1,71.4999967269899
98,363,192600,1,0,0:0:0:0:
41,321,192675,1,0,0:0:0:0:
17,255,192750,1,0,0:0:0:0:
35,187,192825,1,0,0:0:0:0:
89,141,192900,6,0,P|129:123|166:125,1,71.4999967269899
405,20,193050,1,0,0:0:0:0:
462,61,193125,1,0,0:0:0:0:
485,128,193200,1,0,0:0:0:0:
467,196,193275,1,0,0:0:0:0:
413,242,193350,6,0,P|372:259|335:257,1,71.4999967269899
165,345,193500,1,0,0:0:0:0:
108,303,193575,1,0,0:0:0:0:
84,237,193650,1,0,0:0:0:0:
102,169,193725,1,0,0:0:0:0:
156,123,193800,2,0,P|196:105|233:107,1,71.4999967269899
413,242,193950,2,0,P|448:239|480:223,1,71.4999967269899
156,123,194100,2,0,P|196:140|233:138,1,71.4999967269899
413,205,194250,2,0,P|448:207|480:223,1,71.4999967269899
222,374,194400,6,0,P|204:334|206:297,1,71.4999967269899
341,117,194550,2,0,P|338:82|322:50,1,71.4999967269899
222,374,194700,2,0,P|239:334|237:297,1,71.4999967269899
304,117,194850,2,0,P|306:82|322:50,1,71.4999967269899
485,222,195000,1,0,0:0:0:0:
431,267,195075,1,0,0:0:0:0:
361,278,195150,2,0,P|333:271|270:236,1,71.4999967269899
255,24,195300,2,0,P|283:31|346:66,1,71.4999967269899
167,197,195450,2,0,P|134:212|100:222,1,71.4999967269899
205,31,195600,1,0,0:0:0:0:
273,47,195675,1,0,0:0:0:0:
327,94,195750,2,0,P|347:138|340:184,1,71.4999967269899
120,288,195900,2,0,P|100:244|107:198,1,71.4999967269899
361,278,196050,2,0,P|380:321|373:367,1,71.4999967269899
109,172,196200,1,0,0:0:0:0:
141,135,196275,1,0,0:0:0:0:
188,119,196350,1,0,0:0:0:0:
236,130,196425,1,0,0:0:0:0:
272,164,196500,1,0,0:0:0:0:
286,211,196575,1,0,0:0:0:0:
273,259,196650,1,0,0:0:0:0:
238,294,196725,1,0,0:0:0:0:
