osu file format v14

[General]
AudioFilename: audio.mp3
AudioLeadIn: 0
PreviewTime: 184782
Countdown: 0
SampleSet: Soft
StackLeniency: 0.7
Mode: 0
LetterboxInBreaks: 0
EpilepsyWarning: 1
WidescreenStoryboard: 1

[Editor]
Bookmarks: 79340,79565,79790,80015,80315,80690,80990,83990,84890,85190,86090,89390,89690,89990,90290,90590,92690,93290,93590,95390
DistanceSpacing: 1.2
BeatDivisor: 4
GridSize: 4
TimelineZoom: 1.1

[Metadata]
Title:Fortuna Redux
TitleUnicode:Fortuna Redux
Artist:Fractal Dreamers
ArtistUnicode:Fractal Dreamers
Creator:DTM9 Nowa
Version:Normal
Source:osu!
Tags:Helblinde Kingdom of Silence EP artcore dnb Featured Artist mappers' guild Mapping With Rewards 2017 mwr Instrumental Electronic
BeatmapID:2420818
BeatmapSetID:712974

[Difficulty]
HPDrainRate:4.5
CircleSize:3
OverallDifficulty:4.5
ApproachRate:6.5
SliderMultiplier:0.9
SliderTickRate:1

[Events]
//Background and Video events
0,0,"Fractal.jpg",0,0
//Break Periods
2,132182,135807
//Storyboard Layer 0 (Background)
//Storyboard Layer 1 (Fail)
//Storyboard Layer 2 (Pass)
//Storyboard Layer 3 (Foreground)
Sprite,Foreground,Centre,"sb/hl.png",435,121 S,2,114882,115632,0.7,0.14 F,2,114882,115632,1,0 P,0,114882,115632,A C,0,114882,,223,223,223
Sprite,Foreground,Centre,"sb/hl.png",0,0 S,2,115182,117732,0.7,0.14 F,2,115182,117732,1,0 P,0,115182,117732,A C,0,115182,,223,223,223 M,0,115182,115219,363,202,364.5066,213.1487 M,0,115219,115257,364.5066,213.1487,366.0132,224.2973 M,0,115257,115294,366.0132,224.2973,367.5197,235.446 M,0,115294,115332,367.5197,235.446,369.0263,246.5947 M,0,115332,115369,369.0263,246.5947,370.5329,257.7433 M,0,115369,115407,370.5329,257.7433,372.0395,268.892 M,0,115407,115444,372.0395,268.892,373.546,280.0406 M,0,115444,115482,373.546,280.0406,375.0526,291.1893 M,0,115482,115519,375.0526,291.1893,376.5592,302.338 M,0,115519,115557,376.5592,302.338,378.0658,313.4866 M,0,115557,115594,378.0658,313.4866,379.5723,324.6353 M,0,115594,115632,379.5723,324.6353,381.0789,335.784 M,0,115632,115669,381.0789,335.784,382.5855,346.9326 M,0,115669,115707,382.5855,346.9326,384.0921,358.0813 M,0,115707,115744,384.0921,358.0813,385.5986,369.23 M,0,115744,115782,385.5986,369.23,387.1052,380.3786 M,0,115782,115819,387.1052,380.3786,385.5986,369.23 M,0,115819,115857,385.5986,369.23,384.0921,358.0813 M,0,115857,115894,384.0921,358.0813,382.5855,346.9326 M,0,115894,115932,382.5855,346.9326,381.0789,335.784 M,0,115932,115969,381.0789,335.784,379.5723,324.6353 M,0,115969,116007,379.5723,324.6353,378.0658,313.4866 M,0,116007,116044,378.0658,313.4866,376.5592,302.338 M,0,116044,116082,376.5592,302.338,375.0526,291.1893 M,0,116082,116119,375.0526,291.1893,373.546,280.0406 M,0,116119,116157,373.546,280.0406,372.0395,268.892 M,0,116157,116194,372.0395,268.892,370.5329,257.7433 M,0,116194,116232,370.5329,257.7433,369.0263,246.5947 M,0,116232,116269,369.0263,246.5947,367.5197,235.446 M,0,116269,116307,367.5197,235.446,366.0132,224.2973 M,0,116307,116344,366.0132,224.2973,364.5066,213.1487 M,0,116344,116382,364.5066,213.1487,363,202 M,0,116382,116419,363,202,364.5066,213.1487 M,0,116419,116457,364.5066,213.1487,366.0132,224.2973 M,0,116457,116494,366.0132,224.2973,367.5197,235.446 M,0,116494,116532,367.5197,235.446,369.0263,246.5947 M,0,116532,116569,369.0263,246.5947,370.5329,257.7433 M,0,116569,116607,370.5329,257.7433,372.0395,268.892 M,0,116607,116644,372.0395,268.892,373.546,280.0406 M,0,116644,116682,373.546,280.0406,375.0526,291.1893 M,0,116682,116719,375.0526,291.1893,376.5592,302.338 M,0,116719,116757,376.5592,302.338,378.0658,313.4866 M,0,116757,116794,378.0658,313.4866,379.5723,324.6353 M,0,116794,116832,379.5723,324.6353,381.0789,335.784 M,0,116832,116869,381.0789,335.784,382.5855,346.9326 M,0,116869,116907,382.5855,346.9326,384.0921,358.0813 M,0,116907,116944,384.0921,358.0813,385.5986,369.23 M,0,116944,116982,385.5986,369.23,387.1052,380.3786
Sprite,Foreground,Centre,"sb/hl.png",0,0 S,2,136782,139332,0.7,0.14 F,2,136782,139332,1,0 P,0,136782,139332,A C,0,136782,,36,74,255 M,0,136782,136819,380,419,373.3967,409.8999 M,0,136819,136857,373.3967,409.8999,367.3161,400.4458 M,0,136857,136894,367.3161,400.4458,361.6736,390.7227 M,0,136894,136932,361.6736,390.7227,356.8147,380.5848 M,0,136932,136969,356.8147,380.5848,352.5334,370.192 M,0,136969,137007,352.5334,370.192,348.7887,359.5958 M,0,137007,137044,348.7887,359.5958,345.8322,348.7505 M,0,137044,137082,345.8322,348.7505,343.3564,337.7835 M,0,137082,137119,343.3564,337.7835,341.7707,326.6534 M,0,137119,137157,341.7707,326.6534,340.8125,315.4541 M,0,137157,137194,340.8125,315.4541,340.4091,304.222 M,0,137194,137232,340.4091,304.222,340.8505,292.9894 M,0,137232,137269,340.8505,292.9894,341.769,281.7826 M,0,137269,137307,341.769,281.7826,343.6034,270.6904 M,0,137307,137344,343.6034,270.6904,346.0571,259.721 M,0,137344,137382,346.0571,259.721,349.0326,248.8817 M,0,137382,137419,349.0326,248.8817,346.0571,259.721 M,0,137419,137457,346.0571,259.721,343.6034,270.6904 M,0,137457,137494,343.6034,270.6904,341.769,281.7826 M,0,137494,137532,341.769,281.7826,340.8505,292.9894 M,0,137532,137569,340.8505,292.9894,340.4091,304.222 M,0,137569,137607,340.4091,304.222,340.8125,315.4541 M,0,137607,137644,340.8125,315.4541,341.7707,326.6534 M,0,137644,137682,341.7707,326.6534,343.3564,337.7835 M,0,137682,137719,343.3564,337.7835,345.8322,348.7505 M,0,137719,137757,345.8322,348.7505,348.7887,359.5958 M,0,137757,137794,348.7887,359.5958,352.5334,370.192 M,0,137794,137832,352.5334,370.192,356.8147,380.5848 M,0,137832,137869,356.8147,380.5848,361.6736,390.7227 M,0,137869,137907,361.6736,390.7227,367.3161,400.4458 M,0,137907,137944,367.3161,400.4458,373.3967,409.8999 M,0,137944,137982,373.3967,409.8999,380,419 M,0,137982,138019,380,419,373.3967,409.8999 M,0,138019,138057,373.3967,409.8999,367.3161,400.4458 M,0,138057,138094,367.3161,400.4458,361.6736,390.7227 M,0,138094,138132,361.6736,390.7227,356.8147,380.5848 M,0,138132,138169,356.8147,380.5848,352.5334,370.192 M,0,138169,138207,352.5334,370.192,348.7887,359.5958 M,0,138207,138244,348.7887,359.5958,345.8322,348.7505 M,0,138244,138282,345.8322,348.7505,343.3564,337.7835 M,0,138282,138319,343.3564,337.7835,341.7707,326.6534 M,0,138319,138357,341.7707,326.6534,340.8125,315.4541 M,0,138357,138394,340.8125,315.4541,340.4091,304.222 M,0,138394,138432,340.4091,304.222,340.8505,292.9894 M,0,138432,138469,340.8505,292.9894,341.769,281.7826 M,0,138469,138507,341.769,281.7826,343.6034,270.6904 M,0,138507,138544,343.6034,270.6904,346.0571,259.721 M,0,138544,138582,346.0571,259.721,349.0326,248.8817
Sprite,Foreground,Centre,"sb/hl.png",545,159 S,2,139182,139932,0.7,0.14 F,2,139182,139932,1,0 P,0,139182,139932,A C,0,139182,,223,223,223
Sprite,Foreground,Centre,"sb/hl.png",372,433 S,2,140082,140832,0.7,0.14 F,2,140082,140832,1,0 P,0,140082,140832,A C,0,140082,,223,223,223
Sprite,Foreground,Centre,"sb/hl.png",0,0 S,2,140982,142032,0.7,0.14 F,2,140982,142032,1,0 P,0,140982,142032,A C,0,140982,,223,223,223 M,0,140982,141019,79,290,89.78522,286.893 M,0,141019,141057,89.78522,286.893,100.84,285.0157 M,0,141057,141094,100.84,285.0157,112.0247,284.1335 M,0,141094,141132,112.0247,284.1335,123.2073,285.0364 M,0,141132,141169,123.2073,285.0364,134.2102,287.1851 M,0,141169,141207,134.2102,287.1851,144.9446,290.4049 M,0,141207,141244,144.9446,290.4049,155.0838,295.1984 M,0,141244,141282,155.0838,295.1984,164.8005,300.8279
Sprite,Foreground,Centre,"sb/hl.png",192,406 S,2,141582,142332,0.7,0.14 F,2,141582,142332,1,0 P,0,141582,142332,A C,0,141582,,149,255,218
Sprite,Foreground,Centre,"sb/hl.png",325,110 S,2,142482,143232,0.7,0.14 F,2,142482,143232,1,0 P,0,142482,143232,A C,0,142482,,149,255,218
Sprite,Foreground,Centre,"sb/hl.png",430,416 S,2,143382,144132,0.7,0.14 F,2,143382,144132,1,0 P,0,143382,144132,A C,0,143382,,149,255,218
Sprite,Foreground,Centre,"sb/hl.png",535,392 S,2,143682,144432,0.7,0.14 F,2,143682,144432,1,0 P,0,143682,144432,A C,0,143682,,149,255,218
Sprite,Foreground,Centre,"sb/hl.png",0,0 S,2,143982,144882,0.7,0.14 F,2,143982,144882,1,0 P,0,143982,144882,A C,0,143982,,36,74,255 M,0,143982,144019,555,286,553.2454,274.8877 M,0,144019,144057,553.2454,274.8877,551.4908,263.7753 M,0,144057,144094,551.4908,263.7753,549.7363,252.663 M,0,144094,144132,549.7363,252.663,547.9817,241.5507
Sprite,Foreground,Centre,"sb/hl.png",0,0 S,2,144432,145332,0.7,0.14 F,2,144432,145332,1,0 P,0,144432,145332,A C,0,144432,,36,74,255 M,0,144432,144469,440,250,438.0309,238.9237 M,0,144469,144507,438.0309,238.9237,436.0617,227.8474 M,0,144507,144544,436.0617,227.8474,434.0926,216.771 M,0,144544,144582,434.0926,216.771,432.1235,205.6947
Sprite,Foreground,Centre,"sb/hl.png",0,0 S,2,144882,145782,0.7,0.14 F,2,144882,145782,1,0 P,0,144882,145782,A C,0,144882,,36,74,255 M,0,144882,144919,325,214,323.2454,202.8877 M,0,144919,144957,323.2454,202.8877,321.4908,191.7753 M,0,144957,144994,321.4908,191.7753,319.7363,180.663 M,0,144994,145032,319.7363,180.663,317.9817,169.5507
Sprite,Foreground,Centre,"sb/hl.png",0,0 S,2,145332,146232,0.7,0.14 F,2,145332,146232,1,0 P,0,145332,146232,A C,0,145332,,36,74,255 M,0,145332,145369,222,219,220.2454,230.1123 M,0,145369,145407,220.2454,230.1123,218.4908,241.2247 M,0,145407,145444,218.4908,241.2247,216.7363,252.337 M,0,145444,145482,216.7363,252.337,214.9817,263.4493
Sprite,Foreground,Centre,"sb/hl.png",184,367 S,2,145782,146532,0.7,0.14 F,2,145782,146532,1,0 P,0,145782,146532,A C,0,145782,,36,74,255
Sprite,Foreground,Centre,"sb/hl.png",0,0 S,2,146382,147282,0.7,0.14 F,2,146382,147282,1,0 P,0,146382,147282,A C,0,146382,,223,223,223 M,0,146382,146419,68,184,69.75458,172.8877 M,0,146419,146457,69.75458,172.8877,71.50916,161.7753 M,0,146457,146494,71.50916,161.7753,73.26373,150.663 M,0,146494,146532,73.26373,150.663,75.01832,139.5507
Sprite,Foreground,Centre,"sb/hl.png",0,0 S,2,146832,147732,0.7,0.14 F,2,146832,147732,1,0 P,0,146832,147732,A C,0,146832,,223,223,223 M,0,146832,146869,183,148,184.7546,136.8877 M,0,146869,146907,184.7546,136.8877,186.5092,125.7753 M,0,146907,146944,186.5092,125.7753,188.2637,114.663 M,0,146944,146982,188.2637,114.663,190.0183,103.5507
Sprite,Foreground,Centre,"sb/hl.png",0,0 S,2,147282,148182,0.7,0.14 F,2,147282,148182,1,0 P,0,147282,148182,A C,0,147282,,223,223,223 M,0,147282,147319,298,112,299.7675,100.8897 M,0,147319,147357,299.7675,100.8897,301.5351,89.77944 M,0,147357,147394,301.5351,89.77944,303.3026,78.66916 M,0,147394,147432,303.3026,78.66916,305,68
Sprite,Foreground,Centre,"sb/hl.png",0,0 S,2,147732,148632,0.7,0.14 F,2,147732,148632,1,0 P,0,147732,148632,A C,0,147732,,223,223,223 M,0,147732,147769,401,117,402.7546,128.1123 M,0,147769,147807,402.7546,128.1123,404.5092,139.2247 M,0,147807,147844,404.5092,139.2247,406.2637,150.337 M,0,147844,147882,406.2637,150.337,408.0183,161.4493
Sprite,Foreground,Centre,"sb/hl.png",423,268 S,2,148182,148932,0.7,0.14 F,2,148182,148932,1,0 P,0,148182,148932,A C,0,148182,,223,223,223
Sprite,Foreground,Centre,"sb/hl.png",278,428 S,2,148782,149532,0.7,0.14 F,2,148782,149532,1,0 P,0,148782,149532,A C,0,148782,,149,255,218
Sprite,Foreground,Centre,"sb/hl.png",113,149 S,2,149682,150432,0.7,0.14 F,2,149682,150432,1,0 P,0,149682,150432,A C,0,149682,,149,255,218
Sprite,Foreground,Centre,"sb/hl.png",0,0 S,2,150582,151632,0.7,0.14 F,2,150582,151632,1,0 P,0,150582,151632,A C,0,150582,,149,255,218 M,0,150582,150619,412,271,400.8129,272.0065 M,0,150619,150657,400.8129,272.0065,389.7754,274.0469 M,0,150657,150694,389.7754,274.0469,378.8866,276.8236 M,0,150694,150732,378.8866,276.8236,368.4891,281.071 M,0,150732,150769,368.4891,281.071,358.538,286.263 M,0,150769,150807,358.538,286.263,348.9552,292.1278 M,0,150807,150844,348.9552,292.1278,340.2643,299.2412 M,0,150844,150882,340.2643,299.2412,332.2772,307.1265
Sprite,Foreground,Centre,"sb/hl.png",294,408 S,2,151182,151932,0.7,0.14 F,2,151182,151932,1,0 P,0,151182,151932,A C,0,151182,,36,74,255
Sprite,Foreground,Centre,"sb/hl.png",168,109 S,2,152082,152832,0.7,0.14 F,2,152082,152832,1,0 P,0,152082,152832,A C,0,152082,,36,74,255
Sprite,Foreground,Centre,"sb/hl.png",0,0 S,2,152382,153432,0.7,0.14 F,2,152382,153432,1,0 P,0,152382,153432,A C,0,152382,,36,74,255 M,0,152382,152419,68,150,63.01203,160.0547 M,0,152419,152457,63.01203,160.0547,59.18419,170.5942 M,0,152457,152494,59.18419,170.5942,56.28368,181.4355 M,0,152494,152532,56.28368,181.4355,55.1601,192.5992 M,0,152532,152569,55.1601,192.5992,55.29277,203.8095 M,0,152569,152607,55.29277,203.8095,56.47695,214.9586 M,0,152607,152644,56.47695,214.9586,59.35941,225.7987 M,0,152644,152682,59.35941,225.7987,63.43439,236.2415
Sprite,Foreground,Centre,"sb/hl.png",0,0 S,2,152982,154032,0.7,0.14 F,2,152982,154032,1,0 P,0,152982,154032,A C,0,152982,,36,74,255 M,0,152982,153019,144,307,155.079,308.8173 M,0,153019,153057,155.079,308.8173,166.2781,309.4607 M,0,153057,153094,166.2781,309.4607,177.4986,309.174 M,0,153094,153132,177.4986,309.174,188.5492,307.2136 M,0,153132,153169,188.5492,307.2136,199.3256,304.1058 M,0,153169,153207,199.3256,304.1058,209.7747,300.0355 M,0,153207,153244,209.7747,300.0355,219.5463,294.5218 M,0,153244,153282,219.5463,294.5218,228.8876,288.2767
Sprite,Foreground,Centre,"sb/hl.png",0,0 S,2,153582,154482,0.7,0.14 F,2,153582,154482,1,0 P,0,153582,154482,A C,0,153582,,223,223,223 M,0,153582,153619,293,202,294.7106,190.8808 M,0,153619,153657,294.7106,190.8808,296.4213,179.7616 M,0,153657,153694,296.4213,179.7616,298.1319,168.6425 M,0,153694,153732,298.1319,168.6425,299.8426,157.5233
Sprite,Foreground,Centre,"sb/hl.png",0,0 S,2,154032,154932,0.7,0.14 F,2,154032,154932,1,0 P,0,154032,154932,A C,0,154032,,223,223,223 M,0,154032,154069,372,77,373.7106,88.11919 M,0,154069,154107,373.7106,88.11919,375.4213,99.23837 M,0,154107,154144,375.4213,99.23837,377.1319,110.3575 M,0,154144,154182,377.1319,110.3575,378.8426,121.4767
Sprite,Foreground,Centre,"sb/hl.png",0,0 S,2,154482,155382,0.7,0.14 F,2,154482,155382,1,0 P,0,154482,155382,A C,0,154482,,223,223,223 M,0,154482,154519,451,202,452.7106,190.8808 M,0,154519,154557,452.7106,190.8808,454.4213,179.7616 M,0,154557,154594,454.4213,179.7616,456.1319,168.6425 M,0,154594,154632,456.1319,168.6425,457.8426,157.5233
Sprite,Foreground,Centre,"sb/hl.png",0,0 S,2,154932,156132,0.7,0.14 F,2,154932,156132,1,0 P,0,154932,156132,A C,0,154932,,223,223,223 M,0,154932,154969,549,100,547.2454,111.1123 M,0,154969,155007,547.2454,111.1123,545.4908,122.2247 M,0,155007,155044,545.4908,122.2247,543.7363,133.337 M,0,155044,155082,543.7363,133.337,541.9817,144.4493 M,0,155082,155119,541.9817,144.4493,540.2271,155.5617 M,0,155119,155157,540.2271,155.5617,538.4725,166.674 M,0,155157,155194,538.4725,166.674,536.718,177.7863 M,0,155194,155232,536.718,177.7863,534.9634,188.8987 M,0,155232,155269,534.9634,188.8987,533.2088,200.011 M,0,155269,155307,533.2088,200.011,531.4542,211.1233 M,0,155307,155344,531.4542,211.1233,529.6996,222.2357 M,0,155344,155382,529.6996,222.2357,528,233
Sprite,Foreground,Centre,"sb/hl.png",0,0 S,2,155982,156882,0.7,0.14 F,2,155982,156882,1,0 P,0,155982,156882,A C,0,155982,,149,255,218 M,0,155982,156019,323,305,321.2894,316.1192 M,0,156019,156057,321.2894,316.1192,319.5787,327.2384 M,0,156057,156094,319.5787,327.2384,317.8681,338.3575 M,0,156094,156132,317.8681,338.3575,316.1574,349.4767
Sprite,Foreground,Centre,"sb/hl.png",0,0 S,2,156432,157332,0.7,0.14 F,2,156432,157332,1,0 P,0,156432,157332,A C,0,156432,,149,255,218 M,0,156432,156469,244,430,242.2894,418.8808 M,0,156469,156507,242.2894,418.8808,240.5787,407.7616 M,0,156507,156544,240.5787,407.7616,238.8681,396.6425 M,0,156544,156582,238.8681,396.6425,237.1574,385.5233
Sprite,Foreground,Centre,"sb/hl.png",0,0 S,2,156882,157782,0.7,0.14 F,2,156882,157782,1,0 P,0,156882,157782,A C,0,156882,,149,255,218 M,0,156882,156919,165,305,163.2894,316.1192 M,0,156919,156957,163.2894,316.1192,161.5787,327.2384 M,0,156957,156994,161.5787,327.2384,159.8681,338.3575 M,0,156994,157032,159.8681,338.3575,158.1574,349.4767
Sprite,Foreground,Centre,"sb/hl.png",0,0 S,2,157332,158532,0.7,0.14 F,2,157332,158532,1,0 P,0,157332,158532,A C,0,157332,,149,255,218 M,0,157332,157369,67,407,68.66071,395.8733 M,0,157369,157407,68.66071,395.8733,70.32142,384.7465 M,0,157407,157444,70.32142,384.7465,71.98212,373.6198 M,0,157444,157482,71.98212,373.6198,73.64284,362.493 M,0,157482,157519,73.64284,362.493,75.30354,351.3662 M,0,157519,157557,75.30354,351.3662,76.96426,340.2395 M,0,157557,157594,76.96426,340.2395,78.62496,329.1128 M,0,157594,157632,78.62496,329.1128,80.28568,317.986 M,0,157632,157669,80.28568,317.986,81.94638,306.8593 M,0,157669,157707,81.94638,306.8593,83.60709,295.7325 M,0,157707,157744,83.60709,295.7325,85.2678,284.6058 M,0,157744,157782,85.2678,284.6058,86.9285,273.479
Sprite,Foreground,Centre,"sb/hl.png",0,0 S,2,158382,159732,0.7,0.14 F,2,158382,159732,1,0 P,0,158382,159732,A C,0,158382,,36,74,255 M,0,158382,158419,267,153,268.3823,164.1648 M,0,158419,158457,268.3823,164.1648,269.7646,175.3295 M,0,158457,158494,269.7646,175.3295,271.1469,186.4943 M,0,158494,158532,271.1469,186.4943,272.5292,197.659 M,0,158532,158569,272.5292,197.659,273.9115,208.8238 M,0,158569,158607,273.9115,208.8238,275.2938,219.9885 M,0,158607,158644,275.2938,219.9885,276.6761,231.1533 M,0,158644,158682,276.6761,231.1533,278.0584,242.318 M,0,158682,158719,278.0584,242.318,276.6761,231.1533 M,0,158719,158757,276.6761,231.1533,275.2938,219.9885 M,0,158757,158794,275.2938,219.9885,273.9115,208.8238 M,0,158794,158832,273.9115,208.8238,272.5292,197.659 M,0,158832,158869,272.5292,197.659,271.1469,186.4943 M,0,158869,158907,271.1469,186.4943,269.7646,175.3295 M,0,158907,158944,269.7646,175.3295,268.3823,164.1648 M,0,158944,158982,268.3823,164.1648,267,153
Sprite,Foreground,Centre,"sb/hl.png",325,61 S,2,159282,160032,0.7,0.14 F,2,159282,160032,1,0 P,0,159282,160032,A C,0,159282,,36,74,255
Sprite,Foreground,Centre,"sb/hl.png",527,136 S,2,159882,160632,0.7,0.14 F,2,159882,160632,1,0 P,0,159882,160632,A C,0,159882,,36,74,255
Sprite,Foreground,Centre,"sb/hl.png",0,0 S,2,160182,161232,0.7,0.14 F,2,160182,161232,1,0 P,0,160182,161232,A C,0,160182,,36,74,255 M,0,160182,160219,576,231,575.3451,242.2123 M,0,160219,160257,575.3451,242.2123,573.6306,253.304 M,0,160257,160294,573.6306,253.304,571.1354,264.2572 M,0,160294,160332,571.1354,264.2572,567.1469,274.7548 M,0,160332,160369,567.1469,274.7548,562.1834,284.82 M,0,160369,160407,562.1834,284.82,556.4861,294.4962 M,0,160407,160444,556.4861,294.4962,549.5325,303.312 M,0,160444,160482,549.5325,303.312,541.778,311.4234
Sprite,Foreground,Centre,"sb/hl.png",0,0 S,2,160782,162132,0.7,0.14 F,2,160782,162132,1,0 P,0,160782,162132,A C,0,160782,,223,223,223 M,0,160782,160819,454,375,465.1126,376.5684 M,0,160819,160857,465.1126,376.5684,475.9599,379.4007 M,0,160857,160894,475.9599,379.4007,486.5433,383.1483 M,0,160894,160932,486.5433,383.1483,496.3386,388.6212 M,0,160932,160969,496.3386,388.6212,505.4311,395.1776 M,0,160969,161007,505.4311,395.1776,513.9174,402.5186 M,0,161007,161044,513.9174,402.5186,521.0754,411.1569 M,0,161044,161082,521.0754,411.1569,527.1875,420.5525 M,0,161082,161119,527.1875,420.5525,521.0754,411.1569 M,0,161119,161157,521.0754,411.1569,513.9174,402.5186 M,0,161157,161194,513.9174,402.5186,505.4311,395.1776 M,0,161194,161232,505.4311,395.1776,496.3386,388.6212 M,0,161232,161269,496.3386,388.6212,486.5433,383.1483 M,0,161269,161307,486.5433,383.1483,475.9599,379.4007 M,0,161307,161344,475.9599,379.4007,465.1126,376.5684 M,0,161344,161382,465.1126,376.5684,454,375
Sprite,Foreground,Centre,"sb/hl.png",363,435 S,2,161682,162432,0.7,0.14 F,2,161682,162432,1,0 P,0,161682,162432,A C,0,161682,,223,223,223
Sprite,Foreground,Centre,"sb/hl.png",0,0 S,2,161982,163032,0.7,0.14 F,2,161982,163032,1,0 P,0,161982,163032,A C,0,161982,,223,223,223 M,0,161982,162019,259,403,258.0939,391.7866 M,0,162019,162057,258.0939,391.7866,257.1877,380.5731 M,0,162057,162094,257.1877,380.5731,256.2816,369.3596 M,0,162094,162132,256.2816,369.3596,255.3755,358.1462 M,0,162132,162169,255.3755,358.1462,254.4693,346.9328 M,0,162169,162207,254.4693,346.9328,253.5632,335.7193 M,0,162207,162244,253.5632,335.7193,252.657,324.5059 M,0,162244,162282,252.657,324.5059,251.7509,313.2924
Sprite,Foreground,Centre,"sb/hl.png",0,0 S,2,162582,163632,0.7,0.14 F,2,162582,163632,1,0 P,0,162582,163632,A C,0,162582,,223,223,223 M,0,162582,162619,158,258,158.9061,246.7866 M,0,162619,162657,158.9061,246.7866,159.8123,235.5731 M,0,162657,162694,159.8123,235.5731,160.7184,224.3596 M,0,162694,162732,160.7184,224.3596,161.6245,213.1462 M,0,162732,162769,161.6245,213.1462,162.5307,201.9328 M,0,162769,162807,162.5307,201.9328,163.4368,190.7193 M,0,162807,162844,163.4368,190.7193,164.343,179.5059 M,0,162844,162882,164.343,179.5059,165.2491,168.2924
Sprite,Foreground,Centre,"sb/hl.png",0,0 S,2,163182,164532,0.7,0.14 F,2,163182,164532,1,0 P,0,163182,164532,A C,0,163182,,149,255,218 M,0,163182,163219,237,87,225.775,86.63508 M,0,163219,163257,225.775,86.63508,214.6465,85.18613 M,0,163257,163294,214.6465,85.18613,203.7152,82.66727 M,0,163294,163332,203.7152,82.66727,193.0338,79.24567 M,0,163332,163369,193.0338,79.24567,182.876,74.47266 M,0,163369,163407,182.876,74.47266,173.2325,68.74098 M,0,163407,163444,173.2325,68.74098,164.0832,62.24843 M,0,163444,163482,164.0832,62.24843,155.7293,54.72903 M,0,163482,163519,155.7293,54.72903,164.0832,62.24843 M,0,163519,163557,164.0832,62.24843,173.2325,68.74098 M,0,163557,163594,173.2325,68.74098,182.876,74.47266 M,0,163594,163632,182.876,74.47266,193.0338,79.24567 M,0,163632,163669,193.0338,79.24567,203.7152,82.66727 M,0,163669,163707,203.7152,82.66727,214.6465,85.18613 M,0,163707,163744,214.6465,85.18613,225.775,86.63508 M,0,163744,163782,225.775,86.63508,237,87
Sprite,Foreground,Centre,"sb/hl.png",332,136 S,2,164082,164832,0.7,0.14 F,2,164082,164832,1,0 P,0,164082,164832,A C,0,164082,,149,255,218
Sprite,Foreground,Centre,"sb/hl.png",0,0 S,2,164382,165432,0.7,0.14 F,2,164382,165432,1,0 P,0,164382,165432,A C,0,164382,,149,255,218 M,0,164382,164419,423,78,434.2184,78.72448 M,0,164419,164457,434.2184,78.72448,445.3639,80.16351 M,0,164457,164494,445.3639,80.16351,456.3927,82.31114 M,0,164494,164532,456.3927,82.31114,467.2913,85.04436 M,0,164532,164569,467.2913,85.04436,477.9151,88.71106 M,0,164569,164607,477.9151,88.71106,488.2807,93.0479 M,0,164607,164644,488.2807,93.0479,498.4164,97.90302 M,0,164644,164682,498.4164,97.90302,508.1361,103.5592
Sprite,Foreground,Centre,"sb/hl.png",0,0 S,2,164982,166032,0.7,0.14 F,2,164982,166032,1,0 P,0,164982,166032,A C,0,164982,,149,255,218 M,0,164982,165019,567,194,555.7816,194.7245 M,0,165019,165057,555.7816,194.7245,544.6361,196.1635 M,0,165057,165094,544.6361,196.1635,533.6073,198.3111 M,0,165094,165132,533.6073,198.3111,522.7087,201.0444 M,0,165132,165169,522.7087,201.0444,512.0848,204.7111 M,0,165169,165207,512.0848,204.7111,501.7193,209.0479 M,0,165207,165244,501.7193,209.0479,491.5836,213.903 M,0,165244,165282,491.5836,213.903,481.8639,219.5592
Sprite,Foreground,Centre,"sb/hl.png",0,0 S,2,165582,166932,0.7,0.14 F,2,165582,166932,1,0 P,0,165582,166932,A C,0,165582,,36,74,255 M,0,165582,165619,472,327,477.6459,336.7209 M,0,165619,165657,477.6459,336.7209,482.6524,346.7818 M,0,165657,165694,482.6524,346.7818,486.9996,357.1426 M,0,165694,165732,486.9996,357.1426,490.7432,367.7346 M,0,165732,165769,490.7432,367.7346,493.5838,378.6075 M,0,165769,165807,493.5838,378.6075,495.7178,389.6389 M,0,165807,165844,495.7178,389.6389,497.2173,400.7726 M,0,165844,165882,497.2173,400.7726,497.9124,411.9963 M,0,165882,165919,497.9124,411.9963,497.2173,400.7726 M,0,165919,165957,497.2173,400.7726,495.7178,389.6389 M,0,165957,165994,495.7178,389.6389,493.5838,378.6075 M,0,165994,166032,493.5838,378.6075,490.7432,367.7346 M,0,166032,166069,490.7432,367.7346,486.9996,357.1426 M,0,166069,166107,486.9996,357.1426,482.6524,346.7818 M,0,166107,166144,482.6524,346.7818,477.6459,336.7209 M,0,166144,166182,477.6459,336.7209,472,327
Sprite,Foreground,Centre,"sb/hl.png",0,0 S,2,166482,167532,0.7,0.14 F,2,166482,167532,1,0 P,0,166482,167532,A C,0,166482,,36,74,255 M,0,166482,166519,367,297,358.8776,304.7513 M,0,166519,166557,358.8776,304.7513,349.9972,311.6053 M,0,166557,166594,349.9972,311.6053,340.6089,317.7727 M,0,166594,166632,340.6089,317.7727,330.3884,322.4168 M,0,166632,166669,330.3884,322.4168,319.7471,325.9644 M,0,166669,166707,319.7471,325.9644,308.8493,328.6709 M,0,166707,166744,308.8493,328.6709,297.6708,329.6907 M,0,166744,166782,297.6708,329.6907,286.4555,329.5366
Sprite,Foreground,Centre,"sb/hl.png",80,264 S,2,167382,168132,0.7,0.14 F,2,167382,168132,1,0 P,0,167382,168132,A C,0,167382,,36,74,255
Sprite,Foreground,Centre,"sb/hl.png",118,162 S,2,167682,168432,0.7,0.14 F,2,167682,168432,1,0 P,0,167682,168432,A C,0,167682,,36,74,255
Sprite,Foreground,Centre,"sb/hl.png",0,0 S,2,167982,168882,0.7,0.14 F,2,167982,168882,1,0 P,0,167982,168882,A C,0,167982,,223,223,223 M,0,167982,168019,209,104,217.4474,111.394 M,0,168019,168057,217.4474,111.394,225.044,119.6455 M,0,168057,168094,225.044,119.6455,232.0012,128.4669 M,0,168094,168132,232.0012,128.4669,237.4525,138.2803
Sprite,Foreground,Centre,"sb/hl.png",253,189 S,2,168282,169032,0.7,0.14 F,2,168282,169032,1,0 P,0,168282,169032,A C,0,168282,,223,223,223
Sprite,Foreground,Centre,"sb/hl.png",384,94 S,2,168732,169482,0.7,0.14 F,2,168732,169482,1,0 P,0,168732,169482,A C,0,168732,,223,223,223
Sprite,Foreground,Centre,"sb/hl.png",0,0 S,2,169182,170082,0.7,0.14 F,2,169182,170082,1,0 P,0,169182,170082,A C,0,169182,,223,223,223 M,0,169182,169219,515,187,518.3042,197.744 M,0,169219,169257,518.3042,197.744,520.8372,208.6906 M,0,169257,169294,520.8372,208.6906,522.5869,219.786 M,0,169294,169332,522.5869,219.786,523.5453,230.9756
Sprite,Foreground,Centre,"sb/hl.png",501,336 S,2,169632,170382,0.7,0.14 F,2,169632,170382,1,0 P,0,169632,170382,A C,0,169632,,223,223,223
Sprite,Foreground,Centre,"sb/hl.png",0,0 S,2,169932,170982,0.7,0.14 F,2,169932,170982,1,0 P,0,169932,170982,A C,0,169932,,223,223,223 M,0,169932,169969,406,388,408.4405,398.9821 M,0,169969,170007,408.4405,398.9821,410.8809,409.9642 M,0,170007,170044,410.8809,409.9642,413.3214,420.9463 M,0,170044,170082,413.3214,420.9463,415.7619,431.9284 M,0,170082,170119,415.7619,431.9284,413.3214,420.9463 M,0,170119,170157,413.3214,420.9463,410.8809,409.9642 M,0,170157,170194,410.8809,409.9642,408.4405,398.9821 M,0,170194,170232,408.4405,398.9821,406,388
Sprite,Foreground,Centre,"sb/hl.png",389,336 S,2,170382,171132,0.7,0.14 F,2,170382,171132,1,0 P,0,170382,171132,A C,0,170382,,149,255,218
Sprite,Foreground,Centre,"sb/hl.png",295,391 S,2,170682,171432,0.7,0.14 F,2,170682,171432,1,0 P,0,170682,171432,A C,0,170682,,149,255,218
Sprite,Foreground,Centre,"sb/hl.png",228,243 S,2,171132,171882,0.7,0.14 F,2,171132,171882,1,0 P,0,171132,171882,A C,0,171132,,149,255,218
Sprite,Foreground,Centre,"sb/hl.png",0,0 S,2,171582,172482,0.7,0.14 F,2,171582,172482,1,0 P,0,171582,172482,A C,0,171582,,149,255,218 M,0,171582,171619,107,345,118.1657,344.3033 M,0,171619,171657,118.1657,344.3033,129.0145,341.6839 M,0,171657,171694,129.0145,341.6839,139.4671,337.672 M,0,171694,171732,139.4671,337.672,148.5538,331.1554
Sprite,Foreground,Centre,"sb/hl.png",217,247 S,2,172032,172782,0.7,0.14 F,2,172032,172782,1,0 P,0,172032,172782,A C,0,172032,,149,255,218
Sprite,Foreground,Centre,"sb/hl.png",0,0 S,2,172332,173382,0.7,0.14 F,2,172332,173382,1,0 P,0,172332,173382,A C,0,172332,,149,255,218 M,0,172332,172369,202,140,198.1715,129.4237 M,0,172369,172407,198.1715,129.4237,194.007,118.9761 M,0,172407,172444,194.007,118.9761,189.5106,108.6676 M,0,172444,172482,189.5106,108.6676,184.7577,98.4736 M,0,172482,172519,184.7577,98.4736,189.5106,108.6676 M,0,172519,172557,189.5106,108.6676,194.007,118.9761 M,0,172557,172594,194.007,118.9761,198.1715,129.4237 M,0,172594,172632,198.1715,129.4237,202,140
Sprite,Foreground,Centre,"sb/hl.png",223,252 S,2,172932,173682,0.7,0.14 F,2,172932,173682,1,0 P,0,172932,173682,A C,0,172932,,36,74,255
Sprite,Foreground,Centre,"sb/hl.png",223,252 S,2,173082,173832,0.7,0.14 F,2,173082,173832,1,0 P,0,173082,173832,A C,0,173082,,36,74,255
Sprite,Foreground,Centre,"sb/hl.png",362,333 S,2,173532,174282,0.7,0.14 F,2,173532,174282,1,0 P,0,173532,174282,A C,0,173532,,36,74,255
Sprite,Foreground,Centre,"sb/hl.png",0,0 S,2,173982,174882,0.7,0.14 F,2,173982,174882,1,0 P,0,173982,174882,A C,0,173982,,36,74,255 M,0,173982,174019,501,250,503.8051,239.1165 M,0,174019,174057,503.8051,239.1165,505.8169,228.0634 M,0,174057,174094,505.8169,228.0634,507.1771,216.9096 M,0,174094,174132,507.1771,216.9096,507.4001,205.6749
Sprite,Foreground,Centre,"sb/hl.png",452,112 S,2,174432,175182,0.7,0.14 F,2,174432,175182,1,0 P,0,174432,175182,A C,0,174432,,36,74,255
Sprite,Foreground,Centre,"sb/hl.png",0,0 S,2,174732,175782,0.7,0.14 F,2,174732,175782,1,0 P,0,174732,175782,A C,0,174732,,36,74,255 M,0,174732,174769,369,182,366.1949,192.8835 M,0,174769,174807,366.1949,192.8835,364.1831,203.9366 M,0,174807,174844,364.1831,203.9366,362.8229,215.0904 M,0,174844,174882,362.8229,215.0904,362.5999,226.3251 M,0,174882,174919,362.5999,226.3251,362.8229,215.0904 M,0,174919,174957,362.8229,215.0904,364.1831,203.9366 M,0,174957,174994,364.1831,203.9366,366.1949,192.8835 M,0,174994,175032,366.1949,192.8835,369,182
Sprite,Foreground,Centre,"sb/hl.png",327,88 S,2,175332,176082,0.7,0.14 F,2,175332,176082,1,0 P,0,175332,176082,A C,0,175332,,223,223,223
Sprite,Foreground,Centre,"sb/hl.png",327,88 S,2,175482,176232,0.7,0.14 F,2,175482,176232,1,0 P,0,175482,176232,A C,0,175482,,223,223,223
Sprite,Foreground,Centre,"sb/hl.png",182,159 S,2,175932,176682,0.7,0.14 F,2,175932,176682,1,0 P,0,175932,176682,A C,0,175932,,223,223,223
Sprite,Foreground,Centre,"sb/hl.png",0,0 S,2,176382,177282,0.7,0.14 F,2,176382,177282,1,0 P,0,176382,177282,A C,0,176382,,223,223,223 M,0,176382,176419,116,307,113.9677,318.0649 M,0,176419,176457,113.9677,318.0649,111.9353,329.1298 M,0,176457,176494,111.9353,329.1298,109.903,340.1947 M,0,176494,176532,109.903,340.1947,107.8707,351.2596
Sprite,Foreground,Centre,"sb/hl.png",0,0 S,2,176832,177882,0.7,0.14 F,2,176832,177882,1,0 P,0,176832,177882,A C,0,176832,,223,223,223 M,0,176832,176869,202,403,203.9906,391.9275 M,0,176869,176907,203.9906,391.9275,205.9811,380.855 M,0,176907,176944,205.9811,380.855,207.9717,369.7825 M,0,176944,176982,207.9717,369.7825,209.9622,358.71 M,0,176982,177019,209.9622,358.71,211.9528,347.6375 M,0,177019,177057,211.9528,347.6375,213.9434,336.565 M,0,177057,177094,213.9434,336.565,215.9339,325.4925 M,0,177094,177132,215.9339,325.4925,217.9245,314.42
Sprite,Foreground,Centre,"sb/hl.png",231,262 S,2,177282,178032,0.7,0.14 F,2,177282,178032,1,0 P,0,177282,178032,A C,0,177282,,223,223,223
Sprite,Foreground,Centre,"sb/hl.png",379,191 S,2,177732,178482,0.7,0.14 F,2,177732,178482,1,0 P,0,177732,178482,A C,0,177732,,149,255,218
Sprite,Foreground,Centre,"sb/hl.png",379,191 S,2,177882,178632,0.7,0.14 F,2,177882,178632,1,0 P,0,177882,178632,A C,0,177882,,149,255,218
Sprite,Foreground,Centre,"sb/hl.png",527,256 S,2,178332,179082,0.7,0.14 F,2,178332,179082,1,0 P,0,178332,179082,A C,0,178332,,149,255,218
Sprite,Foreground,Centre,"sb/hl.png",0,0 S,2,178782,179682,0.7,0.14 F,2,178782,179682,1,0 P,0,178782,179682,A C,0,178782,,149,255,218 M,0,178782,178819,382,329,383.8849,317.9278 M,0,178819,178857,383.8849,317.9278,386.803,307.0899 M,0,178857,178894,386.803,307.0899,390.5169,296.4922 M,0,178894,178932,390.5169,296.4922,395.6218,286.4913
Sprite,Foreground,Centre,"sb/hl.png",463,202 S,2,179232,179982,0.7,0.14 F,2,179232,179982,1,0 P,0,179232,179982,A C,0,179232,,149,255,218
Sprite,Foreground,Centre,"sb/hl.png",0,0 S,2,179532,180582,0.7,0.14 F,2,179532,180582,1,0 P,0,179532,180582,A C,0,179532,,149,255,218 M,0,179532,179569,398,115,394.8028,104.2366 M,0,179569,179607,394.8028,104.2366,392.7816,93.20271 M,0,179607,179644,392.7816,93.20271,391.9576,82.0232 M,0,179644,179682,391.9576,82.0232,391.9614,70.78857 M,0,179682,179719,391.9614,70.78857,391.9576,82.0232 M,0,179719,179757,391.9576,82.0232,392.7816,93.20271 M,0,179757,179794,392.7816,93.20271,394.8028,104.2366 M,0,179794,179832,394.8028,104.2366,398,115
Sprite,Foreground,Centre,"sb/hl.png",414,276 S,2,180282,181032,0.7,0.14 F,2,180282,181032,1,0 P,0,180282,181032,A C,0,180282,,36,74,255
Sprite,Foreground,Centre,"sb/hl.png",276,189 S,2,180732,181482,0.7,0.14 F,2,180732,181482,1,0 P,0,180732,181482,A C,0,180732,,36,74,255
Sprite,Foreground,Centre,"sb/hl.png",123,243 S,2,181182,181932,0.7,0.14 F,2,181182,181932,1,0 P,0,181182,181932,A C,0,181182,,36,74,255
Sprite,Foreground,Centre,"sb/hl.png",78,398 S,2,181632,182382,0.7,0.14 F,2,181632,182382,1,0 P,0,181632,182382,A C,0,181632,,36,74,255
Sprite,Foreground,Centre,"sb/hl.png",0,0 S,2,182082,182982,0.7,0.14 F,2,182082,182982,1,0 P,0,182082,182982,A C,0,182082,,36,74,255 M,0,182082,182119,238,418,246.4134,410.6187 M,0,182119,182157,246.4134,410.6187,253.4698,401.9616 M,0,182157,182194,253.4698,401.9616,259.3256,392.4345 M,0,182194,182232,259.3256,392.4345,262.7838,381.8009
Sprite,Foreground,Centre,"sb/hl.png",259,278 S,2,182532,183282,0.7,0.14 F,2,182532,183282,1,0 P,0,182532,183282,A C,0,182532,,223,223,223
Sprite,Foreground,Centre,"sb/hl.png",259,278 S,2,182682,183432,0.7,0.14 F,2,182682,183432,1,0 P,0,182682,183432,A C,0,182682,,223,223,223
Sprite,Foreground,Centre,"sb/hl.png",370,395 S,2,183132,183882,0.7,0.14 F,2,183132,183882,1,0 P,0,183132,183882,A C,0,183132,,223,223,223
Sprite,Foreground,Centre,"sb/hl.png",515,324 S,2,183582,184332,0.7,0.14 F,2,183582,184332,1,0 P,0,183582,184332,A C,0,183582,,223,223,223
Sprite,Foreground,Centre,"sb/hl.png",490,163 S,2,184032,184782,0.7,0.14 F,2,184032,184782,1,0 P,0,184032,184782,A C,0,184032,,223,223,223
Sprite,Foreground,Centre,"sb/hl.png",0,0 S,2,184332,185382,0.7,0.14 F,2,184332,185382,1,0 P,0,184332,185382,A C,0,184332,,223,223,223 M,0,184332,184369,405,230,411.1713,239.3602 M,0,184369,184407,411.1713,239.3602,418.5876,247.7434 M,0,184407,184444,418.5876,247.7434,427.1022,254.9892 M,0,184444,184482,427.1022,254.9892,436.298,261.4245 M,0,184482,184519,436.298,261.4245,427.1022,254.9892 M,0,184519,184557,427.1022,254.9892,418.5876,247.7434 M,0,184557,184594,418.5876,247.7434,411.1713,239.3602 M,0,184594,184632,411.1713,239.3602,405,230
Sprite,Foreground,Centre,"sb/hl.png",388,194 S,2,184782,185532,0.7,0.14 F,2,184782,185532,1,0 P,0,184782,185532,A C,0,184782,,149,255,218
Sprite,Foreground,Centre,"sb/hl.png",0,0 S,2,9582,10632,0.7,0.14 F,2,9582,10632,1,0 P,0,9582,10632,A C,0,9582,,149,255,218 M,0,9582,9619,152,196,157.5081,205.8067 M,0,9619,9657,157.5081,205.8067,162.6818,215.7926 M,0,9657,9694,162.6818,215.7926,167.5903,225.9125 M,0,9694,9732,167.5903,225.9125,172.0047,236.2572 M,0,9732,9769,172.0047,236.2572,176.0674,246.7442 M,0,9769,9807,176.0674,246.7442,179.8269,257.3436 M,0,9807,9844,179.8269,257.3436,183.0959,268.105 M,0,9844,9882,183.0959,268.105,185.9999,278.9699
Sprite,Foreground,Centre,"sb/hl.png",263,421 S,2,10332,11082,0.7,0.14 F,2,10332,11082,1,0 P,0,10332,11082,A C,0,10332,,149,255,218
Sprite,Foreground,Centre,"sb/hl.png",352,286 S,2,10782,11532,0.7,0.14 F,2,10782,11532,1,0 P,0,10782,11532,A C,0,10782,,149,255,218
Sprite,Foreground,Centre,"sb/hl.png",496,213 S,2,11232,11982,0.7,0.14 F,2,11232,11982,1,0 P,0,11232,11982,A C,0,11232,,149,255,218
Sprite,Foreground,Centre,"sb/hl.png",552,370 S,2,11682,12432,0.7,0.14 F,2,11682,12432,1,0 P,0,11682,12432,A C,0,11682,,149,255,218
Sprite,Foreground,Centre,"sb/hl.png",0,0 S,2,11832,13032,0.7,0.14 F,2,11832,13032,1,0 P,0,11832,13032,A C,0,11832,,36,74,255 M,0,11832,11869,552,370,540.9229,371.9113 M,0,11869,11907,540.9229,371.9113,529.7465,373.0748 M,0,11907,11944,529.7465,373.0748,518.5194,373.4857 M,0,11944,11982,518.5194,373.4857,507.2896,373.2271 M,0,11982,12019,507.2896,373.2271,496.1218,371.9826 M,0,12019,12057,496.1218,371.9826,485.0648,369.992 M,0,12057,12094,485.0648,369.992,474.1461,367.3529 M,0,12094,12132,474.1461,367.3529,463.4998,363.7574 M,0,12132,12169,463.4998,363.7574,453.1208,359.4567 M,0,12169,12207,453.1208,359.4567,443.012,354.5573 M,0,12207,12244,443.012,354.5573,433.3761,348.776 M,0,12244,12282,433.3761,348.776,424.1517,342.3626
Sprite,Foreground,Centre,"sb/hl.png",326,212 S,2,12732,13482,0.7,0.14 F,2,12732,13482,1,0 P,0,12732,13482,A C,0,12732,,36,74,255
Sprite,Foreground,Centre,"sb/hl.png",0,0 S,2,13182,14382,0.7,0.14 F,2,13182,14382,1,0 P,0,13182,14382,A C,0,13182,,36,74,255 M,0,13182,13219,178,278,178.8689,289.2164 M,0,13219,13257,178.8689,289.2164,179.7378,300.4328 M,0,13257,13294,179.7378,300.4328,180.6066,311.6492 M,0,13294,13332,180.6066,311.6492,181.4755,322.8656 M,0,13332,13369,181.4755,322.8656,182.3444,334.082 M,0,13369,13407,182.3444,334.082,183.2133,345.2984 M,0,13407,13444,183.2133,345.2984,184.0821,356.5148 M,0,13444,13482,184.0821,356.5148,184.951,367.7312 M,0,13482,13519,184.951,367.7312,185.8199,378.9476 M,0,13519,13557,185.8199,378.9476,186.6888,390.164 M,0,13557,13594,186.6888,390.164,187.5576,401.3804 M,0,13594,13632,187.5576,401.3804,188.4265,412.5968
Sprite,Foreground,Centre,"sb/hl.png",354,417 S,2,14082,14832,0.7,0.14 F,2,14082,14832,1,0 P,0,14082,14832,A C,0,14082,,223,223,223
Sprite,Foreground,Centre,"sb/hl.png",0,0 S,2,14232,15432,0.7,0.14 F,2,14232,15432,1,0 P,0,14232,15432,A C,0,14232,,223,223,223 M,0,14232,14269,354,417,354.8689,405.7836 M,0,14269,14307,354.8689,405.7836,355.7378,394.5672 M,0,14307,14344,355.7378,394.5672,356.6066,383.3508 M,0,14344,14382,356.6066,383.3508,357.4755,372.1344 M,0,14382,14419,357.4755,372.1344,358.3444,360.918 M,0,14419,14457,358.3444,360.918,359.2133,349.7016 M,0,14457,14494,359.2133,349.7016,360.0821,338.4852 M,0,14494,14532,360.0821,338.4852,360.951,327.2688 M,0,14532,14569,360.951,327.2688,361.8199,316.0524 M,0,14569,14607,361.8199,316.0524,362.6888,304.836 M,0,14607,14644,362.6888,304.836,363.5576,293.6196 M,0,14644,14682,363.5576,293.6196,364.4265,282.4032
Sprite,Foreground,Centre,"sb/hl.png",418,129 S,2,15132,15882,0.7,0.14 F,2,15132,15882,1,0 P,0,15132,15882,A C,0,15132,,223,223,223
Sprite,Foreground,Centre,"sb/hl.png",566,192 S,2,15582,16332,0.7,0.14 F,2,15582,16332,1,0 P,0,15582,16332,A C,0,15582,,223,223,223
Sprite,Foreground,Centre,"sb/hl.png",512,345 S,2,16032,16782,0.7,0.14 F,2,16032,16782,1,0 P,0,16032,16782,A C,0,16032,,223,223,223
Sprite,Foreground,Centre,"sb/hl.png",364,277 S,2,16482,17232,0.7,0.14 F,2,16482,17232,1,0 P,0,16482,17232,A C,0,16482,,223,223,223
Sprite,Foreground,Centre,"sb/hl.png",0,0 S,2,16632,17832,0.7,0.14 F,2,16632,17832,1,0 P,0,16632,17832,A C,0,16632,,149,255,218 M,0,16632,16669,364,277,354.6721,270.7571 M,0,16669,16707,354.6721,270.7571,344.7154,265.5994 M,0,16707,16744,344.7154,265.5994,334.3532,261.2747 M,0,16744,16782,334.3532,261.2747,323.4297,258.7032 M,0,16782,16819,323.4297,258.7032,312.2974,257.3682 M,0,16819,16857,312.2974,257.3682,301.0814,256.9952 M,0,16857,16894,301.0814,256.9952,289.9521,258.4208 M,0,16894,16932,289.9521,258.4208,279.0604,261.0776 M,0,16932,16969,279.0604,261.0776,268.4451,264.7006 M,0,16969,17007,268.4451,264.7006,258.5257,269.9406 M,0,17007,17044,258.5257,269.9406,249.2601,276.2505 M,0,17044,17082,249.2601,276.2505,240.5612,283.3428
Sprite,Foreground,Centre,"sb/hl.png",145,414 S,2,17532,18282,0.7,0.14 F,2,17532,18282,1,0 P,0,17532,18282,A C,0,17532,,149,255,218
Sprite,Foreground,Centre,"sb/hl.png",0,0 S,2,17982,19632,0.7,0.14 F,2,17982,19632,1,0 P,0,17982,19632,A C,0,17982,,36,74,255 M,0,17982,18019,83,264,81.53239,252.8461 M,0,18019,18057,81.53239,252.8461,80.06477,241.6923 M,0,18057,18094,80.06477,241.6923,78.59716,230.5384 M,0,18094,18132,78.59716,230.5384,77.12955,219.3846 M,0,18132,18169,77.12955,219.3846,75.66193,208.2307 M,0,18169,18207,75.66193,208.2307,74.19432,197.0768 M,0,18207,18244,74.19432,197.0768,72.72671,185.923 M,0,18244,18282,72.72671,185.923,71.25909,174.7691 M,0,18282,18319,71.25909,174.7691,69.79148,163.6153 M,0,18319,18357,69.79148,163.6153,68.32387,152.4614 M,0,18357,18394,68.32387,152.4614,66.85625,141.3075 M,0,18394,18432,66.85625,141.3075,65.38864,130.1537 M,0,18432,18469,65.38864,130.1537,66.85625,141.3075 M,0,18469,18507,66.85625,141.3075,68.32387,152.4614 M,0,18507,18544,68.32387,152.4614,69.79148,163.6153 M,0,18544,18582,69.79148,163.6153,71.25909,174.7691 M,0,18582,18619,71.25909,174.7691,72.72671,185.923 M,0,18619,18657,72.72671,185.923,74.19432,197.0768 M,0,18657,18694,74.19432,197.0768,75.66193,208.2307 M,0,18694,18732,75.66193,208.2307,77.12955,219.3846 M,0,18732,18769,77.12955,219.3846,78.59716,230.5384 M,0,18769,18807,78.59716,230.5384,80.06477,241.6923 M,0,18807,18844,80.06477,241.6923,81.53239,252.8461 M,0,18844,18882,81.53239,252.8461,83,264
Sprite,Foreground,Centre,"sb/hl.png",64,315 S,2,19032,19782,0.7,0.14 F,2,19032,19782,1,0 P,0,19032,19782,A C,0,19032,,36,74,255
Sprite,Foreground,Centre,"sb/hl.png",0,0 S,2,21271,22176,0.7,0.14 F,2,21271,22176,1,0 P,0,21271,22176,A C,0,21271,,223,223,223 M,0,21271,21309,304,289,302.5797,277.84 M,0,21309,21348,302.5797,277.84,301.1593,266.6801 M,0,21348,21387,301.1593,266.6801,299.7389,255.5201 M,0,21387,21426,299.7389,255.5201,298.3185,244.3601
Sprite,Foreground,Centre,"sb/hl.png",0,0 S,2,21582,22932,0.7,0.14 F,2,21582,22932,1,0 P,0,21582,22932,A C,0,21582,,149,255,218 M,0,21582,21619,264,201,253.5779,205.2176 M,0,21619,21657,253.5779,205.2176,242.934,208.8307 M,0,21657,21694,242.934,208.8307,232.1292,211.9311 M,0,21694,21732,232.1292,211.9311,221.1117,214.1638 M,0,21732,21769,221.1117,214.1638,210.0063,215.9381 M,0,21769,21807,210.0063,215.9381,198.7929,216.7541 M,0,21807,21844,198.7929,216.7541,187.5538,216.9267 M,0,21844,21882,187.5538,216.9267,176.3191,216.5607 M,0,21882,21919,176.3191,216.5607,187.5538,216.9267 M,0,21919,21957,187.5538,216.9267,198.7929,216.7541 M,0,21957,21994,198.7929,216.7541,210.0063,215.9381 M,0,21994,22032,210.0063,215.9381,221.1117,214.1638 M,0,22032,22069,221.1117,214.1638,232.1292,211.9311 M,0,22069,22107,232.1292,211.9311,242.934,208.8307 M,0,22107,22144,242.934,208.8307,253.5779,205.2176 M,0,22144,22182,253.5779,205.2176,264,201
Sprite,Foreground,Centre,"sb/hl.png",338,122 S,2,22482,23232,0.7,0.14 F,2,22482,23232,1,0 P,0,22482,23232,A C,0,22482,,149,255,218
Sprite,Foreground,Centre,"sb/hl.png",444,139 S,2,22782,23532,0.7,0.14 F,2,22782,23532,1,0 P,0,22782,23532,A C,0,22782,,149,255,218
Sprite,Foreground,Centre,"sb/hl.png",574,310 S,2,23382,24132,0.7,0.14 F,2,23382,24132,1,0 P,0,23382,24132,A C,0,23382,,149,255,218
Sprite,Foreground,Centre,"sb/hl.png",0,0 S,2,23982,25332,0.7,0.14 F,2,23982,25332,1,0 P,0,23982,25332,A C,0,23982,,36,74,255 M,0,23982,24019,393,428,384.5319,420.6031 M,0,24019,24057,384.5319,420.6031,375.6738,413.6822 M,0,24057,24094,375.6738,413.6822,366.5138,407.1647 M,0,24094,24132,366.5138,407.1647,356.8812,401.3677 M,0,24132,24169,356.8812,401.3677,346.9475,396.1072 M,0,24169,24207,346.9475,396.1072,336.7637,391.3531 M,0,24207,24244,336.7637,391.3531,326.265,387.3351 M,0,24244,24282,326.265,387.3351,315.5994,383.7786 M,0,24282,24319,315.5994,383.7786,304.6898,381.0622 M,0,24319,24357,304.6898,381.0622,293.6498,378.9471 M,0,24357,24394,293.6498,378.9471,282.5208,377.3765 M,0,24394,24432,282.5208,377.3765,271.305,376.6149 M,0,24432,24469,271.305,376.6149,260.0648,376.3304 M,0,24469,24507,260.0648,376.3304,248.838,376.9338 M,0,24507,24544,248.838,376.9338,237.6632,378.1503 M,0,24544,24582,237.6632,378.1503,226.5602,379.9005
Sprite,Foreground,Centre,"sb/hl.png",132,433 S,2,24882,25632,0.7,0.14 F,2,24882,25632,1,0 P,0,24882,25632,A C,0,24882,,36,74,255
Sprite,Foreground,Centre,"sb/hl.png",72,343 S,2,25182,25932,0.7,0.14 F,2,25182,25932,1,0 P,0,25182,25932,A C,0,25182,,36,74,255
Sprite,Foreground,Centre,"sb/hl.png",189,161 S,2,25782,26532,0.7,0.14 F,2,25782,26532,1,0 P,0,25782,26532,A C,0,25782,,36,74,255
Sprite,Foreground,Centre,"sb/hl.png",0,0 S,2,26382,27732,0.7,0.14 F,2,26382,27732,1,0 P,0,26382,27732,A C,0,26382,,223,223,223 M,0,26382,26419,238,371,246.7535,363.9436 M,0,26419,26457,246.7535,363.9436,255.8845,357.3875 M,0,26457,26494,255.8845,357.3875,265.3,351.2443 M,0,26494,26532,265.3,351.2443,275.1709,345.8633 M,0,26532,26569,275.1709,345.8633,285.3246,341.0417 M,0,26569,26607,285.3246,341.0417,295.7022,336.7261 M,0,26607,26644,295.7022,336.7261,306.3738,333.1928 M,0,26644,26682,306.3738,333.1928,317.187,330.1076 M,0,26682,26719,317.187,330.1076,328.2145,327.9166 M,0,26719,26757,328.2145,327.9166,339.3446,326.344 M,0,26757,26794,339.3446,326.344,350.536,325.2897 M,0,26794,26832,350.536,325.2897,361.7763,325.1013 M,0,26832,26869,361.7763,325.1013,373.0079,325.5396 M,0,26869,26907,373.0079,325.5396,384.2007,326.5505 M,0,26907,26944,384.2007,326.5505,395.2934,328.3703 M,0,26944,26982,395.2934,328.3703,406.2982,330.6727
Sprite,Foreground,Centre,"sb/hl.png",498,387 S,2,27282,28032,0.7,0.14 F,2,27282,28032,1,0 P,0,27282,28032,A C,0,27282,,223,223,223
Sprite,Foreground,Centre,"sb/hl.png",569,305 S,2,27582,28332,0.7,0.14 F,2,27582,28332,1,0 P,0,27582,28332,A C,0,27582,,223,223,223
Sprite,Foreground,Centre,"sb/hl.png",458,119 S,2,28182,28932,0.7,0.14 F,2,28182,28932,1,0 P,0,28182,28932,A C,0,28182,,223,223,223
Sprite,Foreground,Centre,"sb/hl.png",0,0 S,2,28782,30132,0.7,0.14 F,2,28782,30132,1,0 P,0,28782,30132,A C,0,28782,,149,255,218 M,0,28782,28819,286,250,275.2101,253.1436 M,0,28819,28857,275.2101,253.1436,264.2209,255.4745 M,0,28857,28894,264.2209,255.4745,253.1124,257.1835 M,0,28894,28932,253.1124,257.1835,241.8863,257.6827 M,0,28932,28969,241.8863,257.6827,230.6584,257.3452 M,0,28969,29007,230.6584,257.3452,219.4685,256.3363 M,0,29007,29044,219.4685,256.3363,208.4446,254.1633 M,0,29044,29082,208.4446,254.1633,197.6165,251.1767 M,0,29082,29119,197.6165,251.1767,186.9996,247.5106 M,0,29119,29157,186.9996,247.5106,176.8048,242.7894 M,0,29157,29194,176.8048,242.7894,166.9923,237.3241 M,0,29194,29232,166.9923,237.3241,157.5691,231.2165 M,0,29232,29269,157.5691,231.2165,148.7829,224.2161 M,0,29269,29307,148.7829,224.2161,140.3882,216.7402 M,0,29307,29344,140.3882,216.7402,132.8651,208.3921 M,0,29344,29382,132.8651,208.3921,125.9869,199.5109
Sprite,Foreground,Centre,"sb/hl.png",99,94 S,2,29682,30432,0.7,0.14 F,2,29682,30432,1,0 P,0,29682,30432,A C,0,29682,,149,255,218
Sprite,Foreground,Centre,"sb/hl.png",0,0 S,2,30282,31632,0.7,0.14 F,2,30282,31632,1,0 P,0,30282,31632,A C,0,30282,,149,255,218 M,0,30282,30319,71,308,69.80512,319.1737 M,0,30319,30357,69.80512,319.1737,69.48571,330.4012 M,0,30357,30394,69.48571,330.4012,69.82111,341.6351 M,0,30394,30432,69.82111,341.6351,71.43302,352.7551 M,0,30432,30469,71.43302,352.7551,73.90647,363.7107 M,0,30469,30507,73.90647,363.7107,77.04748,374.498 M,0,30507,30544,77.04748,374.498,81.36503,384.8703 M,0,30544,30582,81.36503,384.8703,86.47669,394.8705 M,0,30582,30619,86.47669,394.8705,81.36503,384.8703 M,0,30619,30657,81.36503,384.8703,77.04748,374.498 M,0,30657,30694,77.04748,374.498,73.90647,363.7107 M,0,30694,30732,73.90647,363.7107,71.43302,352.7551 M,0,30732,30769,71.43302,352.7551,69.82111,341.6351 M,0,30769,30807,69.82111,341.6351,69.48571,330.4012 M,0,30807,30844,69.48571,330.4012,69.80512,319.1737 M,0,30844,30882,69.80512,319.1737,71,308
Sprite,Foreground,Centre,"sb/hl.png",0,0 S,2,31182,32532,0.7,0.14 F,2,31182,32532,1,0 P,0,31182,32532,A C,0,31182,,36,74,255 M,0,31182,31219,174,277,178.3422,287.3606 M,0,31219,31257,178.3422,287.3606,183.5785,297.2919 M,0,31257,31294,183.5785,297.2919,189.5347,306.8097 M,0,31294,31332,189.5347,306.8097,196.6096,315.5307 M,0,31332,31369,196.6096,315.5307,204.2385,323.7856 M,0,31369,31407,204.2385,323.7856,212.8816,330.961 M,0,31407,31444,212.8816,330.961,222.1189,337.3423 M,0,31444,31482,222.1189,337.3423,231.8058,343.0181 M,0,31482,31519,231.8058,343.0181,242.1128,347.4757 M,0,31519,31557,242.1128,347.4757,252.6969,351.2575 M,0,31557,31594,252.6969,351.2575,263.679,353.6193 M,0,31594,31632,263.679,353.6193,274.8205,355.0023 M,0,31632,31669,274.8205,355.0023,286.0341,355.5453 M,0,31669,31707,286.0341,355.5453,297.2337,354.7278 M,0,31707,31744,297.2337,354.7278,308.3648,353.1769 M,0,31744,31782,308.3648,353.1769,319.1932,350.1893
Sprite,Foreground,Centre,"sb/hl.png",0,0 S,2,32082,33132,0.7,0.14 F,2,32082,33132,1,0 P,0,32082,33132,A C,0,32082,,36,74,255 M,0,32082,32119,426,341,417.8286,333.2844 M,0,32119,32157,417.8286,333.2844,410.2705,324.9743 M,0,32157,32194,410.2705,324.9743,403.3675,316.1165 M,0,32194,32232,403.3675,316.1165,397.0156,306.8527 M,0,32232,32269,397.0156,306.8527,391.6709,296.9706 M,0,32269,32307,391.6709,296.9706,387.0941,286.7145 M,0,32307,32344,387.0941,286.7145,383.0919,276.2131 M,0,32344,32382,383.0919,276.2131,380.1762,265.3536
Sprite,Foreground,Centre,"sb/hl.png",0,0 S,2,32682,33732,0.7,0.14 F,2,32682,33732,1,0 P,0,32682,33732,A C,0,32682,,36,74,255 M,0,32682,32719,273,247,275.7677,236.1092 M,0,32719,32757,275.7677,236.1092,279.3862,225.4764 M,0,32757,32794,279.3862,225.4764,283.6584,215.0846 M,0,32794,32832,283.6584,215.0846,289.0768,205.2427 M,0,32832,32869,289.0768,205.2427,295.2543,195.8637 M,0,32869,32907,295.2543,195.8637,302.0501,186.9233 M,0,32907,32944,302.0501,186.9233,309.7698,178.7631 M,0,32944,32982,309.7698,178.7631,317.9468,171.0471
Sprite,Foreground,Centre,"sb/hl.png",418,131 S,2,33282,34032,0.7,0.14 F,2,33282,34032,1,0 P,0,33282,34032,A C,0,33282,,36,74,255
Sprite,Foreground,Centre,"sb/hl.png",0,0 S,2,33582,34932,0.7,0.14 F,2,33582,34932,1,0 P,0,33582,34932,A C,0,33582,,223,223,223 M,0,33582,33619,329,69,318.3263,65.46097 M,0,33619,33657,318.3263,65.46097,307.4957,62.44341 M,0,33657,33694,307.4957,62.44341,296.5604,59.81931 M,0,33694,33732,296.5604,59.81931,285.4681,57.97475 M,0,33732,33769,285.4681,57.97475,274.3013,56.66961 M,0,33769,33807,274.3013,56.66961,263.0914,55.79096 M,0,33807,33844,263.0914,55.79096,251.8476,55.68515 M,0,33844,33882,251.8476,55.68515,240.6136,56.12379 M,0,33882,33919,240.6136,56.12379,229.4057,57.01186 M,0,33919,33957,229.4057,57.01186,218.2814,58.64723 M,0,33957,33994,218.2814,58.64723,207.2508,60.81902 M,0,33994,34032,207.2508,60.81902,196.3214,63.45155 M,0,34032,34069,196.3214,63.45155,185.5845,66.78859 M,0,34069,34107,185.5845,66.78859,175.023,70.64117 M,0,34107,34144,175.023,70.64117,164.6418,74.9529 M,0,34144,34182,164.6418,74.9529,154.5509,79.91113
Sprite,Foreground,Centre,"sb/hl.png",71,149 S,2,34482,35232,0.7,0.14 F,2,34482,35232,1,0 P,0,34482,35232,A C,0,34482,,223,223,223
Sprite,Foreground,Centre,"sb/hl.png",109,361 S,2,35082,35832,0.7,0.14 F,2,35082,35832,1,0 P,0,35082,35832,A C,0,35082,,223,223,223
Sprite,Foreground,Centre,"sb/hl.png",0,0 S,2,35382,36432,0.7,0.14 F,2,35382,36432,1,0 P,0,35382,36432,A C,0,35382,,223,223,223 M,0,35382,35419,188,288,199.06,289.9324 M,0,35419,35457,199.06,289.9324,209.8511,292.999 M,0,35457,35494,209.8511,292.999,220.3559,296.951 M,0,35494,35532,220.3559,296.951,230.1667,302.4021 M,0,35532,35569,230.1667,302.4021,239.3532,308.8375 M,0,35569,35607,239.3532,308.8375,247.9111,316.0827 M,0,35607,35644,247.9111,316.0827,255.3888,324.4477 M,0,35644,35682,255.3888,324.4477,262,333
Sprite,Foreground,Centre,"sb/hl.png",0,0 S,2,35982,37332,0.7,0.14 F,2,35982,37332,1,0 P,0,35982,37332,A C,0,35982,,149,255,218 M,0,35982,36019,319,425,322.4861,414.3159 M,0,36019,36057,322.4861,414.3159,326.7573,403.9259 M,0,36057,36094,326.7573,403.9259,331.6465,393.8096 M,0,36094,36132,331.6465,393.8096,337.5721,384.2629 M,0,36132,36169,337.5721,384.2629,344.1909,375.1875 M,0,36169,36207,344.1909,375.1875,351.3992,366.5761 M,0,36207,36244,351.3992,366.5761,359.4237,358.7137 M,0,36244,36282,359.4237,358.7137,367.8883,351.3199 M,0,36282,36319,367.8883,351.3199,377.1006,344.8851 M,0,36319,36357,377.1006,344.8851,386.7635,339.1572 M,0,36357,36394,386.7635,339.1572,396.7717,334.0576 M,0,36394,36432,396.7717,334.0576,407.248,329.9989 M,0,36432,36469,407.248,329.9989,417.9363,326.5117 M,0,36469,36507,417.9363,326.5117,428.9411,324.2336 M,0,36507,36544,428.9411,324.2336,440.0806,322.7829 M,0,36544,36582,440.0806,322.7829,451.2908,321.9711
Sprite,Foreground,Centre,"sb/hl.png",554,354 S,2,36882,37632,0.7,0.14 F,2,36882,37632,1,0 P,0,36882,37632,A C,0,36882,,149,255,218
Sprite,Foreground,Centre,"sb/hl.png",0,0 S,2,37482,38832,0.7,0.14 F,2,37482,38832,1,0 P,0,37482,38832,A C,0,37482,,149,255,218 M,0,37482,37519,515,141,516.9551,152.0788 M,0,37519,37557,516.9551,152.0788,518.9102,163.1576 M,0,37557,37594,518.9102,163.1576,520.8652,174.2365 M,0,37594,37632,520.8652,174.2365,522.8203,185.3153 M,0,37632,37669,522.8203,185.3153,524.7754,196.3941 M,0,37669,37707,524.7754,196.3941,526.7305,207.4729 M,0,37707,37744,526.7305,207.4729,528.6856,218.5517 M,0,37744,37782,528.6856,218.5517,530.6407,229.6305 M,0,37782,37819,530.6407,229.6305,528.6856,218.5517 M,0,37819,37857,528.6856,218.5517,526.7305,207.4729 M,0,37857,37894,526.7305,207.4729,524.7754,196.3941 M,0,37894,37932,524.7754,196.3941,522.8203,185.3153 M,0,37932,37969,522.8203,185.3153,520.8652,174.2365 M,0,37969,38007,520.8652,174.2365,518.9102,163.1576 M,0,38007,38044,518.9102,163.1576,516.9551,152.0788 M,0,38044,38082,516.9551,152.0788,515,141
Sprite,Foreground,Centre,"sb/hl.png",0,0 S,2,38382,40032,0.7,0.14 F,2,38382,40032,1,0 P,0,38382,40032,A C,0,38382,,36,74,255 M,0,38382,38419,421,86,409.9087,84.20278 M,0,38419,38457,409.9087,84.20278,398.7129,83.32906 M,0,38457,38494,398.7129,83.32906,387.4756,83.13109 M,0,38494,38532,387.4756,83.13109,376.3019,84.3038 M,0,38532,38569,376.3019,84.3038,365.269,86.39513 M,0,38569,38607,365.269,86.39513,354.3805,89.16991 M,0,38607,38644,354.3805,89.16991,343.9056,93.23012 M,0,38644,38682,343.9056,93.23012,333.807,98.14004 M,0,38682,38719,333.807,98.14004,324.0394,103.6895 M,0,38719,38757,324.0394,103.6895,314.9955,110.3529 M,0,38757,38794,314.9955,110.3529,306.5374,117.7379 M,0,38794,38832,306.5374,117.7379,298.5486,125.6403 M,0,38832,38869,298.5486,125.6403,306.5374,117.7379 M,0,38869,38907,306.5374,117.7379,314.9955,110.3529 M,0,38907,38944,314.9955,110.3529,324.0394,103.6895 M,0,38944,38982,324.0394,103.6895,333.807,98.14004 M,0,38982,39019,333.807,98.14004,343.9056,93.23012 M,0,39019,39057,343.9056,93.23012,354.3805,89.16991 M,0,39057,39094,354.3805,89.16991,365.269,86.39513 M,0,39094,39132,365.269,86.39513,376.3019,84.3038 M,0,39132,39169,376.3019,84.3038,387.4756,83.13109 M,0,39169,39207,387.4756,83.13109,398.7129,83.32906 M,0,39207,39244,398.7129,83.32906,409.9087,84.20278 M,0,39244,39282,409.9087,84.20278,421,86
Sprite,Foreground,Centre,"sb/hl.png",0,0 S,2,39882,41232,0.7,0.14 F,2,39882,41232,1,0 P,0,39882,41232,A C,0,39882,,36,74,255 M,0,39882,39919,557,253,555.4553,264.1434 M,0,39919,39957,555.4553,264.1434,553.9108,275.2869 M,0,39957,39994,553.9108,275.2869,552.3661,286.4304 M,0,39994,40032,552.3661,286.4304,550.8214,297.5738 M,0,40032,40069,550.8214,297.5738,549.2769,308.7173 M,0,40069,40107,549.2769,308.7173,547.7322,319.8607 M,0,40107,40144,547.7322,319.8607,546.1875,331.0042 M,0,40144,40182,546.1875,331.0042,544.6429,342.1476 M,0,40182,40219,544.6429,342.1476,546.1875,331.0042 M,0,40219,40257,546.1875,331.0042,547.7322,319.8607 M,0,40257,40294,547.7322,319.8607,549.2769,308.7173 M,0,40294,40332,549.2769,308.7173,550.8214,297.5738 M,0,40332,40369,550.8214,297.5738,552.3661,286.4304 M,0,40369,40407,552.3661,286.4304,553.9108,275.2869 M,0,40407,40444,553.9108,275.2869,555.4553,264.1434 M,0,40444,40482,555.4553,264.1434,557,253
Sprite,Foreground,Centre,"sb/ring.png",264,201 S,19,21582,22332,0.125,0.55 F,6,21582,22332,0.7,0
Sprite,Foreground,Centre,"sb/ring.png",183,359 S,19,187182,187682,0.125,0.55 F,6,187182,187682,0.7,0
Sprite,Foreground,Centre,"sb/ring.png",471,186 S,19,40782,41532,0.125,0.55 F,6,40782,41532,0.7,0
Sprite,Foreground,Centre,"sb/ring.png",314,426 S,19,59982,60732,0.125,0.55 F,6,59982,60732,0.7,0
Sprite,Foreground,Centre,"sb/hl.png",0,0 S,2,57582,60132,0.7,0.14 F,2,57582,60132,1,0 P,0,57582,60132,A C,0,57582,,149,255,218 M,0,57582,57619,243,104,233.4811,109.9733 M,0,57619,57657,233.4811,109.9733,224.4497,116.6525 M,0,57657,57694,224.4497,116.6525,215.8562,123.8883 M,0,57694,57732,215.8562,123.8883,208.0802,131.9977 M,0,57732,57769,208.0802,131.9977,200.9479,140.6742 M,0,57769,57807,200.9479,140.6742,194.4519,149.8319 M,0,57807,57844,194.4519,149.8319,188.8858,159.5891 M,0,57844,57882,188.8858,159.5891,183.9361,169.6749 M,0,57882,57919,183.9361,169.6749,180.096,180.2337 M,0,57919,57957,180.096,180.2337,177.0738,191.0513 M,0,57957,57994,177.0738,191.0513,174.8185,202.0507 M,0,57994,58032,174.8185,202.0507,173.6654,213.2247 M,0,58032,58069,173.6654,213.2247,173.1993,224.4509 M,0,58069,58107,173.1993,224.4509,173.9491,235.6615 M,0,58107,58144,173.9491,235.6615,175.5517,246.7785 M,0,58144,58182,175.5517,246.7785,177.9197,257.7548 M,0,58182,58219,177.9197,257.7548,175.5517,246.7785 M,0,58219,58257,175.5517,246.7785,173.9491,235.6615 M,0,58257,58294,173.9491,235.6615,173.1993,224.4509 M,0,58294,58332,173.1993,224.4509,173.6654,213.2247 M,0,58332,58369,173.6654,213.2247,174.8185,202.0507 M,0,58369,58407,174.8185,202.0507,177.0738,191.0513 M,0,58407,58444,177.0738,191.0513,180.096,180.2337 M,0,58444,58482,180.096,180.2337,183.9361,169.6749 M,0,58482,58519,183.9361,169.6749,188.8858,159.5891 M,0,58519,58557,188.8858,159.5891,194.4519,149.8319 M,0,58557,58594,194.4519,149.8319,200.9479,140.6742 M,0,58594,58632,200.9479,140.6742,208.0802,131.9977 M,0,58632,58669,208.0802,131.9977,215.8562,123.8883 M,0,58669,58707,215.8562,123.8883,224.4497,116.6525 M,0,58707,58744,224.4497,116.6525,233.4811,109.9733 M,0,58744,58782,233.4811,109.9733,243,104 M,0,58782,58819,243,104,233.4811,109.9733 M,0,58819,58857,233.4811,109.9733,224.4497,116.6525 M,0,58857,58894,224.4497,116.6525,215.8562,123.8883 M,0,58894,58932,215.8562,123.8883,208.0802,131.9977 M,0,58932,58969,208.0802,131.9977,200.9479,140.6742 M,0,58969,59007,200.9479,140.6742,194.4519,149.8319 M,0,59007,59044,194.4519,149.8319,188.8858,159.5891 M,0,59044,59082,188.8858,159.5891,183.9361,169.6749 M,0,59082,59119,183.9361,169.6749,180.096,180.2337 M,0,59119,59157,180.096,180.2337,177.0738,191.0513 M,0,59157,59194,177.0738,191.0513,174.8185,202.0507 M,0,59194,59232,174.8185,202.0507,173.6654,213.2247 M,0,59232,59269,173.6654,213.2247,173.1993,224.4509 M,0,59269,59307,173.1993,224.4509,173.9491,235.6615 M,0,59307,59344,173.9491,235.6615,175.5517,246.7785 M,0,59344,59382,175.5517,246.7785,177.9197,257.7548
Sprite,Foreground,Centre,"sb/hl.png",0,0 S,2,76782,79332,0.7,0.14 F,2,76782,79332,1,0 P,0,76782,79332,A C,0,76782,,223,223,223 M,0,76782,76819,229,78,231.1288,89.04675 M,0,76819,76857,231.1288,89.04675,233.2576,100.0935 M,0,76857,76894,233.2576,100.0935,235.3864,111.1403 M,0,76894,76932,235.3864,111.1403,237.5152,122.187 M,0,76932,76969,237.5152,122.187,239.644,133.2337 M,0,76969,77007,239.644,133.2337,241.7728,144.2805 M,0,77007,77044,241.7728,144.2805,243.9016,155.3273 M,0,77044,77082,243.9016,155.3273,246.0304,166.374 M,0,77082,77119,246.0304,166.374,248.1592,177.4207 M,0,77119,77157,248.1592,177.4207,250.288,188.4675 M,0,77157,77194,250.288,188.4675,252.4168,199.5143 M,0,77194,77232,252.4168,199.5143,254.5456,210.561 M,0,77232,77269,254.5456,210.561,256.6744,221.6078 M,0,77269,77307,256.6744,221.6078,258.8032,232.6545 M,0,77307,77344,258.8032,232.6545,260.932,243.7013 M,0,77344,77382,260.932,243.7013,263.0608,254.748 M,0,77382,77419,263.0608,254.748,260.932,243.7013 M,0,77419,77457,260.932,243.7013,258.8032,232.6545 M,0,77457,77494,258.8032,232.6545,256.6744,221.6078 M,0,77494,77532,256.6744,221.6078,254.5456,210.561 M,0,77532,77569,254.5456,210.561,252.4168,199.5143 M,0,77569,77607,252.4168,199.5143,250.288,188.4675 M,0,77607,77644,250.288,188.4675,248.1592,177.4207 M,0,77644,77682,248.1592,177.4207,246.0304,166.374 M,0,77682,77719,246.0304,166.374,243.9016,155.3273 M,0,77719,77757,243.9016,155.3273,241.7728,144.2805 M,0,77757,77794,241.7728,144.2805,239.644,133.2337 M,0,77794,77832,239.644,133.2337,237.5152,122.187 M,0,77832,77869,237.5152,122.187,235.3864,111.1403 M,0,77869,77907,235.3864,111.1403,233.2576,100.0935 M,0,77907,77944,233.2576,100.0935,231.1288,89.04675 M,0,77944,77982,231.1288,89.04675,229,78 M,0,77982,78019,229,78,231.1288,89.04675 M,0,78019,78057,231.1288,89.04675,233.2576,100.0935 M,0,78057,78094,233.2576,100.0935,235.3864,111.1403 M,0,78094,78132,235.3864,111.1403,237.5152,122.187 M,0,78132,78169,237.5152,122.187,239.644,133.2337 M,0,78169,78207,239.644,133.2337,241.7728,144.2805 M,0,78207,78244,241.7728,144.2805,243.9016,155.3273 M,0,78244,78282,243.9016,155.3273,246.0304,166.374 M,0,78282,78319,246.0304,166.374,248.1592,177.4207 M,0,78319,78357,248.1592,177.4207,250.288,188.4675 M,0,78357,78394,250.288,188.4675,252.4168,199.5143 M,0,78394,78432,252.4168,199.5143,254.5456,210.561 M,0,78432,78469,254.5456,210.561,256.6744,221.6078 M,0,78469,78507,256.6744,221.6078,258.8032,232.6545 M,0,78507,78544,258.8032,232.6545,260.932,243.7013 M,0,78544,78582,260.932,243.7013,263.0608,254.748
Sprite,Foreground,Centre,"sb/ring.png",346,323 S,19,78882,79632,0.125,0.55 F,6,78882,79632,0.7,0
Sprite,Foreground,Centre,"sb/ring.png",370,227 S,19,79182,79932,0.125,0.55 F,6,79182,79932,0.7,0
Sprite,Foreground,Centre,"sb/ring.png",217,218 S,19,98382,99132,0.125,0.55 F,6,98382,99132,0.7,0
Sprite,Foreground,Centre,"sb/ring.png",171,382 S,19,117582,118332,0.125,0.55 F,6,117582,118332,0.7,0
Sprite,Foreground,Centre,"sb/ring.png",151,272 S,19,128982,129732,0.125,0.55 F,6,128982,129732,0.7,0
Sprite,Foreground,Centre,"sb/ring.png",203,345 S,19,129282,130032,0.125,0.55 F,6,129282,130032,0.7,0
Sprite,Foreground,Centre,"sb/ring.png",256,417 S,19,129582,130332,0.125,0.55 F,6,129582,130332,0.7,0
Sprite,Foreground,Centre,"sb/ring.png",545,159 S,19,139182,140682,0.125,0.55 F,6,139182,140682,0.7,0
Sprite,Foreground,Centre,"sb/ring.png",513,149 S,19,131382,132882,0.125,0.55 F,6,131382,132882,0.7,0
Sprite,Foreground,Centre,"sb/ring.png",437,86 S,19,131682,133182,0.125,0.55 F,6,131682,133182,0.7,0
Sprite,Foreground,Centre,"sb/ring.png",341,105 S,19,131982,133482,0.125,0.55 F,6,131982,133482,0.7,0
Sprite,Foreground,Centre,"sb/ring.png",555,286 S,19,143982,144482,0.125,0.55 F,6,143982,144482,0.7,0
Sprite,Foreground,Centre,"sb/ring.png",440,250 S,19,144432,144932,0.125,0.55 F,6,144432,144932,0.7,0
Sprite,Foreground,Centre,"sb/ring.png",325,214 S,19,144882,145382,0.125,0.55 F,6,144882,145382,0.7,0
Sprite,Foreground,Centre,"sb/ring.png",222,219 S,19,145332,145832,0.125,0.55 F,6,145332,145832,0.7,0
Sprite,Foreground,Centre,"sb/ring.png",184,367 S,19,145782,146282,0.125,0.55 F,6,145782,146282,0.7,0
Sprite,Foreground,Centre,"sb/ring.png",68,184 S,19,146382,146882,0.125,0.55 F,6,146382,146882,0.7,0
Sprite,Foreground,Centre,"sb/ring.png",183,148 S,19,146832,147332,0.125,0.55 F,6,146832,147332,0.7,0
Sprite,Foreground,Centre,"sb/ring.png",298,112 S,19,147282,147782,0.125,0.55 F,6,147282,147782,0.7,0
Sprite,Foreground,Centre,"sb/ring.png",401,117 S,19,147732,148232,0.125,0.55 F,6,147732,148232,0.7,0
Sprite,Foreground,Centre,"sb/ring.png",423,268 S,19,148182,148682,0.125,0.55 F,6,148182,148682,0.7,0
Sprite,Foreground,Centre,"sb/ring.png",293,202 S,19,153582,154082,0.125,0.55 F,6,153582,154082,0.7,0
Sprite,Foreground,Centre,"sb/ring.png",372,77 S,19,154032,154532,0.125,0.55 F,6,154032,154532,0.7,0
Sprite,Foreground,Centre,"sb/ring.png",451,202 S,19,154482,154982,0.125,0.55 F,6,154482,154982,0.7,0
Sprite,Foreground,Centre,"sb/ring.png",549,100 S,19,154932,155432,0.125,0.55 F,6,154932,155432,0.7,0
Sprite,Foreground,Centre,"sb/ring.png",323,305 S,19,155982,156482,0.125,0.55 F,6,155982,156482,0.7,0
Sprite,Foreground,Centre,"sb/ring.png",244,430 S,19,156432,156932,0.125,0.55 F,6,156432,156932,0.7,0
Sprite,Foreground,Centre,"sb/ring.png",165,305 S,19,156882,157382,0.125,0.55 F,6,156882,157382,0.7,0
Sprite,Foreground,Centre,"sb/ring.png",67,407 S,19,157332,157832,0.125,0.55 F,6,157332,157832,0.7,0
Sprite,Foreground,Centre,"sb/ring.png",125,167 S,19,194382,194882,0.125,0.55 F,6,194382,194882,0.7,0
Sprite,Foreground,Centre,"sb/ring.png",125,167 S,19,194532,195032,0.125,0.55 F,6,194532,195032,0.7,0
Sprite,Foreground,Centre,"sb/ring.png",229,211 S,19,194832,195332,0.125,0.55 F,6,194832,195332,0.7,0
Sprite,Foreground,Centre,"sb/ring.png",229,211 S,19,194982,195482,0.125,0.55 F,6,194982,195482,0.7,0
Sprite,Foreground,Centre,"sb/ring.png",296,127 S,19,195282,195782,0.125,0.55 F,6,195282,195782,0.7,0
Sprite,Foreground,Centre,"sb/ring.png",296,127 S,19,195432,195932,0.125,0.55 F,6,195432,195932,0.7,0
Sprite,Foreground,Centre,"sb/ring.png",400,171 S,19,195732,196232,0.125,0.55 F,6,195732,196232,0.7,0
Sprite,Foreground,Centre,"sb/ring.png",400,171 S,19,195882,196382,0.125,0.55 F,6,195882,196382,0.7,0
Sprite,Foreground,Centre,"sb/ring.png",466,234 S,19,196182,196682,0.125,0.55 F,6,196182,196682,0.7,0
Sprite,Foreground,Centre,"sb/ring.png",554,277 S,19,203982,204482,0.125,0.55 F,6,203982,204482,0.7,0
Sprite,Foreground,Centre,"sb/ring.png",554,277 S,19,204132,204632,0.125,0.55 F,6,204132,204632,0.7,0
Sprite,Foreground,Centre,"sb/ring.png",489,353 S,19,204432,204932,0.125,0.55 F,6,204432,204932,0.7,0
Sprite,Foreground,Centre,"sb/ring.png",489,353 S,19,204582,205082,0.125,0.55 F,6,204582,205082,0.7,0
Sprite,Foreground,Centre,"sb/ring.png",390,323 S,19,204882,205382,0.125,0.55 F,6,204882,205382,0.7,0
Sprite,Foreground,Centre,"sb/ring.png",390,323 S,19,205032,205532,0.125,0.55 F,6,205032,205532,0.7,0
Sprite,Foreground,Centre,"sb/ring.png",325,399 S,19,205332,205832,0.125,0.55 F,6,205332,205832,0.7,0
Sprite,Foreground,Centre,"sb/ring.png",325,399 S,19,205482,205982,0.125,0.55 F,6,205482,205982,0.7,0
Sprite,Foreground,Centre,"sb/ring.png",218,381 S,19,205782,206282,0.125,0.55 F,6,205782,206282,0.7,0
Sprite,Foreground,Centre,"sb/ring.png",106,195 S,19,206382,206882,0.125,0.55 F,6,206382,206882,0.7,0
Sprite,Foreground,Centre,"sb/ring.png",331,219 S,19,223182,223682,0.125,0.55 F,6,223182,223682,0.7,0
Sprite,Foreground,Centre,"sb/ring.png",331,219 S,19,223332,223832,0.125,0.55 F,6,223332,223832,0.7,0
Sprite,Foreground,Centre,"sb/ring.png",234,184 S,19,223632,224132,0.125,0.55 F,6,223632,224132,0.7,0
Sprite,Foreground,Centre,"sb/ring.png",234,184 S,19,223782,224282,0.125,0.55 F,6,223782,224282,0.7,0
Sprite,Foreground,Centre,"sb/ring.png",197,288 S,19,224082,224582,0.125,0.55 F,6,224082,224582,0.7,0
Sprite,Foreground,Centre,"sb/ring.png",197,288 S,19,224232,224732,0.125,0.55 F,6,224232,224732,0.7,0
Sprite,Foreground,Centre,"sb/ring.png",100,253 S,19,224532,225032,0.125,0.55 F,6,224532,225032,0.7,0
Sprite,Foreground,Centre,"sb/ring.png",100,253 S,19,224682,225182,0.125,0.55 F,6,224682,225182,0.7,0
Sprite,Foreground,Centre,"sb/ring.png",80,359 S,19,224982,225482,0.125,0.55 F,6,224982,225482,0.7,0
Sprite,Foreground,Centre,"sb/ring.png",318,420 S,19,225582,226082,0.125,0.55 F,6,225582,226082,0.7,0
Sprite,Foreground,Centre,"sb/ring.png",270,146 S,19,244782,246282,0.125,0.55 F,6,244782,246282,0.7,0
Sprite,Foreground,Centre,"sb/d.png",0,0 M,4,187182,187782,183,359,250,454 F,0,187182,187782,1,0 S,0,187182,187782,0.7,0.28 P,0,187182,187782,A
Sprite,Foreground,Centre,"sb/d.png",0,0 M,4,187182,187782,183,359,263,376 F,0,187182,187782,1,0 S,0,187182,187782,0.7,0.28 P,0,187182,187782,A
Sprite,Foreground,Centre,"sb/d.png",0,0 M,4,187182,187782,183,359,94,376 F,0,187182,187782,1,0 S,0,187182,187782,0.7,0.28 P,0,187182,187782,A
Sprite,Foreground,Centre,"sb/d.png",0,0 M,4,187182,187782,183,359,304,341 F,0,187182,187782,1,0 S,0,187182,187782,0.7,0.28 P,0,187182,187782,A
Sprite,Foreground,Centre,"sb/d.png",0,0 M,4,187182,187782,183,359,326,291 F,0,187182,187782,1,0 S,0,187182,187782,0.7,0.28 P,0,187182,187782,A
Sprite,Foreground,Centre,"sb/d.png",0,0 M,4,187182,187782,183,359,120,349 F,0,187182,187782,1,0 S,0,187182,187782,0.7,0.28 P,0,187182,187782,A
Sprite,Foreground,Centre,"sb/d.png",0,0 M,4,187182,187782,183,359,222,349 F,0,187182,187782,1,0 S,0,187182,187782,0.7,0.28 P,0,187182,187782,A
Sprite,Foreground,Centre,"sb/d.png",0,0 M,4,187632,188232,319,325,463,184 F,0,187632,188232,1,0 S,0,187632,188232,0.7,0.28 P,0,187632,188232,A
Sprite,Foreground,Centre,"sb/d.png",0,0 M,4,187632,188232,319,325,427,473 F,0,187632,188232,1,0 S,0,187632,188232,0.7,0.28 P,0,187632,188232,A
Sprite,Foreground,Centre,"sb/d.png",0,0 M,4,187632,188232,319,325,372,269 F,0,187632,188232,1,0 S,0,187632,188232,0.7,0.28 P,0,187632,188232,A
Sprite,Foreground,Centre,"sb/d.png",0,0 M,4,187632,188232,319,325,414,429 F,0,187632,188232,1,0 S,0,187632,188232,0.7,0.28 P,0,187632,188232,A
Sprite,Foreground,Centre,"sb/d.png",0,0 M,4,187632,188232,319,325,466,184 F,0,187632,188232,1,0 S,0,187632,188232,0.7,0.28 P,0,187632,188232,A
Sprite,Foreground,Centre,"sb/d.png",0,0 M,4,187632,188232,319,325,378,332 F,0,187632,188232,1,0 S,0,187632,188232,0.7,0.28 P,0,187632,188232,A
Sprite,Foreground,Centre,"sb/d.png",0,0 M,4,187632,188232,319,325,449,381 F,0,187632,188232,1,0 S,0,187632,188232,0.7,0.28 P,0,187632,188232,A
Sprite,Foreground,Centre,"sb/d.png",0,0 M,4,187782,188382,371,336,385,210 F,0,187782,188382,1,0 S,0,187782,188382,0.7,0.28 P,0,187782,188382,A
Sprite,Foreground,Centre,"sb/d.png",0,0 M,4,187782,188382,371,336,277,321 F,0,187782,188382,1,0 S,0,187782,188382,0.7,0.28 P,0,187782,188382,A
Sprite,Foreground,Centre,"sb/d.png",0,0 M,4,187782,188382,371,336,310,482 F,0,187782,188382,1,0 S,0,187782,188382,0.7,0.28 P,0,187782,188382,A
Sprite,Foreground,Centre,"sb/d.png",0,0 M,4,187782,188382,371,336,413,414 F,0,187782,188382,1,0 S,0,187782,188382,0.7,0.28 P,0,187782,188382,A
Sprite,Foreground,Centre,"sb/d.png",0,0 M,4,187782,188382,371,336,230,300 F,0,187782,188382,1,0 S,0,187782,188382,0.7,0.28 P,0,187782,188382,A
Sprite,Foreground,Centre,"sb/d.png",0,0 M,4,187782,188382,371,336,323,473 F,0,187782,188382,1,0 S,0,187782,188382,0.7,0.28 P,0,187782,188382,A
Sprite,Foreground,Centre,"sb/d.png",0,0 M,4,187782,188382,371,336,372,400 F,0,187782,188382,1,0 S,0,187782,188382,0.7,0.28 P,0,187782,188382,A
Sprite,Foreground,Centre,"sb/d.png",0,0 M,4,188082,188682,464,389,349,321 F,0,188082,188682,1,0 S,0,188082,188682,0.7,0.28 P,0,188082,188682,A
Sprite,Foreground,Centre,"sb/d.png",0,0 M,4,188082,188682,464,389,586,477 F,0,188082,188682,1,0 S,0,188082,188682,0.7,0.28 P,0,188082,188682,A
Sprite,Foreground,Centre,"sb/d.png",0,0 M,4,188082,188682,464,389,415,376 F,0,188082,188682,1,0 S,0,188082,188682,0.7,0.28 P,0,188082,188682,A
Sprite,Foreground,Centre,"sb/d.png",0,0 M,4,188082,188682,464,389,358,305 F,0,188082,188682,1,0 S,0,188082,188682,0.7,0.28 P,0,188082,188682,A
Sprite,Foreground,Centre,"sb/d.png",0,0 M,4,188082,188682,464,389,437,454 F,0,188082,188682,1,0 S,0,188082,188682,0.7,0.28 P,0,188082,188682,A
Sprite,Foreground,Centre,"sb/d.png",0,0 M,4,188082,188682,464,389,499,385 F,0,188082,188682,1,0 S,0,188082,188682,0.7,0.28 P,0,188082,188682,A
Sprite,Foreground,Centre,"sb/d.png",0,0 M,4,188082,188682,464,389,372,502 F,0,188082,188682,1,0 S,0,188082,188682,0.7,0.28 P,0,188082,188682,A
Sprite,Foreground,Centre,"sb/d.png",0,0 M,4,188682,189282,551,225,648,295 F,0,188682,189282,1,0 S,0,188682,189282,0.7,0.28 P,0,188682,189282,A
Sprite,Foreground,Centre,"sb/d.png",0,0 M,4,188682,189282,551,225,658,278 F,0,188682,189282,1,0 S,0,188682,189282,0.7,0.28 P,0,188682,189282,A
Sprite,Foreground,Centre,"sb/d.png",0,0 M,4,188682,189282,551,225,588,140 F,0,188682,189282,1,0 S,0,188682,189282,0.7,0.28 P,0,188682,189282,A
Sprite,Foreground,Centre,"sb/d.png",0,0 M,4,188682,189282,551,225,669,343 F,0,188682,189282,1,0 S,0,188682,189282,0.7,0.28 P,0,188682,189282,A
Sprite,Foreground,Centre,"sb/d.png",0,0 M,4,188682,189282,551,225,426,326 F,0,188682,189282,1,0 S,0,188682,189282,0.7,0.28 P,0,188682,189282,A
Sprite,Foreground,Centre,"sb/d.png",0,0 M,4,188682,189282,551,225,452,268 F,0,188682,189282,1,0 S,0,188682,189282,0.7,0.28 P,0,188682,189282,A
Sprite,Foreground,Centre,"sb/d.png",0,0 M,4,188682,189282,551,225,649,140 F,0,188682,189282,1,0 S,0,188682,189282,0.7,0.28 P,0,188682,189282,A
Sprite,Foreground,Centre,"sb/d.png",0,0 M,4,189132,189732,496,105,645,99 F,0,189132,189732,1,0 S,0,189132,189732,0.7,0.28 P,0,189132,189732,A
Sprite,Foreground,Centre,"sb/d.png",0,0 M,4,189132,189732,496,105,541,170 F,0,189132,189732,1,0 S,0,189132,189732,0.7,0.28 P,0,189132,189732,A
Sprite,Foreground,Centre,"sb/d.png",0,0 M,4,189132,189732,496,105,588,-15 F,0,189132,189732,1,0 S,0,189132,189732,0.7,0.28 P,0,189132,189732,A
Sprite,Foreground,Centre,"sb/d.png",0,0 M,4,189132,189732,496,105,564,170 F,0,189132,189732,1,0 S,0,189132,189732,0.7,0.28 P,0,189132,189732,A
Sprite,Foreground,Centre,"sb/d.png",0,0 M,4,189132,189732,496,105,383,226 F,0,189132,189732,1,0 S,0,189132,189732,0.7,0.28 P,0,189132,189732,A
Sprite,Foreground,Centre,"sb/d.png",0,0 M,4,189132,189732,496,105,402,98 F,0,189132,189732,1,0 S,0,189132,189732,0.7,0.28 P,0,189132,189732,A
Sprite,Foreground,Centre,"sb/d.png",0,0 M,4,189132,189732,496,105,508,52 F,0,189132,189732,1,0 S,0,189132,189732,0.7,0.28 P,0,189132,189732,A
Sprite,Foreground,Centre,"sb/d.png",0,0 M,4,189282,189882,451,75,502,65 F,0,189282,189882,1,0 S,0,189282,189882,0.7,0.28 P,0,189282,189882,A
Sprite,Foreground,Centre,"sb/d.png",0,0 M,4,189282,189882,451,75,551,167 F,0,189282,189882,1,0 S,0,189282,189882,0.7,0.28 P,0,189282,189882,A
Sprite,Foreground,Centre,"sb/d.png",0,0 M,4,189282,189882,451,75,539,154 F,0,189282,189882,1,0 S,0,189282,189882,0.7,0.28 P,0,189282,189882,A
Sprite,Foreground,Centre,"sb/d.png",0,0 M,4,189282,189882,451,75,582,13 F,0,189282,189882,1,0 S,0,189282,189882,0.7,0.28 P,0,189282,189882,A
Sprite,Foreground,Centre,"sb/d.png",0,0 M,4,189282,189882,451,75,457,124 F,0,189282,189882,1,0 S,0,189282,189882,0.7,0.28 P,0,189282,189882,A
Sprite,Foreground,Centre,"sb/d.png",0,0 M,4,189282,189882,451,75,400,11 F,0,189282,189882,1,0 S,0,189282,189882,0.7,0.28 P,0,189282,189882,A
Sprite,Foreground,Centre,"sb/d.png",0,0 M,4,189282,189882,451,75,547,-9 F,0,189282,189882,1,0 S,0,189282,189882,0.7,0.28 P,0,189282,189882,A
Sprite,Foreground,Centre,"sb/d.png",0,0 M,4,189582,190182,351,118,257,-12 F,0,189582,190182,1,0 S,0,189582,190182,0.7,0.28 P,0,189582,190182,A
Sprite,Foreground,Centre,"sb/d.png",0,0 M,4,189582,190182,351,118,388,175 F,0,189582,190182,1,0 S,0,189582,190182,0.7,0.28 P,0,189582,190182,A
Sprite,Foreground,Centre,"sb/d.png",0,0 M,4,189582,190182,351,118,390,246 F,0,189582,190182,1,0 S,0,189582,190182,0.7,0.28 P,0,189582,190182,A
Sprite,Foreground,Centre,"sb/d.png",0,0 M,4,189582,190182,351,118,267,246 F,0,189582,190182,1,0 S,0,189582,190182,0.7,0.28 P,0,189582,190182,A
Sprite,Foreground,Centre,"sb/d.png",0,0 M,4,189582,190182,351,118,220,238 F,0,189582,190182,1,0 S,0,189582,190182,0.7,0.28 P,0,189582,190182,A
Sprite,Foreground,Centre,"sb/d.png",0,0 M,4,189582,190182,351,118,404,-4 F,0,189582,190182,1,0 S,0,189582,190182,0.7,0.28 P,0,189582,190182,A
Sprite,Foreground,Centre,"sb/d.png",0,0 M,4,189582,190182,351,118,245,0 F,0,189582,190182,1,0 S,0,189582,190182,0.7,0.28 P,0,189582,190182,A
Sprite,Foreground,Centre,"sb/d.png",0,0 M,4,189882,190482,254,84,286,219 F,0,189882,190482,1,0 S,0,189882,190482,0.7,0.28 P,0,189882,190482,A
Sprite,Foreground,Centre,"sb/d.png",0,0 M,4,189882,190482,254,84,251,-22 F,0,189882,190482,1,0 S,0,189882,190482,0.7,0.28 P,0,189882,190482,A
Sprite,Foreground,Centre,"sb/d.png",0,0 M,4,189882,190482,254,84,307,104 F,0,189882,190482,1,0 S,0,189882,190482,0.7,0.28 P,0,189882,190482,A
Sprite,Foreground,Centre,"sb/d.png",0,0 M,4,189882,190482,254,84,171,119 F,0,189882,190482,1,0 S,0,189882,190482,0.7,0.28 P,0,189882,190482,A
Sprite,Foreground,Centre,"sb/d.png",0,0 M,4,189882,190482,254,84,105,42 F,0,189882,190482,1,0 S,0,189882,190482,0.7,0.28 P,0,189882,190482,A
Sprite,Foreground,Centre,"sb/d.png",0,0 M,4,189882,190482,254,84,359,-48 F,0,189882,190482,1,0 S,0,189882,190482,0.7,0.28 P,0,189882,190482,A
Sprite,Foreground,Centre,"sb/d.png",0,0 M,4,189882,190482,254,84,188,145 F,0,189882,190482,1,0 S,0,189882,190482,0.7,0.28 P,0,189882,190482,A
Sprite,Foreground,Centre,"sb/d.png",0,0 M,4,190032,190632,254,84,391,230 F,0,190032,190632,1,0 S,0,190032,190632,0.7,0.28 P,0,190032,190632,A
Sprite,Foreground,Centre,"sb/d.png",0,0 M,4,190032,190632,254,84,220,90 F,0,190032,190632,1,0 S,0,190032,190632,0.7,0.28 P,0,190032,190632,A
Sprite,Foreground,Centre,"sb/d.png",0,0 M,4,190032,190632,254,84,188,85 F,0,190032,190632,1,0 S,0,190032,190632,0.7,0.28 P,0,190032,190632,A
Sprite,Foreground,Centre,"sb/d.png",0,0 M,4,190032,190632,254,84,263,-49 F,0,190032,190632,1,0 S,0,190032,190632,0.7,0.28 P,0,190032,190632,A
Sprite,Foreground,Centre,"sb/d.png",0,0 M,4,190032,190632,254,84,188,82 F,0,190032,190632,1,0 S,0,190032,190632,0.7,0.28 P,0,190032,190632,A
Sprite,Foreground,Centre,"sb/d.png",0,0 M,4,190032,190632,254,84,357,117 F,0,190032,190632,1,0 S,0,190032,190632,0.7,0.28 P,0,190032,190632,A
Sprite,Foreground,Centre,"sb/d.png",0,0 M,4,190032,190632,254,84,135,156 F,0,190032,190632,1,0 S,0,190032,190632,0.7,0.28 P,0,190032,190632,A
Sprite,Foreground,Centre,"sb/d.png",0,0 M,4,190482,191082,141,167,111,297 F,0,190482,191082,1,0 S,0,190482,191082,0.7,0.28 P,0,190482,191082,A
Sprite,Foreground,Centre,"sb/d.png",0,0 M,4,190482,191082,141,167,30,226 F,0,190482,191082,1,0 S,0,190482,191082,0.7,0.28 P,0,190482,191082,A
Sprite,Foreground,Centre,"sb/d.png",0,0 M,4,190482,191082,141,167,175,266 F,0,190482,191082,1,0 S,0,190482,191082,0.7,0.28 P,0,190482,191082,A
Sprite,Foreground,Centre,"sb/d.png",0,0 M,4,190482,191082,141,167,196,187 F,0,190482,191082,1,0 S,0,190482,191082,0.7,0.28 P,0,190482,191082,A
Sprite,Foreground,Centre,"sb/d.png",0,0 M,4,190482,191082,141,167,42,72 F,0,190482,191082,1,0 S,0,190482,191082,0.7,0.28 P,0,190482,191082,A
Sprite,Foreground,Centre,"sb/d.png",0,0 M,4,190482,191082,141,167,173,92 F,0,190482,191082,1,0 S,0,190482,191082,0.7,0.28 P,0,190482,191082,A
Sprite,Foreground,Centre,"sb/d.png",0,0 M,4,190482,191082,141,167,290,187 F,0,190482,191082,1,0 S,0,190482,191082,0.7,0.28 P,0,190482,191082,A
Sprite,Foreground,Centre,"sb/d.png",0,0 M,4,191082,191682,247,329,116,258 F,0,191082,191682,1,0 S,0,191082,191682,0.7,0.28 P,0,191082,191682,A
Sprite,Foreground,Centre,"sb/d.png",0,0 M,4,191082,191682,247,329,349,349 F,0,191082,191682,1,0 S,0,191082,191682,0.7,0.28 P,0,191082,191682,A
Sprite,Foreground,Centre,"sb/d.png",0,0 M,4,191082,191682,247,329,290,333 F,0,191082,191682,1,0 S,0,191082,191682,0.7,0.28 P,0,191082,191682,A
Sprite,Foreground,Centre,"sb/d.png",0,0 M,4,191082,191682,247,329,388,202 F,0,191082,191682,1,0 S,0,191082,191682,0.7,0.28 P,0,191082,191682,A
Sprite,Foreground,Centre,"sb/d.png",0,0 M,4,191082,191682,247,329,250,225 F,0,191082,191682,1,0 S,0,191082,191682,0.7,0.28 P,0,191082,191682,A
Sprite,Foreground,Centre,"sb/d.png",0,0 M,4,191082,191682,247,329,341,371 F,0,191082,191682,1,0 S,0,191082,191682,0.7,0.28 P,0,191082,191682,A
Sprite,Foreground,Centre,"sb/d.png",0,0 M,4,191082,191682,247,329,269,344 F,0,191082,191682,1,0 S,0,191082,191682,0.7,0.28 P,0,191082,191682,A
Sprite,Foreground,Centre,"sb/d.png",0,0 M,4,191382,191982,326,255,377,403 F,0,191382,191982,1,0 S,0,191382,191982,0.7,0.28 P,0,191382,191982,A
Sprite,Foreground,Centre,"sb/d.png",0,0 M,4,191382,191982,326,255,266,124 F,0,191382,191982,1,0 S,0,191382,191982,0.7,0.28 P,0,191382,191982,A
Sprite,Foreground,Centre,"sb/d.png",0,0 M,4,191382,191982,326,255,315,249 F,0,191382,191982,1,0 S,0,191382,191982,0.7,0.28 P,0,191382,191982,A
Sprite,Foreground,Centre,"sb/d.png",0,0 M,4,191382,191982,326,255,240,126 F,0,191382,191982,1,0 S,0,191382,191982,0.7,0.28 P,0,191382,191982,A
Sprite,Foreground,Centre,"sb/d.png",0,0 M,4,191382,191982,326,255,245,150 F,0,191382,191982,1,0 S,0,191382,191982,0.7,0.28 P,0,191382,191982,A
Sprite,Foreground,Centre,"sb/d.png",0,0 M,4,191382,191982,326,255,310,240 F,0,191382,191982,1,0 S,0,191382,191982,0.7,0.28 P,0,191382,191982,A
Sprite,Foreground,Centre,"sb/d.png",0,0 M,4,191382,191982,326,255,181,221 F,0,191382,191982,1,0 S,0,191382,191982,0.7,0.28 P,0,191382,191982,A
Sprite,Foreground,Centre,"sb/d.png",0,0 M,4,191682,192282,418,233,512,143 F,0,191682,192282,1,0 S,0,191682,192282,0.7,0.28 P,0,191682,192282,A
Sprite,Foreground,Centre,"sb/d.png",0,0 M,4,191682,192282,418,233,542,91 F,0,191682,192282,1,0 S,0,191682,192282,0.7,0.28 P,0,191682,192282,A
Sprite,Foreground,Centre,"sb/d.png",0,0 M,4,191682,192282,418,233,420,371 F,0,191682,192282,1,0 S,0,191682,192282,0.7,0.28 P,0,191682,192282,A
Sprite,Foreground,Centre,"sb/d.png",0,0 M,4,191682,192282,418,233,566,88 F,0,191682,192282,1,0 S,0,191682,192282,0.7,0.28 P,0,191682,192282,A
Sprite,Foreground,Centre,"sb/d.png",0,0 M,4,191682,192282,418,233,464,166 F,0,191682,192282,1,0 S,0,191682,192282,0.7,0.28 P,0,191682,192282,A
Sprite,Foreground,Centre,"sb/d.png",0,0 M,4,191682,192282,418,233,558,259 F,0,191682,192282,1,0 S,0,191682,192282,0.7,0.28 P,0,191682,192282,A
Sprite,Foreground,Centre,"sb/d.png",0,0 M,4,191682,192282,418,233,499,180 F,0,191682,192282,1,0 S,0,191682,192282,0.7,0.28 P,0,191682,192282,A
Sprite,Foreground,Centre,"sb/d.png",0,0 M,4,191982,192582,512,250,488,392 F,0,191982,192582,1,0 S,0,191982,192582,0.7,0.28 P,0,191982,192582,A
Sprite,Foreground,Centre,"sb/d.png",0,0 M,4,191982,192582,512,250,627,391 F,0,191982,192582,1,0 S,0,191982,192582,0.7,0.28 P,0,191982,192582,A
Sprite,Foreground,Centre,"sb/d.png",0,0 M,4,191982,192582,512,250,438,139 F,0,191982,192582,1,0 S,0,191982,192582,0.7,0.28 P,0,191982,192582,A
Sprite,Foreground,Centre,"sb/d.png",0,0 M,4,191982,192582,512,250,631,153 F,0,191982,192582,1,0 S,0,191982,192582,0.7,0.28 P,0,191982,192582,A
Sprite,Foreground,Centre,"sb/d.png",0,0 M,4,191982,192582,512,250,626,263 F,0,191982,192582,1,0 S,0,191982,192582,0.7,0.28 P,0,191982,192582,A
Sprite,Foreground,Centre,"sb/d.png",0,0 M,4,191982,192582,512,250,597,254 F,0,191982,192582,1,0 S,0,191982,192582,0.7,0.28 P,0,191982,192582,A
Sprite,Foreground,Centre,"sb/d.png",0,0 M,4,191982,192582,512,250,467,397 F,0,191982,192582,1,0 S,0,191982,192582,0.7,0.28 P,0,191982,192582,A
Sprite,Foreground,Centre,"sb/d.png",0,0 M,4,192432,193032,507,362,367,419 F,0,192432,193032,1,0 S,0,192432,193032,0.7,0.28 P,0,192432,193032,A
Sprite,Foreground,Centre,"sb/d.png",0,0 M,4,192432,193032,507,362,393,270 F,0,192432,193032,1,0 S,0,192432,193032,0.7,0.28 P,0,192432,193032,A
Sprite,Foreground,Centre,"sb/d.png",0,0 M,4,192432,193032,507,362,505,386 F,0,192432,193032,1,0 S,0,192432,193032,0.7,0.28 P,0,192432,193032,A
Sprite,Foreground,Centre,"sb/d.png",0,0 M,4,192432,193032,507,362,435,305 F,0,192432,193032,1,0 S,0,192432,193032,0.7,0.28 P,0,192432,193032,A
Sprite,Foreground,Centre,"sb/d.png",0,0 M,4,192432,193032,507,362,429,447 F,0,192432,193032,1,0 S,0,192432,193032,0.7,0.28 P,0,192432,193032,A
Sprite,Foreground,Centre,"sb/d.png",0,0 M,4,192432,193032,507,362,396,395 F,0,192432,193032,1,0 S,0,192432,193032,0.7,0.28 P,0,192432,193032,A
Sprite,Foreground,Centre,"sb/d.png",0,0 M,4,192432,193032,507,362,524,408 F,0,192432,193032,1,0 S,0,192432,193032,0.7,0.28 P,0,192432,193032,A
Sprite,Foreground,Centre,"sb/d.png",0,0 M,4,192882,193482,406,418,358,274 F,0,192882,193482,1,0 S,0,192882,193482,0.7,0.28 P,0,192882,193482,A
Sprite,Foreground,Centre,"sb/d.png",0,0 M,4,192882,193482,406,418,285,531 F,0,192882,193482,1,0 S,0,192882,193482,0.7,0.28 P,0,192882,193482,A
Sprite,Foreground,Centre,"sb/d.png",0,0 M,4,192882,193482,406,418,469,535 F,0,192882,193482,1,0 S,0,192882,193482,0.7,0.28 P,0,192882,193482,A
Sprite,Foreground,Centre,"sb/d.png",0,0 M,4,192882,193482,406,418,451,344 F,0,192882,193482,1,0 S,0,192882,193482,0.7,0.28 P,0,192882,193482,A
Sprite,Foreground,Centre,"sb/d.png",0,0 M,4,192882,193482,406,418,335,410 F,0,192882,193482,1,0 S,0,192882,193482,0.7,0.28 P,0,192882,193482,A
Sprite,Foreground,Centre,"sb/d.png",0,0 M,4,192882,193482,406,418,314,534 F,0,192882,193482,1,0 S,0,192882,193482,0.7,0.28 P,0,192882,193482,A
Sprite,Foreground,Centre,"sb/d.png",0,0 M,4,192882,193482,406,418,403,459 F,0,192882,193482,1,0 S,0,192882,193482,0.7,0.28 P,0,192882,193482,A
Sprite,Foreground,Centre,"sb/d.png",0,0 M,4,193182,193782,304,381,249,341 F,0,193182,193782,1,0 S,0,193182,193782,0.7,0.28 P,0,193182,193782,A
Sprite,Foreground,Centre,"sb/d.png",0,0 M,4,193182,193782,304,381,227,529 F,0,193182,193782,1,0 S,0,193182,193782,0.7,0.28 P,0,193182,193782,A
Sprite,Foreground,Centre,"sb/d.png",0,0 M,4,193182,193782,304,381,337,231 F,0,193182,193782,1,0 S,0,193182,193782,0.7,0.28 P,0,193182,193782,A
Sprite,Foreground,Centre,"sb/d.png",0,0 M,4,193182,193782,304,381,449,519 F,0,193182,193782,1,0 S,0,193182,193782,0.7,0.28 P,0,193182,193782,A
Sprite,Foreground,Centre,"sb/d.png",0,0 M,4,193182,193782,304,381,201,462 F,0,193182,193782,1,0 S,0,193182,193782,0.7,0.28 P,0,193182,193782,A
Sprite,Foreground,Centre,"sb/d.png",0,0 M,4,193182,193782,304,381,181,288 F,0,193182,193782,1,0 S,0,193182,193782,0.7,0.28 P,0,193182,193782,A
Sprite,Foreground,Centre,"sb/d.png",0,0 M,4,193182,193782,304,381,172,264 F,0,193182,193782,1,0 S,0,193182,193782,0.7,0.28 P,0,193182,193782,A
Sprite,Foreground,Centre,"sb/d.png",0,0 M,4,193782,194382,110,355,179,235 F,0,193782,194382,1,0 S,0,193782,194382,0.7,0.28 P,0,193782,194382,A
Sprite,Foreground,Centre,"sb/d.png",0,0 M,4,193782,194382,110,355,211,397 F,0,193782,194382,1,0 S,0,193782,194382,0.7,0.28 P,0,193782,194382,A
Sprite,Foreground,Centre,"sb/d.png",0,0 M,4,193782,194382,110,355,131,277 F,0,193782,194382,1,0 S,0,193782,194382,0.7,0.28 P,0,193782,194382,A
Sprite,Foreground,Centre,"sb/d.png",0,0 M,4,193782,194382,110,355,211,462 F,0,193782,194382,1,0 S,0,193782,194382,0.7,0.28 P,0,193782,194382,A
Sprite,Foreground,Centre,"sb/d.png",0,0 M,4,193782,194382,110,355,94,477 F,0,193782,194382,1,0 S,0,193782,194382,0.7,0.28 P,0,193782,194382,A
Sprite,Foreground,Centre,"sb/d.png",0,0 M,4,193782,194382,110,355,200,343 F,0,193782,194382,1,0 S,0,193782,194382,0.7,0.28 P,0,193782,194382,A
Sprite,Foreground,Centre,"sb/d.png",0,0 M,4,193782,194382,110,355,62,438 F,0,193782,194382,1,0 S,0,193782,194382,0.7,0.28 P,0,193782,194382,A
Sprite,Foreground,Centre,"sb/d.png",0,0 M,4,194382,194982,125,167,103,211 F,0,194382,194982,1,0 S,0,194382,194982,0.7,0.28 P,0,194382,194982,A
Sprite,Foreground,Centre,"sb/d.png",0,0 M,4,194382,194982,125,167,274,199 F,0,194382,194982,1,0 S,0,194382,194982,0.7,0.28 P,0,194382,194982,A
Sprite,Foreground,Centre,"sb/d.png",0,0 M,4,194382,194982,125,167,1,204 F,0,194382,194982,1,0 S,0,194382,194982,0.7,0.28 P,0,194382,194982,A
Sprite,Foreground,Centre,"sb/d.png",0,0 M,4,194382,194982,125,167,272,278 F,0,194382,194982,1,0 S,0,194382,194982,0.7,0.28 P,0,194382,194982,A
Sprite,Foreground,Centre,"sb/d.png",0,0 M,4,194382,194982,125,167,136,58 F,0,194382,194982,1,0 S,0,194382,194982,0.7,0.28 P,0,194382,194982,A
Sprite,Foreground,Centre,"sb/d.png",0,0 M,4,194382,194982,125,167,-25,184 F,0,194382,194982,1,0 S,0,194382,194982,0.7,0.28 P,0,194382,194982,A
Sprite,Foreground,Centre,"sb/d.png",0,0 M,4,194382,194982,125,167,176,130 F,0,194382,194982,1,0 S,0,194382,194982,0.7,0.28 P,0,194382,194982,A
Sprite,Foreground,Centre,"sb/d.png",0,0 M,4,194532,195132,125,167,234,114 F,0,194532,195132,1,0 S,0,194532,195132,0.7,0.28 P,0,194532,195132,A
Sprite,Foreground,Centre,"sb/d.png",0,0 M,4,194532,195132,125,167,210,172 F,0,194532,195132,1,0 S,0,194532,195132,0.7,0.28 P,0,194532,195132,A
Sprite,Foreground,Centre,"sb/d.png",0,0 M,4,194532,195132,125,167,223,179 F,0,194532,195132,1,0 S,0,194532,195132,0.7,0.28 P,0,194532,195132,A
Sprite,Foreground,Centre,"sb/d.png",0,0 M,4,194532,195132,125,167,131,65 F,0,194532,195132,1,0 S,0,194532,195132,0.7,0.28 P,0,194532,195132,A
Sprite,Foreground,Centre,"sb/d.png",0,0 M,4,194532,195132,125,167,165,182 F,0,194532,195132,1,0 S,0,194532,195132,0.7,0.28 P,0,194532,195132,A
Sprite,Foreground,Centre,"sb/d.png",0,0 M,4,194532,195132,125,167,69,91 F,0,194532,195132,1,0 S,0,194532,195132,0.7,0.28 P,0,194532,195132,A
Sprite,Foreground,Centre,"sb/d.png",0,0 M,4,194532,195132,125,167,215,155 F,0,194532,195132,1,0 S,0,194532,195132,0.7,0.28 P,0,194532,195132,A
Sprite,Foreground,Centre,"sb/d.png",0,0 M,4,194832,195432,229,211,355,162 F,0,194832,195432,1,0 S,0,194832,195432,0.7,0.28 P,0,194832,195432,A
Sprite,Foreground,Centre,"sb/d.png",0,0 M,4,194832,195432,229,211,136,106 F,0,194832,195432,1,0 S,0,194832,195432,0.7,0.28 P,0,194832,195432,A
Sprite,Foreground,Centre,"sb/d.png",0,0 M,4,194832,195432,229,211,277,122 F,0,194832,195432,1,0 S,0,194832,195432,0.7,0.28 P,0,194832,195432,A
Sprite,Foreground,Centre,"sb/d.png",0,0 M,4,194832,195432,229,211,239,213 F,0,194832,195432,1,0 S,0,194832,195432,0.7,0.28 P,0,194832,195432,A
Sprite,Foreground,Centre,"sb/d.png",0,0 M,4,194832,195432,229,211,310,205 F,0,194832,195432,1,0 S,0,194832,195432,0.7,0.28 P,0,194832,195432,A
Sprite,Foreground,Centre,"sb/d.png",0,0 M,4,194832,195432,229,211,109,192 F,0,194832,195432,1,0 S,0,194832,195432,0.7,0.28 P,0,194832,195432,A
Sprite,Foreground,Centre,"sb/d.png",0,0 M,4,194832,195432,229,211,114,318 F,0,194832,195432,1,0 S,0,194832,195432,0.7,0.28 P,0,194832,195432,A
Sprite,Foreground,Centre,"sb/d.png",0,0 M,4,194982,195582,229,211,247,271 F,0,194982,195582,1,0 S,0,194982,195582,0.7,0.28 P,0,194982,195582,A
Sprite,Foreground,Centre,"sb/d.png",0,0 M,4,194982,195582,229,211,271,65 F,0,194982,195582,1,0 S,0,194982,195582,0.7,0.28 P,0,194982,195582,A
Sprite,Foreground,Centre,"sb/d.png",0,0 M,4,194982,195582,229,211,249,198 F,0,194982,195582,1,0 S,0,194982,195582,0.7,0.28 P,0,194982,195582,A
Sprite,Foreground,Centre,"sb/d.png",0,0 M,4,194982,195582,229,211,377,97 F,0,194982,195582,1,0 S,0,194982,195582,0.7,0.28 P,0,194982,195582,A
Sprite,Foreground,Centre,"sb/d.png",0,0 M,4,194982,195582,229,211,115,145 F,0,194982,195582,1,0 S,0,194982,195582,0.7,0.28 P,0,194982,195582,A
Sprite,Foreground,Centre,"sb/d.png",0,0 M,4,194982,195582,229,211,268,300 F,0,194982,195582,1,0 S,0,194982,195582,0.7,0.28 P,0,194982,195582,A
Sprite,Foreground,Centre,"sb/d.png",0,0 M,4,194982,195582,229,211,155,140 F,0,194982,195582,1,0 S,0,194982,195582,0.7,0.28 P,0,194982,195582,A
Sprite,Foreground,Centre,"sb/d.png",0,0 M,4,195282,195882,296,127,149,110 F,0,195282,195882,1,0 S,0,195282,195882,0.7,0.28 P,0,195282,195882,A
Sprite,Foreground,Centre,"sb/d.png",0,0 M,4,195282,195882,296,127,234,228 F,0,195282,195882,1,0 S,0,195282,195882,0.7,0.28 P,0,195282,195882,A
Sprite,Foreground,Centre,"sb/d.png",0,0 M,4,195282,195882,296,127,392,136 F,0,195282,195882,1,0 S,0,195282,195882,0.7,0.28 P,0,195282,195882,A
Sprite,Foreground,Centre,"sb/d.png",0,0 M,4,195282,195882,296,127,431,37 F,0,195282,195882,1,0 S,0,195282,195882,0.7,0.28 P,0,195282,195882,A
Sprite,Foreground,Centre,"sb/d.png",0,0 M,4,195282,195882,296,127,429,232 F,0,195282,195882,1,0 S,0,195282,195882,0.7,0.28 P,0,195282,195882,A
Sprite,Foreground,Centre,"sb/d.png",0,0 M,4,195282,195882,296,127,414,117 F,0,195282,195882,1,0 S,0,195282,195882,0.7,0.28 P,0,195282,195882,A
Sprite,Foreground,Centre,"sb/d.png",0,0 M,4,195282,195882,296,127,399,83 F,0,195282,195882,1,0 S,0,195282,195882,0.7,0.28 P,0,195282,195882,A
Sprite,Foreground,Centre,"sb/d.png",0,0 M,4,195432,196032,296,127,311,68 F,0,195432,196032,1,0 S,0,195432,196032,0.7,0.28 P,0,195432,196032,A
Sprite,Foreground,Centre,"sb/d.png",0,0 M,4,195432,196032,296,127,271,94 F,0,195432,196032,1,0 S,0,195432,196032,0.7,0.28 P,0,195432,196032,A
Sprite,Foreground,Centre,"sb/d.png",0,0 M,4,195432,196032,296,127,272,175 F,0,195432,196032,1,0 S,0,195432,196032,0.7,0.28 P,0,195432,196032,A
Sprite,Foreground,Centre,"sb/d.png",0,0 M,4,195432,196032,296,127,326,256 F,0,195432,196032,1,0 S,0,195432,196032,0.7,0.28 P,0,195432,196032,A
Sprite,Foreground,Centre,"sb/d.png",0,0 M,4,195432,196032,296,127,419,66 F,0,195432,196032,1,0 S,0,195432,196032,0.7,0.28 P,0,195432,196032,A
Sprite,Foreground,Centre,"sb/d.png",0,0 M,4,195432,196032,296,127,350,79 F,0,195432,196032,1,0 S,0,195432,196032,0.7,0.28 P,0,195432,196032,A
Sprite,Foreground,Centre,"sb/d.png",0,0 M,4,195432,196032,296,127,286,216 F,0,195432,196032,1,0 S,0,195432,196032,0.7,0.28 P,0,195432,196032,A
Sprite,Foreground,Centre,"sb/d.png",0,0 M,4,195732,196332,400,171,315,293 F,0,195732,196332,1,0 S,0,195732,196332,0.7,0.28 P,0,195732,196332,A
Sprite,Foreground,Centre,"sb/d.png",0,0 M,4,195732,196332,400,171,405,279 F,0,195732,196332,1,0 S,0,195732,196332,0.7,0.28 P,0,195732,196332,A
Sprite,Foreground,Centre,"sb/d.png",0,0 M,4,195732,196332,400,171,534,102 F,0,195732,196332,1,0 S,0,195732,196332,0.7,0.28 P,0,195732,196332,A
Sprite,Foreground,Centre,"sb/d.png",0,0 M,4,195732,196332,400,171,399,119 F,0,195732,196332,1,0 S,0,195732,196332,0.7,0.28 P,0,195732,196332,A
Sprite,Foreground,Centre,"sb/d.png",0,0 M,4,195732,196332,400,171,306,99 F,0,195732,196332,1,0 S,0,195732,196332,0.7,0.28 P,0,195732,196332,A
Sprite,Foreground,Centre,"sb/d.png",0,0 M,4,195732,196332,400,171,434,197 F,0,195732,196332,1,0 S,0,195732,196332,0.7,0.28 P,0,195732,196332,A
Sprite,Foreground,Centre,"sb/d.png",0,0 M,4,195732,196332,400,171,522,129 F,0,195732,196332,1,0 S,0,195732,196332,0.7,0.28 P,0,195732,196332,A
Sprite,Foreground,Centre,"sb/d.png",0,0 M,4,195882,196482,400,171,477,257 F,0,195882,196482,1,0 S,0,195882,196482,0.7,0.28 P,0,195882,196482,A
Sprite,Foreground,Centre,"sb/d.png",0,0 M,4,195882,196482,400,171,285,51 F,0,195882,196482,1,0 S,0,195882,196482,0.7,0.28 P,0,195882,196482,A
Sprite,Foreground,Centre,"sb/d.png",0,0 M,4,195882,196482,400,171,434,212 F,0,195882,196482,1,0 S,0,195882,196482,0.7,0.28 P,0,195882,196482,A
Sprite,Foreground,Centre,"sb/d.png",0,0 M,4,195882,196482,400,171,421,265 F,0,195882,196482,1,0 S,0,195882,196482,0.7,0.28 P,0,195882,196482,A
Sprite,Foreground,Centre,"sb/d.png",0,0 M,4,195882,196482,400,171,509,92 F,0,195882,196482,1,0 S,0,195882,196482,0.7,0.28 P,0,195882,196482,A
Sprite,Foreground,Centre,"sb/d.png",0,0 M,4,195882,196482,400,171,363,198 F,0,195882,196482,1,0 S,0,195882,196482,0.7,0.28 P,0,195882,196482,A
Sprite,Foreground,Centre,"sb/d.png",0,0 M,4,195882,196482,400,171,449,45 F,0,195882,196482,1,0 S,0,195882,196482,0.7,0.28 P,0,195882,196482,A
Sprite,Foreground,Centre,"sb/d.png",0,0 M,4,196182,196782,466,234,475,382 F,0,196182,196782,1,0 S,0,196182,196782,0.7,0.28 P,0,196182,196782,A
Sprite,Foreground,Centre,"sb/d.png",0,0 M,4,196182,196782,466,234,363,228 F,0,196182,196782,1,0 S,0,196182,196782,0.7,0.28 P,0,196182,196782,A
Sprite,Foreground,Centre,"sb/d.png",0,0 M,4,196182,196782,466,234,335,129 F,0,196182,196782,1,0 S,0,196182,196782,0.7,0.28 P,0,196182,196782,A
Sprite,Foreground,Centre,"sb/d.png",0,0 M,4,196182,196782,466,234,611,94 F,0,196182,196782,1,0 S,0,196182,196782,0.7,0.28 P,0,196182,196782,A
Sprite,Foreground,Centre,"sb/d.png",0,0 M,4,196182,196782,466,234,415,94 F,0,196182,196782,1,0 S,0,196182,196782,0.7,0.28 P,0,196182,196782,A
Sprite,Foreground,Centre,"sb/d.png",0,0 M,4,196182,196782,466,234,471,256 F,0,196182,196782,1,0 S,0,196182,196782,0.7,0.28 P,0,196182,196782,A
Sprite,Foreground,Centre,"sb/d.png",0,0 M,4,196182,196782,466,234,573,151 F,0,196182,196782,1,0 S,0,196182,196782,0.7,0.28 P,0,196182,196782,A
Sprite,Foreground,Centre,"sb/d.png",0,0 M,4,196782,197382,562,333,446,230 F,0,196782,197382,1,0 S,0,196782,197382,0.7,0.28 P,0,196782,197382,A
Sprite,Foreground,Centre,"sb/d.png",0,0 M,4,196782,197382,562,333,644,432 F,0,196782,197382,1,0 S,0,196782,197382,0.7,0.28 P,0,196782,197382,A
Sprite,Foreground,Centre,"sb/d.png",0,0 M,4,196782,197382,562,333,638,255 F,0,196782,197382,1,0 S,0,196782,197382,0.7,0.28 P,0,196782,197382,A
Sprite,Foreground,Centre,"sb/d.png",0,0 M,4,196782,197382,562,333,464,220 F,0,196782,197382,1,0 S,0,196782,197382,0.7,0.28 P,0,196782,197382,A
Sprite,Foreground,Centre,"sb/d.png",0,0 M,4,196782,197382,562,333,465,356 F,0,196782,197382,1,0 S,0,196782,197382,0.7,0.28 P,0,196782,197382,A
Sprite,Foreground,Centre,"sb/d.png",0,0 M,4,196782,197382,562,333,630,431 F,0,196782,197382,1,0 S,0,196782,197382,0.7,0.28 P,0,196782,197382,A
Sprite,Foreground,Centre,"sb/d.png",0,0 M,4,196782,197382,562,333,480,303 F,0,196782,197382,1,0 S,0,196782,197382,0.7,0.28 P,0,196782,197382,A
Sprite,Foreground,Centre,"sb/d.png",0,0 M,4,197232,197832,428,373,291,307 F,0,197232,197832,1,0 S,0,197232,197832,0.7,0.28 P,0,197232,197832,A
Sprite,Foreground,Centre,"sb/d.png",0,0 M,4,197232,197832,428,373,423,330 F,0,197232,197832,1,0 S,0,197232,197832,0.7,0.28 P,0,197232,197832,A
Sprite,Foreground,Centre,"sb/d.png",0,0 M,4,197232,197832,428,373,460,347 F,0,197232,197832,1,0 S,0,197232,197832,0.7,0.28 P,0,197232,197832,A
Sprite,Foreground,Centre,"sb/d.png",0,0 M,4,197232,197832,428,373,516,280 F,0,197232,197832,1,0 S,0,197232,197832,0.7,0.28 P,0,197232,197832,A
Sprite,Foreground,Centre,"sb/d.png",0,0 M,4,197232,197832,428,373,308,263 F,0,197232,197832,1,0 S,0,197232,197832,0.7,0.28 P,0,197232,197832,A
Sprite,Foreground,Centre,"sb/d.png",0,0 M,4,197232,197832,428,373,435,449 F,0,197232,197832,1,0 S,0,197232,197832,0.7,0.28 P,0,197232,197832,A
Sprite,Foreground,Centre,"sb/d.png",0,0 M,4,197232,197832,428,373,390,439 F,0,197232,197832,1,0 S,0,197232,197832,0.7,0.28 P,0,197232,197832,A
Sprite,Foreground,Centre,"sb/d.png",0,0 M,4,197382,197982,375,362,362,237 F,0,197382,197982,1,0 S,0,197382,197982,0.7,0.28 P,0,197382,197982,A
Sprite,Foreground,Centre,"sb/d.png",0,0 M,4,197382,197982,375,362,400,224 F,0,197382,197982,1,0 S,0,197382,197982,0.7,0.28 P,0,197382,197982,A
Sprite,Foreground,Centre,"sb/d.png",0,0 M,4,197382,197982,375,362,458,315 F,0,197382,197982,1,0 S,0,197382,197982,0.7,0.28 P,0,197382,197982,A
Sprite,Foreground,Centre,"sb/d.png",0,0 M,4,197382,197982,375,362,434,424 F,0,197382,197982,1,0 S,0,197382,197982,0.7,0.28 P,0,197382,197982,A
Sprite,Foreground,Centre,"sb/d.png",0,0 M,4,197382,197982,375,362,364,375 F,0,197382,197982,1,0 S,0,197382,197982,0.7,0.28 P,0,197382,197982,A
Sprite,Foreground,Centre,"sb/d.png",0,0 M,4,197382,197982,375,362,476,338 F,0,197382,197982,1,0 S,0,197382,197982,0.7,0.28 P,0,197382,197982,A
Sprite,Foreground,Centre,"sb/d.png",0,0 M,4,197382,197982,375,362,496,334 F,0,197382,197982,1,0 S,0,197382,197982,0.7,0.28 P,0,197382,197982,A
Sprite,Foreground,Centre,"sb/d.png",0,0 M,4,197682,198282,295,289,389,313 F,0,197682,198282,1,0 S,0,197682,198282,0.7,0.28 P,0,197682,198282,A
Sprite,Foreground,Centre,"sb/d.png",0,0 M,4,197682,198282,295,289,370,209 F,0,197682,198282,1,0 S,0,197682,198282,0.7,0.28 P,0,197682,198282,A
Sprite,Foreground,Centre,"sb/d.png",0,0 M,4,197682,198282,295,289,422,314 F,0,197682,198282,1,0 S,0,197682,198282,0.7,0.28 P,0,197682,198282,A
Sprite,Foreground,Centre,"sb/d.png",0,0 M,4,197682,198282,295,289,442,154 F,0,197682,198282,1,0 S,0,197682,198282,0.7,0.28 P,0,197682,198282,A
Sprite,Foreground,Centre,"sb/d.png",0,0 M,4,197682,198282,295,289,309,187 F,0,197682,198282,1,0 S,0,197682,198282,0.7,0.28 P,0,197682,198282,A
Sprite,Foreground,Centre,"sb/d.png",0,0 M,4,197682,198282,295,289,434,271 F,0,197682,198282,1,0 S,0,197682,198282,0.7,0.28 P,0,197682,198282,A
Sprite,Foreground,Centre,"sb/d.png",0,0 M,4,197682,198282,295,289,274,416 F,0,197682,198282,1,0 S,0,197682,198282,0.7,0.28 P,0,197682,198282,A
Sprite,Foreground,Centre,"sb/d.png",0,0 M,4,198282,198882,342,114,208,156 F,0,198282,198882,1,0 S,0,198282,198882,0.7,0.28 P,0,198282,198882,A
Sprite,Foreground,Centre,"sb/d.png",0,0 M,4,198282,198882,342,114,284,263 F,0,198282,198882,1,0 S,0,198282,198882,0.7,0.28 P,0,198282,198882,A
Sprite,Foreground,Centre,"sb/d.png",0,0 M,4,198282,198882,342,114,451,100 F,0,198282,198882,1,0 S,0,198282,198882,0.7,0.28 P,0,198282,198882,A
Sprite,Foreground,Centre,"sb/d.png",0,0 M,4,198282,198882,342,114,392,-8 F,0,198282,198882,1,0 S,0,198282,198882,0.7,0.28 P,0,198282,198882,A
Sprite,Foreground,Centre,"sb/d.png",0,0 M,4,198282,198882,342,114,489,170 F,0,198282,198882,1,0 S,0,198282,198882,0.7,0.28 P,0,198282,198882,A
Sprite,Foreground,Centre,"sb/d.png",0,0 M,4,198282,198882,342,114,207,228 F,0,198282,198882,1,0 S,0,198282,198882,0.7,0.28 P,0,198282,198882,A
Sprite,Foreground,Centre,"sb/d.png",0,0 M,4,198282,198882,342,114,402,65 F,0,198282,198882,1,0 S,0,198282,198882,0.7,0.28 P,0,198282,198882,A
Sprite,Foreground,Centre,"sb/d.png",0,0 M,4,198582,199182,448,94,542,225 F,0,198582,199182,1,0 S,0,198582,199182,0.7,0.28 P,0,198582,199182,A
Sprite,Foreground,Centre,"sb/d.png",0,0 M,4,198582,199182,448,94,453,-1 F,0,198582,199182,1,0 S,0,198582,199182,0.7,0.28 P,0,198582,199182,A
Sprite,Foreground,Centre,"sb/d.png",0,0 M,4,198582,199182,448,94,451,59 F,0,198582,199182,1,0 S,0,198582,199182,0.7,0.28 P,0,198582,199182,A
Sprite,Foreground,Centre,"sb/d.png",0,0 M,4,198582,199182,448,94,411,100 F,0,198582,199182,1,0 S,0,198582,199182,0.7,0.28 P,0,198582,199182,A
Sprite,Foreground,Centre,"sb/d.png",0,0 M,4,198582,199182,448,94,413,31 F,0,198582,199182,1,0 S,0,198582,199182,0.7,0.28 P,0,198582,199182,A
Sprite,Foreground,Centre,"sb/d.png",0,0 M,4,198582,199182,448,94,547,181 F,0,198582,199182,1,0 S,0,198582,199182,0.7,0.28 P,0,198582,199182,A
Sprite,Foreground,Centre,"sb/d.png",0,0 M,4,198582,199182,448,94,516,65 F,0,198582,199182,1,0 S,0,198582,199182,0.7,0.28 P,0,198582,199182,A
Sprite,Foreground,Centre,"sb/d.png",0,0 M,4,198732,199332,434,146,444,123 F,0,198732,199332,1,0 S,0,198732,199332,0.7,0.28 P,0,198732,199332,A
Sprite,Foreground,Centre,"sb/d.png",0,0 M,4,198732,199332,434,146,306,96 F,0,198732,199332,1,0 S,0,198732,199332,0.7,0.28 P,0,198732,199332,A
Sprite,Foreground,Centre,"sb/d.png",0,0 M,4,198732,199332,434,146,558,228 F,0,198732,199332,1,0 S,0,198732,199332,0.7,0.28 P,0,198732,199332,A
Sprite,Foreground,Centre,"sb/d.png",0,0 M,4,198732,199332,434,146,479,243 F,0,198732,199332,1,0 S,0,198732,199332,0.7,0.28 P,0,198732,199332,A
Sprite,Foreground,Centre,"sb/d.png",0,0 M,4,198732,199332,434,146,355,247 F,0,198732,199332,1,0 S,0,198732,199332,0.7,0.28 P,0,198732,199332,A
Sprite,Foreground,Centre,"sb/d.png",0,0 M,4,198732,199332,434,146,451,131 F,0,198732,199332,1,0 S,0,198732,199332,0.7,0.28 P,0,198732,199332,A
Sprite,Foreground,Centre,"sb/d.png",0,0 M,4,198732,199332,434,146,506,212 F,0,198732,199332,1,0 S,0,198732,199332,0.7,0.28 P,0,198732,199332,A
Sprite,Foreground,Centre,"sb/d.png",0,0 M,4,198882,199482,462,192,488,60 F,0,198882,199482,1,0 S,0,198882,199482,0.7,0.28 P,0,198882,199482,A
Sprite,Foreground,Centre,"sb/d.png",0,0 M,4,198882,199482,462,192,366,54 F,0,198882,199482,1,0 S,0,198882,199482,0.7,0.28 P,0,198882,199482,A
Sprite,Foreground,Centre,"sb/d.png",0,0 M,4,198882,199482,462,192,577,238 F,0,198882,199482,1,0 S,0,198882,199482,0.7,0.28 P,0,198882,199482,A
Sprite,Foreground,Centre,"sb/d.png",0,0 M,4,198882,199482,462,192,382,224 F,0,198882,199482,1,0 S,0,198882,199482,0.7,0.28 P,0,198882,199482,A
Sprite,Foreground,Centre,"sb/d.png",0,0 M,4,198882,199482,462,192,504,276 F,0,198882,199482,1,0 S,0,198882,199482,0.7,0.28 P,0,198882,199482,A
Sprite,Foreground,Centre,"sb/d.png",0,0 M,4,198882,199482,462,192,591,55 F,0,198882,199482,1,0 S,0,198882,199482,0.7,0.28 P,0,198882,199482,A
Sprite,Foreground,Centre,"sb/d.png",0,0 M,4,198882,199482,462,192,475,202 F,0,198882,199482,1,0 S,0,198882,199482,0.7,0.28 P,0,198882,199482,A
Sprite,Foreground,Centre,"sb/d.png",0,0 M,4,199182,199782,552,250,479,105 F,0,199182,199782,1,0 S,0,199182,199782,0.7,0.28 P,0,199182,199782,A
Sprite,Foreground,Centre,"sb/d.png",0,0 M,4,199182,199782,552,250,452,122 F,0,199182,199782,1,0 S,0,199182,199782,0.7,0.28 P,0,199182,199782,A
Sprite,Foreground,Centre,"sb/d.png",0,0 M,4,199182,199782,552,250,619,178 F,0,199182,199782,1,0 S,0,199182,199782,0.7,0.28 P,0,199182,199782,A
Sprite,Foreground,Centre,"sb/d.png",0,0 M,4,199182,199782,552,250,569,270 F,0,199182,199782,1,0 S,0,199182,199782,0.7,0.28 P,0,199182,199782,A
Sprite,Foreground,Centre,"sb/d.png",0,0 M,4,199182,199782,552,250,586,315 F,0,199182,199782,1,0 S,0,199182,199782,0.7,0.28 P,0,199182,199782,A
Sprite,Foreground,Centre,"sb/d.png",0,0 M,4,199182,199782,552,250,691,377 F,0,199182,199782,1,0 S,0,199182,199782,0.7,0.28 P,0,199182,199782,A
Sprite,Foreground,Centre,"sb/d.png",0,0 M,4,199182,199782,552,250,607,397 F,0,199182,199782,1,0 S,0,199182,199782,0.7,0.28 P,0,199182,199782,A
Sprite,Foreground,Centre,"sb/d.png",0,0 M,4,199632,200232,497,365,557,419 F,0,199632,200232,1,0 S,0,199632,200232,0.7,0.28 P,0,199632,200232,A
Sprite,Foreground,Centre,"sb/d.png",0,0 M,4,199632,200232,497,365,534,232 F,0,199632,200232,1,0 S,0,199632,200232,0.7,0.28 P,0,199632,200232,A
Sprite,Foreground,Centre,"sb/d.png",0,0 M,4,199632,200232,497,365,539,411 F,0,199632,200232,1,0 S,0,199632,200232,0.7,0.28 P,0,199632,200232,A
Sprite,Foreground,Centre,"sb/d.png",0,0 M,4,199632,200232,497,365,626,311 F,0,199632,200232,1,0 S,0,199632,200232,0.7,0.28 P,0,199632,200232,A
Sprite,Foreground,Centre,"sb/d.png",0,0 M,4,199632,200232,497,365,379,452 F,0,199632,200232,1,0 S,0,199632,200232,0.7,0.28 P,0,199632,200232,A
Sprite,Foreground,Centre,"sb/d.png",0,0 M,4,199632,200232,497,365,618,237 F,0,199632,200232,1,0 S,0,199632,200232,0.7,0.28 P,0,199632,200232,A
Sprite,Foreground,Centre,"sb/d.png",0,0 M,4,199632,200232,497,365,397,492 F,0,199632,200232,1,0 S,0,199632,200232,0.7,0.28 P,0,199632,200232,A
Sprite,Foreground,Centre,"sb/d.png",0,0 M,4,200082,200682,365,332,450,269 F,0,200082,200682,1,0 S,0,200082,200682,0.7,0.28 P,0,200082,200682,A
Sprite,Foreground,Centre,"sb/d.png",0,0 M,4,200082,200682,365,332,335,443 F,0,200082,200682,1,0 S,0,200082,200682,0.7,0.28 P,0,200082,200682,A
Sprite,Foreground,Centre,"sb/d.png",0,0 M,4,200082,200682,365,332,284,217 F,0,200082,200682,1,0 S,0,200082,200682,0.7,0.28 P,0,200082,200682,A
Sprite,Foreground,Centre,"sb/d.png",0,0 M,4,200082,200682,365,332,384,247 F,0,200082,200682,1,0 S,0,200082,200682,0.7,0.28 P,0,200082,200682,A
Sprite,Foreground,Centre,"sb/d.png",0,0 M,4,200082,200682,365,332,416,326 F,0,200082,200682,1,0 S,0,200082,200682,0.7,0.28 P,0,200082,200682,A
Sprite,Foreground,Centre,"sb/d.png",0,0 M,4,200082,200682,365,332,432,326 F,0,200082,200682,1,0 S,0,200082,200682,0.7,0.28 P,0,200082,200682,A
Sprite,Foreground,Centre,"sb/d.png",0,0 M,4,200082,200682,365,332,263,188 F,0,200082,200682,1,0 S,0,200082,200682,0.7,0.28 P,0,200082,200682,A
Sprite,Foreground,Centre,"sb/d.png",0,0 M,4,200382,200982,279,398,263,387 F,0,200382,200982,1,0 S,0,200382,200982,0.7,0.28 P,0,200382,200982,A
Sprite,Foreground,Centre,"sb/d.png",0,0 M,4,200382,200982,279,398,151,535 F,0,200382,200982,1,0 S,0,200382,200982,0.7,0.28 P,0,200382,200982,A
Sprite,Foreground,Centre,"sb/d.png",0,0 M,4,200382,200982,279,398,419,321 F,0,200382,200982,1,0 S,0,200382,200982,0.7,0.28 P,0,200382,200982,A
Sprite,Foreground,Centre,"sb/d.png",0,0 M,4,200382,200982,279,398,400,536 F,0,200382,200982,1,0 S,0,200382,200982,0.7,0.28 P,0,200382,200982,A
Sprite,Foreground,Centre,"sb/d.png",0,0 M,4,200382,200982,279,398,175,510 F,0,200382,200982,1,0 S,0,200382,200982,0.7,0.28 P,0,200382,200982,A
Sprite,Foreground,Centre,"sb/d.png",0,0 M,4,200382,200982,279,398,250,514 F,0,200382,200982,1,0 S,0,200382,200982,0.7,0.28 P,0,200382,200982,A
Sprite,Foreground,Centre,"sb/d.png",0,0 M,4,200382,200982,279,398,309,528 F,0,200382,200982,1,0 S,0,200382,200982,0.7,0.28 P,0,200382,200982,A
Sprite,Foreground,Centre,"sb/d.png",0,0 M,4,200982,201582,169,267,291,229 F,0,200982,201582,1,0 S,0,200982,201582,0.7,0.28 P,0,200982,201582,A
Sprite,Foreground,Centre,"sb/d.png",0,0 M,4,200982,201582,169,267,69,312 F,0,200982,201582,1,0 S,0,200982,201582,0.7,0.28 P,0,200982,201582,A
Sprite,Foreground,Centre,"sb/d.png",0,0 M,4,200982,201582,169,267,46,306 F,0,200982,201582,1,0 S,0,200982,201582,0.7,0.28 P,0,200982,201582,A
Sprite,Foreground,Centre,"sb/d.png",0,0 M,4,200982,201582,169,267,254,213 F,0,200982,201582,1,0 S,0,200982,201582,0.7,0.28 P,0,200982,201582,A
Sprite,Foreground,Centre,"sb/d.png",0,0 M,4,200982,201582,169,267,113,145 F,0,200982,201582,1,0 S,0,200982,201582,0.7,0.28 P,0,200982,201582,A
Sprite,Foreground,Centre,"sb/d.png",0,0 M,4,200982,201582,169,267,227,287 F,0,200982,201582,1,0 S,0,200982,201582,0.7,0.28 P,0,200982,201582,A
Sprite,Foreground,Centre,"sb/d.png",0,0 M,4,200982,201582,169,267,146,262 F,0,200982,201582,1,0 S,0,200982,201582,0.7,0.28 P,0,200982,201582,A
Sprite,Foreground,Centre,"sb/d.png",0,0 M,4,201282,201882,221,172,73,65 F,0,201282,201882,1,0 S,0,201282,201882,0.7,0.28 P,0,201282,201882,A
Sprite,Foreground,Centre,"sb/d.png",0,0 M,4,201282,201882,221,172,171,70 F,0,201282,201882,1,0 S,0,201282,201882,0.7,0.28 P,0,201282,201882,A
Sprite,Foreground,Centre,"sb/d.png",0,0 M,4,201282,201882,221,172,219,295 F,0,201282,201882,1,0 S,0,201282,201882,0.7,0.28 P,0,201282,201882,A
Sprite,Foreground,Centre,"sb/d.png",0,0 M,4,201282,201882,221,172,332,214 F,0,201282,201882,1,0 S,0,201282,201882,0.7,0.28 P,0,201282,201882,A
Sprite,Foreground,Centre,"sb/d.png",0,0 M,4,201282,201882,221,172,285,306 F,0,201282,201882,1,0 S,0,201282,201882,0.7,0.28 P,0,201282,201882,A
Sprite,Foreground,Centre,"sb/d.png",0,0 M,4,201282,201882,221,172,102,299 F,0,201282,201882,1,0 S,0,201282,201882,0.7,0.28 P,0,201282,201882,A
Sprite,Foreground,Centre,"sb/d.png",0,0 M,4,201282,201882,221,172,77,268 F,0,201282,201882,1,0 S,0,201282,201882,0.7,0.28 P,0,201282,201882,A
Sprite,Foreground,Centre,"sb/d.png",0,0 M,4,201582,202182,153,88,44,96 F,0,201582,202182,1,0 S,0,201582,202182,0.7,0.28 P,0,201582,202182,A
Sprite,Foreground,Centre,"sb/d.png",0,0 M,4,201582,202182,153,88,143,40 F,0,201582,202182,1,0 S,0,201582,202182,0.7,0.28 P,0,201582,202182,A
Sprite,Foreground,Centre,"sb/d.png",0,0 M,4,201582,202182,153,88,157,126 F,0,201582,202182,1,0 S,0,201582,202182,0.7,0.28 P,0,201582,202182,A
Sprite,Foreground,Centre,"sb/d.png",0,0 M,4,201582,202182,153,88,96,26 F,0,201582,202182,1,0 S,0,201582,202182,0.7,0.28 P,0,201582,202182,A
Sprite,Foreground,Centre,"sb/d.png",0,0 M,4,201582,202182,153,88,97,-40 F,0,201582,202182,1,0 S,0,201582,202182,0.7,0.28 P,0,201582,202182,A
Sprite,Foreground,Centre,"sb/d.png",0,0 M,4,201582,202182,153,88,119,97 F,0,201582,202182,1,0 S,0,201582,202182,0.7,0.28 P,0,201582,202182,A
Sprite,Foreground,Centre,"sb/d.png",0,0 M,4,201582,202182,153,88,74,-25 F,0,201582,202182,1,0 S,0,201582,202182,0.7,0.28 P,0,201582,202182,A
Sprite,Foreground,Centre,"sb/d.png",0,0 M,4,202032,202632,69,197,-36,340 F,0,202032,202632,1,0 S,0,202032,202632,0.7,0.28 P,0,202032,202632,A
Sprite,Foreground,Centre,"sb/d.png",0,0 M,4,202032,202632,69,197,-2,167 F,0,202032,202632,1,0 S,0,202032,202632,0.7,0.28 P,0,202032,202632,A
Sprite,Foreground,Centre,"sb/d.png",0,0 M,4,202032,202632,69,197,164,173 F,0,202032,202632,1,0 S,0,202032,202632,0.7,0.28 P,0,202032,202632,A
Sprite,Foreground,Centre,"sb/d.png",0,0 M,4,202032,202632,69,197,204,50 F,0,202032,202632,1,0 S,0,202032,202632,0.7,0.28 P,0,202032,202632,A
Sprite,Foreground,Centre,"sb/d.png",0,0 M,4,202032,202632,69,197,80,119 F,0,202032,202632,1,0 S,0,202032,202632,0.7,0.28 P,0,202032,202632,A
Sprite,Foreground,Centre,"sb/d.png",0,0 M,4,202032,202632,69,197,37,254 F,0,202032,202632,1,0 S,0,202032,202632,0.7,0.28 P,0,202032,202632,A
Sprite,Foreground,Centre,"sb/d.png",0,0 M,4,202032,202632,69,197,-62,127 F,0,202032,202632,1,0 S,0,202032,202632,0.7,0.28 P,0,202032,202632,A
Sprite,Foreground,Centre,"sb/d.png",0,0 M,4,202482,203082,117,328,164,244 F,0,202482,203082,1,0 S,0,202482,203082,0.7,0.28 P,0,202482,203082,A
Sprite,Foreground,Centre,"sb/d.png",0,0 M,4,202482,203082,117,328,130,228 F,0,202482,203082,1,0 S,0,202482,203082,0.7,0.28 P,0,202482,203082,A
Sprite,Foreground,Centre,"sb/d.png",0,0 M,4,202482,203082,117,328,150,466 F,0,202482,203082,1,0 S,0,202482,203082,0.7,0.28 P,0,202482,203082,A
Sprite,Foreground,Centre,"sb/d.png",0,0 M,4,202482,203082,117,328,22,414 F,0,202482,203082,1,0 S,0,202482,203082,0.7,0.28 P,0,202482,203082,A
Sprite,Foreground,Centre,"sb/d.png",0,0 M,4,202482,203082,117,328,155,284 F,0,202482,203082,1,0 S,0,202482,203082,0.7,0.28 P,0,202482,203082,A
Sprite,Foreground,Centre,"sb/d.png",0,0 M,4,202482,203082,117,328,-18,416 F,0,202482,203082,1,0 S,0,202482,203082,0.7,0.28 P,0,202482,203082,A
Sprite,Foreground,Centre,"sb/d.png",0,0 M,4,202482,203082,117,328,18,391 F,0,202482,203082,1,0 S,0,202482,203082,0.7,0.28 P,0,202482,203082,A
Sprite,Foreground,Centre,"sb/d.png",0,0 M,4,202782,203382,217,287,315,215 F,0,202782,203382,1,0 S,0,202782,203382,0.7,0.28 P,0,202782,203382,A
Sprite,Foreground,Centre,"sb/d.png",0,0 M,4,202782,203382,217,287,299,425 F,0,202782,203382,1,0 S,0,202782,203382,0.7,0.28 P,0,202782,203382,A
Sprite,Foreground,Centre,"sb/d.png",0,0 M,4,202782,203382,217,287,269,361 F,0,202782,203382,1,0 S,0,202782,203382,0.7,0.28 P,0,202782,203382,A
Sprite,Foreground,Centre,"sb/d.png",0,0 M,4,202782,203382,217,287,214,357 F,0,202782,203382,1,0 S,0,202782,203382,0.7,0.28 P,0,202782,203382,A
Sprite,Foreground,Centre,"sb/d.png",0,0 M,4,202782,203382,217,287,271,348 F,0,202782,203382,1,0 S,0,202782,203382,0.7,0.28 P,0,202782,203382,A
Sprite,Foreground,Centre,"sb/d.png",0,0 M,4,202782,203382,217,287,99,316 F,0,202782,203382,1,0 S,0,202782,203382,0.7,0.28 P,0,202782,203382,A
Sprite,Foreground,Centre,"sb/d.png",0,0 M,4,202782,203382,217,287,327,174 F,0,202782,203382,1,0 S,0,202782,203382,0.7,0.28 P,0,202782,203382,A
Sprite,Foreground,Centre,"sb/d.png",0,0 M,4,203382,203982,382,197,528,114 F,0,203382,203982,1,0 S,0,203382,203982,0.7,0.28 P,0,203382,203982,A
Sprite,Foreground,Centre,"sb/d.png",0,0 M,4,203382,203982,382,197,515,294 F,0,203382,203982,1,0 S,0,203382,203982,0.7,0.28 P,0,203382,203982,A
Sprite,Foreground,Centre,"sb/d.png",0,0 M,4,203382,203982,382,197,401,60 F,0,203382,203982,1,0 S,0,203382,203982,0.7,0.28 P,0,203382,203982,A
Sprite,Foreground,Centre,"sb/d.png",0,0 M,4,203382,203982,382,197,422,75 F,0,203382,203982,1,0 S,0,203382,203982,0.7,0.28 P,0,203382,203982,A
Sprite,Foreground,Centre,"sb/d.png",0,0 M,4,203382,203982,382,197,390,112 F,0,203382,203982,1,0 S,0,203382,203982,0.7,0.28 P,0,203382,203982,A
Sprite,Foreground,Centre,"sb/d.png",0,0 M,4,203382,203982,382,197,507,129 F,0,203382,203982,1,0 S,0,203382,203982,0.7,0.28 P,0,203382,203982,A
Sprite,Foreground,Centre,"sb/d.png",0,0 M,4,203382,203982,382,197,514,156 F,0,203382,203982,1,0 S,0,203382,203982,0.7,0.28 P,0,203382,203982,A
Sprite,Foreground,Centre,"sb/d.png",0,0 M,4,203982,204582,554,277,509,400 F,0,203982,204582,1,0 S,0,203982,204582,0.7,0.28 P,0,203982,204582,A
Sprite,Foreground,Centre,"sb/d.png",0,0 M,4,203982,204582,554,277,509,133 F,0,203982,204582,1,0 S,0,203982,204582,0.7,0.28 P,0,203982,204582,A
Sprite,Foreground,Centre,"sb/d.png",0,0 M,4,203982,204582,554,277,479,199 F,0,203982,204582,1,0 S,0,203982,204582,0.7,0.28 P,0,203982,204582,A
Sprite,Foreground,Centre,"sb/d.png",0,0 M,4,203982,204582,554,277,458,210 F,0,203982,204582,1,0 S,0,203982,204582,0.7,0.28 P,0,203982,204582,A
Sprite,Foreground,Centre,"sb/d.png",0,0 M,4,203982,204582,554,277,544,256 F,0,203982,204582,1,0 S,0,203982,204582,0.7,0.28 P,0,203982,204582,A
Sprite,Foreground,Centre,"sb/d.png",0,0 M,4,203982,204582,554,277,408,221 F,0,203982,204582,1,0 S,0,203982,204582,0.7,0.28 P,0,203982,204582,A
Sprite,Foreground,Centre,"sb/d.png",0,0 M,4,203982,204582,554,277,636,404 F,0,203982,204582,1,0 S,0,203982,204582,0.7,0.28 P,0,203982,204582,A
Sprite,Foreground,Centre,"sb/d.png",0,0 M,4,204132,204732,554,277,565,379 F,0,204132,204732,1,0 S,0,204132,204732,0.7,0.28 P,0,204132,204732,A
Sprite,Foreground,Centre,"sb/d.png",0,0 M,4,204132,204732,554,277,422,131 F,0,204132,204732,1,0 S,0,204132,204732,0.7,0.28 P,0,204132,204732,A
Sprite,Foreground,Centre,"sb/d.png",0,0 M,4,204132,204732,554,277,431,144 F,0,204132,204732,1,0 S,0,204132,204732,0.7,0.28 P,0,204132,204732,A
Sprite,Foreground,Centre,"sb/d.png",0,0 M,4,204132,204732,554,277,643,247 F,0,204132,204732,1,0 S,0,204132,204732,0.7,0.28 P,0,204132,204732,A
Sprite,Foreground,Centre,"sb/d.png",0,0 M,4,204132,204732,554,277,526,194 F,0,204132,204732,1,0 S,0,204132,204732,0.7,0.28 P,0,204132,204732,A
Sprite,Foreground,Centre,"sb/d.png",0,0 M,4,204132,204732,554,277,472,165 F,0,204132,204732,1,0 S,0,204132,204732,0.7,0.28 P,0,204132,204732,A
Sprite,Foreground,Centre,"sb/d.png",0,0 M,4,204132,204732,554,277,426,347 F,0,204132,204732,1,0 S,0,204132,204732,0.7,0.28 P,0,204132,204732,A
Sprite,Foreground,Centre,"sb/d.png",0,0 M,4,204432,205032,489,353,559,369 F,0,204432,205032,1,0 S,0,204432,205032,0.7,0.28 P,0,204432,205032,A
Sprite,Foreground,Centre,"sb/d.png",0,0 M,4,204432,205032,489,353,352,322 F,0,204432,205032,1,0 S,0,204432,205032,0.7,0.28 P,0,204432,205032,A
Sprite,Foreground,Centre,"sb/d.png",0,0 M,4,204432,205032,489,353,580,241 F,0,204432,205032,1,0 S,0,204432,205032,0.7,0.28 P,0,204432,205032,A
Sprite,Foreground,Centre,"sb/d.png",0,0 M,4,204432,205032,489,353,454,433 F,0,204432,205032,1,0 S,0,204432,205032,0.7,0.28 P,0,204432,205032,A
Sprite,Foreground,Centre,"sb/d.png",0,0 M,4,204432,205032,489,353,445,228 F,0,204432,205032,1,0 S,0,204432,205032,0.7,0.28 P,0,204432,205032,A
Sprite,Foreground,Centre,"sb/d.png",0,0 M,4,204432,205032,489,353,443,391 F,0,204432,205032,1,0 S,0,204432,205032,0.7,0.28 P,0,204432,205032,A
Sprite,Foreground,Centre,"sb/d.png",0,0 M,4,204432,205032,489,353,621,415 F,0,204432,205032,1,0 S,0,204432,205032,0.7,0.28 P,0,204432,205032,A
Sprite,Foreground,Centre,"sb/d.png",0,0 M,4,204582,205182,489,353,565,356 F,0,204582,205182,1,0 S,0,204582,205182,0.7,0.28 P,0,204582,205182,A
Sprite,Foreground,Centre,"sb/d.png",0,0 M,4,204582,205182,489,353,581,277 F,0,204582,205182,1,0 S,0,204582,205182,0.7,0.28 P,0,204582,205182,A
Sprite,Foreground,Centre,"sb/d.png",0,0 M,4,204582,205182,489,353,419,416 F,0,204582,205182,1,0 S,0,204582,205182,0.7,0.28 P,0,204582,205182,A
Sprite,Foreground,Centre,"sb/d.png",0,0 M,4,204582,205182,489,353,505,408 F,0,204582,205182,1,0 S,0,204582,205182,0.7,0.28 P,0,204582,205182,A
Sprite,Foreground,Centre,"sb/d.png",0,0 M,4,204582,205182,489,353,386,473 F,0,204582,205182,1,0 S,0,204582,205182,0.7,0.28 P,0,204582,205182,A
Sprite,Foreground,Centre,"sb/d.png",0,0 M,4,204582,205182,489,353,393,467 F,0,204582,205182,1,0 S,0,204582,205182,0.7,0.28 P,0,204582,205182,A
Sprite,Foreground,Centre,"sb/d.png",0,0 M,4,204582,205182,489,353,508,487 F,0,204582,205182,1,0 S,0,204582,205182,0.7,0.28 P,0,204582,205182,A
Sprite,Foreground,Centre,"sb/d.png",0,0 M,4,204882,205482,390,323,390,210 F,0,204882,205482,1,0 S,0,204882,205482,0.7,0.28 P,0,204882,205482,A
Sprite,Foreground,Centre,"sb/d.png",0,0 M,4,204882,205482,390,323,477,209 F,0,204882,205482,1,0 S,0,204882,205482,0.7,0.28 P,0,204882,205482,A
Sprite,Foreground,Centre,"sb/d.png",0,0 M,4,204882,205482,390,323,289,307 F,0,204882,205482,1,0 S,0,204882,205482,0.7,0.28 P,0,204882,205482,A
Sprite,Foreground,Centre,"sb/d.png",0,0 M,4,204882,205482,390,323,403,447 F,0,204882,205482,1,0 S,0,204882,205482,0.7,0.28 P,0,204882,205482,A
Sprite,Foreground,Centre,"sb/d.png",0,0 M,4,204882,205482,390,323,356,358 F,0,204882,205482,1,0 S,0,204882,205482,0.7,0.28 P,0,204882,205482,A
Sprite,Foreground,Centre,"sb/d.png",0,0 M,4,204882,205482,390,323,393,367 F,0,204882,205482,1,0 S,0,204882,205482,0.7,0.28 P,0,204882,205482,A
Sprite,Foreground,Centre,"sb/d.png",0,0 M,4,204882,205482,390,323,401,403 F,0,204882,205482,1,0 S,0,204882,205482,0.7,0.28 P,0,204882,205482,A
Sprite,Foreground,Centre,"sb/d.png",0,0 M,4,205032,205632,390,323,386,465 F,0,205032,205632,1,0 S,0,205032,205632,0.7,0.28 P,0,205032,205632,A
Sprite,Foreground,Centre,"sb/d.png",0,0 M,4,205032,205632,390,323,440,312 F,0,205032,205632,1,0 S,0,205032,205632,0.7,0.28 P,0,205032,205632,A
Sprite,Foreground,Centre,"sb/d.png",0,0 M,4,205032,205632,390,323,274,199 F,0,205032,205632,1,0 S,0,205032,205632,0.7,0.28 P,0,205032,205632,A
Sprite,Foreground,Centre,"sb/d.png",0,0 M,4,205032,205632,390,323,434,442 F,0,205032,205632,1,0 S,0,205032,205632,0.7,0.28 P,0,205032,205632,A
Sprite,Foreground,Centre,"sb/d.png",0,0 M,4,205032,205632,390,323,364,466 F,0,205032,205632,1,0 S,0,205032,205632,0.7,0.28 P,0,205032,205632,A
Sprite,Foreground,Centre,"sb/d.png",0,0 M,4,205032,205632,390,323,498,281 F,0,205032,205632,1,0 S,0,205032,205632,0.7,0.28 P,0,205032,205632,A
Sprite,Foreground,Centre,"sb/d.png",0,0 M,4,205032,205632,390,323,294,187 F,0,205032,205632,1,0 S,0,205032,205632,0.7,0.28 P,0,205032,205632,A
Sprite,Foreground,Centre,"sb/d.png",0,0 M,4,205332,205932,325,399,293,291 F,0,205332,205932,1,0 S,0,205332,205932,0.7,0.28 P,0,205332,205932,A
Sprite,Foreground,Centre,"sb/d.png",0,0 M,4,205332,205932,325,399,239,526 F,0,205332,205932,1,0 S,0,205332,205932,0.7,0.28 P,0,205332,205932,A
Sprite,Foreground,Centre,"sb/d.png",0,0 M,4,205332,205932,325,399,343,379 F,0,205332,205932,1,0 S,0,205332,205932,0.7,0.28 P,0,205332,205932,A
Sprite,Foreground,Centre,"sb/d.png",0,0 M,4,205332,205932,325,399,255,317 F,0,205332,205932,1,0 S,0,205332,205932,0.7,0.28 P,0,205332,205932,A
Sprite,Foreground,Centre,"sb/d.png",0,0 M,4,205332,205932,325,399,263,316 F,0,205332,205932,1,0 S,0,205332,205932,0.7,0.28 P,0,205332,205932,A
Sprite,Foreground,Centre,"sb/d.png",0,0 M,4,205332,205932,325,399,313,397 F,0,205332,205932,1,0 S,0,205332,205932,0.7,0.28 P,0,205332,205932,A
Sprite,Foreground,Centre,"sb/d.png",0,0 M,4,205332,205932,325,399,224,501 F,0,205332,205932,1,0 S,0,205332,205932,0.7,0.28 P,0,205332,205932,A
Sprite,Foreground,Centre,"sb/d.png",0,0 M,4,205482,206082,325,399,211,306 F,0,205482,206082,1,0 S,0,205482,206082,0.7,0.28 P,0,205482,206082,A
Sprite,Foreground,Centre,"sb/d.png",0,0 M,4,205482,206082,325,399,396,434 F,0,205482,206082,1,0 S,0,205482,206082,0.7,0.28 P,0,205482,206082,A
Sprite,Foreground,Centre,"sb/d.png",0,0 M,4,205482,206082,325,399,227,484 F,0,205482,206082,1,0 S,0,205482,206082,0.7,0.28 P,0,205482,206082,A
Sprite,Foreground,Centre,"sb/d.png",0,0 M,4,205482,206082,325,399,233,303 F,0,205482,206082,1,0 S,0,205482,206082,0.7,0.28 P,0,205482,206082,A
Sprite,Foreground,Centre,"sb/d.png",0,0 M,4,205482,206082,325,399,245,464 F,0,205482,206082,1,0 S,0,205482,206082,0.7,0.28 P,0,205482,206082,A
Sprite,Foreground,Centre,"sb/d.png",0,0 M,4,205482,206082,325,399,404,391 F,0,205482,206082,1,0 S,0,205482,206082,0.7,0.28 P,0,205482,206082,A
Sprite,Foreground,Centre,"sb/d.png",0,0 M,4,205482,206082,325,399,265,429 F,0,205482,206082,1,0 S,0,205482,206082,0.7,0.28 P,0,205482,206082,A
Sprite,Foreground,Centre,"sb/d.png",0,0 M,4,205782,206382,218,381,280,474 F,0,205782,206382,1,0 S,0,205782,206382,0.7,0.28 P,0,205782,206382,A
Sprite,Foreground,Centre,"sb/d.png",0,0 M,4,205782,206382,218,381,145,471 F,0,205782,206382,1,0 S,0,205782,206382,0.7,0.28 P,0,205782,206382,A
Sprite,Foreground,Centre,"sb/d.png",0,0 M,4,205782,206382,218,381,147,379 F,0,205782,206382,1,0 S,0,205782,206382,0.7,0.28 P,0,205782,206382,A
Sprite,Foreground,Centre,"sb/d.png",0,0 M,4,205782,206382,218,381,223,304 F,0,205782,206382,1,0 S,0,205782,206382,0.7,0.28 P,0,205782,206382,A
Sprite,Foreground,Centre,"sb/d.png",0,0 M,4,205782,206382,218,381,188,406 F,0,205782,206382,1,0 S,0,205782,206382,0.7,0.28 P,0,205782,206382,A
Sprite,Foreground,Centre,"sb/d.png",0,0 M,4,205782,206382,218,381,94,262 F,0,205782,206382,1,0 S,0,205782,206382,0.7,0.28 P,0,205782,206382,A
Sprite,Foreground,Centre,"sb/d.png",0,0 M,4,205782,206382,218,381,218,308 F,0,205782,206382,1,0 S,0,205782,206382,0.7,0.28 P,0,205782,206382,A
Sprite,Foreground,Centre,"sb/d.png",0,0 M,4,206382,206982,106,195,160,177 F,0,206382,206982,1,0 S,0,206382,206982,0.7,0.28 P,0,206382,206982,A
Sprite,Foreground,Centre,"sb/d.png",0,0 M,4,206382,206982,106,195,-44,231 F,0,206382,206982,1,0 S,0,206382,206982,0.7,0.28 P,0,206382,206982,A
Sprite,Foreground,Centre,"sb/d.png",0,0 M,4,206382,206982,106,195,233,286 F,0,206382,206982,1,0 S,0,206382,206982,0.7,0.28 P,0,206382,206982,A
Sprite,Foreground,Centre,"sb/d.png",0,0 M,4,206382,206982,106,195,188,112 F,0,206382,206982,1,0 S,0,206382,206982,0.7,0.28 P,0,206382,206982,A
Sprite,Foreground,Centre,"sb/d.png",0,0 M,4,206382,206982,106,195,28,118 F,0,206382,206982,1,0 S,0,206382,206982,0.7,0.28 P,0,206382,206982,A
Sprite,Foreground,Centre,"sb/d.png",0,0 M,4,206382,206982,106,195,12,164 F,0,206382,206982,1,0 S,0,206382,206982,0.7,0.28 P,0,206382,206982,A
Sprite,Foreground,Centre,"sb/d.png",0,0 M,4,206382,206982,106,195,211,109 F,0,206382,206982,1,0 S,0,206382,206982,0.7,0.28 P,0,206382,206982,A
Sprite,Foreground,Centre,"sb/d.png",0,0 M,4,206832,207432,199,98,321,97 F,0,206832,207432,1,0 S,0,206832,207432,0.7,0.28 P,0,206832,207432,A
Sprite,Foreground,Centre,"sb/d.png",0,0 M,4,206832,207432,199,98,96,-26 F,0,206832,207432,1,0 S,0,206832,207432,0.7,0.28 P,0,206832,207432,A
Sprite,Foreground,Centre,"sb/d.png",0,0 M,4,206832,207432,199,98,89,147 F,0,206832,207432,1,0 S,0,206832,207432,0.7,0.28 P,0,206832,207432,A
Sprite,Foreground,Centre,"sb/d.png",0,0 M,4,206832,207432,199,98,205,92 F,0,206832,207432,1,0 S,0,206832,207432,0.7,0.28 P,0,206832,207432,A
Sprite,Foreground,Centre,"sb/d.png",0,0 M,4,206832,207432,199,98,338,146 F,0,206832,207432,1,0 S,0,206832,207432,0.7,0.28 P,0,206832,207432,A
Sprite,Foreground,Centre,"sb/d.png",0,0 M,4,206832,207432,199,98,117,148 F,0,206832,207432,1,0 S,0,206832,207432,0.7,0.28 P,0,206832,207432,A
Sprite,Foreground,Centre,"sb/d.png",0,0 M,4,206832,207432,199,98,146,211 F,0,206832,207432,1,0 S,0,206832,207432,0.7,0.28 P,0,206832,207432,A
Sprite,Foreground,Centre,"sb/d.png",0,0 M,4,206982,207582,250,112,337,7 F,0,206982,207582,1,0 S,0,206982,207582,0.7,0.28 P,0,206982,207582,A
Sprite,Foreground,Centre,"sb/d.png",0,0 M,4,206982,207582,250,112,259,-18 F,0,206982,207582,1,0 S,0,206982,207582,0.7,0.28 P,0,206982,207582,A
Sprite,Foreground,Centre,"sb/d.png",0,0 M,4,206982,207582,250,112,184,243 F,0,206982,207582,1,0 S,0,206982,207582,0.7,0.28 P,0,206982,207582,A
Sprite,Foreground,Centre,"sb/d.png",0,0 M,4,206982,207582,250,112,250,199 F,0,206982,207582,1,0 S,0,206982,207582,0.7,0.28 P,0,206982,207582,A
Sprite,Foreground,Centre,"sb/d.png",0,0 M,4,206982,207582,250,112,315,5 F,0,206982,207582,1,0 S,0,206982,207582,0.7,0.28 P,0,206982,207582,A
Sprite,Foreground,Centre,"sb/d.png",0,0 M,4,206982,207582,250,112,264,110 F,0,206982,207582,1,0 S,0,206982,207582,0.7,0.28 P,0,206982,207582,A
Sprite,Foreground,Centre,"sb/d.png",0,0 M,4,206982,207582,250,112,348,107 F,0,206982,207582,1,0 S,0,206982,207582,0.7,0.28 P,0,206982,207582,A
Sprite,Foreground,Centre,"sb/d.png",0,0 M,4,207282,207882,314,198,335,52 F,0,207282,207882,1,0 S,0,207282,207882,0.7,0.28 P,0,207282,207882,A
Sprite,Foreground,Centre,"sb/d.png",0,0 M,4,207282,207882,314,198,347,308 F,0,207282,207882,1,0 S,0,207282,207882,0.7,0.28 P,0,207282,207882,A
Sprite,Foreground,Centre,"sb/d.png",0,0 M,4,207282,207882,314,198,357,139 F,0,207282,207882,1,0 S,0,207282,207882,0.7,0.28 P,0,207282,207882,A
Sprite,Foreground,Centre,"sb/d.png",0,0 M,4,207282,207882,314,198,265,318 F,0,207282,207882,1,0 S,0,207282,207882,0.7,0.28 P,0,207282,207882,A
Sprite,Foreground,Centre,"sb/d.png",0,0 M,4,207282,207882,314,198,292,48 F,0,207282,207882,1,0 S,0,207282,207882,0.7,0.28 P,0,207282,207882,A
Sprite,Foreground,Centre,"sb/d.png",0,0 M,4,207282,207882,314,198,454,299 F,0,207282,207882,1,0 S,0,207282,207882,0.7,0.28 P,0,207282,207882,A
Sprite,Foreground,Centre,"sb/d.png",0,0 M,4,207282,207882,314,198,385,107 F,0,207282,207882,1,0 S,0,207282,207882,0.7,0.28 P,0,207282,207882,A
Sprite,Foreground,Centre,"sb/d.png",0,0 M,4,207882,208482,490,124,482,76 F,0,207882,208482,1,0 S,0,207882,208482,0.7,0.28 P,0,207882,208482,A
Sprite,Foreground,Centre,"sb/d.png",0,0 M,4,207882,208482,490,124,457,51 F,0,207882,208482,1,0 S,0,207882,208482,0.7,0.28 P,0,207882,208482,A
Sprite,Foreground,Centre,"sb/d.png",0,0 M,4,207882,208482,490,124,484,243 F,0,207882,208482,1,0 S,0,207882,208482,0.7,0.28 P,0,207882,208482,A
Sprite,Foreground,Centre,"sb/d.png",0,0 M,4,207882,208482,490,124,469,0 F,0,207882,208482,1,0 S,0,207882,208482,0.7,0.28 P,0,207882,208482,A
Sprite,Foreground,Centre,"sb/d.png",0,0 M,4,207882,208482,490,124,553,9 F,0,207882,208482,1,0 S,0,207882,208482,0.7,0.28 P,0,207882,208482,A
Sprite,Foreground,Centre,"sb/d.png",0,0 M,4,207882,208482,490,124,374,248 F,0,207882,208482,1,0 S,0,207882,208482,0.7,0.28 P,0,207882,208482,A
Sprite,Foreground,Centre,"sb/d.png",0,0 M,4,207882,208482,490,124,553,8 F,0,207882,208482,1,0 S,0,207882,208482,0.7,0.28 P,0,207882,208482,A
Sprite,Foreground,Centre,"sb/d.png",0,0 M,4,208332,208932,482,259,566,113 F,0,208332,208932,1,0 S,0,208332,208932,0.7,0.28 P,0,208332,208932,A
Sprite,Foreground,Centre,"sb/d.png",0,0 M,4,208332,208932,482,259,493,300 F,0,208332,208932,1,0 S,0,208332,208932,0.7,0.28 P,0,208332,208932,A
Sprite,Foreground,Centre,"sb/d.png",0,0 M,4,208332,208932,482,259,583,120 F,0,208332,208932,1,0 S,0,208332,208932,0.7,0.28 P,0,208332,208932,A
Sprite,Foreground,Centre,"sb/d.png",0,0 M,4,208332,208932,482,259,604,393 F,0,208332,208932,1,0 S,0,208332,208932,0.7,0.28 P,0,208332,208932,A
Sprite,Foreground,Centre,"sb/d.png",0,0 M,4,208332,208932,482,259,346,217 F,0,208332,208932,1,0 S,0,208332,208932,0.7,0.28 P,0,208332,208932,A
Sprite,Foreground,Centre,"sb/d.png",0,0 M,4,208332,208932,482,259,338,114 F,0,208332,208932,1,0 S,0,208332,208932,0.7,0.28 P,0,208332,208932,A
Sprite,Foreground,Centre,"sb/d.png",0,0 M,4,208332,208932,482,259,493,375 F,0,208332,208932,1,0 S,0,208332,208932,0.7,0.28 P,0,208332,208932,A
Sprite,Foreground,Centre,"sb/d.png",0,0 M,4,208482,209082,439,292,506,301 F,0,208482,209082,1,0 S,0,208482,209082,0.7,0.28 P,0,208482,209082,A
Sprite,Foreground,Centre,"sb/d.png",0,0 M,4,208482,209082,439,292,319,275 F,0,208482,209082,1,0 S,0,208482,209082,0.7,0.28 P,0,208482,209082,A
Sprite,Foreground,Centre,"sb/d.png",0,0 M,4,208482,209082,439,292,348,232 F,0,208482,209082,1,0 S,0,208482,209082,0.7,0.28 P,0,208482,209082,A
Sprite,Foreground,Centre,"sb/d.png",0,0 M,4,208482,209082,439,292,383,254 F,0,208482,209082,1,0 S,0,208482,209082,0.7,0.28 P,0,208482,209082,A
Sprite,Foreground,Centre,"sb/d.png",0,0 M,4,208482,209082,439,292,514,228 F,0,208482,209082,1,0 S,0,208482,209082,0.7,0.28 P,0,208482,209082,A
Sprite,Foreground,Centre,"sb/d.png",0,0 M,4,208482,209082,439,292,293,420 F,0,208482,209082,1,0 S,0,208482,209082,0.7,0.28 P,0,208482,209082,A
Sprite,Foreground,Centre,"sb/d.png",0,0 M,4,208482,209082,439,292,304,287 F,0,208482,209082,1,0 S,0,208482,209082,0.7,0.28 P,0,208482,209082,A
Sprite,Foreground,Centre,"sb/d.png",0,0 M,4,208782,209382,331,299,272,296 F,0,208782,209382,1,0 S,0,208782,209382,0.7,0.28 P,0,208782,209382,A
Sprite,Foreground,Centre,"sb/d.png",0,0 M,4,208782,209382,331,299,406,367 F,0,208782,209382,1,0 S,0,208782,209382,0.7,0.28 P,0,208782,209382,A
Sprite,Foreground,Centre,"sb/d.png",0,0 M,4,208782,209382,331,299,358,216 F,0,208782,209382,1,0 S,0,208782,209382,0.7,0.28 P,0,208782,209382,A
Sprite,Foreground,Centre,"sb/d.png",0,0 M,4,208782,209382,331,299,217,272 F,0,208782,209382,1,0 S,0,208782,209382,0.7,0.28 P,0,208782,209382,A
Sprite,Foreground,Centre,"sb/d.png",0,0 M,4,208782,209382,331,299,319,248 F,0,208782,209382,1,0 S,0,208782,209382,0.7,0.28 P,0,208782,209382,A
Sprite,Foreground,Centre,"sb/d.png",0,0 M,4,208782,209382,331,299,181,359 F,0,208782,209382,1,0 S,0,208782,209382,0.7,0.28 P,0,208782,209382,A
Sprite,Foreground,Centre,"sb/d.png",0,0 M,4,208782,209382,331,299,268,306 F,0,208782,209382,1,0 S,0,208782,209382,0.7,0.28 P,0,208782,209382,A
Sprite,Foreground,Centre,"sb/d.png",0,0 M,4,209232,209832,201,247,138,106 F,0,209232,209832,1,0 S,0,209232,209832,0.7,0.28 P,0,209232,209832,A
Sprite,Foreground,Centre,"sb/d.png",0,0 M,4,209232,209832,201,247,121,235 F,0,209232,209832,1,0 S,0,209232,209832,0.7,0.28 P,0,209232,209832,A
Sprite,Foreground,Centre,"sb/d.png",0,0 M,4,209232,209832,201,247,159,259 F,0,209232,209832,1,0 S,0,209232,209832,0.7,0.28 P,0,209232,209832,A
Sprite,Foreground,Centre,"sb/d.png",0,0 M,4,209232,209832,201,247,159,151 F,0,209232,209832,1,0 S,0,209232,209832,0.7,0.28 P,0,209232,209832,A
Sprite,Foreground,Centre,"sb/d.png",0,0 M,4,209232,209832,201,247,56,298 F,0,209232,209832,1,0 S,0,209232,209832,0.7,0.28 P,0,209232,209832,A
Sprite,Foreground,Centre,"sb/d.png",0,0 M,4,209232,209832,201,247,265,220 F,0,209232,209832,1,0 S,0,209232,209832,0.7,0.28 P,0,209232,209832,A
Sprite,Foreground,Centre,"sb/d.png",0,0 M,4,209232,209832,201,247,290,218 F,0,209232,209832,1,0 S,0,209232,209832,0.7,0.28 P,0,209232,209832,A
Sprite,Foreground,Centre,"sb/d.png",0,0 M,4,209682,210282,75,302,4,226 F,0,209682,210282,1,0 S,0,209682,210282,0.7,0.28 P,0,209682,210282,A
Sprite,Foreground,Centre,"sb/d.png",0,0 M,4,209682,210282,75,302,112,424 F,0,209682,210282,1,0 S,0,209682,210282,0.7,0.28 P,0,209682,210282,A
Sprite,Foreground,Centre,"sb/d.png",0,0 M,4,209682,210282,75,302,220,279 F,0,209682,210282,1,0 S,0,209682,210282,0.7,0.28 P,0,209682,210282,A
Sprite,Foreground,Centre,"sb/d.png",0,0 M,4,209682,210282,75,302,118,318 F,0,209682,210282,1,0 S,0,209682,210282,0.7,0.28 P,0,209682,210282,A
Sprite,Foreground,Centre,"sb/d.png",0,0 M,4,209682,210282,75,302,107,240 F,0,209682,210282,1,0 S,0,209682,210282,0.7,0.28 P,0,209682,210282,A
Sprite,Foreground,Centre,"sb/d.png",0,0 M,4,209682,210282,75,302,53,246 F,0,209682,210282,1,0 S,0,209682,210282,0.7,0.28 P,0,209682,210282,A
Sprite,Foreground,Centre,"sb/d.png",0,0 M,4,209682,210282,75,302,154,245 F,0,209682,210282,1,0 S,0,209682,210282,0.7,0.28 P,0,209682,210282,A
Sprite,Foreground,Centre,"sb/d.png",0,0 M,4,209982,210582,127,396,-3,476 F,0,209982,210582,1,0 S,0,209982,210582,0.7,0.28 P,0,209982,210582,A
Sprite,Foreground,Centre,"sb/d.png",0,0 M,4,209982,210582,127,396,110,395 F,0,209982,210582,1,0 S,0,209982,210582,0.7,0.28 P,0,209982,210582,A
Sprite,Foreground,Centre,"sb/d.png",0,0 M,4,209982,210582,127,396,-20,483 F,0,209982,210582,1,0 S,0,209982,210582,0.7,0.28 P,0,209982,210582,A
Sprite,Foreground,Centre,"sb/d.png",0,0 M,4,209982,210582,127,396,2,461 F,0,209982,210582,1,0 S,0,209982,210582,0.7,0.28 P,0,209982,210582,A
Sprite,Foreground,Centre,"sb/d.png",0,0 M,4,209982,210582,127,396,-7,411 F,0,209982,210582,1,0 S,0,209982,210582,0.7,0.28 P,0,209982,210582,A
Sprite,Foreground,Centre,"sb/d.png",0,0 M,4,209982,210582,127,396,147,398 F,0,209982,210582,1,0 S,0,209982,210582,0.7,0.28 P,0,209982,210582,A
Sprite,Foreground,Centre,"sb/d.png",0,0 M,4,209982,210582,127,396,13,282 F,0,209982,210582,1,0 S,0,209982,210582,0.7,0.28 P,0,209982,210582,A
Sprite,Foreground,Centre,"sb/d.png",0,0 M,4,210582,211182,303,318,294,192 F,0,210582,211182,1,0 S,0,210582,211182,0.7,0.28 P,0,210582,211182,A
Sprite,Foreground,Centre,"sb/d.png",0,0 M,4,210582,211182,303,318,157,221 F,0,210582,211182,1,0 S,0,210582,211182,0.7,0.28 P,0,210582,211182,A
Sprite,Foreground,Centre,"sb/d.png",0,0 M,4,210582,211182,303,318,280,383 F,0,210582,211182,1,0 S,0,210582,211182,0.7,0.28 P,0,210582,211182,A
Sprite,Foreground,Centre,"sb/d.png",0,0 M,4,210582,211182,303,318,197,232 F,0,210582,211182,1,0 S,0,210582,211182,0.7,0.28 P,0,210582,211182,A
Sprite,Foreground,Centre,"sb/d.png",0,0 M,4,210582,211182,303,318,365,195 F,0,210582,211182,1,0 S,0,210582,211182,0.7,0.28 P,0,210582,211182,A
Sprite,Foreground,Centre,"sb/d.png",0,0 M,4,210582,211182,303,318,367,427 F,0,210582,211182,1,0 S,0,210582,211182,0.7,0.28 P,0,210582,211182,A
Sprite,Foreground,Centre,"sb/d.png",0,0 M,4,210582,211182,303,318,416,388 F,0,210582,211182,1,0 S,0,210582,211182,0.7,0.28 P,0,210582,211182,A
Sprite,Foreground,Centre,"sb/d.png",0,0 M,4,210882,211482,400,329,377,461 F,0,210882,211482,1,0 S,0,210882,211482,0.7,0.28 P,0,210882,211482,A
Sprite,Foreground,Centre,"sb/d.png",0,0 M,4,210882,211482,400,329,260,192 F,0,210882,211482,1,0 S,0,210882,211482,0.7,0.28 P,0,210882,211482,A
Sprite,Foreground,Centre,"sb/d.png",0,0 M,4,210882,211482,400,329,483,193 F,0,210882,211482,1,0 S,0,210882,211482,0.7,0.28 P,0,210882,211482,A
Sprite,Foreground,Centre,"sb/d.png",0,0 M,4,210882,211482,400,329,284,254 F,0,210882,211482,1,0 S,0,210882,211482,0.7,0.28 P,0,210882,211482,A
Sprite,Foreground,Centre,"sb/d.png",0,0 M,4,210882,211482,400,329,318,243 F,0,210882,211482,1,0 S,0,210882,211482,0.7,0.28 P,0,210882,211482,A
Sprite,Foreground,Centre,"sb/d.png",0,0 M,4,210882,211482,400,329,370,181 F,0,210882,211482,1,0 S,0,210882,211482,0.7,0.28 P,0,210882,211482,A
Sprite,Foreground,Centre,"sb/d.png",0,0 M,4,210882,211482,400,329,346,342 F,0,210882,211482,1,0 S,0,210882,211482,0.7,0.28 P,0,210882,211482,A
Sprite,Foreground,Centre,"sb/d.png",0,0 M,4,211182,211782,469,396,377,267 F,0,211182,211782,1,0 S,0,211182,211782,0.7,0.28 P,0,211182,211782,A
Sprite,Foreground,Centre,"sb/d.png",0,0 M,4,211182,211782,469,396,421,388 F,0,211182,211782,1,0 S,0,211182,211782,0.7,0.28 P,0,211182,211782,A
Sprite,Foreground,Centre,"sb/d.png",0,0 M,4,211182,211782,469,396,409,403 F,0,211182,211782,1,0 S,0,211182,211782,0.7,0.28 P,0,211182,211782,A
Sprite,Foreground,Centre,"sb/d.png",0,0 M,4,211182,211782,469,396,344,404 F,0,211182,211782,1,0 S,0,211182,211782,0.7,0.28 P,0,211182,211782,A
Sprite,Foreground,Centre,"sb/d.png",0,0 M,4,211182,211782,469,396,402,320 F,0,211182,211782,1,0 S,0,211182,211782,0.7,0.28 P,0,211182,211782,A
Sprite,Foreground,Centre,"sb/d.png",0,0 M,4,211182,211782,469,396,585,260 F,0,211182,211782,1,0 S,0,211182,211782,0.7,0.28 P,0,211182,211782,A
Sprite,Foreground,Centre,"sb/d.png",0,0 M,4,211182,211782,469,396,368,502 F,0,211182,211782,1,0 S,0,211182,211782,0.7,0.28 P,0,211182,211782,A
Sprite,Foreground,Centre,"sb/d.png",0,0 M,4,211632,212232,527,272,395,227 F,0,211632,212232,1,0 S,0,211632,212232,0.7,0.28 P,0,211632,212232,A
Sprite,Foreground,Centre,"sb/d.png",0,0 M,4,211632,212232,527,272,612,165 F,0,211632,212232,1,0 S,0,211632,212232,0.7,0.28 P,0,211632,212232,A
Sprite,Foreground,Centre,"sb/d.png",0,0 M,4,211632,212232,527,272,650,226 F,0,211632,212232,1,0 S,0,211632,212232,0.7,0.28 P,0,211632,212232,A
Sprite,Foreground,Centre,"sb/d.png",0,0 M,4,211632,212232,527,272,465,155 F,0,211632,212232,1,0 S,0,211632,212232,0.7,0.28 P,0,211632,212232,A
Sprite,Foreground,Centre,"sb/d.png",0,0 M,4,211632,212232,527,272,531,278 F,0,211632,212232,1,0 S,0,211632,212232,0.7,0.28 P,0,211632,212232,A
Sprite,Foreground,Centre,"sb/d.png",0,0 M,4,211632,212232,527,272,596,144 F,0,211632,212232,1,0 S,0,211632,212232,0.7,0.28 P,0,211632,212232,A
Sprite,Foreground,Centre,"sb/d.png",0,0 M,4,211632,212232,527,272,379,188 F,0,211632,212232,1,0 S,0,211632,212232,0.7,0.28 P,0,211632,212232,A
Sprite,Foreground,Centre,"sb/d.png",0,0 M,4,212082,212682,575,139,680,228 F,0,212082,212682,1,0 S,0,212082,212682,0.7,0.28 P,0,212082,212682,A
Sprite,Foreground,Centre,"sb/d.png",0,0 M,4,212082,212682,575,139,658,114 F,0,212082,212682,1,0 S,0,212082,212682,0.7,0.28 P,0,212082,212682,A
Sprite,Foreground,Centre,"sb/d.png",0,0 M,4,212082,212682,575,139,544,170 F,0,212082,212682,1,0 S,0,212082,212682,0.7,0.28 P,0,212082,212682,A
Sprite,Foreground,Centre,"sb/d.png",0,0 M,4,212082,212682,575,139,430,179 F,0,212082,212682,1,0 S,0,212082,212682,0.7,0.28 P,0,212082,212682,A
Sprite,Foreground,Centre,"sb/d.png",0,0 M,4,212082,212682,575,139,649,61 F,0,212082,212682,1,0 S,0,212082,212682,0.7,0.28 P,0,212082,212682,A
Sprite,Foreground,Centre,"sb/d.png",0,0 M,4,212082,212682,575,139,593,95 F,0,212082,212682,1,0 S,0,212082,212682,0.7,0.28 P,0,212082,212682,A
Sprite,Foreground,Centre,"sb/d.png",0,0 M,4,212082,212682,575,139,620,258 F,0,212082,212682,1,0 S,0,212082,212682,0.7,0.28 P,0,212082,212682,A
Sprite,Foreground,Centre,"sb/d.png",0,0 M,4,212382,212982,486,76,534,161 F,0,212382,212982,1,0 S,0,212382,212982,0.7,0.28 P,0,212382,212982,A
Sprite,Foreground,Centre,"sb/d.png",0,0 M,4,212382,212982,486,76,383,145 F,0,212382,212982,1,0 S,0,212382,212982,0.7,0.28 P,0,212382,212982,A
Sprite,Foreground,Centre,"sb/d.png",0,0 M,4,212382,212982,486,76,601,3 F,0,212382,212982,1,0 S,0,212382,212982,0.7,0.28 P,0,212382,212982,A
Sprite,Foreground,Centre,"sb/d.png",0,0 M,4,212382,212982,486,76,392,188 F,0,212382,212982,1,0 S,0,212382,212982,0.7,0.28 P,0,212382,212982,A
Sprite,Foreground,Centre,"sb/d.png",0,0 M,4,212382,212982,486,76,465,2 F,0,212382,212982,1,0 S,0,212382,212982,0.7,0.28 P,0,212382,212982,A
Sprite,Foreground,Centre,"sb/d.png",0,0 M,4,212382,212982,486,76,365,217 F,0,212382,212982,1,0 S,0,212382,212982,0.7,0.28 P,0,212382,212982,A
Sprite,Foreground,Centre,"sb/d.png",0,0 M,4,212382,212982,486,76,411,-49 F,0,212382,212982,1,0 S,0,212382,212982,0.7,0.28 P,0,212382,212982,A
Sprite,Foreground,Centre,"sb/d.png",0,0 M,4,212982,213582,328,177,344,272 F,0,212982,213582,1,0 S,0,212982,213582,0.7,0.28 P,0,212982,213582,A
Sprite,Foreground,Centre,"sb/d.png",0,0 M,4,212982,213582,328,177,400,95 F,0,212982,213582,1,0 S,0,212982,213582,0.7,0.28 P,0,212982,213582,A
Sprite,Foreground,Centre,"sb/d.png",0,0 M,4,212982,213582,328,177,333,285 F,0,212982,213582,1,0 S,0,212982,213582,0.7,0.28 P,0,212982,213582,A
Sprite,Foreground,Centre,"sb/d.png",0,0 M,4,212982,213582,328,177,380,171 F,0,212982,213582,1,0 S,0,212982,213582,0.7,0.28 P,0,212982,213582,A
Sprite,Foreground,Centre,"sb/d.png",0,0 M,4,212982,213582,328,177,319,167 F,0,212982,213582,1,0 S,0,212982,213582,0.7,0.28 P,0,212982,213582,A
Sprite,Foreground,Centre,"sb/d.png",0,0 M,4,212982,213582,328,177,372,194 F,0,212982,213582,1,0 S,0,212982,213582,0.7,0.28 P,0,212982,213582,A
Sprite,Foreground,Centre,"sb/d.png",0,0 M,4,212982,213582,328,177,428,154 F,0,212982,213582,1,0 S,0,212982,213582,0.7,0.28 P,0,212982,213582,A
Sprite,Foreground,Centre,"sb/d.png",0,0 M,4,213582,214182,147,108,177,120 F,0,213582,214182,1,0 S,0,213582,214182,0.7,0.28 P,0,213582,214182,A
Sprite,Foreground,Centre,"sb/d.png",0,0 M,4,213582,214182,147,108,172,124 F,0,213582,214182,1,0 S,0,213582,214182,0.7,0.28 P,0,213582,214182,A
Sprite,Foreground,Centre,"sb/d.png",0,0 M,4,213582,214182,147,108,205,77 F,0,213582,214182,1,0 S,0,213582,214182,0.7,0.28 P,0,213582,214182,A
Sprite,Foreground,Centre,"sb/d.png",0,0 M,4,213582,214182,147,108,131,177 F,0,213582,214182,1,0 S,0,213582,214182,0.7,0.28 P,0,213582,214182,A
Sprite,Foreground,Centre,"sb/d.png",0,0 M,4,213582,214182,147,108,106,-42 F,0,213582,214182,1,0 S,0,213582,214182,0.7,0.28 P,0,213582,214182,A
Sprite,Foreground,Centre,"sb/d.png",0,0 M,4,213582,214182,147,108,53,182 F,0,213582,214182,1,0 S,0,213582,214182,0.7,0.28 P,0,213582,214182,A
Sprite,Foreground,Centre,"sb/d.png",0,0 M,4,213582,214182,147,108,6,250 F,0,213582,214182,1,0 S,0,213582,214182,0.7,0.28 P,0,213582,214182,A
Sprite,Foreground,Centre,"sb/d.png",0,0 M,4,214182,214782,188,301,148,307 F,0,214182,214782,1,0 S,0,214182,214782,0.7,0.28 P,0,214182,214782,A
Sprite,Foreground,Centre,"sb/d.png",0,0 M,4,214182,214782,188,301,134,278 F,0,214182,214782,1,0 S,0,214182,214782,0.7,0.28 P,0,214182,214782,A
Sprite,Foreground,Centre,"sb/d.png",0,0 M,4,214182,214782,188,301,144,431 F,0,214182,214782,1,0 S,0,214182,214782,0.7,0.28 P,0,214182,214782,A
Sprite,Foreground,Centre,"sb/d.png",0,0 M,4,214182,214782,188,301,61,430 F,0,214182,214782,1,0 S,0,214182,214782,0.7,0.28 P,0,214182,214782,A
Sprite,Foreground,Centre,"sb/d.png",0,0 M,4,214182,214782,188,301,187,250 F,0,214182,214782,1,0 S,0,214182,214782,0.7,0.28 P,0,214182,214782,A
Sprite,Foreground,Centre,"sb/d.png",0,0 M,4,214182,214782,188,301,289,388 F,0,214182,214782,1,0 S,0,214182,214782,0.7,0.28 P,0,214182,214782,A
Sprite,Foreground,Centre,"sb/d.png",0,0 M,4,214182,214782,188,301,104,205 F,0,214182,214782,1,0 S,0,214182,214782,0.7,0.28 P,0,214182,214782,A
Sprite,Foreground,Centre,"sb/d.png",0,0 M,4,214332,214932,226,340,169,396 F,0,214332,214932,1,0 S,0,214332,214932,0.7,0.28 P,0,214332,214932,A
Sprite,Foreground,Centre,"sb/d.png",0,0 M,4,214332,214932,226,340,100,287 F,0,214332,214932,1,0 S,0,214332,214932,0.7,0.28 P,0,214332,214932,A
Sprite,Foreground,Centre,"sb/d.png",0,0 M,4,214332,214932,226,340,202,419 F,0,214332,214932,1,0 S,0,214332,214932,0.7,0.28 P,0,214332,214932,A
Sprite,Foreground,Centre,"sb/d.png",0,0 M,4,214332,214932,226,340,157,456 F,0,214332,214932,1,0 S,0,214332,214932,0.7,0.28 P,0,214332,214932,A
Sprite,Foreground,Centre,"sb/d.png",0,0 M,4,214332,214932,226,340,277,352 F,0,214332,214932,1,0 S,0,214332,214932,0.7,0.28 P,0,214332,214932,A
Sprite,Foreground,Centre,"sb/d.png",0,0 M,4,214332,214932,226,340,158,445 F,0,214332,214932,1,0 S,0,214332,214932,0.7,0.28 P,0,214332,214932,A
Sprite,Foreground,Centre,"sb/d.png",0,0 M,4,214332,214932,226,340,266,437 F,0,214332,214932,1,0 S,0,214332,214932,0.7,0.28 P,0,214332,214932,A
Sprite,Foreground,Centre,"sb/d.png",0,0 M,4,214482,215082,279,353,265,425 F,0,214482,215082,1,0 S,0,214482,215082,0.7,0.28 P,0,214482,215082,A
Sprite,Foreground,Centre,"sb/d.png",0,0 M,4,214482,215082,279,353,141,433 F,0,214482,215082,1,0 S,0,214482,215082,0.7,0.28 P,0,214482,215082,A
Sprite,Foreground,Centre,"sb/d.png",0,0 M,4,214482,215082,279,353,377,412 F,0,214482,215082,1,0 S,0,214482,215082,0.7,0.28 P,0,214482,215082,A
Sprite,Foreground,Centre,"sb/d.png",0,0 M,4,214482,215082,279,353,163,487 F,0,214482,215082,1,0 S,0,214482,215082,0.7,0.28 P,0,214482,215082,A
Sprite,Foreground,Centre,"sb/d.png",0,0 M,4,214482,215082,279,353,173,269 F,0,214482,215082,1,0 S,0,214482,215082,0.7,0.28 P,0,214482,215082,A
Sprite,Foreground,Centre,"sb/d.png",0,0 M,4,214482,215082,279,353,190,473 F,0,214482,215082,1,0 S,0,214482,215082,0.7,0.28 P,0,214482,215082,A
Sprite,Foreground,Centre,"sb/d.png",0,0 M,4,214482,215082,279,353,233,404 F,0,214482,215082,1,0 S,0,214482,215082,0.7,0.28 P,0,214482,215082,A
Sprite,Foreground,Centre,"sb/d.png",0,0 M,4,214782,215382,380,313,243,238 F,0,214782,215382,1,0 S,0,214782,215382,0.7,0.28 P,0,214782,215382,A
Sprite,Foreground,Centre,"sb/d.png",0,0 M,4,214782,215382,380,313,445,434 F,0,214782,215382,1,0 S,0,214782,215382,0.7,0.28 P,0,214782,215382,A
Sprite,Foreground,Centre,"sb/d.png",0,0 M,4,214782,215382,380,313,282,243 F,0,214782,215382,1,0 S,0,214782,215382,0.7,0.28 P,0,214782,215382,A
Sprite,Foreground,Centre,"sb/d.png",0,0 M,4,214782,215382,380,313,355,365 F,0,214782,215382,1,0 S,0,214782,215382,0.7,0.28 P,0,214782,215382,A
Sprite,Foreground,Centre,"sb/d.png",0,0 M,4,214782,215382,380,313,505,421 F,0,214782,215382,1,0 S,0,214782,215382,0.7,0.28 P,0,214782,215382,A
Sprite,Foreground,Centre,"sb/d.png",0,0 M,4,214782,215382,380,313,328,243 F,0,214782,215382,1,0 S,0,214782,215382,0.7,0.28 P,0,214782,215382,A
Sprite,Foreground,Centre,"sb/d.png",0,0 M,4,214782,215382,380,313,440,306 F,0,214782,215382,1,0 S,0,214782,215382,0.7,0.28 P,0,214782,215382,A
Sprite,Foreground,Centre,"sb/d.png",0,0 M,4,215082,215682,412,209,517,293 F,0,215082,215682,1,0 S,0,215082,215682,0.7,0.28 P,0,215082,215682,A
Sprite,Foreground,Centre,"sb/d.png",0,0 M,4,215082,215682,412,209,307,209 F,0,215082,215682,1,0 S,0,215082,215682,0.7,0.28 P,0,215082,215682,A
Sprite,Foreground,Centre,"sb/d.png",0,0 M,4,215082,215682,412,209,352,134 F,0,215082,215682,1,0 S,0,215082,215682,0.7,0.28 P,0,215082,215682,A
Sprite,Foreground,Centre,"sb/d.png",0,0 M,4,215082,215682,412,209,404,286 F,0,215082,215682,1,0 S,0,215082,215682,0.7,0.28 P,0,215082,215682,A
Sprite,Foreground,Centre,"sb/d.png",0,0 M,4,215082,215682,412,209,349,80 F,0,215082,215682,1,0 S,0,215082,215682,0.7,0.28 P,0,215082,215682,A
Sprite,Foreground,Centre,"sb/d.png",0,0 M,4,215082,215682,412,209,550,215 F,0,215082,215682,1,0 S,0,215082,215682,0.7,0.28 P,0,215082,215682,A
Sprite,Foreground,Centre,"sb/d.png",0,0 M,4,215082,215682,412,209,281,167 F,0,215082,215682,1,0 S,0,215082,215682,0.7,0.28 P,0,215082,215682,A
Sprite,Foreground,Centre,"sb/d.png",0,0 M,4,215382,215982,346,125,357,232 F,0,215382,215982,1,0 S,0,215382,215982,0.7,0.28 P,0,215382,215982,A
Sprite,Foreground,Centre,"sb/d.png",0,0 M,4,215382,215982,346,125,231,131 F,0,215382,215982,1,0 S,0,215382,215982,0.7,0.28 P,0,215382,215982,A
Sprite,Foreground,Centre,"sb/d.png",0,0 M,4,215382,215982,346,125,320,155 F,0,215382,215982,1,0 S,0,215382,215982,0.7,0.28 P,0,215382,215982,A
Sprite,Foreground,Centre,"sb/d.png",0,0 M,4,215382,215982,346,125,449,101 F,0,215382,215982,1,0 S,0,215382,215982,0.7,0.28 P,0,215382,215982,A
Sprite,Foreground,Centre,"sb/d.png",0,0 M,4,215382,215982,346,125,443,85 F,0,215382,215982,1,0 S,0,215382,215982,0.7,0.28 P,0,215382,215982,A
Sprite,Foreground,Centre,"sb/d.png",0,0 M,4,215382,215982,346,125,398,84 F,0,215382,215982,1,0 S,0,215382,215982,0.7,0.28 P,0,215382,215982,A
Sprite,Foreground,Centre,"sb/d.png",0,0 M,4,215382,215982,346,125,318,208 F,0,215382,215982,1,0 S,0,215382,215982,0.7,0.28 P,0,215382,215982,A
Sprite,Foreground,Centre,"sb/d.png",0,0 M,4,215682,216282,239,125,335,28 F,0,215682,216282,1,0 S,0,215682,216282,0.7,0.28 P,0,215682,216282,A
Sprite,Foreground,Centre,"sb/d.png",0,0 M,4,215682,216282,239,125,221,143 F,0,215682,216282,1,0 S,0,215682,216282,0.7,0.28 P,0,215682,216282,A
Sprite,Foreground,Centre,"sb/d.png",0,0 M,4,215682,216282,239,125,387,166 F,0,215682,216282,1,0 S,0,215682,216282,0.7,0.28 P,0,215682,216282,A
Sprite,Foreground,Centre,"sb/d.png",0,0 M,4,215682,216282,239,125,118,85 F,0,215682,216282,1,0 S,0,215682,216282,0.7,0.28 P,0,215682,216282,A
Sprite,Foreground,Centre,"sb/d.png",0,0 M,4,215682,216282,239,125,110,186 F,0,215682,216282,1,0 S,0,215682,216282,0.7,0.28 P,0,215682,216282,A
Sprite,Foreground,Centre,"sb/d.png",0,0 M,4,215682,216282,239,125,269,3 F,0,215682,216282,1,0 S,0,215682,216282,0.7,0.28 P,0,215682,216282,A
Sprite,Foreground,Centre,"sb/d.png",0,0 M,4,215682,216282,239,125,148,60 F,0,215682,216282,1,0 S,0,215682,216282,0.7,0.28 P,0,215682,216282,A
Sprite,Foreground,Centre,"sb/d.png",0,0 M,4,215982,216582,176,212,313,256 F,0,215982,216582,1,0 S,0,215982,216582,0.7,0.28 P,0,215982,216582,A
Sprite,Foreground,Centre,"sb/d.png",0,0 M,4,215982,216582,176,212,309,257 F,0,215982,216582,1,0 S,0,215982,216582,0.7,0.28 P,0,215982,216582,A
Sprite,Foreground,Centre,"sb/d.png",0,0 M,4,215982,216582,176,212,86,78 F,0,215982,216582,1,0 S,0,215982,216582,0.7,0.28 P,0,215982,216582,A
Sprite,Foreground,Centre,"sb/d.png",0,0 M,4,215982,216582,176,212,66,79 F,0,215982,216582,1,0 S,0,215982,216582,0.7,0.28 P,0,215982,216582,A
Sprite,Foreground,Centre,"sb/d.png",0,0 M,4,215982,216582,176,212,248,304 F,0,215982,216582,1,0 S,0,215982,216582,0.7,0.28 P,0,215982,216582,A
Sprite,Foreground,Centre,"sb/d.png",0,0 M,4,215982,216582,176,212,281,92 F,0,215982,216582,1,0 S,0,215982,216582,0.7,0.28 P,0,215982,216582,A
Sprite,Foreground,Centre,"sb/d.png",0,0 M,4,215982,216582,176,212,215,190 F,0,215982,216582,1,0 S,0,215982,216582,0.7,0.28 P,0,215982,216582,A
Sprite,Foreground,Centre,"sb/d.png",0,0 M,4,216432,217032,246,318,383,402 F,0,216432,217032,1,0 S,0,216432,217032,0.7,0.28 P,0,216432,217032,A
Sprite,Foreground,Centre,"sb/d.png",0,0 M,4,216432,217032,246,318,343,448 F,0,216432,217032,1,0 S,0,216432,217032,0.7,0.28 P,0,216432,217032,A
Sprite,Foreground,Centre,"sb/d.png",0,0 M,4,216432,217032,246,318,349,376 F,0,216432,217032,1,0 S,0,216432,217032,0.7,0.28 P,0,216432,217032,A
Sprite,Foreground,Centre,"sb/d.png",0,0 M,4,216432,217032,246,318,376,202 F,0,216432,217032,1,0 S,0,216432,217032,0.7,0.28 P,0,216432,217032,A
Sprite,Foreground,Centre,"sb/d.png",0,0 M,4,216432,217032,246,318,285,288 F,0,216432,217032,1,0 S,0,216432,217032,0.7,0.28 P,0,216432,217032,A
Sprite,Foreground,Centre,"sb/d.png",0,0 M,4,216432,217032,246,318,253,296 F,0,216432,217032,1,0 S,0,216432,217032,0.7,0.28 P,0,216432,217032,A
Sprite,Foreground,Centre,"sb/d.png",0,0 M,4,216432,217032,246,318,175,219 F,0,216432,217032,1,0 S,0,216432,217032,0.7,0.28 P,0,216432,217032,A
Sprite,Foreground,Centre,"sb/d.png",0,0 M,4,216582,217182,284,355,370,329 F,0,216582,217182,1,0 S,0,216582,217182,0.7,0.28 P,0,216582,217182,A
Sprite,Foreground,Centre,"sb/d.png",0,0 M,4,216582,217182,284,355,409,301 F,0,216582,217182,1,0 S,0,216582,217182,0.7,0.28 P,0,216582,217182,A
Sprite,Foreground,Centre,"sb/d.png",0,0 M,4,216582,217182,284,355,254,372 F,0,216582,217182,1,0 S,0,216582,217182,0.7,0.28 P,0,216582,217182,A
Sprite,Foreground,Centre,"sb/d.png",0,0 M,4,216582,217182,284,355,272,257 F,0,216582,217182,1,0 S,0,216582,217182,0.7,0.28 P,0,216582,217182,A
Sprite,Foreground,Centre,"sb/d.png",0,0 M,4,216582,217182,284,355,261,211 F,0,216582,217182,1,0 S,0,216582,217182,0.7,0.28 P,0,216582,217182,A
Sprite,Foreground,Centre,"sb/d.png",0,0 M,4,216582,217182,284,355,182,310 F,0,216582,217182,1,0 S,0,216582,217182,0.7,0.28 P,0,216582,217182,A
Sprite,Foreground,Centre,"sb/d.png",0,0 M,4,216582,217182,284,355,326,433 F,0,216582,217182,1,0 S,0,216582,217182,0.7,0.28 P,0,216582,217182,A
Sprite,Foreground,Centre,"sb/d.png",0,0 M,4,216882,217482,213,436,193,475 F,0,216882,217482,1,0 S,0,216882,217482,0.7,0.28 P,0,216882,217482,A
Sprite,Foreground,Centre,"sb/d.png",0,0 M,4,216882,217482,213,436,275,554 F,0,216882,217482,1,0 S,0,216882,217482,0.7,0.28 P,0,216882,217482,A
Sprite,Foreground,Centre,"sb/d.png",0,0 M,4,216882,217482,213,436,64,487 F,0,216882,217482,1,0 S,0,216882,217482,0.7,0.28 P,0,216882,217482,A
Sprite,Foreground,Centre,"sb/d.png",0,0 M,4,216882,217482,213,436,186,372 F,0,216882,217482,1,0 S,0,216882,217482,0.7,0.28 P,0,216882,217482,A
Sprite,Foreground,Centre,"sb/d.png",0,0 M,4,216882,217482,213,436,326,485 F,0,216882,217482,1,0 S,0,216882,217482,0.7,0.28 P,0,216882,217482,A
Sprite,Foreground,Centre,"sb/d.png",0,0 M,4,216882,217482,213,436,137,436 F,0,216882,217482,1,0 S,0,216882,217482,0.7,0.28 P,0,216882,217482,A
Sprite,Foreground,Centre,"sb/d.png",0,0 M,4,216882,217482,213,436,167,539 F,0,216882,217482,1,0 S,0,216882,217482,0.7,0.28 P,0,216882,217482,A
Sprite,Foreground,Centre,"sb/d.png",0,0 M,4,217482,218082,78,300,-67,313 F,0,217482,218082,1,0 S,0,217482,218082,0.7,0.28 P,0,217482,218082,A
Sprite,Foreground,Centre,"sb/d.png",0,0 M,4,217482,218082,78,300,-34,382 F,0,217482,218082,1,0 S,0,217482,218082,0.7,0.28 P,0,217482,218082,A
Sprite,Foreground,Centre,"sb/d.png",0,0 M,4,217482,218082,78,300,165,439 F,0,217482,218082,1,0 S,0,217482,218082,0.7,0.28 P,0,217482,218082,A
Sprite,Foreground,Centre,"sb/d.png",0,0 M,4,217482,218082,78,300,9,248 F,0,217482,218082,1,0 S,0,217482,218082,0.7,0.28 P,0,217482,218082,A
Sprite,Foreground,Centre,"sb/d.png",0,0 M,4,217482,218082,78,300,194,309 F,0,217482,218082,1,0 S,0,217482,218082,0.7,0.28 P,0,217482,218082,A
Sprite,Foreground,Centre,"sb/d.png",0,0 M,4,217482,218082,78,300,138,171 F,0,217482,218082,1,0 S,0,217482,218082,0.7,0.28 P,0,217482,218082,A
Sprite,Foreground,Centre,"sb/d.png",0,0 M,4,217482,218082,78,300,217,384 F,0,217482,218082,1,0 S,0,217482,218082,0.7,0.28 P,0,217482,218082,A
Sprite,Foreground,Centre,"sb/d.png",0,0 M,4,218082,218682,172,131,129,221 F,0,218082,218682,1,0 S,0,218082,218682,0.7,0.28 P,0,218082,218682,A
Sprite,Foreground,Centre,"sb/d.png",0,0 M,4,218082,218682,172,131,253,129 F,0,218082,218682,1,0 S,0,218082,218682,0.7,0.28 P,0,218082,218682,A
Sprite,Foreground,Centre,"sb/d.png",0,0 M,4,218082,218682,172,131,37,33 F,0,218082,218682,1,0 S,0,218082,218682,0.7,0.28 P,0,218082,218682,A
Sprite,Foreground,Centre,"sb/d.png",0,0 M,4,218082,218682,172,131,225,280 F,0,218082,218682,1,0 S,0,218082,218682,0.7,0.28 P,0,218082,218682,A
Sprite,Foreground,Centre,"sb/d.png",0,0 M,4,218082,218682,172,131,229,170 F,0,218082,218682,1,0 S,0,218082,218682,0.7,0.28 P,0,218082,218682,A
Sprite,Foreground,Centre,"sb/d.png",0,0 M,4,218082,218682,172,131,148,159 F,0,218082,218682,1,0 S,0,218082,218682,0.7,0.28 P,0,218082,218682,A
Sprite,Foreground,Centre,"sb/d.png",0,0 M,4,218082,218682,172,131,250,130 F,0,218082,218682,1,0 S,0,218082,218682,0.7,0.28 P,0,218082,218682,A
Sprite,Foreground,Centre,"sb/d.png",0,0 M,4,218382,218982,266,182,276,108 F,0,218382,218982,1,0 S,0,218382,218982,0.7,0.28 P,0,218382,218982,A
Sprite,Foreground,Centre,"sb/d.png",0,0 M,4,218382,218982,266,182,138,301 F,0,218382,218982,1,0 S,0,218382,218982,0.7,0.28 P,0,218382,218982,A
Sprite,Foreground,Centre,"sb/d.png",0,0 M,4,218382,218982,266,182,178,217 F,0,218382,218982,1,0 S,0,218382,218982,0.7,0.28 P,0,218382,218982,A
Sprite,Foreground,Centre,"sb/d.png",0,0 M,4,218382,218982,266,182,163,296 F,0,218382,218982,1,0 S,0,218382,218982,0.7,0.28 P,0,218382,218982,A
Sprite,Foreground,Centre,"sb/d.png",0,0 M,4,218382,218982,266,182,384,148 F,0,218382,218982,1,0 S,0,218382,218982,0.7,0.28 P,0,218382,218982,A
Sprite,Foreground,Centre,"sb/d.png",0,0 M,4,218382,218982,266,182,284,235 F,0,218382,218982,1,0 S,0,218382,218982,0.7,0.28 P,0,218382,218982,A
Sprite,Foreground,Centre,"sb/d.png",0,0 M,4,218382,218982,266,182,263,64 F,0,218382,218982,1,0 S,0,218382,218982,0.7,0.28 P,0,218382,218982,A
Sprite,Foreground,Centre,"sb/d.png",0,0 M,4,218832,219432,400,143,473,45 F,0,218832,219432,1,0 S,0,218832,219432,0.7,0.28 P,0,218832,219432,A
Sprite,Foreground,Centre,"sb/d.png",0,0 M,4,218832,219432,400,143,307,273 F,0,218832,219432,1,0 S,0,218832,219432,0.7,0.28 P,0,218832,219432,A
Sprite,Foreground,Centre,"sb/d.png",0,0 M,4,218832,219432,400,143,461,182 F,0,218832,219432,1,0 S,0,218832,219432,0.7,0.28 P,0,218832,219432,A
Sprite,Foreground,Centre,"sb/d.png",0,0 M,4,218832,219432,400,143,529,16 F,0,218832,219432,1,0 S,0,218832,219432,0.7,0.28 P,0,218832,219432,A
Sprite,Foreground,Centre,"sb/d.png",0,0 M,4,218832,219432,400,143,517,219 F,0,218832,219432,1,0 S,0,218832,219432,0.7,0.28 P,0,218832,219432,A
Sprite,Foreground,Centre,"sb/d.png",0,0 M,4,218832,219432,400,143,385,45 F,0,218832,219432,1,0 S,0,218832,219432,0.7,0.28 P,0,218832,219432,A
Sprite,Foreground,Centre,"sb/d.png",0,0 M,4,218832,219432,400,143,299,-2 F,0,218832,219432,1,0 S,0,218832,219432,0.7,0.28 P,0,218832,219432,A
Sprite,Foreground,Centre,"sb/d.png",0,0 M,4,219282,219882,530,187,635,185 F,0,219282,219882,1,0 S,0,219282,219882,0.7,0.28 P,0,219282,219882,A
Sprite,Foreground,Centre,"sb/d.png",0,0 M,4,219282,219882,530,187,485,96 F,0,219282,219882,1,0 S,0,219282,219882,0.7,0.28 P,0,219282,219882,A
Sprite,Foreground,Centre,"sb/d.png",0,0 M,4,219282,219882,530,187,440,268 F,0,219282,219882,1,0 S,0,219282,219882,0.7,0.28 P,0,219282,219882,A
Sprite,Foreground,Centre,"sb/d.png",0,0 M,4,219282,219882,530,187,617,227 F,0,219282,219882,1,0 S,0,219282,219882,0.7,0.28 P,0,219282,219882,A
Sprite,Foreground,Centre,"sb/d.png",0,0 M,4,219282,219882,530,187,517,277 F,0,219282,219882,1,0 S,0,219282,219882,0.7,0.28 P,0,219282,219882,A
Sprite,Foreground,Centre,"sb/d.png",0,0 M,4,219282,219882,530,187,638,141 F,0,219282,219882,1,0 S,0,219282,219882,0.7,0.28 P,0,219282,219882,A
Sprite,Foreground,Centre,"sb/d.png",0,0 M,4,219282,219882,530,187,566,179 F,0,219282,219882,1,0 S,0,219282,219882,0.7,0.28 P,0,219282,219882,A
Sprite,Foreground,Centre,"sb/d.png",0,0 M,4,219582,220182,489,287,610,252 F,0,219582,220182,1,0 S,0,219582,220182,0.7,0.28 P,0,219582,220182,A
Sprite,Foreground,Centre,"sb/d.png",0,0 M,4,219582,220182,489,287,619,248 F,0,219582,220182,1,0 S,0,219582,220182,0.7,0.28 P,0,219582,220182,A
Sprite,Foreground,Centre,"sb/d.png",0,0 M,4,219582,220182,489,287,544,308 F,0,219582,220182,1,0 S,0,219582,220182,0.7,0.28 P,0,219582,220182,A
Sprite,Foreground,Centre,"sb/d.png",0,0 M,4,219582,220182,489,287,414,292 F,0,219582,220182,1,0 S,0,219582,220182,0.7,0.28 P,0,219582,220182,A
Sprite,Foreground,Centre,"sb/d.png",0,0 M,4,219582,220182,489,287,470,283 F,0,219582,220182,1,0 S,0,219582,220182,0.7,0.28 P,0,219582,220182,A
Sprite,Foreground,Centre,"sb/d.png",0,0 M,4,219582,220182,489,287,606,176 F,0,219582,220182,1,0 S,0,219582,220182,0.7,0.28 P,0,219582,220182,A
Sprite,Foreground,Centre,"sb/d.png",0,0 M,4,219582,220182,489,287,508,274 F,0,219582,220182,1,0 S,0,219582,220182,0.7,0.28 P,0,219582,220182,A
Sprite,Foreground,Centre,"sb/d.png",0,0 M,4,220182,220782,294,250,252,196 F,0,220182,220782,1,0 S,0,220182,220782,0.7,0.28 P,0,220182,220782,A
Sprite,Foreground,Centre,"sb/d.png",0,0 M,4,220182,220782,294,250,278,110 F,0,220182,220782,1,0 S,0,220182,220782,0.7,0.28 P,0,220182,220782,A
Sprite,Foreground,Centre,"sb/d.png",0,0 M,4,220182,220782,294,250,279,141 F,0,220182,220782,1,0 S,0,220182,220782,0.7,0.28 P,0,220182,220782,A
Sprite,Foreground,Centre,"sb/d.png",0,0 M,4,220182,220782,294,250,152,220 F,0,220182,220782,1,0 S,0,220182,220782,0.7,0.28 P,0,220182,220782,A
Sprite,Foreground,Centre,"sb/d.png",0,0 M,4,220182,220782,294,250,154,209 F,0,220182,220782,1,0 S,0,220182,220782,0.7,0.28 P,0,220182,220782,A
Sprite,Foreground,Centre,"sb/d.png",0,0 M,4,220182,220782,294,250,286,315 F,0,220182,220782,1,0 S,0,220182,220782,0.7,0.28 P,0,220182,220782,A
Sprite,Foreground,Centre,"sb/d.png",0,0 M,4,220182,220782,294,250,238,133 F,0,220182,220782,1,0 S,0,220182,220782,0.7,0.28 P,0,220182,220782,A
Sprite,Foreground,Centre,"sb/d.png",0,0 M,4,220482,221082,249,337,314,304 F,0,220482,221082,1,0 S,0,220482,221082,0.7,0.28 P,0,220482,221082,A
Sprite,Foreground,Centre,"sb/d.png",0,0 M,4,220482,221082,249,337,120,293 F,0,220482,221082,1,0 S,0,220482,221082,0.7,0.28 P,0,220482,221082,A
Sprite,Foreground,Centre,"sb/d.png",0,0 M,4,220482,221082,249,337,101,323 F,0,220482,221082,1,0 S,0,220482,221082,0.7,0.28 P,0,220482,221082,A
Sprite,Foreground,Centre,"sb/d.png",0,0 M,4,220482,221082,249,337,150,338 F,0,220482,221082,1,0 S,0,220482,221082,0.7,0.28 P,0,220482,221082,A
Sprite,Foreground,Centre,"sb/d.png",0,0 M,4,220482,221082,249,337,344,210 F,0,220482,221082,1,0 S,0,220482,221082,0.7,0.28 P,0,220482,221082,A
Sprite,Foreground,Centre,"sb/d.png",0,0 M,4,220482,221082,249,337,245,365 F,0,220482,221082,1,0 S,0,220482,221082,0.7,0.28 P,0,220482,221082,A
Sprite,Foreground,Centre,"sb/d.png",0,0 M,4,220482,221082,249,337,329,287 F,0,220482,221082,1,0 S,0,220482,221082,0.7,0.28 P,0,220482,221082,A
Sprite,Foreground,Centre,"sb/d.png",0,0 M,4,220782,221382,296,422,162,531 F,0,220782,221382,1,0 S,0,220782,221382,0.7,0.28 P,0,220782,221382,A
Sprite,Foreground,Centre,"sb/d.png",0,0 M,4,220782,221382,296,422,238,293 F,0,220782,221382,1,0 S,0,220782,221382,0.7,0.28 P,0,220782,221382,A
Sprite,Foreground,Centre,"sb/d.png",0,0 M,4,220782,221382,296,422,207,371 F,0,220782,221382,1,0 S,0,220782,221382,0.7,0.28 P,0,220782,221382,A
Sprite,Foreground,Centre,"sb/d.png",0,0 M,4,220782,221382,296,422,227,312 F,0,220782,221382,1,0 S,0,220782,221382,0.7,0.28 P,0,220782,221382,A
Sprite,Foreground,Centre,"sb/d.png",0,0 M,4,220782,221382,296,422,252,519 F,0,220782,221382,1,0 S,0,220782,221382,0.7,0.28 P,0,220782,221382,A
Sprite,Foreground,Centre,"sb/d.png",0,0 M,4,220782,221382,296,422,414,416 F,0,220782,221382,1,0 S,0,220782,221382,0.7,0.28 P,0,220782,221382,A
Sprite,Foreground,Centre,"sb/d.png",0,0 M,4,220782,221382,296,422,280,423 F,0,220782,221382,1,0 S,0,220782,221382,0.7,0.28 P,0,220782,221382,A
Sprite,Foreground,Centre,"sb/d.png",0,0 M,4,221232,221832,423,384,378,404 F,0,221232,221832,1,0 S,0,221232,221832,0.7,0.28 P,0,221232,221832,A
Sprite,Foreground,Centre,"sb/d.png",0,0 M,4,221232,221832,423,384,541,524 F,0,221232,221832,1,0 S,0,221232,221832,0.7,0.28 P,0,221232,221832,A
Sprite,Foreground,Centre,"sb/d.png",0,0 M,4,221232,221832,423,384,349,276 F,0,221232,221832,1,0 S,0,221232,221832,0.7,0.28 P,0,221232,221832,A
Sprite,Foreground,Centre,"sb/d.png",0,0 M,4,221232,221832,423,384,512,248 F,0,221232,221832,1,0 S,0,221232,221832,0.7,0.28 P,0,221232,221832,A
Sprite,Foreground,Centre,"sb/d.png",0,0 M,4,221232,221832,423,384,397,394 F,0,221232,221832,1,0 S,0,221232,221832,0.7,0.28 P,0,221232,221832,A
Sprite,Foreground,Centre,"sb/d.png",0,0 M,4,221232,221832,423,384,309,266 F,0,221232,221832,1,0 S,0,221232,221832,0.7,0.28 P,0,221232,221832,A
Sprite,Foreground,Centre,"sb/d.png",0,0 M,4,221232,221832,423,384,359,490 F,0,221232,221832,1,0 S,0,221232,221832,0.7,0.28 P,0,221232,221832,A
Sprite,Foreground,Centre,"sb/d.png",0,0 M,4,221682,222282,524,306,524,266 F,0,221682,222282,1,0 S,0,221682,222282,0.7,0.28 P,0,221682,222282,A
Sprite,Foreground,Centre,"sb/d.png",0,0 M,4,221682,222282,524,306,537,413 F,0,221682,222282,1,0 S,0,221682,222282,0.7,0.28 P,0,221682,222282,A
Sprite,Foreground,Centre,"sb/d.png",0,0 M,4,221682,222282,524,306,485,364 F,0,221682,222282,1,0 S,0,221682,222282,0.7,0.28 P,0,221682,222282,A
Sprite,Foreground,Centre,"sb/d.png",0,0 M,4,221682,222282,524,306,477,207 F,0,221682,222282,1,0 S,0,221682,222282,0.7,0.28 P,0,221682,222282,A
Sprite,Foreground,Centre,"sb/d.png",0,0 M,4,221682,222282,524,306,391,277 F,0,221682,222282,1,0 S,0,221682,222282,0.7,0.28 P,0,221682,222282,A
Sprite,Foreground,Centre,"sb/d.png",0,0 M,4,221682,222282,524,306,527,450 F,0,221682,222282,1,0 S,0,221682,222282,0.7,0.28 P,0,221682,222282,A
Sprite,Foreground,Centre,"sb/d.png",0,0 M,4,221682,222282,524,306,625,330 F,0,221682,222282,1,0 S,0,221682,222282,0.7,0.28 P,0,221682,222282,A
Sprite,Foreground,Centre,"sb/d.png",0,0 M,4,221982,222582,576,210,437,133 F,0,221982,222582,1,0 S,0,221982,222582,0.7,0.28 P,0,221982,222582,A
Sprite,Foreground,Centre,"sb/d.png",0,0 M,4,221982,222582,576,210,564,217 F,0,221982,222582,1,0 S,0,221982,222582,0.7,0.28 P,0,221982,222582,A
Sprite,Foreground,Centre,"sb/d.png",0,0 M,4,221982,222582,576,210,428,260 F,0,221982,222582,1,0 S,0,221982,222582,0.7,0.28 P,0,221982,222582,A
Sprite,Foreground,Centre,"sb/d.png",0,0 M,4,221982,222582,576,210,472,135 F,0,221982,222582,1,0 S,0,221982,222582,0.7,0.28 P,0,221982,222582,A
Sprite,Foreground,Centre,"sb/d.png",0,0 M,4,221982,222582,576,210,480,216 F,0,221982,222582,1,0 S,0,221982,222582,0.7,0.28 P,0,221982,222582,A
Sprite,Foreground,Centre,"sb/d.png",0,0 M,4,221982,222582,576,210,527,247 F,0,221982,222582,1,0 S,0,221982,222582,0.7,0.28 P,0,221982,222582,A
Sprite,Foreground,Centre,"sb/d.png",0,0 M,4,221982,222582,576,210,587,62 F,0,221982,222582,1,0 S,0,221982,222582,0.7,0.28 P,0,221982,222582,A
Sprite,Foreground,Centre,"sb/d.png",0,0 M,4,222582,223182,448,88,432,169 F,0,222582,223182,1,0 S,0,222582,223182,0.7,0.28 P,0,222582,223182,A
Sprite,Foreground,Centre,"sb/d.png",0,0 M,4,222582,223182,448,88,582,-33 F,0,222582,223182,1,0 S,0,222582,223182,0.7,0.28 P,0,222582,223182,A
Sprite,Foreground,Centre,"sb/d.png",0,0 M,4,222582,223182,448,88,311,63 F,0,222582,223182,1,0 S,0,222582,223182,0.7,0.28 P,0,222582,223182,A
Sprite,Foreground,Centre,"sb/d.png",0,0 M,4,222582,223182,448,88,488,233 F,0,222582,223182,1,0 S,0,222582,223182,0.7,0.28 P,0,222582,223182,A
Sprite,Foreground,Centre,"sb/d.png",0,0 M,4,222582,223182,448,88,381,-52 F,0,222582,223182,1,0 S,0,222582,223182,0.7,0.28 P,0,222582,223182,A
Sprite,Foreground,Centre,"sb/d.png",0,0 M,4,222582,223182,448,88,331,163 F,0,222582,223182,1,0 S,0,222582,223182,0.7,0.28 P,0,222582,223182,A
Sprite,Foreground,Centre,"sb/d.png",0,0 M,4,222582,223182,448,88,345,-8 F,0,222582,223182,1,0 S,0,222582,223182,0.7,0.28 P,0,222582,223182,A
Sprite,Foreground,Centre,"sb/d.png",0,0 M,4,223182,223782,331,219,334,216 F,0,223182,223782,1,0 S,0,223182,223782,0.7,0.28 P,0,223182,223782,A
Sprite,Foreground,Centre,"sb/d.png",0,0 M,4,223182,223782,331,219,317,151 F,0,223182,223782,1,0 S,0,223182,223782,0.7,0.28 P,0,223182,223782,A
Sprite,Foreground,Centre,"sb/d.png",0,0 M,4,223182,223782,331,219,272,133 F,0,223182,223782,1,0 S,0,223182,223782,0.7,0.28 P,0,223182,223782,A
Sprite,Foreground,Centre,"sb/d.png",0,0 M,4,223182,223782,331,219,184,119 F,0,223182,223782,1,0 S,0,223182,223782,0.7,0.28 P,0,223182,223782,A
Sprite,Foreground,Centre,"sb/d.png",0,0 M,4,223182,223782,331,219,202,248 F,0,223182,223782,1,0 S,0,223182,223782,0.7,0.28 P,0,223182,223782,A
Sprite,Foreground,Centre,"sb/d.png",0,0 M,4,223182,223782,331,219,211,254 F,0,223182,223782,1,0 S,0,223182,223782,0.7,0.28 P,0,223182,223782,A
Sprite,Foreground,Centre,"sb/d.png",0,0 M,4,223182,223782,331,219,390,144 F,0,223182,223782,1,0 S,0,223182,223782,0.7,0.28 P,0,223182,223782,A
Sprite,Foreground,Centre,"sb/d.png",0,0 M,4,223332,223932,331,219,236,76 F,0,223332,223932,1,0 S,0,223332,223932,0.7,0.28 P,0,223332,223932,A
Sprite,Foreground,Centre,"sb/d.png",0,0 M,4,223332,223932,331,219,337,293 F,0,223332,223932,1,0 S,0,223332,223932,0.7,0.28 P,0,223332,223932,A
Sprite,Foreground,Centre,"sb/d.png",0,0 M,4,223332,223932,331,219,228,170 F,0,223332,223932,1,0 S,0,223332,223932,0.7,0.28 P,0,223332,223932,A
Sprite,Foreground,Centre,"sb/d.png",0,0 M,4,223332,223932,331,219,397,154 F,0,223332,223932,1,0 S,0,223332,223932,0.7,0.28 P,0,223332,223932,A
Sprite,Foreground,Centre,"sb/d.png",0,0 M,4,223332,223932,331,219,317,193 F,0,223332,223932,1,0 S,0,223332,223932,0.7,0.28 P,0,223332,223932,A
Sprite,Foreground,Centre,"sb/d.png",0,0 M,4,223332,223932,331,219,461,194 F,0,223332,223932,1,0 S,0,223332,223932,0.7,0.28 P,0,223332,223932,A
Sprite,Foreground,Centre,"sb/d.png",0,0 M,4,223332,223932,331,219,465,84 F,0,223332,223932,1,0 S,0,223332,223932,0.7,0.28 P,0,223332,223932,A
Sprite,Foreground,Centre,"sb/d.png",0,0 M,4,223632,224232,234,184,373,161 F,0,223632,224232,1,0 S,0,223632,224232,0.7,0.28 P,0,223632,224232,A
Sprite,Foreground,Centre,"sb/d.png",0,0 M,4,223632,224232,234,184,208,110 F,0,223632,224232,1,0 S,0,223632,224232,0.7,0.28 P,0,223632,224232,A
Sprite,Foreground,Centre,"sb/d.png",0,0 M,4,223632,224232,234,184,236,326 F,0,223632,224232,1,0 S,0,223632,224232,0.7,0.28 P,0,223632,224232,A
Sprite,Foreground,Centre,"sb/d.png",0,0 M,4,223632,224232,234,184,305,241 F,0,223632,224232,1,0 S,0,223632,224232,0.7,0.28 P,0,223632,224232,A
Sprite,Foreground,Centre,"sb/d.png",0,0 M,4,223632,224232,234,184,103,52 F,0,223632,224232,1,0 S,0,223632,224232,0.7,0.28 P,0,223632,224232,A
Sprite,Foreground,Centre,"sb/d.png",0,0 M,4,223632,224232,234,184,179,130 F,0,223632,224232,1,0 S,0,223632,224232,0.7,0.28 P,0,223632,224232,A
Sprite,Foreground,Centre,"sb/d.png",0,0 M,4,223632,224232,234,184,383,117 F,0,223632,224232,1,0 S,0,223632,224232,0.7,0.28 P,0,223632,224232,A
Sprite,Foreground,Centre,"sb/d.png",0,0 M,4,223782,224382,234,184,294,139 F,0,223782,224382,1,0 S,0,223782,224382,0.7,0.28 P,0,223782,224382,A
Sprite,Foreground,Centre,"sb/d.png",0,0 M,4,223782,224382,234,184,383,161 F,0,223782,224382,1,0 S,0,223782,224382,0.7,0.28 P,0,223782,224382,A
Sprite,Foreground,Centre,"sb/d.png",0,0 M,4,223782,224382,234,184,299,149 F,0,223782,224382,1,0 S,0,223782,224382,0.7,0.28 P,0,223782,224382,A
Sprite,Foreground,Centre,"sb/d.png",0,0 M,4,223782,224382,234,184,323,110 F,0,223782,224382,1,0 S,0,223782,224382,0.7,0.28 P,0,223782,224382,A
Sprite,Foreground,Centre,"sb/d.png",0,0 M,4,223782,224382,234,184,238,143 F,0,223782,224382,1,0 S,0,223782,224382,0.7,0.28 P,0,223782,224382,A
Sprite,Foreground,Centre,"sb/d.png",0,0 M,4,223782,224382,234,184,262,280 F,0,223782,224382,1,0 S,0,223782,224382,0.7,0.28 P,0,223782,224382,A
Sprite,Foreground,Centre,"sb/d.png",0,0 M,4,223782,224382,234,184,221,102 F,0,223782,224382,1,0 S,0,223782,224382,0.7,0.28 P,0,223782,224382,A
Sprite,Foreground,Centre,"sb/d.png",0,0 M,4,224082,224682,197,288,57,150 F,0,224082,224682,1,0 S,0,224082,224682,0.7,0.28 P,0,224082,224682,A
Sprite,Foreground,Centre,"sb/d.png",0,0 M,4,224082,224682,197,288,148,404 F,0,224082,224682,1,0 S,0,224082,224682,0.7,0.28 P,0,224082,224682,A
Sprite,Foreground,Centre,"sb/d.png",0,0 M,4,224082,224682,197,288,127,425 F,0,224082,224682,1,0 S,0,224082,224682,0.7,0.28 P,0,224082,224682,A
Sprite,Foreground,Centre,"sb/d.png",0,0 M,4,224082,224682,197,288,108,331 F,0,224082,224682,1,0 S,0,224082,224682,0.7,0.28 P,0,224082,224682,A
Sprite,Foreground,Centre,"sb/d.png",0,0 M,4,224082,224682,197,288,102,391 F,0,224082,224682,1,0 S,0,224082,224682,0.7,0.28 P,0,224082,224682,A
Sprite,Foreground,Centre,"sb/d.png",0,0 M,4,224082,224682,197,288,80,355 F,0,224082,224682,1,0 S,0,224082,224682,0.7,0.28 P,0,224082,224682,A
Sprite,Foreground,Centre,"sb/d.png",0,0 M,4,224082,224682,197,288,200,286 F,0,224082,224682,1,0 S,0,224082,224682,0.7,0.28 P,0,224082,224682,A
Sprite,Foreground,Centre,"sb/d.png",0,0 M,4,224232,224832,197,288,334,275 F,0,224232,224832,1,0 S,0,224232,224832,0.7,0.28 P,0,224232,224832,A
Sprite,Foreground,Centre,"sb/d.png",0,0 M,4,224232,224832,197,288,175,388 F,0,224232,224832,1,0 S,0,224232,224832,0.7,0.28 P,0,224232,224832,A
Sprite,Foreground,Centre,"sb/d.png",0,0 M,4,224232,224832,197,288,148,270 F,0,224232,224832,1,0 S,0,224232,224832,0.7,0.28 P,0,224232,224832,A
Sprite,Foreground,Centre,"sb/d.png",0,0 M,4,224232,224832,197,288,221,169 F,0,224232,224832,1,0 S,0,224232,224832,0.7,0.28 P,0,224232,224832,A
Sprite,Foreground,Centre,"sb/d.png",0,0 M,4,224232,224832,197,288,172,290 F,0,224232,224832,1,0 S,0,224232,224832,0.7,0.28 P,0,224232,224832,A
Sprite,Foreground,Centre,"sb/d.png",0,0 M,4,224232,224832,197,288,256,306 F,0,224232,224832,1,0 S,0,224232,224832,0.7,0.28 P,0,224232,224832,A
Sprite,Foreground,Centre,"sb/d.png",0,0 M,4,224232,224832,197,288,122,351 F,0,224232,224832,1,0 S,0,224232,224832,0.7,0.28 P,0,224232,224832,A
Sprite,Foreground,Centre,"sb/d.png",0,0 M,4,224532,225132,100,253,223,117 F,0,224532,225132,1,0 S,0,224532,225132,0.7,0.28 P,0,224532,225132,A
Sprite,Foreground,Centre,"sb/d.png",0,0 M,4,224532,225132,100,253,148,308 F,0,224532,225132,1,0 S,0,224532,225132,0.7,0.28 P,0,224532,225132,A
Sprite,Foreground,Centre,"sb/d.png",0,0 M,4,224532,225132,100,253,104,256 F,0,224532,225132,1,0 S,0,224532,225132,0.7,0.28 P,0,224532,225132,A
Sprite,Foreground,Centre,"sb/d.png",0,0 M,4,224532,225132,100,253,146,109 F,0,224532,225132,1,0 S,0,224532,225132,0.7,0.28 P,0,224532,225132,A
Sprite,Foreground,Centre,"sb/d.png",0,0 M,4,224532,225132,100,253,167,232 F,0,224532,225132,1,0 S,0,224532,225132,0.7,0.28 P,0,224532,225132,A
Sprite,Foreground,Centre,"sb/d.png",0,0 M,4,224532,225132,100,253,-34,114 F,0,224532,225132,1,0 S,0,224532,225132,0.7,0.28 P,0,224532,225132,A
Sprite,Foreground,Centre,"sb/d.png",0,0 M,4,224532,225132,100,253,-28,119 F,0,224532,225132,1,0 S,0,224532,225132,0.7,0.28 P,0,224532,225132,A
Sprite,Foreground,Centre,"sb/d.png",0,0 M,4,224682,225282,100,253,-1,148 F,0,224682,225282,1,0 S,0,224682,225282,0.7,0.28 P,0,224682,225282,A
Sprite,Foreground,Centre,"sb/d.png",0,0 M,4,224682,225282,100,253,44,401 F,0,224682,225282,1,0 S,0,224682,225282,0.7,0.28 P,0,224682,225282,A
Sprite,Foreground,Centre,"sb/d.png",0,0 M,4,224682,225282,100,253,212,194 F,0,224682,225282,1,0 S,0,224682,225282,0.7,0.28 P,0,224682,225282,A
Sprite,Foreground,Centre,"sb/d.png",0,0 M,4,224682,225282,100,253,38,119 F,0,224682,225282,1,0 S,0,224682,225282,0.7,0.28 P,0,224682,225282,A
Sprite,Foreground,Centre,"sb/d.png",0,0 M,4,224682,225282,100,253,231,330 F,0,224682,225282,1,0 S,0,224682,225282,0.7,0.28 P,0,224682,225282,A
Sprite,Foreground,Centre,"sb/d.png",0,0 M,4,224682,225282,100,253,95,108 F,0,224682,225282,1,0 S,0,224682,225282,0.7,0.28 P,0,224682,225282,A
Sprite,Foreground,Centre,"sb/d.png",0,0 M,4,224682,225282,100,253,143,382 F,0,224682,225282,1,0 S,0,224682,225282,0.7,0.28 P,0,224682,225282,A
Sprite,Foreground,Centre,"sb/d.png",0,0 M,4,224982,225582,80,359,117,458 F,0,224982,225582,1,0 S,0,224982,225582,0.7,0.28 P,0,224982,225582,A
Sprite,Foreground,Centre,"sb/d.png",0,0 M,4,224982,225582,80,359,-14,421 F,0,224982,225582,1,0 S,0,224982,225582,0.7,0.28 P,0,224982,225582,A
Sprite,Foreground,Centre,"sb/d.png",0,0 M,4,224982,225582,80,359,141,356 F,0,224982,225582,1,0 S,0,224982,225582,0.7,0.28 P,0,224982,225582,A
Sprite,Foreground,Centre,"sb/d.png",0,0 M,4,224982,225582,80,359,150,249 F,0,224982,225582,1,0 S,0,224982,225582,0.7,0.28 P,0,224982,225582,A
Sprite,Foreground,Centre,"sb/d.png",0,0 M,4,224982,225582,80,359,-16,337 F,0,224982,225582,1,0 S,0,224982,225582,0.7,0.28 P,0,224982,225582,A
Sprite,Foreground,Centre,"sb/d.png",0,0 M,4,224982,225582,80,359,-8,209 F,0,224982,225582,1,0 S,0,224982,225582,0.7,0.28 P,0,224982,225582,A
Sprite,Foreground,Centre,"sb/d.png",0,0 M,4,224982,225582,80,359,181,490 F,0,224982,225582,1,0 S,0,224982,225582,0.7,0.28 P,0,224982,225582,A
//Storyboard Sound Samples

[TimingPoints]
9582,300,4,2,2,60,1,0
20637,319.148936170213,4,2,2,60,1,0
20956,315.789473684211,4,2,2,60,1,0
21271,310.077519379845,4,2,2,60,1,0
21582,300,4,2,2,65,1,0
21582,-100,4,2,2,65,0,0
40782,-100,4,2,2,55,0,0
44382,-100,4,2,2,45,0,0
44982,-100,4,2,2,55,0,0
49182,-100,4,2,2,45,0,0
49782,-100,4,2,2,55,0,0
50382,-100,4,2,2,60,0,0
59982,-100,4,2,1,85,0,0
76782,-100,4,2,1,75,0,0
78582,-100,4,2,1,70,0,0
79182,-100,4,2,1,60,0,0
97182,-100,4,2,1,60,0,0
98382,-100,4,2,1,75,0,0
112782,-100,4,2,1,65,0,0
112857,-100,4,2,2,65,0,0
117582,-100,4,2,1,75,0,0
124782,-100,4,2,2,65,0,0
127182,-100,4,2,1,75,0,0
131982,-100,4,2,1,65,0,0
139182,-100,4,2,2,45,0,0
167982,-100,4,2,2,55,0,0
184782,318.302387267904,4,2,2,35,1,0
184782,-100,4,2,2,35,0,0
184942,300,4,2,2,35,1,0
187182,300,4,2,1,80,1,1
187182,-100,4,2,1,80,0,1
203982,-100,4,2,1,80,0,0
206382,-100,4,2,1,80,0,1
223182,-100,4,2,1,75,0,0
225582,-100,4,2,1,75,0,0
244332,-100,4,2,1,65,0,0
245007,-100,4,2,1,5,0,0
245082,-100,4,2,1,35,0,0
249582,-100,4,2,1,5,0,0

[Colours]
Combo1 : 223,223,223
Combo2 : 149,255,218
Combo3 : 36,74,255

[HitObjects]
88,140,9582,6,0,P|105:173|124:231,1,90,6|2,0:2|0:0,0:0:0:0:
199,365,10332,1,2,0:0:0:0:
288,230,10782,1,2,0:0:0:0:
432,157,11232,1,2,0:0:0:0:
488,314,11682,1,2,0:0:0:0:
488,314,11832,6,0,P|412:312|353:281,1,135,2|2,0:0|0:0,0:0:0:0:
262,156,12732,1,2,0:0:0:0:
114,222,13182,2,0,L|125:364,1,135,2|2,0:2|0:2,0:0:0:0:
290,361,14082,5,2,0:0:0:0:
290,361,14232,2,0,L|301:219,1,135,2|2,0:0|0:0,0:0:0:0:
354,73,15132,1,2,0:0:0:0:
502,136,15582,1,2,0:0:0:0:
448,289,16032,1,2,0:0:0:0:
300,221,16482,1,2,0:0:0:0:
300,221,16632,6,0,P|248:201|172:232,1,135,2|2,0:0|0:0,0:0:0:0:
81,358,17532,1,2,0:2:0:0:
19,208,17982,6,0,L|-1:56,2,135,2|2|2,0:2|0:2|0:0,0:0:0:0:
0,259,19032,1,10,0:0:0:0:
240,233,21271,6,0,L|233:178,1,45,2|0,0:0|0:0,0:0:0:0:
200,145,21582,6,0,P|153:159|98:159,2,90,6|0|0,1:2|0:0|1:2,0:0:0:0:
274,66,22482,1,2,0:2:0:0:
380,83,22782,1,2,0:2:0:0:
510,254,23382,1,2,0:2:0:0:
329,372,23982,6,0,P|249:327|149:327,1,180,2|0,1:2|1:0,0:0:0:0:
68,377,24882,1,2,0:2:0:0:
8,287,25182,1,2,0:2:0:0:
125,105,25782,1,2,0:2:0:0:
174,315,26382,6,0,P|258:273|357:279,1,180,0|0,1:2|1:2,0:0:0:0:
434,331,27282,1,2,0:0:0:0:
505,249,27582,1,2,0:2:0:0:
394,63,28182,1,2,0:2:0:0:
222,194,28782,6,0,P|139:197|52:128,1,180,2|8,1:2|1:2,0:0:0:0:
35,38,29682,1,2,0:2:0:0:
7,252,30282,2,0,P|10:309|32:354,2,90,2|2|2,0:2|0:2|0:2,0:0:0:0:
110,221,31182,6,0,P|162:284|267:290,1,180,2|2,1:2|1:2,0:0:0:0:
362,285,32082,2,0,P|333:251|315:204,1,90,2|2,0:2|0:2,0:0:0:0:
209,191,32682,2,0,P|225:149|254:115,1,90,2|2,0:2|0:2,0:0:0:0:
354,75,33282,1,2,0:2:0:0:
265,13,33582,6,0,P|165:1|81:29,1,180,2|0,1:2|1:2,0:0:0:0:
7,93,34482,1,2,0:2:0:0:
45,305,35082,1,2,0:2:0:0:
124,232,35382,2,0,P|166:246|198:277,1,90,2|2,0:2|0:2,0:0:0:0:
255,369,35982,6,0,P|297:301|394:266,1,180,0|0,1:2|1:2,0:0:0:0:
490,298,36882,1,2,0:2:0:0:
451,85,37482,2,0,L|469:187,2,90,2|2|2,0:2|0:2|0:2,0:0:0:0:
357,30,38382,6,0,P|285:35|230:75,2,135,2|2|2,1:2|0:2|0:2,0:0:0:0:
493,197,39882,2,0,L|479:298,2,90,2|2|2,0:2|0:2|0:2,0:0:0:0:
407,130,40782,6,0,P|350:183|240:188,1,180,14|2,0:2|1:2,0:0:0:0:
24,20,42582,1,2,1:2:0:0:
185,98,43182,6,0,P|207:202|205:279,1,180,2|0,0:2|1:2,0:0:0:0:
49,365,44382,1,0,3:2:0:0:
44,185,44982,1,2,1:2:0:0:
200,264,45582,6,0,L|379:243,1,180,2|2,1:2|1:2,0:0:0:0:
427,167,46482,1,2,0:2:0:0:
369,97,46782,2,0,L|190:76,1,180,2|2,1:2|1:2,0:0:0:0:
44,185,47982,6,0,P|118:198|192:298,1,180,2|2,1:2|1:2,0:0:0:0:
354,336,49182,2,0,P|385:300|405:242,2,90,0|2|2,3:2|3:2|1:2,0:0:0:0:
179,380,50382,5,2,0:2:0:0:
91,316,50682,2,0,P|81:275|97:211,1,90,2|2,0:2|1:2,0:0:0:0:
181,174,51282,1,2,0:2:0:0:
272,231,51582,2,0,L|450:206,1,180,2|2,0:2|1:2,0:0:0:0:
509,1,52782,5,2,0:2:0:0:
416,56,53082,2,0,L|238:31,1,180,2|2,0:2|0:2,0:0:0:0:
130,16,53982,1,2,3:2:0:0:
16,199,54582,1,2,1:2:0:0:
100,131,54882,6,0,P|126:169|128:232,1,90,2|2,0:2|0:2,0:0:0:0:
201,294,55482,1,2,3:2:0:0:
272,213,55782,2,0,P|286:146|378:98,1,135,2|2,3:2|0:2,0:0:0:0:
389,101,56382,2,0,P|432:115|491:112,2,90,2|2|2,0:2|0:2|1:2,0:0:0:0:
179,48,57582,6,0,P|117:121|121:222,3,180,0|0|0|2,3:0|3:0|3:0|3:2,0:0:0:0:
250,370,59982,5,4,3:1:0:0:
311,280,60282,2,0,L|299:188,1,90,10|0,0:0|0:0,0:0:0:0:
253,162,60732,2,0,L|259:111,1,45,0|10,3:2|0:2,0:0:0:0:
276,10,61182,1,0,3:2:0:0:
173,45,61482,2,0,P|127:50|83:43,1,90,10|0,0:0|0:0,0:0:0:0:
44,80,61932,2,0,P|51:106|52:140,1,45,0|10,3:2|0:0,0:0:0:0:
45,232,62382,5,0,3:2:0:0:
145,193,62682,2,0,P|195:188|243:199,1,90,10|2,0:0|0:2,0:0:0:0:
287,195,63132,2,0,P|309:215|323:239,1,45,0|8,3:2|0:0,0:0:0:0:
398,302,63582,1,2,3:2:0:0:
457,212,63882,1,10,0:0:0:0:
457,212,64032,2,0,L|448:119,1,90,0|0,3:2|3:2,0:0:0:0:
405,90,64482,2,0,L|399:37,1,45,10|0,0:0|3:2,0:0:0:0:
357,12,64782,5,2,3:2:0:0:
257,53,65082,2,0,P|209:53|158:37,1,90,10|0,0:0|0:0,0:0:0:0:
115,36,65532,2,0,P|91:29|57:30,1,45,0|10,3:2|0:2,0:0:0:0:
6,115,65982,1,2,3:2:0:0:
21,221,66282,2,0,L|41:315,1,90,10|0,0:0|0:0,0:0:0:0:
74,350,66732,2,0,P|94:358|125:358,1,45,0|10,3:2|0:0,0:0:0:0:
201,291,67182,6,0,P|168:258|150:216,1,90,0|10,3:2|0:0,0:0:0:0:
171,167,67632,2,0,P|181:122|208:87,1,90,2|0,0:2|0:2,0:0:0:0:
261,73,68082,1,10,0:0:0:0:
345,140,68382,2,0,P|394:141|443:126,1,90,2|8,3:2|0:0,0:0:0:0:
482,107,68832,2,0,P|467:154|468:206,1,90,2|0,3:2|0:0,0:0:0:0:
478,247,69282,1,8,0:0:0:0:
509,350,69582,5,0,3:2:0:0:
403,327,69882,2,0,P|353:324|303:339,1,90,10|0,0:0|0:0,0:0:0:0:
269,363,70332,2,0,P|245:363|224:359,1,45,0|10,3:2|0:0,0:0:0:0:
123,319,70782,1,2,3:2:0:0:
19,352,71082,2,0,L|14:252,1,90,10|2,0:0|0:0,0:0:0:0:
59,230,71532,2,0,L|62:183,1,45,0|8,3:2|0:0,0:0:0:0:
74,77,71982,5,0,3:2:0:0:
162,139,72282,2,0,P|203:149|254:144,1,90,10|2,0:0|0:0,0:0:0:0:
304,135,72732,2,0,P|326:113|339:88,1,45,0|8,3:2|0:0,0:0:0:0:
405,20,73182,1,0,3:2:0:0:
447,119,73482,1,10,0:0:0:0:
447,119,73632,2,0,L|460:212,1,90,2|0,3:2|3:2,0:0:0:0:
469,261,74082,1,10,0:0:0:0:
442,365,74382,5,2,3:2:0:0:
356,298,74682,2,0,P|310:278|253:279,1,90,10|0,0:0|0:0,0:0:0:0:
220,257,75132,2,0,P|190:268|173:279,1,45,0|10,3:2|0:0,0:0:0:0:
111,359,75582,1,2,3:2:0:0:
46,272,75882,2,0,L|62:175,1,90,10|0,0:0|0:0,0:0:0:0:
101,147,76332,2,0,L|91:94,1,45,0|10,3:2|0:0,0:0:0:0:
165,22,76782,6,0,L|202:214,3,180,0|0|2|8,3:2|1:2|1:2|0:0,0:0:0:0:
282,267,78882,2,0,L|291:222,1,45,8|0,0:0|3:0,0:0:0:0:
306,171,79182,5,4,3:1:0:0:
413,156,79482,2,0,P|464:197|475:276,1,135,10|2,0:2|3:2,0:0:0:0:
454,311,80082,1,10,0:2:0:0:
353,350,80382,2,0,L|245:336,1,90,2|10,3:2|0:2,0:0:0:0:
162,374,80982,1,2,0:2:0:0:
90,292,81282,1,10,0:0:0:0:
81,238,81432,1,2,0:0:0:0:
103,188,81582,5,2,3:2:0:0:
188,121,81882,2,0,P|239:181|303:190,1,135,10|2,0:0|3:2,0:0:0:0:
343,177,82482,1,10,0:0:0:0:
436,122,82782,1,2,3:2:0:0:
491,215,83082,1,8,0:0:0:0:
398,270,83382,2,0,P|374:283|357:289,1,45,2|2,0:0|0:0,0:0:0:0:
313,283,83682,2,0,P|286:283|268:280,1,45,10|2,0:0|0:0,0:0:0:0:
225,246,83982,5,2,3:2:0:0:
145,318,84282,1,8,0:0:0:0:
56,255,84582,1,2,0:0:0:0:
33,205,84732,1,2,3:2:0:0:
36,151,84882,2,0,P|49:96|70:69,1,90,10|2,0:0|3:2,0:0:0:0:
178,33,85482,2,0,P|224:26|277:42,1,90,10|2,0:0|0:0,0:0:0:0:
311,66,85932,1,2,3:2:0:0:
343,108,86082,1,10,0:0:0:0:
447,81,86382,5,2,3:2:0:0:
430,187,86682,2,0,L|422:231,1,45,8|2,0:0|3:2,0:0:0:0:
344,356,87282,1,10,3:2:0:0:
344,356,87582,1,2,3:2:0:0:
319,250,87882,2,0,L|311:206,1,45,10|2,0:0|3:2,0:0:0:0:
330,44,88482,1,8,3:2:0:0:
243,108,88782,6,0,P|199:123|143:118,1,90,2|10,3:2|0:0,0:0:0:0:
55,80,89382,1,2,0:0:0:0:
15,116,89532,1,2,3:2:0:0:
5,169,89682,2,0,P|53:179|89:204,1,90,10|2,0:0|3:2,0:0:0:0:
136,297,90282,1,10,0:0:0:0:
180,265,90432,2,0,L|275:259,1,90,2|0,3:2|3:2,0:0:0:0:
315,230,90882,1,10,0:0:0:0:
400,296,91182,5,2,3:2:0:0:
489,235,91482,2,0,P|510:169|506:93,1,135,10|2,0:0|3:2,0:0:0:0:
465,69,92082,2,0,P|451:38|435:18,1,45,10|2,0:0|0:0,0:0:0:0:
390,21,92382,1,2,3:2:0:0:
313,97,92682,1,8,0:0:0:0:
267,126,92832,2,0,P|219:136|168:129,1,90,2|2,3:2|3:2,0:0:0:0:
127,114,93282,1,10,0:0:0:0:
32,62,93582,6,0,L|22:5,2,45,2|2|10,3:2|3:2|0:0,0:0:0:0:
58,167,94182,2,0,L|52:214,1,45,2|0,0:0|3:2,0:0:0:0:
15,251,94482,2,0,P|48:278|70:333,1,90,10|0,0:0|3:2,0:0:0:0:
170,354,95082,1,8,0:0:0:0:
211,320,95232,2,0,L|300:314,1,90,0|2,3:2|3:2,0:0:0:0:
348,288,95682,1,10,0:0:0:0:
437,348,95982,5,2,3:2:0:0:
510,269,96282,2,0,L|507:211,1,45,10|0,0:0|3:2,0:0:0:0:
488,63,96882,1,10,3:2:0:0:
391,14,97182,1,2,3:2:0:0:
303,75,97482,1,10,0:0:0:0:
303,75,97632,1,0,3:2:0:0:
242,225,98082,1,10,3:2:0:0:
153,162,98382,5,4,3:1:0:0:
67,228,98682,2,0,P|60:272|68:316,1,90,10|0,0:0|0:0,0:0:0:0:
98,362,99132,1,0,3:2:0:0:
150,378,99282,2,0,P|197:374|244:355,1,90,10|2,0:0|3:2,0:0:0:0:
331,306,99882,1,10,0:0:0:0:
331,306,100032,2,0,P|375:298|419:303,1,90,0|0,3:2|3:2,0:0:0:0:
462,270,100482,2,0,P|457:239|461:219,1,45,10|2,0:0|0:0,0:0:0:0:
474,173,100782,5,2,3:2:0:0:
512,71,101082,2,0,P|462:67|408:44,1,90,10|2,0:0|0:0,0:0:0:0:
377,26,101532,1,2,3:2:0:0:
344,68,101682,2,0,P|308:94|266:111,1,90,8|0,0:0|3:2,0:0:0:0:
171,161,102282,2,0,L|86:151,2,67.5,8|0|0,0:0|3:2|3:2,0:0:0:0:
208,200,102882,2,0,P|219:223|225:254,1,45,10|2,0:0|3:2,0:0:0:0:
226,295,103182,5,2,3:2:0:0:
325,252,103482,2,0,P|366:249|420:261,1,90,8|2,0:0|0:0,0:0:0:0:
463,283,103932,1,2,3:2:0:0:
450,231,104082,2,0,P|450:185|461:142,1,90,10|2,0:0|3:2,0:0:0:0:
506,44,104682,1,10,0:0:0:0:
506,44,104832,2,0,L|408:32,1,90,0|0,0:0|3:2,0:0:0:0:
362,27,105282,1,8,0:0:0:0:
261,67,105582,5,0,3:2:0:0:
314,160,105882,2,0,P|315:204|304:247,1,90,8|2,0:0|0:0,0:0:0:0:
270,291,106332,1,2,0:0:0:0:
221,313,106482,2,0,L|112:302,1,90,10|2,0:0|3:2,0:0:0:0:
51,239,107082,1,8,0:0:0:0:
51,239,107232,2,0,L|36:141,1,90,0|0,3:2|0:0,0:0:0:0:
28,96,107682,1,8,0:0:0:0:
96,14,107982,5,0,3:2:0:0:
165,96,108282,2,0,P|211:106|258:96,1,90,8|2,0:0|0:0,0:0:0:0:
297,67,108732,1,2,0:0:0:0:
342,37,108882,2,0,P|386:29|431:40,1,90,10|2,0:0|3:2,0:0:0:0:
499,123,109482,2,0,P|505:162|494:222,1,90,8|0,0:0|0:0,0:0:0:0:
466,255,109932,1,0,3:2:0:0:
417,278,110082,1,8,0:0:0:0:
328,216,110382,5,2,3:2:0:0:
244,147,110682,2,0,P|199:132|138:137,1,90,10|2,0:0|0:0,0:0:0:0:
106,151,111132,1,0,3:2:0:0:
66,188,111282,2,0,P|54:236|59:284,1,90,8|2,0:0|3:2,0:0:0:0:
114,367,111882,1,10,0:0:0:0:
206,310,112182,1,0,3:2:0:0:
258,322,112332,1,0,3:2:0:0:
310,333,112482,2,0,L|410:322,1,90,10|2,0:0|3:2,0:0:0:0:
371,65,114882,5,0,3:2:0:0:
299,146,115182,2,0,L|324:331,3,180,0|0|0|0,3:2|1:2|1:2|3:0,0:0:0:0:
107,326,117582,5,4,3:1:0:0:
39,241,117882,2,0,P|37:191|62:142,1,90,10|2,0:0|0:0,0:0:0:0:
142,93,118482,1,10,0:0:0:0:
142,93,118632,1,2,0:0:0:0:
237,154,118932,1,2,0:0:0:0:
237,154,119082,2,0,P|277:131|327:126,1,90,8|2,0:0|0:0,0:0:0:0:
371,142,119532,2,0,P|383:166|403:180,1,45,0|10,3:2|0:0,0:0:0:0:
505,178,119982,5,2,3:2:0:0:
458,275,120282,2,0,P|412:298|366:297,1,90,10|2,0:0|0:0,0:0:0:0:
278,248,120882,1,10,0:0:0:0:
278,248,121032,1,2,0:0:0:0:
183,295,121332,1,2,0:0:0:0:
183,295,121482,2,0,P|145:262|91:256,1,90,8|2,0:0|0:0,0:0:0:0:
53,260,121932,2,0,L|61:316,1,45,0|10,3:2|0:0,0:0:0:0:
132,383,122382,5,0,3:2:0:0:
198,297,122682,2,0,L|183:191,1,90,10|2,0:0|0:0,0:0:0:0:
170,105,123282,1,10,0:0:0:0:
170,105,123432,1,2,0:0:0:0:
277,139,123732,1,2,0:0:0:0:
277,139,123882,2,0,P|331:140|372:120,1,90,8|2,0:0|0:0,0:0:0:0:
388,77,124332,2,0,P|420:68|446:71,1,45,0|10,3:2|0:0,0:0:0:0:
493,156,124782,5,2,3:2:0:0:
493,156,127182,5,2,3:2:0:0:
407,222,127482,2,0,P|358:220|321:187,1,90,10|2,0:0|0:0,0:0:0:0:
273,108,128082,1,10,0:0:0:0:
273,108,128232,1,2,0:0:0:0:
179,159,128532,1,2,0:0:0:0:
179,159,128682,1,8,0:0:0:0:
87,216,128982,2,0,L|97:276,1,45,0|0,3:2|3:2,0:0:0:0:
139,289,129282,2,0,L|149:349,1,45,10|0,3:2|3:2,0:0:0:0:
192,361,129582,6,0,P|241:355|283:322,1,90,0|10,3:2|0:0,0:0:0:0:
317,233,130182,1,2,0:0:0:0:
421,276,130482,1,10,0:0:0:0:
421,276,130632,1,2,0:0:0:0:
490,194,130932,1,2,0:0:0:0:
490,194,131082,1,10,0:0:0:0:
449,93,131382,2,0,P|430:70|399:56,1,45,0|0,3:2|3:2,0:0:0:0:
373,30,131682,2,0,P|342:28|314:35,1,45,8|0,3:2|3:2,0:0:0:0:
277,49,131982,5,0,3:2:0:0:
316,363,136782,6,0,P|279:280|293:172,3,180,10|2|2|2,3:2|0:0|0:0|3:2,0:0:0:0:
481,103,139182,5,6,3:2:0:0:
308,377,140082,1,2,0:0:0:0:
15,234,140982,2,0,P|61:229|113:255,1,90,2|0,0:0|0:0,0:0:0:0:
128,350,141582,5,2,3:2:0:0:
261,54,142482,1,2,3:2:0:0:
366,360,143382,1,2,0:0:0:0:
471,336,143682,1,2,0:0:0:0:
491,230,143982,6,0,L|482:173,1,45,14|10,0:0|0:0,0:0:0:0:
376,194,144432,2,0,L|368:149,1,45,10|10,0:0|0:0,0:0:0:0:
261,158,144882,2,0,L|252:101,1,45,10|10,0:0|0:0,0:0:0:0:
158,163,145332,2,0,L|149:220,1,45,10|10,0:0|0:0,0:0:0:0:
120,311,145782,1,10,0:0:0:0:
4,128,146382,6,0,L|13:71,1,45,10|10,0:0|0:0,0:0:0:0:
119,92,146832,2,0,L|128:35,1,45,10|10,0:0|0:0,0:0:0:0:
234,56,147282,2,0,L|241:12,1,45,10|10,0:0|0:0,0:0:0:0:
337,61,147732,2,0,L|346:118,1,45,10|10,0:0|0:0,0:0:0:0:
359,212,148182,1,10,0:0:0:0:
214,372,148782,5,6,3:2:0:0:
49,93,149682,1,2,0:0:0:0:
348,215,150582,2,0,P|300:227|252:273,1,90,2|0,0:0|0:0,0:0:0:0:
230,352,151182,5,2,3:2:0:0:
104,53,152082,1,2,3:2:0:0:
4,94,152382,2,0,P|-9:135|3:188,1,90,2|2,0:0|0:0,0:0:0:0:
80,251,152982,2,0,P|122:252|171:227,1,90,2|0,0:0|0:0,0:0:0:0:
229,146,153582,6,0,L|237:94,1,45,14|10,0:0|0:0,0:0:0:0:
308,21,154032,2,0,L|316:73,1,45,10|10,0:0|0:0,0:0:0:0:
387,146,154482,2,0,L|395:94,1,45,10|10,0:0|0:0,0:0:0:0:
485,44,154932,2,0,L|464:177,1,135,10|10,0:0|0:0,0:0:0:0:
259,249,155982,6,0,L|251:301,1,45,10|10,0:0|0:0,0:0:0:0:
180,374,156432,2,0,L|172:322,1,45,10|10,0:0|0:0,0:0:0:0:
101,249,156882,2,0,L|93:301,1,45,10|10,0:0|0:0,0:0:0:0:
3,351,157332,2,0,L|23:217,1,135,10|10,0:0|0:0,0:0:0:0:
203,97,158382,6,0,L|216:202,2,90,6|2|2,0:0|0:0|1:2,0:0:0:0:
261,5,159282,1,2,0:0:0:0:
463,80,159882,1,2,0:0:0:0:
512,175,160182,2,0,P|501:224|464:267,1,90,2|2,1:2|0:0,0:0:0:0:
390,319,160782,6,0,P|443:340|471:381,2,90,2|2|2,0:0|0:0|1:2,0:0:0:0:
299,379,161682,1,2,0:0:0:0:
195,347,161982,2,0,L|187:248,1,90,2|2,1:2|1:2,0:0:0:0:
94,202,162582,2,0,L|102:103,1,90,2|2,1:2|0:0,0:0:0:0:
173,31,163182,6,0,P|128:23|89:-4,2,90,2|2|2,0:0|0:0|1:2,0:0:0:0:
268,80,164082,1,2,0:0:0:0:
359,22,164382,2,0,P|400:28|448:50,1,90,2|2,0:0|0:0,0:0:0:0:
503,138,164982,2,0,P|462:144|414:166,1,90,2|2,1:2|0:0,0:0:0:0:
408,271,165582,6,0,P|425:306|434:359,2,90,2|2|2,0:0|0:0|1:2,0:0:0:0:
303,241,166482,2,0,P|260:269|204:271,1,90,2|2,0:0|1:2,0:0:0:0:
16,208,167382,1,2,1:2:0:0:
54,106,167682,1,2,0:0:0:0:
145,48,167982,6,0,P|169:74|179:95,1,45,6|2,3:2|0:0,0:0:0:0:
189,133,168282,1,2,0:0:0:0:
320,38,168732,1,2,0:0:0:0:
451,131,169182,2,0,P|458:158|460:185,1,45,2|2,0:0|0:0,0:0:0:0:
437,280,169632,1,2,0:0:0:0:
342,332,169932,2,0,L|352:377,2,45,2|2|2,0:0|0:0|0:0,0:0:0:0:
325,280,170382,5,2,0:0:0:0:
231,335,170682,1,2,0:0:0:0:
164,187,171132,1,2,0:0:0:0:
43,289,171582,2,0,P|75:282|94:266,1,45,2|2,0:0|0:0,0:0:0:0:
153,191,172032,1,2,0:0:0:0:
138,84,172332,2,0,P|128:58|118:37,2,45,2|2|2,0:0|0:0|0:0,0:0:0:0:
159,196,172932,5,2,0:0:0:0:
159,196,173082,1,2,0:0:0:0:
298,277,173532,1,2,0:0:0:0:
437,194,173982,2,0,P|443:164|443:138,1,45,2|2,0:0|0:0,0:0:0:0:
388,56,174432,1,2,0:0:0:0:
305,126,174732,2,0,P|299:156|299:182,2,45,2|2|2,0:0|0:0|0:0,0:0:0:0:
263,32,175332,5,2,0:0:0:0:
263,32,175482,1,2,0:0:0:0:
118,103,175932,1,2,0:0:0:0:
52,251,176382,2,0,L|43:300,1,45,2|0,0:0|0:0,0:0:0:0:
138,347,176832,2,0,L|154:258,1,90,2|2,0:0|0:0,0:0:0:0:
167,206,177282,1,2,0:0:0:0:
315,135,177732,5,2,0:0:0:0:
315,135,177882,1,2,0:0:0:0:
463,200,178332,1,2,0:0:0:0:
318,273,178782,2,0,P|325:244|338:220,1,45,2|2,0:0|0:0,0:0:0:0:
399,146,179232,1,2,0:0:0:0:
334,59,179532,2,0,P|328:33|328:14,2,45,2|2|2,0:0|0:0|0:0,0:0:0:0:
350,220,180282,5,2,0:0:0:0:
212,133,180732,1,2,0:0:0:0:
59,187,181182,1,2,0:0:0:0:
14,342,181632,1,2,0:0:0:0:
174,362,182082,2,0,P|192:343|201:314,1,45,2|2,0:0|0:0,0:0:0:0:
195,222,182532,5,2,0:0:0:0:
195,222,182682,1,2,0:0:0:0:
306,339,183132,1,2,0:0:0:0:
451,268,183582,1,2,0:0:0:0:
426,107,184032,1,2,0:0:0:0:
341,174,184332,2,0,P|361:198|389:212,2,45,2|2|2,0:0|0:0|0:0,0:0:0:0:
324,138,184782,5,2,3:2:0:0:
119,303,187182,6,0,P|161:280|208:269,1,90,6|8,3:1|0:0,0:0:0:0:
255,269,187632,1,2,0:0:0:0:
307,280,187782,1,2,0:0:0:0:
400,333,188082,2,0,L|410:229,1,90,10|0,0:0|3:2,0:0:0:0:
487,169,188682,2,0,L|475:66,1,90,10|2,0:0|0:0,0:0:0:0:
432,49,189132,1,0,3:2:0:0:
387,19,189282,1,10,0:0:0:0:
287,62,189582,5,2,3:2:0:0:
190,28,189882,1,10,0:0:0:0:
190,28,190032,2,0,P|159:67|113:98,1,90,2|0,0:0|3:2,0:0:0:0:
77,111,190482,2,0,P|112:138|140:173,1,90,10|0,0:0|3:2,0:0:0:0:
183,273,191082,1,8,0:0:0:0:
262,199,191382,2,0,L|317:204,1,45,2|0,0:0|3:2,0:0:0:0:
354,177,191682,2,0,L|409:172,1,45,10|0,0:0|0:0,0:0:0:0:
448,194,191982,6,0,P|475:227|486:280,1,90,2|8,3:2|0:0,0:0:0:0:
443,306,192432,2,0,P|427:345|387:381,1,90,2|0,0:0|3:2,0:0:0:0:
342,362,192882,1,10,0:0:0:0:
240,325,193182,2,0,L|130:333,1,90,0|8,3:2|0:0,0:0:0:0:
46,299,193782,2,0,P|27:256|29:190,1,90,2|10,0:0|0:0,0:0:0:0:
61,111,194382,5,2,3:2:0:0:
61,111,194532,1,2,3:2:0:0:
165,155,194832,1,2,3:2:0:0:
165,155,194982,1,2,3:2:0:0:
232,71,195282,1,10,0:0:0:0:
232,71,195432,1,2,3:2:0:0:
336,115,195732,1,2,3:2:0:0:
336,115,195882,2,0,P|345:143|369:169,1,45,10|0,0:0|3:2,0:0:0:0:
402,178,196182,2,0,L|511:167,1,90,2|10,3:2|0:0,0:0:0:0:
498,277,196782,6,0,L|408:286,1,90,2|8,3:2|0:0,0:0:0:0:
364,317,197232,1,2,0:0:0:0:
311,306,197382,1,2,0:0:0:0:
231,233,197682,2,0,P|214:186|219:136,1,90,10|0,0:0|3:2,0:0:0:0:
278,58,198282,1,10,0:0:0:0:
384,38,198582,1,2,0:0:0:0:
370,90,198732,1,0,3:2:0:0:
398,136,198882,1,10,0:0:0:0:
488,194,199182,6,0,P|489:244|477:294,1,90,2|10,3:2|0:0,0:0:0:0:
433,309,199632,2,0,P|395:280|343:270,1,90,2|0,0:0|3:2,0:0:0:0:
301,276,200082,1,10,0:0:0:0:
215,342,200382,2,0,P|169:338|126:310,1,90,0|8,3:2|0:0,0:0:0:0:
105,211,200982,1,2,0:0:0:0:
157,116,201282,1,10,0:0:0:0:
89,32,201582,6,0,P|59:69|48:121,1,90,2|8,3:2|0:0,0:0:0:0:
5,141,202032,2,0,P|7:189|35:234,1,90,2|0,0:0|3:2,0:0:0:0:
53,272,202482,1,10,0:0:0:0:
153,231,202782,2,0,L|255:217,1,90,0|8,3:2|0:0,0:0:0:0:
318,141,203382,2,0,L|420:155,1,90,2|10,0:0|0:0,0:0:0:0:
490,221,203982,5,0,3:2:0:0:
490,221,204132,1,0,3:2:0:0:
425,297,204432,1,0,3:2:0:0:
425,297,204582,1,0,3:2:0:0:
326,267,204882,1,0,3:2:0:0:
326,267,205032,1,0,3:2:0:0:
261,343,205332,1,0,3:2:0:0:
261,343,205482,1,0,3:2:0:0:
154,325,205782,1,0,3:2:0:0:
42,139,206382,6,0,P|57:93|93:59,1,90,6|8,3:1|0:0,0:0:0:0:
135,42,206832,1,2,0:0:0:0:
186,56,206982,1,2,0:0:0:0:
250,142,207282,2,0,P|301:143|352:106,1,90,10|0,0:0|3:2,0:0:0:0:
426,68,207882,2,0,P|443:114|437:167,1,90,10|2,0:0|0:0,0:0:0:0:
418,203,208332,1,0,3:2:0:0:
375,236,208482,1,10,0:0:0:0:
267,243,208782,6,0,L|149:223,1,90,2|10,3:2|0:0,0:0:0:0:
137,191,209232,2,0,L|19:211,1,90,2|0,0:0|3:2,0:0:0:0:
11,246,209682,1,10,0:0:0:0:
63,340,209982,2,0,L|181:320,1,90,0|8,3:2|0:0,0:0:0:0:
239,262,210582,2,0,P|269:266|302:283,1,45,2|0,0:0|3:2,0:0:0:0:
336,273,210882,2,0,P|354:297|366:332,1,45,10|0,0:0|0:0,0:0:0:0:
405,340,211182,6,0,L|427:224,1,90,2|10,3:2|0:0,0:0:0:0:
463,216,211632,2,0,L|485:100,1,90,2|0,0:0|3:2,0:0:0:0:
511,83,212082,1,10,0:0:0:0:
422,20,212382,2,0,P|371:23|331:54,1,90,0|8,3:2|0:0,0:0:0:0:
264,121,212982,2,0,P|213:118|173:87,1,90,2|10,0:0|0:0,0:0:0:0:
83,52,213582,6,0,L|102:151,1,90,2|8,3:2|0:0,0:0:0:0:
124,245,214182,1,2,0:0:0:0:
162,284,214332,1,0,3:2:0:0:
215,297,214482,1,10,0:0:0:0:
316,257,214782,1,0,3:2:0:0:
348,153,215082,1,10,0:0:0:0:
282,69,215382,1,2,0:0:0:0:
175,69,215682,1,10,0:0:0:0:
112,156,215982,6,0,P|117:212|157:266,1,90,2|8,3:2|0:0,0:0:0:0:
182,262,216432,1,2,0:0:0:0:
220,299,216582,1,2,0:0:0:0:
149,380,216882,2,0,P|97:357|76:319,1,90,10|0,0:0|3:2,0:0:0:0:
14,244,217482,2,0,P|21:198|51:161,1,90,10|2,0:0|0:0,0:0:0:0:
108,75,218082,1,10,0:0:0:0:
202,126,218382,6,0,L|306:115,1,90,2|8,3:2|0:0,0:0:0:0:
336,87,218832,2,0,L|440:98,1,90,2|0,0:0|3:2,0:0:0:0:
466,131,219282,1,10,0:0:0:0:
425,231,219582,2,0,L|335:222,1,90,0|8,3:2|0:0,0:0:0:0:
230,194,220182,2,0,P|218:222|215:252,1,45,2|0,0:0|3:2,0:0:0:0:
185,281,220482,2,0,P|190:303|200:323,1,45,10|0,0:0|0:0,0:0:0:0:
232,366,220782,6,0,P|279:375|331:361,1,90,2|8,3:2|0:0,0:0:0:0:
359,328,221232,2,0,P|375:283|415:254,1,90,2|0,0:0|3:2,0:0:0:0:
460,250,221682,1,10,0:0:0:0:
512,154,221982,2,0,P|506:105|481:65,1,90,0|10,3:2|0:0,0:0:0:0:
384,32,222582,2,0,P|335:38|295:63,1,90,2|10,0:0|0:0,0:0:0:0:
267,163,223182,5,0,3:2:0:0:
267,163,223332,1,0,3:2:0:0:
170,128,223632,1,0,3:2:0:0:
170,128,223782,1,0,3:2:0:0:
133,232,224082,1,0,3:2:0:0:
133,232,224232,1,0,3:2:0:0:
36,197,224532,1,0,3:2:0:0:
36,197,224682,1,0,3:2:0:0:
16,303,224982,1,2,3:2:0:0:
254,364,225582,6,0,L|364:352,1,90,0|10,3:2|0:0,0:0:0:0:
433,309,226182,1,2,0:0:0:0:
433,309,226332,2,0,P|440:288|441:255,1,45,2|8,3:2|0:0,0:0:0:0:
363,205,226782,2,0,P|333:161|333:69,1,135,2|2,3:2|0:0,0:0:0:0:
460,11,227682,1,10,0:0:0:0:
507,98,227982,6,0,P|509:130|480:195,1,90,0|10,3:2|0:0,0:0:0:0:
406,233,228582,1,2,0:0:0:0:
406,233,228732,2,0,L|351:222,1,45,2|8,3:2|0:0,0:0:0:0:
289,156,229182,2,0,L|143:181,1,135,2|2,3:2|0:0,0:0:0:0:
88,252,229932,1,0,3:2:0:0:
88,252,230082,1,10,0:0:0:0:
159,320,230382,6,0,L|253:336,1,90,0|10,3:2|0:0,0:0:0:0:
350,330,230982,1,2,0:0:0:0:
350,330,231132,2,0,P|364:304|367:278,1,45,2|8,3:2|0:0,0:0:0:0:
429,212,231582,2,0,P|371:169|346:99,1,135,2|2,3:2|0:0,0:0:0:0:
236,13,232482,1,10,0:0:0:0:
140,38,232782,6,0,P|120:80|123:131,1,90,0|10,3:2|0:0,0:0:0:0:
144,223,233382,1,2,0:0:0:0:
144,223,233532,2,0,P|166:237|189:243,1,45,2|8,3:2|0:0,0:0:0:0:
282,253,233982,2,0,P|330:201|400:192,1,135,2|2,3:2|0:0,0:0:0:0:
482,308,234882,1,10,0:0:0:0:
402,367,235182,6,0,P|352:364|310:338,1,90,0|10,3:2|0:0,0:0:0:0:
271,263,235782,1,2,0:0:0:0:
271,263,235932,2,0,L|263:215,1,45,2|8,3:2|0:0,0:0:0:0:
190,151,236382,2,0,P|111:153|56:193,1,135,2|2,3:2|0:0,0:0:0:0:
96,327,237282,1,10,0:0:0:0:
195,327,237582,6,0,P|235:292|248:239,1,90,0|8,3:2|0:0,0:0:0:0:
296,174,238182,1,2,0:0:0:0:
296,174,238332,2,0,L|290:121,1,45,2|8,3:2|0:0,0:0:0:0:
371,71,238782,2,0,L|386:205,1,135,2|2,3:2|0:0,0:0:0:0:
400,352,239682,1,10,0:0:0:0:
491,314,239982,6,0,L|504:208,1,90,0|10,3:2|0:0,0:0:0:0:
419,179,240582,1,2,0:0:0:0:
419,179,240732,2,0,L|412:116,1,45,2|8,3:2|0:0,0:0:0:0:
332,76,241182,2,0,P|273:46|187:61,1,135,2|2,3:2|0:0,0:0:0:0:
89,143,242082,1,10,0:0:0:0:
174,193,242382,6,0,P|187:234|186:289,1,90,0|10,3:2|0:0,0:0:0:0:
96,313,242982,1,2,0:0:0:0:
96,313,243132,2,0,P|103:283|101:254,1,45,2|8,3:2|0:0,0:0:0:0:
26,206,243582,2,0,P|6:144|38:64,1,135,2|2,3:2|0:0,0:0:0:0:
120,42,244332,1,0,3:2:0:0:
120,42,244482,1,10,0:0:0:0:
206,90,244782,6,0,L|290:80,1,67.5,4|0,3:1|0:0,0:0:0:0:
256,192,245082,12,0,249582,0:0:0:0:
