osu file format v14

[General]
AudioFilename: audio.mp3
AudioLeadIn: 0
PreviewTime: 184782
Countdown: 0
SampleSet: Soft
StackLeniency: 0.7
Mode: 0
LetterboxInBreaks: 0
EpilepsyWarning: 1
WidescreenStoryboard: 1

[Editor]
DistanceSpacing: 1.1
BeatDivisor: 4
GridSize: 4
TimelineZoom: 2.5

[Metadata]
Title:Fortuna Redux
TitleUnicode:Fortuna Redux
Artist:Fractal Dreamers
ArtistUnicode:Fractal Dreamers
Creator:DTM9 Nowa
Version:Insane
Source:osu!
Tags:Helblinde Kingdom of Silence EP artcore dnb Featured Artist mappers' guild Mapping With Rewards 2017 mwr Instrumental Electronic
BeatmapID:1506914
BeatmapSetID:712974

[Difficulty]
HPDrainRate:5.5
CircleSize:4
OverallDifficulty:7.5
ApproachRate:9
SliderMultiplier:1.4
SliderTickRate:1

[Events]
//Background and Video events
0,0,"Fractal.jpg",0,0
//Break Periods
//Storyboard Layer 0 (Background)
//Storyboard Layer 1 (Fail)
//Storyboard Layer 2 (Pass)
//Storyboard Layer 3 (Foreground)
Sprite,Foreground,Centre,"sb/hl.png",333,232 S,2,114882,115632,0.7,0.14 F,2,114882,115632,1,0 P,0,114882,115632,A C,0,114882,,36,74,255
Sprite,Foreground,Centre,"sb/hl.png",0,0 S,2,115182,116382,0.7,0.14 F,2,115182,116382,1,0 P,0,115182,116382,A C,0,115182,,223,223,223 M,0,115182,115219,261,130,249.994,122.8588 M,0,115219,115257,249.994,122.8588,238.6741,116.2296 M,0,115257,115294,238.6741,116.2296,227.0661,110.1244 M,0,115294,115332,227.0661,110.1244,215.1248,104.6941 M,0,115332,115369,215.1248,104.6941,202.9513,99.81288 M,0,115369,115407,202.9513,99.81288,190.5149,95.6389 M,0,115407,115444,190.5149,95.6389,202.9513,99.81287 M,0,115444,115482,202.9513,99.81287,215.1248,104.6941 M,0,115482,115519,215.1248,104.6941,227.0661,110.1244 M,0,115519,115557,227.0661,110.1244,238.6741,116.2296 M,0,115557,115594,238.6741,116.2296,249.994,122.8587 M,0,115594,115632,249.994,122.8587,261,130
Sprite,Foreground,Centre,"sb/hl.png",0,0 S,2,115782,116982,0.7,0.14 F,2,115782,116982,1,0 P,0,115782,116982,A C,0,115782,,223,223,223 M,0,115782,115819,386,118,394.0385,107.6395 M,0,115819,115857,394.0385,107.6395,402.7705,97.86159 M,0,115857,115894,402.7705,97.86159,412.1518,88.71322 M,0,115894,115932,412.1518,88.71322,422.2921,80.40492 M,0,115932,115969,422.2921,80.40492,432.9763,72.81869 M,0,115969,116007,432.9763,72.81869,444.2806,66.18033 M,0,116007,116044,444.2806,66.18033,432.9763,72.81869 M,0,116044,116082,432.9763,72.81869,422.2922,80.40492 M,0,116082,116119,422.2922,80.40492,412.1518,88.71321 M,0,116119,116157,412.1518,88.71321,402.7705,97.86158 M,0,116157,116194,402.7705,97.86158,394.0385,107.6395 M,0,116194,116232,394.0385,107.6395,386,118
Sprite,Foreground,Centre,"sb/hl.png",0,0 S,2,116382,117582,0.7,0.14 F,2,116382,117582,1,0 P,0,116382,117582,A C,0,116382,,223,223,223 M,0,116382,116419,333,232,333.7799,245.1018 M,0,116419,116457,333.7799,245.1018,334.5598,258.2036 M,0,116457,116494,334.5598,258.2036,335.3396,271.3054 M,0,116494,116532,335.3396,271.3054,336.1195,284.4072 M,0,116532,116569,336.1195,284.4072,336.8994,297.509 M,0,116569,116607,336.8994,297.509,337.6792,310.6108 M,0,116607,116644,337.6792,310.6108,336.8994,297.5091 M,0,116644,116682,336.8994,297.5091,336.1195,284.4072 M,0,116682,116719,336.1195,284.4072,335.3396,271.3054 M,0,116719,116757,335.3396,271.3054,334.5598,258.2036 M,0,116757,116794,334.5598,258.2036,333.7799,245.1018 M,0,116794,116832,333.7799,245.1018,333,232
Sprite,Foreground,Centre,"sb/hl.png",0,0 S,2,116982,118032,0.7,0.14 F,2,116982,118032,1,0 P,0,116982,118032,A C,0,116982,,223,223,223 M,0,116982,117019,386,118,387.4764,104.9583 M,0,117019,117057,387.4764,104.9583,388.9529,91.91661 M,0,117057,117094,388.9529,91.91661,390.4293,78.87492 M,0,117094,117132,390.4293,78.87492,391.9057,65.83322 M,0,117132,117169,391.9057,65.83322,390.4293,78.87491 M,0,117169,117207,390.4293,78.87491,388.9529,91.91661 M,0,117207,117244,388.9529,91.91661,387.4764,104.9583 M,0,117244,117282,387.4764,104.9583,386,118
Sprite,Foreground,Centre,"sb/hl.png",0,0 S,2,136782,137982,0.7,0.14 F,2,136782,137982,1,0 P,0,136782,137982,A C,0,136782,,223,223,223 M,0,136782,136819,250,177,237.0536,174.8423 M,0,136819,136857,237.0536,174.8423,224.1072,172.6845 M,0,136857,136894,224.1072,172.6845,211.1607,170.5268 M,0,136894,136932,211.1607,170.5268,198.2143,168.369 M,0,136932,136969,198.2143,168.369,185.2679,166.2113 M,0,136969,137007,185.2679,166.2113,172.3215,164.0536 M,0,137007,137044,172.3215,164.0536,185.2679,166.2113 M,0,137044,137082,185.2679,166.2113,198.2143,168.369 M,0,137082,137119,198.2143,168.369,211.1607,170.5268 M,0,137119,137157,211.1607,170.5268,224.1071,172.6845 M,0,137157,137194,224.1071,172.6845,237.0536,174.8423 M,0,137194,137232,237.0536,174.8423,250,177
Sprite,Foreground,Centre,"sb/hl.png",0,0 S,2,137382,138582,0.7,0.14 F,2,137382,138582,1,0 P,0,137382,138582,A C,0,137382,,223,223,223 M,0,137382,137419,348,145,356.3112,134.8418 M,0,137419,137457,356.3112,134.8418,364.6225,124.6836 M,0,137457,137494,364.6225,124.6836,372.9337,114.5254 M,0,137494,137532,372.9337,114.5254,381.245,104.3672 M,0,137532,137569,381.245,104.3672,389.5562,94.20905 M,0,137569,137607,389.5562,94.20905,397.8675,84.05087 M,0,137607,137644,397.8675,84.05087,389.5562,94.20905 M,0,137644,137682,389.5562,94.20905,381.245,104.3672 M,0,137682,137719,381.245,104.3672,372.9337,114.5254 M,0,137719,137757,372.9337,114.5254,364.6225,124.6836 M,0,137757,137794,364.6225,124.6836,356.3112,134.8418 M,0,137794,137832,356.3112,134.8418,348,145
Sprite,Foreground,Centre,"sb/hl.png",0,0 S,2,137982,139182,0.7,0.14 F,2,137982,139182,1,0 P,0,137982,139182,A C,0,137982,,223,223,223 M,0,137982,138019,326,242,330.0602,254.4812 M,0,138019,138057,330.0602,254.4812,334.1203,266.9624 M,0,138057,138094,334.1203,266.9624,338.1805,279.4437 M,0,138094,138132,338.1805,279.4437,342.2406,291.9249 M,0,138132,138169,342.2406,291.9249,346.3008,304.4061 M,0,138169,138207,346.3008,304.4061,350.3609,316.8873 M,0,138207,138244,350.3609,316.8873,346.3008,304.4061 M,0,138244,138282,346.3008,304.4061,342.2406,291.9249 M,0,138282,138319,342.2406,291.9249,338.1805,279.4437 M,0,138319,138357,338.1805,279.4437,334.1203,266.9624 M,0,138357,138394,334.1203,266.9624,330.0602,254.4812 M,0,138394,138432,330.0602,254.4812,326,242
Sprite,Foreground,Centre,"sb/hl.png",284,106 S,2,138582,139332,0.7,0.14 F,2,138582,139332,1,0 P,0,138582,139332,A C,0,138582,,223,223,223
Sprite,Foreground,Centre,"sb/hl.png",225,230 S,2,138732,139482,0.7,0.14 F,2,138732,139482,1,0 P,0,138732,139482,A C,0,138732,,223,223,223
Sprite,Foreground,Centre,"sb/hl.png",137,146 S,2,138882,139632,0.7,0.14 F,2,138882,139632,1,0 P,0,138882,139632,A C,0,138882,,223,223,223
Sprite,Foreground,Centre,"sb/hl.png",137,146 S,2,138957,139707,0.7,0.14 F,2,138957,139707,1,0 P,0,138957,139707,A C,0,138957,,223,223,223
Sprite,Foreground,Centre,"sb/hl.png",137,146 S,2,139032,139782,0.7,0.14 F,2,139032,139782,1,0 P,0,139032,139782,A C,0,139032,,223,223,223
Sprite,Foreground,Centre,"sb/hl.png",137,146 S,2,139107,139857,0.7,0.14 F,2,139107,139857,1,0 P,0,139107,139857,A C,0,139107,,223,223,223
Sprite,Foreground,Centre,"sb/hl.png",0,0 S,2,139182,140681,0.7,0.14 F,2,139182,140681,1,0 P,0,139182,140681,A C,0,139182,,149,255,218 M,0,139182,139219,137,146,135.9122,157.3229 M,0,139219,139257,135.9122,157.3229,134.8244,168.6457 M,0,139257,139294,134.8244,168.6457,133.7366,179.9686 M,0,139294,139332,133.7366,179.9686,132.6489,191.2915 M,0,139332,139369,132.6489,191.2915,131.5611,202.6143 M,0,139369,139407,131.5611,202.6143,130.4733,213.9372 M,0,139407,139444,130.4733,213.9372,129.3855,225.2601 M,0,139444,139482,129.3855,225.2601,128.2977,236.5829 M,0,139482,139519,128.2977,236.5829,127.2099,247.9058 M,0,139519,139557,127.2099,247.9058,126.1221,259.2287 M,0,139557,139594,126.1221,259.2287,125.0343,270.5515 M,0,139594,139632,125.0343,270.5515,123.9466,281.8744 M,0,139632,139669,123.9466,281.8744,122.8588,293.1973 M,0,139669,139707,122.8588,293.1973,121.771,304.5201 M,0,139707,139744,121.771,304.5201,120.6832,315.843 M,0,139744,139782,120.6832,315.843,119.5954,327.1659 M,0,139782,139819,119.5954,327.1659,118.5076,338.4888 M,0,139819,139857,118.5076,338.4888,117.4198,349.8116 M,0,139857,139894,117.4198,349.8116,116.3321,361.1345 M,0,139894,139931,116.3321,361.1345,115.2443,372.4574
Sprite,Foreground,Centre,"sb/hl.png",0,0 S,2,140082,141431,0.7,0.14 F,2,140082,141431,1,0 P,0,140082,141431,A C,0,140082,,149,255,218 M,0,140082,140119,169,433,173.601,422.6147 M,0,140119,140157,173.601,422.6147,179.0879,412.6763 M,0,140157,140194,179.0879,412.6763,185.287,403.165 M,0,140194,140232,185.287,403.165,192.591,394.4708 M,0,140232,140269,192.591,394.4708,200.441,386.2519 M,0,140269,140307,200.441,386.2519,209.2889,379.1292 M,0,140307,140344,209.2889,379.1292,218.7195,372.8094 M,0,140344,140382,218.7195,372.8094,228.59,367.201 M,0,140382,140419,228.59,367.201,239.0656,362.8199 M,0,140419,140457,239.0656,362.8199,249.8101,359.117 M,0,140457,140494,249.8101,359.117,260.938,356.8399 M,0,140494,140532,260.938,356.8399,272.2159,355.5437 M,0,140532,140569,272.2159,355.5437,283.5587,355.0871 M,0,140569,140607,283.5587,355.0871,294.8773,355.9926 M,0,140607,140644,294.8773,355.9926,306.1226,357.63 M,0,140644,140681,306.1226,357.63,317.0568,360.7046
Sprite,Foreground,Centre,"sb/hl.png",0,0 S,2,140982,142031,0.7,0.14 F,2,140982,142031,1,0 P,0,140982,142031,A C,0,140982,,149,255,218 M,0,140982,141019,454,423,464.5281,427.2413 M,0,141019,141057,464.5281,427.2413,475.4481,430.2952 M,0,141057,141094,475.4481,430.2952,486.6316,432.1275 M,0,141094,141132,486.6316,432.1275,497.9372,432.9348 M,0,141132,141169,497.9372,432.9348,509.2434,432.0396 M,0,141169,141207,509.2434,432.0396,520.3748,429.9068 M,0,141207,141244,520.3748,429.9068,531.2925,426.8302 M,0,141244,141281,531.2925,426.8302,541.687,422.2424
Sprite,Foreground,Centre,"sb/hl.png",568,347 S,2,141432,142182,0.7,0.14 F,2,141432,142182,1,0 P,0,141432,142182,A C,0,141432,,149,255,218
Sprite,Foreground,Centre,"sb/hl.png",568,347 S,2,141507,142257,0.7,0.14 F,2,141507,142257,1,0 P,0,141507,142257,A C,0,141507,,149,255,218
Sprite,Foreground,Centre,"sb/hl.png",0,0 S,2,141582,143081,0.7,0.14 F,2,141582,143081,1,0 P,0,141582,143081,A C,0,141582,,36,74,255 M,0,141582,141619,568,347,568.4245,335.6329 M,0,141619,141657,568.4245,335.6329,568.849,324.2658 M,0,141657,141694,568.849,324.2658,569.2735,312.8988 M,0,141694,141732,569.2735,312.8988,569.698,301.5317 M,0,141732,141769,569.698,301.5317,570.1225,290.1646 M,0,141769,141807,570.1225,290.1646,570.547,278.7975 M,0,141807,141844,570.547,278.7975,570.9714,267.4305 M,0,141844,141882,570.9714,267.4305,571.396,256.0634 M,0,141882,141919,571.396,256.0634,571.8204,244.6963 M,0,141919,141957,571.8204,244.6963,572.245,233.3292 M,0,141957,141994,572.245,233.3292,572.6694,221.9622 M,0,141994,142032,572.6694,221.9622,573.094,210.5951 M,0,142032,142069,573.094,210.5951,573.5184,199.228 M,0,142069,142107,573.5184,199.228,573.943,187.8609 M,0,142107,142144,573.943,187.8609,574.3674,176.4939 M,0,142144,142182,574.3674,176.4939,574.7919,165.1268 M,0,142182,142219,574.7919,165.1268,575.2164,153.7597 M,0,142219,142257,575.2164,153.7597,575.6409,142.3926 M,0,142257,142294,575.6409,142.3926,576.0654,131.0255 M,0,142294,142331,576.0654,131.0255,576.4899,119.6585
Sprite,Foreground,Centre,"sb/hl.png",0,0 S,2,142482,143831,0.7,0.14 F,2,142482,143831,1,0 P,0,142482,143831,A C,0,142482,,36,74,255 M,0,142482,142519,508,80,501.7008,89.44283 M,0,142519,142557,501.7008,89.44283,494.4395,98.15508 M,0,142557,142594,494.4395,98.15508,486.4344,106.1914 M,0,142594,142632,486.4344,106.1914,477.3296,112.9607 M,0,142632,142669,477.3296,112.9607,467.5621,118.7202 M,0,142669,142707,467.5621,118.7202,457.2746,123.4682 M,0,142707,142744,457.2746,123.4682,446.4267,126.7778 M,0,142744,142782,446.4267,126.7778,435.3271,129.116 M,0,142782,142819,435.3271,129.116,424.0016,129.7902 M,0,142819,142857,424.0016,129.7902,412.675,129.2566 M,0,142857,142894,412.675,129.2566,401.4673,127.5935 M,0,142894,142932,401.4673,127.5935,390.5792,124.4185 M,0,142932,142969,390.5792,124.4185,380.0121,120.2943 M,0,142969,143007,380.0121,120.2943,370.1684,114.653 M,0,143007,143044,370.1684,114.653,360.9856,108.0007 M,0,143044,143081,360.9856,108.0007,352.4211,100.5573
Sprite,Foreground,Centre,"sb/hl.png",0,0 S,2,143382,144281,0.7,0.14 F,2,143382,144281,1,0 P,0,143382,144281,A C,0,143382,,36,74,255 M,0,143382,143419,233,67,231.5377,78.28062 M,0,143419,143457,231.5377,78.28062,230.0754,89.56123 M,0,143457,143494,230.0754,89.56123,228.6131,100.8418 M,0,143494,143531,228.6131,100.8418,227.1508,112.1225
Sprite,Foreground,Centre,"sb/hl.png",0,0 S,2,143682,144581,0.7,0.14 F,2,143682,144581,1,0 P,0,143682,144581,A C,0,143682,,36,74,255 M,0,143682,143719,178,205,176.5288,193.7206 M,0,143719,143757,176.5288,193.7206,175.0575,182.4411 M,0,143757,143794,175.0575,182.4411,173.5863,171.1616 M,0,143794,143831,173.5863,171.1616,172.1151,159.8822
Sprite,Foreground,Centre,"sb/hl.png",114,81 S,2,143982,144732,0.7,0.14 F,2,143982,144732,1,0 P,0,143982,144732,A C,0,143982,,223,223,223
Sprite,Foreground,Centre,"sb/hl.png",114,81 S,2,144132,144882,0.7,0.14 F,2,144132,144882,1,0 P,0,144132,144882,A C,0,144132,,223,223,223
Sprite,Foreground,Centre,"sb/hl.png",72,238 S,2,144432,145182,0.7,0.14 F,2,144432,145182,1,0 P,0,144432,145182,A C,0,144432,,149,255,218
Sprite,Foreground,Centre,"sb/hl.png",72,238 S,2,144582,145332,0.7,0.14 F,2,144582,145332,1,0 P,0,144582,145332,A C,0,144582,,149,255,218
Sprite,Foreground,Centre,"sb/hl.png",231,280 S,2,144882,145632,0.7,0.14 F,2,144882,145632,1,0 P,0,144882,145632,A C,0,144882,,36,74,255
Sprite,Foreground,Centre,"sb/hl.png",231,280 S,2,145032,145782,0.7,0.14 F,2,145032,145782,1,0 P,0,145032,145782,A C,0,145032,,36,74,255
Sprite,Foreground,Centre,"sb/hl.png",271,121 S,2,145332,146082,0.7,0.14 F,2,145332,146082,1,0 P,0,145332,146082,A C,0,145332,,223,223,223
Sprite,Foreground,Centre,"sb/hl.png",271,121 S,2,145482,146232,0.7,0.14 F,2,145482,146232,1,0 P,0,145482,146232,A C,0,145482,,223,223,223
Sprite,Foreground,Centre,"sb/hl.png",231,280 S,2,145782,146532,0.7,0.14 F,2,145782,146532,1,0 P,0,145782,146532,A C,0,145782,,149,255,218
Sprite,Foreground,Centre,"sb/hl.png",231,280 S,2,146382,147132,0.7,0.14 F,2,146382,147132,1,0 P,0,146382,147132,A C,0,146382,,36,74,255
Sprite,Foreground,Centre,"sb/hl.png",231,280 S,2,146532,147282,0.7,0.14 F,2,146532,147282,1,0 P,0,146532,147282,A C,0,146532,,36,74,255
Sprite,Foreground,Centre,"sb/hl.png",390,246 S,2,146832,147582,0.7,0.14 F,2,146832,147582,1,0 P,0,146832,147582,A C,0,146832,,223,223,223
Sprite,Foreground,Centre,"sb/hl.png",390,246 S,2,146982,147732,0.7,0.14 F,2,146982,147732,1,0 P,0,146982,147732,A C,0,146982,,223,223,223
Sprite,Foreground,Centre,"sb/hl.png",359,86 S,2,147282,148032,0.7,0.14 F,2,147282,148032,1,0 P,0,147282,148032,A C,0,147282,,149,255,218
Sprite,Foreground,Centre,"sb/hl.png",359,86 S,2,147432,148182,0.7,0.14 F,2,147432,148182,1,0 P,0,147432,148182,A C,0,147432,,149,255,218
Sprite,Foreground,Centre,"sb/hl.png",198,118 S,2,147732,148482,0.7,0.14 F,2,147732,148482,1,0 P,0,147732,148482,A C,0,147732,,36,74,255
Sprite,Foreground,Centre,"sb/hl.png",198,118 S,2,147882,148632,0.7,0.14 F,2,147882,148632,1,0 P,0,147882,148632,A C,0,147882,,36,74,255
Sprite,Foreground,Centre,"sb/hl.png",359,86 S,2,148182,148932,0.7,0.14 F,2,148182,148932,1,0 P,0,148182,148932,A C,0,148182,,223,223,223
Sprite,Foreground,Centre,"sb/hl.png",0,0 S,2,148782,150281,0.7,0.14 F,2,148782,150281,1,0 P,0,148782,150281,A C,0,148782,,149,255,218 M,0,148782,148819,359,86,358.4343,97.36092 M,0,148819,148857,358.4343,97.36092,357.8686,108.7218 M,0,148857,148894,357.8686,108.7218,357.3029,120.0828 M,0,148894,148932,357.3029,120.0828,356.7372,131.4437 M,0,148932,148969,356.7372,131.4437,356.1715,142.8046 M,0,148969,149007,356.1715,142.8046,355.6059,154.1656 M,0,149007,149044,355.6059,154.1656,355.0402,165.5265 M,0,149044,149082,355.0402,165.5265,354.4745,176.8874 M,0,149082,149119,354.4745,176.8874,353.9088,188.2483 M,0,149119,149157,353.9088,188.2483,353.3431,199.6093 M,0,149157,149194,353.3431,199.6093,352.7774,210.9702 M,0,149194,149232,352.7774,210.9702,352.2117,222.3311 M,0,149232,149269,352.2117,222.3311,351.646,233.692 M,0,149269,149307,351.646,233.692,351.0804,245.0529 M,0,149307,149344,351.0804,245.0529,350.5146,256.4139 M,0,149344,149382,350.5146,256.4139,349.949,267.7748 M,0,149382,149419,349.949,267.7748,349.3833,279.1357 M,0,149419,149457,349.3833,279.1357,348.8176,290.4966 M,0,149457,149494,348.8176,290.4966,348.2519,301.8576 M,0,149494,149531,348.2519,301.8576,347.6862,313.2185
Sprite,Foreground,Centre,"sb/hl.png",0,0 S,2,149682,151031,0.7,0.14 F,2,149682,151031,1,0 P,0,149682,151031,A C,0,149682,,149,255,218 M,0,149682,149719,360,389,356.3103,378.2581 M,0,149719,149757,356.3103,378.2581,351.6714,367.8984 M,0,149757,149794,351.6714,367.8984,346.3128,357.8855 M,0,149794,149832,346.3128,357.8855,339.7102,348.6471 M,0,149832,149869,339.7102,348.6471,332.3065,340.045 M,0,149869,149907,332.3065,340.045,324.2678,332.0335 M,0,149907,149944,324.2678,332.0335,315.3033,325.0672 M,0,149944,149982,315.3033,325.0672,305.7518,318.9386 M,0,149982,150019,305.7518,318.9386,295.7321,313.6203 M,0,150019,150057,295.7321,313.6203,285.1531,309.5053 M,0,150057,150094,285.1531,309.5053,274.3079,306.1313 M,0,150094,150132,274.3079,306.1313,263.1187,304.1939 M,0,150132,150169,263.1187,304.1939,251.8065,303.2721 M,0,150169,150207,251.8065,303.2721,240.4563,303.2051 M,0,150207,150244,240.4563,303.2051,229.1821,304.5439 M,0,150244,150281,229.1821,304.5439,218.0789,306.8914
Sprite,Foreground,Centre,"sb/hl.png",0,0 S,2,150582,151631,0.7,0.14 F,2,150582,151631,1,0 P,0,150582,151631,A C,0,150582,,149,255,218 M,0,150582,150619,87,347,86.283,335.6476 M,0,150619,150657,86.283,335.6476,85.56602,324.2952 M,0,150657,150694,85.56602,324.2952,84.84902,312.9429 M,0,150694,150732,84.84902,312.9429,84.13203,301.5905 M,0,150732,150769,84.13203,301.5905,83.41504,290.2381 M,0,150769,150807,83.41504,290.2381,82.69804,278.8857 M,0,150807,150844,82.69804,278.8857,81.98105,267.5333 M,0,150844,150881,81.98105,267.5333,81.26406,256.181
Sprite,Foreground,Centre,"sb/hl.png",76,172 S,2,151032,151782,0.7,0.14 F,2,151032,151782,1,0 P,0,151032,151782,A C,0,151032,,149,255,218
Sprite,Foreground,Centre,"sb/hl.png",76,172 S,2,151107,151857,0.7,0.14 F,2,151107,151857,1,0 P,0,151107,151857,A C,0,151107,,149,255,218
Sprite,Foreground,Centre,"sb/hl.png",0,0 S,2,151182,152681,0.7,0.14 F,2,151182,152681,1,0 P,0,151182,152681,A C,0,151182,,36,74,255 M,0,151182,151219,76,172,82.33277,181.424 M,0,151219,151257,82.33277,181.424,89.56724,190.1637 M,0,151257,151294,89.56724,190.1637,97.47299,198.3091 M,0,151294,151332,97.47299,198.3091,106.4513,205.2533 M,0,151332,151369,106.4513,205.2533,116.0709,211.2651 M,0,151369,151407,116.0709,211.2651,126.1729,216.4206 M,0,151407,151444,126.1729,216.4206,136.8799,220.1787 M,0,151444,151482,136.8799,220.1787,147.8451,223.1503 M,0,151482,151519,147.8451,223.1503,159.1214,224.4705 M,0,151519,151557,159.1214,224.4705,170.4649,224.6608 M,0,151557,151594,170.4649,224.6608,181.7908,223.9376 M,0,151594,151632,181.7908,223.9376,192.9047,221.6357 M,0,151632,151669,192.9047,221.6357,203.7279,218.24 M,0,151669,151707,203.7279,218.24,214.2068,213.9057 M,0,151707,151744,214.2068,213.9057,224.0254,208.2183 M,0,151744,151782,224.0254,208.2183,233.4033,201.8102 M,0,151782,151819,233.4033,201.8102,241.7406,194.1049 M,0,151819,151857,241.7406,194.1049,249.2636,185.6134 M,0,151857,151894,249.2636,185.6134,256.0667,176.532 M,0,151894,151931,256.0667,176.532,261.5474,166.594
Sprite,Foreground,Centre,"sb/hl.png",0,0 S,2,152082,152981,0.7,0.14 F,2,152082,152981,1,0 P,0,152082,152981,A C,0,152082,,36,74,255 M,0,152082,152119,335,132,333.7003,143.2892 M,0,152119,152157,333.7003,143.2892,333.2276,154.6386 M,0,152157,152194,333.2276,154.6386,333.4226,165.9983 M,0,152194,152231,333.4226,165.9983,334.7855,177.2779
Sprite,Foreground,Centre,"sb/hl.png",0,0 S,2,152382,153281,0.7,0.14 F,2,152382,153281,1,0 P,0,152382,153281,A C,0,152382,,36,74,255 M,0,152382,152419,421,246,422.2997,234.7108 M,0,152419,152457,422.2997,234.7108,422.7724,223.3614 M,0,152457,152494,422.7724,223.3614,422.5774,212.0017 M,0,152494,152531,422.5774,212.0017,421.2145,200.7221
Sprite,Foreground,Centre,"sb/hl.png",0,0 S,2,152682,153581,0.7,0.14 F,2,152682,153581,1,0 P,0,152682,153581,A C,0,152682,,36,74,255 M,0,152682,152719,324,122,322.7003,133.2892 M,0,152719,152757,322.7003,133.2892,322.2276,144.6386 M,0,152757,152794,322.2276,144.6386,322.4226,155.9983 M,0,152794,152831,322.4226,155.9983,323.7855,167.2779
Sprite,Foreground,Centre,"sb/hl.png",0,0 S,2,152982,154031,0.7,0.14 F,2,152982,154031,1,0 P,0,152982,154031,A C,0,152982,,36,74,255 M,0,152982,153019,432,256,433.561,244.7375 M,0,153019,153057,433.561,244.7375,434.5808,233.4151 M,0,153057,153094,434.5808,233.4151,435.1294,222.0606 M,0,153094,153132,435.1294,222.0606,434.9371,210.6934 M,0,153132,153169,434.9371,210.6934,434.321,199.3396 M,0,153169,153207,434.321,199.3396,432.9188,188.0568 M,0,153207,153244,432.9188,188.0568,430.9781,176.8556 M,0,153244,153281,430.9781,176.8556,428.5473,165.752
Sprite,Foreground,Centre,"sb/hl.png",236,292 S,2,153582,154332,0.7,0.14 F,2,153582,154332,1,0 P,0,153582,154332,A C,0,153582,,223,223,223
Sprite,Foreground,Centre,"sb/hl.png",236,292 S,2,153732,154482,0.7,0.14 F,2,153732,154482,1,0 P,0,153732,154482,A C,0,153732,,223,223,223
Sprite,Foreground,Centre,"sb/hl.png",393,334 S,2,154032,154782,0.7,0.14 F,2,154032,154782,1,0 P,0,154032,154782,A C,0,154032,,149,255,218
Sprite,Foreground,Centre,"sb/hl.png",393,334 S,2,154182,154932,0.7,0.14 F,2,154182,154932,1,0 P,0,154182,154932,A C,0,154182,,149,255,218
Sprite,Foreground,Centre,"sb/hl.png",435,175 S,2,154482,155232,0.7,0.14 F,2,154482,155232,1,0 P,0,154482,155232,A C,0,154482,,36,74,255
Sprite,Foreground,Centre,"sb/hl.png",435,175 S,2,154632,155382,0.7,0.14 F,2,154632,155382,1,0 P,0,154632,155382,A C,0,154632,,36,74,255
Sprite,Foreground,Centre,"sb/hl.png",276,135 S,2,154932,155682,0.7,0.14 F,2,154932,155682,1,0 P,0,154932,155682,A C,0,154932,,223,223,223
Sprite,Foreground,Centre,"sb/hl.png",287,210 S,2,155082,155832,0.7,0.14 F,2,155082,155832,1,0 P,0,155082,155832,A C,0,155082,,223,223,223
Sprite,Foreground,Centre,"sb/hl.png",335,88 S,2,155232,155982,0.7,0.14 F,2,155232,155982,1,0 P,0,155232,155982,A C,0,155232,,223,223,223
Sprite,Foreground,Centre,"sb/hl.png",346,163 S,2,155382,156132,0.7,0.14 F,2,155382,156132,1,0 P,0,155382,156132,A C,0,155382,,223,223,223
Sprite,Foreground,Centre,"sb/hl.png",378,323 S,2,155982,156732,0.7,0.14 F,2,155982,156732,1,0 P,0,155982,156732,A C,0,155982,,149,255,218
Sprite,Foreground,Centre,"sb/hl.png",378,323 S,2,156132,156882,0.7,0.14 F,2,156132,156882,1,0 P,0,156132,156882,A C,0,156132,,149,255,218
Sprite,Foreground,Centre,"sb/hl.png",346,163 S,2,156432,157182,0.7,0.14 F,2,156432,157182,1,0 P,0,156432,157182,A C,0,156432,,36,74,255
Sprite,Foreground,Centre,"sb/hl.png",346,163 S,2,156582,157332,0.7,0.14 F,2,156582,157332,1,0 P,0,156582,157332,A C,0,156582,,36,74,255
Sprite,Foreground,Centre,"sb/hl.png",186,195 S,2,156882,157632,0.7,0.14 F,2,156882,157632,1,0 P,0,156882,157632,A C,0,156882,,223,223,223
Sprite,Foreground,Centre,"sb/hl.png",186,195 S,2,157032,157782,0.7,0.14 F,2,157032,157782,1,0 P,0,157032,157782,A C,0,157032,,223,223,223
Sprite,Foreground,Centre,"sb/hl.png",220,354 S,2,157332,158082,0.7,0.14 F,2,157332,158082,1,0 P,0,157332,158082,A C,0,157332,,149,255,218
Sprite,Foreground,Centre,"sb/hl.png",282,312 S,2,157482,158232,0.7,0.14 F,2,157482,158232,1,0 P,0,157482,158232,A C,0,157482,,149,255,218
Sprite,Foreground,Centre,"sb/hl.png",151,323 S,2,157632,158382,0.7,0.14 F,2,157632,158382,1,0 P,0,157632,158382,A C,0,157632,,149,255,218
Sprite,Foreground,Centre,"sb/hl.png",213,281 S,2,157782,158532,0.7,0.14 F,2,157782,158532,1,0 P,0,157782,158532,A C,0,157782,,149,255,218
Sprite,Foreground,Centre,"sb/hl.png",0,0 S,2,158382,159281,0.7,0.14 F,2,158382,159281,1,0 P,0,158382,159281,A C,0,158382,,36,74,255 M,0,158382,158419,213,281,209.5485,269.2907 M,0,158419,158457,209.5485,269.2907,207.7275,257.2365 M,0,158457,158494,207.7275,257.2365,207.3493,245.0558 M,0,158494,158531,207.3493,245.0558,209.228,233.0056
Sprite,Foreground,Centre,"sb/hl.png",0,0 S,2,158682,159581,0.7,0.14 F,2,158682,159581,1,0 P,0,158682,159581,A C,0,158682,,36,74,255 M,0,158682,158719,149,184,157.3277,175.0727 M,0,158719,158757,157.3277,175.0727,166.768,167.3564 M,0,158757,158794,166.768,167.3564,177.0497,160.814 M,0,158794,158831,177.0497,160.814,188.3559,156.2386
Sprite,Foreground,Centre,"sb/hl.png",201,80 S,2,158982,159732,0.7,0.14 F,2,158982,159732,1,0 P,0,158982,159732,A C,0,158982,,36,74,255
Sprite,Foreground,Centre,"sb/hl.png",201,80 S,2,159057,159807,0.7,0.14 F,2,159057,159807,1,0 P,0,159057,159807,A C,0,159057,,36,74,255
Sprite,Foreground,Centre,"sb/hl.png",0,0 S,2,159132,160031,0.7,0.14 F,2,159132,160031,1,0 P,0,159132,160031,A C,0,159132,,36,74,255 M,0,159132,159169,201,80,212.893,82.73866 M,0,159169,159207,212.893,82.73866,224.2649,87.12119 M,0,159207,159244,224.2649,87.12119,234.978,92.90961 M,0,159244,159281,234.978,92.90961,244.4276,100.6112
Sprite,Foreground,Centre,"sb/hl.png",0,0 S,2,159432,160481,0.7,0.14 F,2,159432,160481,1,0 P,0,159432,160481,A C,0,159432,,223,223,223 M,0,159432,159469,313,171,321.3865,162.0901 M,0,159469,159507,321.3865,162.0901,330.4377,153.8632 M,0,159507,159544,330.4377,153.8632,340.0888,146.3597 M,0,159544,159582,340.0888,146.3597,350.435,139.8357 M,0,159582,159619,350.435,139.8357,361.2423,134.121 M,0,159619,159657,361.2423,134.121,372.5671,129.4995 M,0,159657,159694,372.5671,129.4995,384.2026,125.7472 M,0,159694,159731,384.2026,125.7472,396.1595,123.1697
Sprite,Foreground,Centre,"sb/hl.png",0,0 S,2,159882,160781,0.7,0.14 F,2,159882,160781,1,0 P,0,159882,160781,A C,0,159882,,223,223,223 M,0,159882,159919,434,59,443.8268,66.27564 M,0,159919,159957,443.8268,66.27564,452.8642,74.49715 M,0,159957,159994,452.8642,74.49715,461.2297,83.41142 M,0,159994,160031,461.2297,83.41142,468.2261,93.43436
Sprite,Foreground,Centre,"sb/hl.png",552,151 S,2,160182,160932,0.7,0.14 F,2,160182,160932,1,0 P,0,160182,160932,A C,0,160182,,223,223,223
Sprite,Foreground,Centre,"sb/hl.png",552,151 S,2,160257,161007,0.7,0.14 F,2,160257,161007,1,0 P,0,160257,161007,A C,0,160257,,223,223,223
Sprite,Foreground,Centre,"sb/hl.png",0,0 S,2,160332,161381,0.7,0.14 F,2,160332,161381,1,0 P,0,160332,161381,A C,0,160332,,223,223,223 M,0,160332,160369,552,151,552.8015,138.7762 M,0,160369,160407,552.8015,138.7762,553.6031,126.5525 M,0,160407,160444,553.6031,126.5525,554.4047,114.3288 M,0,160444,160482,554.4047,114.3288,555.2062,102.105 M,0,160482,160519,555.2062,102.105,554.4047,114.3288 M,0,160519,160557,554.4047,114.3288,553.6031,126.5525 M,0,160557,160594,553.6031,126.5525,552.8015,138.7762 M,0,160594,160631,552.8015,138.7762,552,151
Sprite,Foreground,Centre,"sb/hl.png",0,0 S,2,160782,161681,0.7,0.14 F,2,160782,161681,1,0 P,0,160782,161681,A C,0,160782,,149,255,218 M,0,160782,160819,499,245,499.8148,257.2229 M,0,160819,160857,499.8148,257.2229,500.6297,269.4457 M,0,160857,160894,500.6297,269.4457,501.4446,281.6686 M,0,160894,160931,501.4446,281.6686,502.2594,293.8915
Sprite,Foreground,Centre,"sb/hl.png",0,0 S,2,161082,161981,0.7,0.14 F,2,161082,161981,1,0 P,0,161082,161981,A C,0,161082,,149,255,218 M,0,161082,161119,397,227,402.0691,238.152 M,0,161119,161157,402.0691,238.152,407.1382,249.304 M,0,161157,161194,407.1382,249.304,412.2072,260.456 M,0,161194,161231,412.2072,260.456,417.2763,271.608
Sprite,Foreground,Centre,"sb/hl.png",294,244 S,2,161382,162132,0.7,0.14 F,2,161382,162132,1,0 P,0,161382,162132,A C,0,161382,,149,255,218
Sprite,Foreground,Centre,"sb/hl.png",294,244 S,2,161457,162207,0.7,0.14 F,2,161457,162207,1,0 P,0,161457,162207,A C,0,161457,,149,255,218
Sprite,Foreground,Centre,"sb/hl.png",0,0 S,2,161532,162431,0.7,0.14 F,2,161532,162431,1,0 P,0,161532,162431,A C,0,161532,,149,255,218 M,0,161532,161569,294,244,302.5596,252.7634 M,0,161569,161607,302.5596,252.7634,311.1191,261.5267 M,0,161607,161644,311.1191,261.5267,319.6787,270.2901 M,0,161644,161681,319.6787,270.2901,328.2382,279.0534
Sprite,Foreground,Centre,"sb/hl.png",379,342 S,2,161832,162582,0.7,0.14 F,2,161832,162582,1,0 P,0,161832,162582,A C,0,161832,,149,255,218
Sprite,Foreground,Centre,"sb/hl.png",0,0 S,2,161982,163031,0.7,0.14 F,2,161982,163031,1,0 P,0,161982,163031,A C,0,161982,,36,74,255 M,0,161982,162019,257,428,257.0242,415.802 M,0,162019,162057,257.0242,415.802,258.8815,403.7666 M,0,162057,162094,258.8815,403.7666,262.3042,392.0859 M,0,162094,162132,262.3042,392.0859,268.0365,381.3351 M,0,162132,162169,268.0365,381.3351,275.0163,371.3311 M,0,162169,162207,275.0163,371.3311,283.9846,363.073 M,0,162207,162244,283.9846,363.073,294.0807,356.2685 M,0,162244,162281,294.0807,356.2685,304.9649,350.7765
Sprite,Foreground,Centre,"sb/hl.png",379,342 S,2,162432,163182,0.7,0.14 F,2,162432,163182,1,0 P,0,162432,163182,A C,0,162432,,36,74,255
Sprite,Foreground,Centre,"sb/hl.png",0,0 S,2,162582,163481,0.7,0.14 F,2,162582,163481,1,0 P,0,162582,163481,A C,0,162582,,36,74,255 M,0,162582,162619,458,397,470.1803,395.695 M,0,162619,162657,470.1803,395.695,482.3606,394.39 M,0,162657,162694,482.3606,394.39,494.5409,393.0849 M,0,162694,162731,494.5409,393.0849,506.7212,391.7799
Sprite,Foreground,Centre,"sb/hl.png",0,0 S,2,162882,163781,0.7,0.14 F,2,162882,163781,1,0 P,0,162882,163781,A C,0,162882,,36,74,255 M,0,162882,162919,576,322,563.8408,320.5111 M,0,162919,162957,563.8408,320.5111,551.6816,319.0222 M,0,162957,162994,551.6816,319.0222,539.5225,317.5334 M,0,162994,163031,539.5225,317.5334,527.3633,316.0445
Sprite,Foreground,Centre,"sb/hl.png",0,0 S,2,163182,164081,0.7,0.14 F,2,163182,164081,1,0 P,0,163182,164081,A C,0,163182,,223,223,223 M,0,163182,163219,446,267,454.0711,257.8334 M,0,163219,163257,454.0711,257.8334,460.9129,247.7332 M,0,163257,163294,460.9129,247.7332,466.6197,236.9531 M,0,163294,163331,466.6197,236.9531,470.386,225.3448
Sprite,Foreground,Centre,"sb/hl.png",0,0 S,2,163482,164381,0.7,0.14 F,2,163482,164381,1,0 P,0,163482,164381,A C,0,163482,,223,223,223 M,0,163482,163519,547,210,543.4381,198.3169 M,0,163519,163557,543.4381,198.3169,538.4435,187.1865 M,0,163557,163594,538.4435,187.1865,532.2899,176.653 M,0,163594,163631,532.2899,176.653,524.4102,167.3326
Sprite,Foreground,Centre,"sb/hl.png",548,94 S,2,163782,164532,0.7,0.14 F,2,163782,164532,1,0 P,0,163782,164532,A C,0,163782,,223,223,223
Sprite,Foreground,Centre,"sb/hl.png",548,94 S,2,163857,164607,0.7,0.14 F,2,163857,164607,1,0 P,0,163857,164607,A C,0,163857,,223,223,223
Sprite,Foreground,Centre,"sb/hl.png",0,0 S,2,163932,164831,0.7,0.14 F,2,163932,164831,1,0 P,0,163932,164831,A C,0,163932,,223,223,223 M,0,163932,163969,548,94,536.1804,90.94724 M,0,163969,164007,536.1804,90.94724,524.0715,89.53587 M,0,164007,164044,524.0715,89.53587,511.885,89.57063 M,0,164044,164081,511.885,89.57063,499.9053,91.85658
Sprite,Foreground,Centre,"sb/hl.png",438,144 S,2,164232,164982,0.7,0.14 F,2,164232,164982,1,0 P,0,164232,164982,A C,0,164232,,223,223,223
Sprite,Foreground,Centre,"sb/hl.png",0,0 S,2,164382,165281,0.7,0.14 F,2,164382,165281,1,0 P,0,164382,165281,A C,0,164382,,149,255,218 M,0,164382,164419,372,77,359.8339,78.4313 M,0,164419,164457,359.8339,78.4313,347.6678,79.86261 M,0,164457,164494,347.6678,79.86261,335.5017,81.29391 M,0,164494,164531,335.5017,81.29391,323.3356,82.72522
Sprite,Foreground,Centre,"sb/hl.png",0,0 S,2,164682,165581,0.7,0.14 F,2,164682,165581,1,0 P,0,164682,165581,A C,0,164682,,149,255,218 M,0,164682,164719,220,144,232.1661,145.4313 M,0,164719,164757,232.1661,145.4313,244.3322,146.8626 M,0,164757,164794,244.3322,146.8626,256.4983,148.2939 M,0,164794,164831,256.4983,148.2939,268.6644,149.7252
Sprite,Foreground,Centre,"sb/hl.png",167,75 S,2,164982,165732,0.7,0.14 F,2,164982,165732,1,0 P,0,164982,165732,A C,0,164982,,149,255,218
Sprite,Foreground,Centre,"sb/hl.png",167,75 S,2,165057,165807,0.7,0.14 F,2,165057,165807,1,0 P,0,165057,165807,A C,0,165057,,149,255,218
Sprite,Foreground,Centre,"sb/hl.png",167,75 S,2,165132,165882,0.7,0.14 F,2,165132,165882,1,0 P,0,165132,165882,A C,0,165132,,149,255,218
Sprite,Foreground,Centre,"sb/hl.png",0,0 S,2,165282,166181,0.7,0.14 F,2,165282,166181,1,0 P,0,165282,166181,A C,0,165282,,149,255,218 M,0,165282,165319,98,147,94.81001,158.8004 M,0,165319,165357,94.81001,158.8004,92.89627,170.8638 M,0,165357,165394,92.89627,170.8638,92.14549,183.0493 M,0,165394,165431,92.14549,183.0493,93.13235,195.2257
Sprite,Foreground,Centre,"sb/hl.png",0,0 S,2,165582,166481,0.7,0.14 F,2,165582,166481,1,0 P,0,165582,166481,A C,0,165582,,36,74,255 M,0,165582,165619,151,296,154.19,284.1996 M,0,165619,165657,154.19,284.1996,156.1037,272.1362 M,0,165657,165694,156.1037,272.1362,156.8545,259.9507 M,0,165694,165731,156.8545,259.9507,155.8676,247.7743
Sprite,Foreground,Centre,"sb/hl.png",0,0 S,2,165882,166781,0.7,0.14 F,2,165882,166781,1,0 P,0,165882,166781,A C,0,165882,,36,74,255 M,0,165882,165919,205,358,212.4352,348.2876 M,0,165919,165957,212.4352,348.2876,218.9682,337.9549 M,0,165957,165994,218.9682,337.9549,224.6548,327.1372 M,0,165994,166031,224.6548,327.1372,229.007,315.7117
Sprite,Foreground,Centre,"sb/hl.png",225,440 S,2,166182,166932,0.7,0.14 F,2,166182,166932,1,0 P,0,166182,166932,A C,0,166182,,36,74,255
Sprite,Foreground,Centre,"sb/hl.png",225,440 S,2,166257,167007,0.7,0.14 F,2,166257,167007,1,0 P,0,166257,167007,A C,0,166257,,36,74,255
Sprite,Foreground,Centre,"sb/hl.png",225,440 S,2,166332,167082,0.7,0.14 F,2,166332,167082,1,0 P,0,166332,167082,A C,0,166332,,36,74,255
Sprite,Foreground,Centre,"sb/hl.png",0,0 S,2,166482,167381,0.7,0.14 F,2,166482,167381,1,0 P,0,166482,167381,A C,0,166482,,223,223,223 M,0,166482,166519,301,347,304.19,335.1996 M,0,166519,166557,304.19,335.1996,306.1037,323.1362 M,0,166557,166594,306.1037,323.1362,306.8545,310.9507 M,0,166594,166631,306.8545,310.9507,305.8676,298.7743
Sprite,Foreground,Centre,"sb/hl.png",273,195 S,2,166782,167532,0.7,0.14 F,2,166782,167532,1,0 P,0,166782,167532,A C,0,166782,,223,223,223
Sprite,Foreground,Centre,"sb/hl.png",374,249 S,2,166932,167682,0.7,0.14 F,2,166932,167682,1,0 P,0,166932,167682,A C,0,166932,,223,223,223
Sprite,Foreground,Centre,"sb/hl.png",374,249 S,2,167007,167757,0.7,0.14 F,2,167007,167757,1,0 P,0,167007,167757,A C,0,167007,,223,223,223
Sprite,Foreground,Centre,"sb/hl.png",0,0 S,2,167082,167981,0.7,0.14 F,2,167082,167981,1,0 P,0,167082,167981,A C,0,167082,,223,223,223 M,0,167082,167119,374,249,385.9346,251.679 M,0,167119,167157,385.9346,251.679,398.0546,253.2776 M,0,167157,167194,398.0546,253.2776,410.2597,253.8415 M,0,167194,167231,410.2597,253.8415,422.4555,252.9886
Sprite,Foreground,Centre,"sb/hl.png",0,0 S,2,167382,168281,0.7,0.14 F,2,167382,168281,1,0 P,0,167382,168281,A C,0,167382,,223,223,223 M,0,167382,167419,514,206,515.4741,193.839 M,0,167419,167457,515.4741,193.839,516.9481,181.678 M,0,167457,167494,516.9481,181.678,518.4222,169.517 M,0,167494,167531,518.4222,169.517,519.8962,157.356
Sprite,Foreground,Centre,"sb/hl.png",0,0 S,2,167682,168581,0.7,0.14 F,2,167682,168581,1,0 P,0,167682,168581,A C,0,167682,,223,223,223 M,0,167682,167719,516,285,517.4741,297.161 M,0,167719,167757,517.4741,297.161,518.9481,309.322 M,0,167757,167794,518.9481,309.322,520.4222,321.483 M,0,167794,167831,520.4222,321.483,521.8962,333.644
Sprite,Foreground,Centre,"sb/hl.png",0,0 S,2,167982,168882,0.7,0.14 F,2,167982,168882,1,0 P,0,167982,168882,A C,0,167982,,149,255,218 M,0,167982,168019,401,436,387.8763,429.0596 M,0,168019,168057,387.8763,429.0596,374.0877,423.6088 M,0,168057,168094,374.0877,423.6088,359.7033,419.9877 M,0,168094,168132,359.7033,419.9877,344.9614,418.1788
Sprite,Foreground,Centre,"sb/hl.png",0,0 S,2,168282,169332,0.7,0.14 F,2,168282,169332,1,0 P,0,168282,169332,A C,0,168282,,149,255,218 M,0,168282,168319,255,423,260.8781,409.3504 M,0,168319,168357,260.8781,409.3504,265.7358,395.3141 M,0,168357,168394,265.7358,395.3141,269.3535,380.9044 M,0,168394,168432,269.3535,380.9044,271.7031,366.2286 M,0,168432,168469,271.7031,366.2286,272.5476,351.3922 M,0,168469,168507,272.5476,351.3922,272.2305,336.5442 M,0,168507,168544,272.2305,336.5442,270.6211,321.778 M,0,168544,168582,270.6211,321.778,267.731,307.2041
Sprite,Foreground,Centre,"sb/hl.png",0,0 S,2,168732,169632,0.7,0.14 F,2,168732,169632,1,0 P,0,168732,169632,A C,0,168732,,149,255,218 M,0,168732,168769,140,430,153.6262,424.2589 M,0,168769,168807,153.6262,424.2589,165.9449,416.1707 M,0,168807,168844,165.9449,416.1707,176.2437,405.5783 M,0,168844,168882,176.2437,405.5783,184.0285,392.9568
Sprite,Foreground,Centre,"sb/hl.png",106,301 S,2,169032,169782,0.7,0.14 F,2,169032,169782,1,0 P,0,169032,169782,A C,0,169032,,149,255,218
Sprite,Foreground,Centre,"sb/hl.png",0,0 S,2,169182,170082,0.7,0.14 F,2,169182,170082,1,0 P,0,169182,170082,A C,0,169182,,149,255,218 M,0,169182,169219,106,301,109.132,315.5415 M,0,169219,169257,109.132,315.5415,112.264,330.0831 M,0,169257,169294,112.264,330.0831,115.3961,344.6246 M,0,169294,169332,115.3961,344.6246,118.5281,359.1661
Sprite,Foreground,Centre,"sb/hl.png",0,0 S,2,169632,170532,0.7,0.14 F,2,169632,170532,1,0 P,0,169632,170532,A C,0,169632,,149,255,218 M,0,169632,169669,139,97,142.132,111.5415 M,0,169669,169707,142.132,111.5415,145.264,126.0831 M,0,169707,169744,145.264,126.0831,148.3961,140.6246 M,0,169744,169782,148.3961,140.6246,151.5281,155.1661
Sprite,Foreground,Centre,"sb/hl.png",232,258 S,2,169932,170682,0.7,0.14 F,2,169932,170682,1,0 P,0,169932,170682,A C,0,169932,,149,255,218
Sprite,Foreground,Centre,"sb/hl.png",0,0 S,2,170082,170982,0.7,0.14 F,2,170082,170982,1,0 P,0,170082,170982,A C,0,170082,,149,255,218 M,0,170082,170119,232,258,235.132,243.4585 M,0,170119,170157,235.132,243.4585,238.264,228.9169 M,0,170157,170194,238.264,228.9169,241.3961,214.3754 M,0,170194,170232,241.3961,214.3754,244.5281,199.8339
Sprite,Foreground,Centre,"sb/hl.png",0,0 S,2,170382,171282,0.7,0.14 F,2,170382,171282,1,0 P,0,170382,171282,A C,0,170382,,36,74,255 M,0,170382,170419,316,90,328.0235,98.66354 M,0,170419,170457,328.0235,98.66354,341.131,105.5138 M,0,170457,170494,341.131,105.5138,355.2392,110.0335 M,0,170494,170532,355.2392,110.0335,369.9648,111.6469
Sprite,Foreground,Centre,"sb/hl.png",0,0 S,2,170682,171582,0.7,0.14 F,2,170682,171582,1,0 P,0,170682,171582,A C,0,170682,,36,74,255 M,0,170682,170719,494,72,480.2355,77.46204 M,0,170719,170757,480.2355,77.46204,467.5195,84.98105 M,0,170757,170794,467.5195,84.98105,456.408,94.76175 M,0,170794,170832,456.408,94.76175,447.7039,106.7335
Sprite,Foreground,Centre,"sb/hl.png",0,0 S,2,171132,172032,0.7,0.14 F,2,171132,172032,1,0 P,0,171132,172032,A C,0,171132,,36,74,255 M,0,171132,171169,348,344,349.5013,329.2596 M,0,171169,171207,349.5013,329.2596,348.8496,314.4881 M,0,171207,171244,348.8496,314.4881,345.6258,300.0291 M,0,171244,171282,345.6258,300.0291,339.4962,286.5464
Sprite,Foreground,Centre,"sb/hl.png",244,199 S,2,171432,172182,0.7,0.14 F,2,171432,172182,1,0 P,0,171432,172182,A C,0,171432,,36,74,255
Sprite,Foreground,Centre,"sb/hl.png",0,0 S,2,171582,172482,0.7,0.14 F,2,171582,172482,1,0 P,0,171582,172482,A C,0,171582,,36,74,255 M,0,171582,171619,244,199,256.0122,207.6795 M,0,171619,171657,256.0122,207.6795,269.1281,214.5093 M,0,171657,171694,269.1281,214.5093,283.2463,218.9737 M,0,171694,171732,283.2463,218.9737,297.9537,220.9316
Sprite,Foreground,Centre,"sb/hl.png",0,0 S,2,172082,172932,0.7,0.14 F,2,172082,172932,1,0 P,0,172082,172932,A C,0,172082,,36,74,255 M,0,172082,172119,550,139,551.0989,124.1656 M,0,172119,172157,551.0989,124.1656,552.1977,109.3313 M,0,172157,172182,552.1977,109.3313,552.9302,99.44171
Sprite,Foreground,Centre,"sb/hl.png",476,193 S,2,172332,173082,0.7,0.14 F,2,172332,173082,1,0 P,0,172332,173082,A C,0,172332,,36,74,255
Sprite,Foreground,Centre,"sb/hl.png",0,0 S,2,172482,173382,0.7,0.14 F,2,172482,173382,1,0 P,0,172482,173382,A C,0,172482,,36,74,255 M,0,172482,172519,476,193,477.7132,207.776 M,0,172519,172557,477.7132,207.776,479.4263,222.552 M,0,172557,172594,479.4263,222.552,481.1395,237.328 M,0,172594,172632,481.1395,237.328,482.8527,252.1041
Sprite,Foreground,Centre,"sb/hl.png",374,378 S,2,172932,173682,0.7,0.14 F,2,172932,173682,1,0 P,0,172932,173682,A C,0,172932,,223,223,223
Sprite,Foreground,Centre,"sb/hl.png",0,0 S,2,173082,173982,0.7,0.14 F,2,173082,173982,1,0 P,0,173082,173982,A C,0,173082,,223,223,223 M,0,173082,173119,374,378,361.0078,370.8538 M,0,173119,173157,361.0078,370.8538,347.261,365.3378 M,0,173157,173194,347.261,365.3378,332.7466,362.3434 M,0,173194,173232,332.7466,362.3434,317.9854,361.4019
Sprite,Foreground,Centre,"sb/hl.png",190,313 S,2,173382,174132,0.7,0.14 F,2,173382,174132,1,0 P,0,173382,174132,A C,0,173382,,223,223,223
Sprite,Foreground,Centre,"sb/hl.png",0,0 S,2,173532,174432,0.7,0.14 F,2,173532,174432,1,0 P,0,173532,174432,A C,0,173532,,223,223,223 M,0,173532,173569,190,313,204.8361,312.6038 M,0,173569,173607,204.8361,312.6038,219.5266,310.6098 M,0,173607,173644,219.5266,310.6098,233.8495,306.7076 M,0,173644,173682,233.8495,306.7076,247.3631,300.5779
Sprite,Foreground,Centre,"sb/hl.png",331,243 S,2,173832,174582,0.7,0.14 F,2,173832,174582,1,0 P,0,173832,174582,A C,0,173832,,223,223,223
Sprite,Foreground,Centre,"sb/hl.png",0,0 S,2,173982,175032,0.7,0.14 F,2,173982,175032,1,0 P,0,173982,175032,A C,0,173982,,223,223,223 M,0,173982,174019,331,243,329.2552,257.7723 M,0,174019,174057,329.2552,257.7723,327.5105,272.5446 M,0,174057,174094,327.5105,272.5446,325.7657,287.317 M,0,174094,174132,325.7657,287.317,324.021,302.0893 M,0,174132,174169,324.021,302.0893,322.2762,316.8616 M,0,174169,174207,322.2762,316.8616,320.5314,331.6339 M,0,174207,174244,320.5314,331.6339,318.7867,346.4063 M,0,174244,174282,318.7867,346.4063,317.0419,361.1786
Sprite,Foreground,Centre,"sb/hl.png",308,437 S,2,174432,175182,0.7,0.14 F,2,174432,175182,1,0 P,0,174432,175182,A C,0,174432,,223,223,223
Sprite,Foreground,Centre,"sb/hl.png",435,273 S,2,174732,175482,0.7,0.14 F,2,174732,175482,1,0 P,0,174732,175482,A C,0,174732,,223,223,223
Sprite,Foreground,Centre,"sb/hl.png",0,0 S,2,174882,175782,0.7,0.14 F,2,174882,175782,1,0 P,0,174882,175782,A C,0,174882,,223,223,223 M,0,174882,174919,435,273,436.6427,287.784 M,0,174919,174957,436.6427,287.784,438.2853,302.5681 M,0,174957,174994,438.2853,302.5681,439.928,317.3521 M,0,174994,175032,439.928,317.3521,441.5707,332.1361
Sprite,Foreground,Centre,"sb/hl.png",223,374 S,2,175332,176082,0.7,0.14 F,2,175332,176082,1,0 P,0,175332,176082,A C,0,175332,,149,255,218
Sprite,Foreground,Centre,"sb/hl.png",0,0 S,2,175482,176532,0.7,0.14 F,2,175482,176532,1,0 P,0,175482,176532,A C,0,175482,,149,255,218 M,0,175482,175519,223,374,224.6154,359.213 M,0,175519,175557,224.6154,359.213,226.2308,344.4259 M,0,175557,175594,226.2308,344.4259,227.8462,329.6389 M,0,175594,175632,227.8462,329.6389,229.4616,314.8519 M,0,175632,175669,229.4616,314.8519,231.077,300.0649 M,0,175669,175707,231.077,300.0649,232.6923,285.2778 M,0,175707,175744,232.6923,285.2778,234.3077,270.4908 M,0,175744,175782,234.3077,270.4908,235.9231,255.7038
Sprite,Foreground,Centre,"sb/hl.png",0,0 S,2,175932,176982,0.7,0.14 F,2,175932,176982,1,0 P,0,175932,176982,A C,0,175932,,149,255,218 M,0,175932,175969,312,345,313.6154,330.213 M,0,175969,176007,313.6154,330.213,315.2308,315.4259 M,0,176007,176044,315.2308,315.4259,316.8462,300.6389 M,0,176044,176082,316.8462,300.6389,318.4615,285.8519 M,0,176082,176119,318.4615,285.8519,320.0769,271.0649 M,0,176119,176157,320.0769,271.0649,321.6923,256.2778 M,0,176157,176194,321.6923,256.2778,323.3077,241.4908 M,0,176194,176232,323.3077,241.4908,324.9231,226.7038
Sprite,Foreground,Centre,"sb/hl.png",0,0 S,2,176382,177282,0.7,0.14 F,2,176382,177282,1,0 P,0,176382,177282,A C,0,176382,,36,74,255 M,0,176382,176419,401,316,402.689,301.2212 M,0,176419,176457,402.689,301.2212,404.378,286.4424 M,0,176457,176494,404.378,286.4424,406.067,271.6636 M,0,176494,176532,406.067,271.6636,407.756,256.8848
Sprite,Foreground,Centre,"sb/hl.png",0,0 S,2,176832,177882,0.7,0.14 F,2,176832,177882,1,0 P,0,176832,177882,A C,0,176832,,36,74,255 M,0,176832,176869,486,83,484.2475,97.7714 M,0,176869,176907,484.2475,97.7714,482.4949,112.5428 M,0,176907,176944,482.4949,112.5428,480.7424,127.3142 M,0,176944,176982,480.7424,127.3142,478.9898,142.0856 M,0,176982,177019,478.9898,142.0856,477.2373,156.857 M,0,177019,177057,477.2373,156.857,475.4848,171.6284 M,0,177057,177094,475.4848,171.6284,473.7322,186.3998 M,0,177094,177132,473.7322,186.3998,472,201
Sprite,Foreground,Centre,"sb/hl.png",0,0 S,2,177282,178332,0.7,0.14 F,2,177282,178332,1,0 P,0,177282,178332,A C,0,177282,,36,74,255 M,0,177282,177319,401,316,402.689,301.2212 M,0,177319,177357,402.689,301.2212,404.378,286.4424 M,0,177357,177394,404.378,286.4424,406.067,271.6636 M,0,177394,177432,406.067,271.6636,407.756,256.8848 M,0,177432,177469,407.756,256.8848,406.067,271.6636 M,0,177469,177507,406.067,271.6636,404.378,286.4424 M,0,177507,177544,404.378,286.4424,402.689,301.2212 M,0,177544,177582,402.689,301.2212,401,316
Sprite,Foreground,Centre,"sb/hl.png",277,415 S,2,177732,178482,0.7,0.14 F,2,177732,178482,1,0 P,0,177732,178482,A C,0,177732,,223,223,223
Sprite,Foreground,Centre,"sb/hl.png",0,0 S,2,177882,178932,0.7,0.14 F,2,177882,178932,1,0 P,0,177882,178932,A C,0,177882,,223,223,223 M,0,177882,177919,277,415,270.4319,401.6914 M,0,177919,177957,270.4319,401.6914,262.3755,389.2523 M,0,177957,177994,262.3755,389.2523,252.6781,378.0326 M,0,177994,178032,252.6781,378.0326,241.5182,368.2447 M,0,178032,178069,241.5182,368.2447,228.9364,360.3781 M,0,178069,178107,228.9364,360.3781,215.4999,354.1356 M,0,178107,178144,215.4999,354.1356,201.3271,349.7993 M,0,178144,178182,201.3271,349.7993,186.6822,347.4527
Sprite,Foreground,Centre,"sb/hl.png",0,0 S,2,178332,179232,0.7,0.14 F,2,178332,179232,1,0 P,0,178332,179232,A C,0,178332,,223,223,223 M,0,178332,178369,70,403,84.76955,401.6208 M,0,178369,178407,84.76955,401.6208,99.29289,398.6449 M,0,178407,178444,99.29289,398.6449,113.1086,393.2612 M,0,178444,178482,113.1086,393.2612,126.2603,386.4036
Sprite,Foreground,Centre,"sb/hl.png",189,263 S,2,178632,179382,0.7,0.14 F,2,178632,179382,1,0 P,0,178632,179382,A C,0,178632,,223,223,223
Sprite,Foreground,Centre,"sb/hl.png",0,0 S,2,178782,179832,0.7,0.14 F,2,178782,179832,1,0 P,0,178782,179832,A C,0,178782,,223,223,223 M,0,178782,178819,189,263,187.2507,248.2282 M,0,178819,178857,187.2507,248.2282,185.5014,233.4564 M,0,178857,178894,185.5014,233.4564,183.7521,218.6846 M,0,178894,178932,183.7521,218.6846,182.0028,203.9129 M,0,178932,178969,182.0028,203.9129,183.7521,218.6846 M,0,178969,179007,183.7521,218.6846,185.5014,233.4564 M,0,179007,179044,185.5014,233.4564,187.2507,248.2282 M,0,179044,179082,187.2507,248.2282,189,263
Sprite,Foreground,Centre,"sb/hl.png",0,0 S,2,179232,180132,0.7,0.14 F,2,179232,180132,1,0 P,0,179232,180132,A C,0,179232,,223,223,223 M,0,179232,179269,283,355,284.4801,340.1988 M,0,179269,179307,284.4801,340.1988,285.9602,325.3976 M,0,179307,179344,285.9602,325.3976,287.4404,310.5965 M,0,179344,179382,287.4404,310.5965,288.9205,295.7953
Sprite,Foreground,Centre,"sb/hl.png",379,181 S,2,179532,180282,0.7,0.14 F,2,179532,180282,1,0 P,0,179532,180282,A C,0,179532,,223,223,223
Sprite,Foreground,Centre,"sb/hl.png",0,0 S,2,179682,180582,0.7,0.14 F,2,179682,180582,1,0 P,0,179682,180582,A C,0,179682,,223,223,223 M,0,179682,179719,379,181,380.7237,195.7748 M,0,179719,179757,380.7237,195.7748,382.4474,210.5496 M,0,179757,179794,382.4474,210.5496,384.1712,225.3244 M,0,179794,179832,384.1712,225.3244,385.8949,240.0992
Sprite,Foreground,Centre,"sb/hl.png",0,0 S,2,179982,180882,0.7,0.14 F,2,179982,180882,1,0 P,0,179982,180882,A C,0,179982,,149,255,218 M,0,179982,180019,446,370,450.261,355.7713 M,0,180019,180057,450.261,355.7713,455.7551,341.9836 M,0,180057,180094,455.7551,341.9836,462.6909,328.8483 M,0,180094,180132,462.6909,328.8483,471.252,316.7132
Sprite,Foreground,Centre,"sb/hl.png",0,0 S,2,180282,181332,0.7,0.14 F,2,180282,181332,1,0 P,0,180282,181332,A C,0,180282,,149,255,218 M,0,180282,180319,557,257,542.1967,255.8013 M,0,180319,180357,542.1967,255.8013,527.6038,253.1261 M,0,180357,180394,527.6038,253.1261,513.4237,248.7523 M,0,180394,180432,513.4237,248.7523,499.8519,242.7393 M,0,180432,180469,499.8519,242.7393,487.0758,235.1683 M,0,180469,180507,487.0758,235.1683,475.2725,226.1421 M,0,180507,180544,475.2725,226.1421,464.8219,215.5906 M,0,180544,180582,464.8219,215.5906,455.5295,204.0267
Sprite,Foreground,Centre,"sb/hl.png",395,86 S,2,180732,181482,0.7,0.14 F,2,180732,181482,1,0 P,0,180732,181482,A C,0,180732,,149,255,218
Sprite,Foreground,Centre,"sb/hl.png",395,86 S,2,181032,181782,0.7,0.14 F,2,181032,181782,1,0 P,0,181032,181782,A C,0,181032,,36,74,255
Sprite,Foreground,Centre,"sb/hl.png",0,0 S,2,181182,182082,0.7,0.14 F,2,181182,182082,1,0 P,0,181182,182082,A C,0,181182,,36,74,255 M,0,181182,181219,290,164,275.4182,166.7653 M,0,181219,181257,275.4182,166.7653,260.6343,167.7978 M,0,181257,181294,260.6343,167.7978,245.8427,166.7728 M,0,181294,181332,245.8427,166.7728,231.3251,163.7068
Sprite,Foreground,Centre,"sb/hl.png",0,0 S,2,181482,182532,0.7,0.14 F,2,181482,182532,1,0 P,0,181482,182532,A C,0,181482,,36,74,255 M,0,181482,181519,121,90,119.5672,75.19417 M,0,181519,181557,119.5672,75.19417,118.1344,60.38834 M,0,181557,181594,118.1344,60.38834,119.5672,75.19417 M,0,181594,181632,119.5672,75.19417,121,90 M,0,181632,181669,121,90,119.5672,75.19417 M,0,181669,181707,119.5672,75.19417,118.1344,60.38834 M,0,181707,181744,118.1344,60.38834,119.5672,75.19417 M,0,181744,181782,119.5672,75.19417,121,90
Sprite,Foreground,Centre,"sb/hl.png",94,218 S,2,181932,182682,0.7,0.14 F,2,181932,182682,1,0 P,0,181932,182682,A C,0,181932,,36,74,255
Sprite,Foreground,Centre,"sb/hl.png",0,0 S,2,182082,182982,0.7,0.14 F,2,182082,182982,1,0 P,0,182082,182982,A C,0,182082,,36,74,255 M,0,182082,182119,94,218,95.25609,232.8219 M,0,182119,182157,95.25609,232.8219,96.51218,247.6437 M,0,182157,182194,96.51218,247.6437,97.76827,262.4656 M,0,182194,182232,97.76827,262.4656,99,277
Sprite,Foreground,Centre,"sb/hl.png",0,0 S,2,182382,183282,0.7,0.14 F,2,182382,183282,1,0 P,0,182382,183282,A C,0,182382,,223,223,223 M,0,182382,182419,161,378,162.2353,363.1764 M,0,182419,182457,162.2353,363.1764,163.4706,348.3528 M,0,182457,182494,163.4706,348.3528,164.7059,333.5291 M,0,182494,182532,164.7059,333.5291,165.9412,318.7055
Sprite,Foreground,Centre,"sb/hl.png",0,0 S,2,182682,183732,0.7,0.14 F,2,182682,183732,1,0 P,0,182682,183732,A C,0,182682,,223,223,223 M,0,182682,182719,255,221,266.7629,230.0842 M,0,182719,182757,266.7629,230.0842,279.1386,238.2996 M,0,182757,182794,279.1386,238.2996,292.1688,245.4384 M,0,182794,182832,292.1688,245.4384,305.7617,251.4495 M,0,182832,182869,305.7617,251.4495,319.8213,256.2893 M,0,182869,182907,319.8213,256.2893,334.2984,259.651 M,0,182907,182944,334.2984,259.651,348.971,261.9673 M,0,182944,182982,348.971,261.9673,363.7904,263.0323
Sprite,Foreground,Centre,"sb/hl.png",0,0 S,2,183132,184182,0.7,0.14 F,2,183132,184182,1,0 P,0,183132,184182,A C,0,183132,,223,223,223 M,0,183132,183169,273,126,281.1576,138.4101 M,0,183169,183207,281.1576,138.4101,290.4547,149.9733 M,0,183207,183244,290.4547,149.9733,301.0148,160.4078 M,0,183244,183282,301.0148,160.4078,312.7053,169.5788 M,0,183282,183319,312.7053,169.5788,325.539,177.0504 M,0,183319,183357,325.539,177.0504,339.0337,183.2128 M,0,183357,183394,339.0337,183.2128,353.1492,187.7996 M,0,183394,183432,353.1492,187.7996,367.7063,190.7503
Sprite,Foreground,Centre,"sb/hl.png",330,61 S,2,183582,184332,0.7,0.14 F,2,183582,184332,1,0 P,0,183582,184332,A C,0,183582,,149,255,218
Sprite,Foreground,Centre,"sb/hl.png",0,0 S,2,183732,184632,0.7,0.14 F,2,183732,184632,1,0 P,0,183732,184632,A C,0,183732,,149,255,218 M,0,183732,183769,330,61,334.1272,75.21834 M,0,183769,183807,334.1272,75.21834,340.5184,88.52652 M,0,183807,183844,340.5184,88.52652,349.4009,100.3469 M,0,183844,183882,349.4009,100.3469,360.4485,110.2246
Sprite,Foreground,Centre,"sb/hl.png",0,0 S,2,184032,184932,0.7,0.14 F,2,184032,184932,1,0 P,0,184032,184932,A C,0,184032,,149,255,218 M,0,184032,184069,491,143,476.6125,139.4893 M,0,184069,184107,476.6125,139.4893,461.8893,138.2995 M,0,184107,184144,461.8893,138.2995,447.1823,139.9051 M,0,184144,184182,447.1823,139.9051,433.0079,144.2625
Sprite,Foreground,Centre,"sb/hl.png",0,0 S,2,184332,185382,0.7,0.14 F,2,184332,185382,1,0 P,0,184332,185382,A C,0,184332,,149,255,218 M,0,184332,184369,363,250,363.7428,235.1436 M,0,184369,184407,363.7428,235.1436,364.4857,220.2871 M,0,184407,184444,364.4857,220.2871,365.2285,205.4307 M,0,184444,184482,365.2285,205.4307,365.9713,190.5742 M,0,184482,184519,365.9713,190.5742,365.2285,205.4307 M,0,184519,184557,365.2285,205.4307,364.4857,220.2871 M,0,184557,184594,364.4857,220.2871,363.7428,235.1436 M,0,184594,184632,363.7428,235.1436,363,250
Sprite,Foreground,Centre,"sb/hl.png",0,0 S,2,184782,185691,0.7,0.14 F,2,184782,185691,1,0 P,0,184782,185691,A C,0,184782,,36,74,255 M,0,184782,184821,396,336,397.4849,346.3945 M,0,184821,184861,397.4849,346.3945,398.9698,356.7889 M,0,184861,184901,398.9698,356.7889,400.4548,367.1834 M,0,184901,184941,400.4548,367.1834,401.9397,377.5779
Sprite,Foreground,Centre,"sb/hl.png",0,0 S,2,185242,186141,0.7,0.14 F,2,185242,186141,1,0 P,0,185242,186141,A C,0,185242,,36,74,255 M,0,185242,185279,276,242,274.5151,252.3945 M,0,185279,185317,274.5151,252.3945,273.0302,262.7889 M,0,185317,185354,273.0302,262.7889,271.5452,273.1834 M,0,185354,185391,271.5452,273.1834,270.0603,283.5779
Sprite,Foreground,Centre,"sb/hl.png",0,0 S,2,185692,186741,0.7,0.14 F,2,185692,186741,1,0 P,0,185692,186741,A C,0,185692,,36,74,255 M,0,185692,185729,396,148,397.4384,158.401 M,0,185729,185767,397.4384,158.401,398.8769,168.802 M,0,185767,185804,398.8769,168.802,400.3153,179.203 M,0,185804,185842,400.3153,179.203,401.7538,189.604 M,0,185842,185879,401.7538,189.604,403.1922,200.005 M,0,185879,185917,403.1922,200.005,404.6306,210.406 M,0,185917,185954,404.6306,210.406,406.0691,220.807 M,0,185954,185991,406.0691,220.807,407.5075,231.208
Sprite,Foreground,Centre,"sb/hl.png",0,0 S,2,186142,187041,0.7,0.14 F,2,186142,187041,1,0 P,0,186142,187041,A C,0,186142,,36,74,255 M,0,186142,186179,466,333,467.4849,322.6055 M,0,186179,186217,467.4849,322.6055,468.9698,312.2111 M,0,186217,186254,468.9698,312.2111,470.4548,301.8166 M,0,186254,186291,470.4548,301.8166,471.9397,291.4221
Sprite,Foreground,Centre,"sb/hl.png",259,367 S,2,186592,187342,0.7,0.14 F,2,186592,187342,1,0 P,0,186592,187342,A C,0,186592,,223,223,223
Sprite,Foreground,Centre,"sb/hl.png",0,0 S,2,9582,10631,0.7,0.14 F,2,9582,10631,1,0 P,0,9582,10631,A C,0,9582,,149,255,218 M,0,9582,9619,126,319,136.3268,317.1008 M,0,9619,9657,136.3268,317.1008,146.6536,315.2016 M,0,9657,9694,146.6536,315.2016,156.9804,313.3025 M,0,9694,9732,156.9804,313.3025,167.3073,311.4033 M,0,9732,9769,167.3073,311.4033,177.6341,309.5041 M,0,9769,9807,177.6341,309.5041,187.9609,307.6049 M,0,9807,9844,187.9609,307.6049,198.2877,305.7057 M,0,9844,9881,198.2877,305.7057,208.6145,303.8065
Sprite,Foreground,Centre,"sb/hl.png",325,252 S,2,10182,10932,0.7,0.14 F,2,10182,10932,1,0 P,0,10182,10932,A C,0,10182,,149,255,218
Sprite,Foreground,Centre,"sb/hl.png",0,0 S,2,10332,11381,0.7,0.14 F,2,10332,11381,1,0 P,0,10332,11381,A C,0,10332,,149,255,218 M,0,10332,10369,325,252,323.1008,262.3268 M,0,10369,10407,323.1008,262.3268,321.2016,272.6536 M,0,10407,10444,321.2016,272.6536,319.3024,282.9804 M,0,10444,10482,319.3024,282.9804,317.4033,293.3073 M,0,10482,10519,317.4033,293.3073,315.5041,303.6341 M,0,10519,10557,315.5041,303.6341,313.6049,313.9609 M,0,10557,10594,313.6049,313.9609,311.7057,324.2877 M,0,10594,10631,311.7057,324.2877,309.8065,334.6145
Sprite,Foreground,Centre,"sb/hl.png",294,417 S,2,10782,11532,0.7,0.14 F,2,10782,11532,1,0 P,0,10782,11532,A C,0,10782,,149,255,218
Sprite,Foreground,Centre,"sb/hl.png",0,0 S,2,11232,12281,0.7,0.14 F,2,11232,12281,1,0 P,0,11232,12281,A C,0,11232,,149,255,218 M,0,11232,11269,513,244,514.8992,254.3268 M,0,11269,11307,514.8992,254.3268,516.7983,264.6536 M,0,11307,11344,516.7983,264.6536,518.6975,274.9804 M,0,11344,11382,518.6975,274.9804,520.5967,285.3073 M,0,11382,11419,520.5967,285.3073,522.4959,295.6341 M,0,11419,11457,522.4959,295.6341,524.3951,305.9609 M,0,11457,11494,524.3951,305.9609,526.2943,316.2877 M,0,11494,11531,526.2943,316.2877,528.1935,326.6145
Sprite,Foreground,Centre,"sb/hl.png",482,393 S,2,11682,12432,0.7,0.14 F,2,11682,12432,1,0 P,0,11682,12432,A C,0,11682,,149,255,218
Sprite,Foreground,Centre,"sb/hl.png",0,0 S,2,11832,12881,0.7,0.14 F,2,11832,12881,1,0 P,0,11832,12881,A C,0,11832,,36,74,255 M,0,11832,11869,482,393,473.0048,398.3758 M,0,11869,11907,473.0048,398.3758,463.4891,402.7404 M,0,11907,11944,463.4891,402.7404,453.563,406.0452 M,0,11944,11982,453.563,406.0452,443.3411,408.2531 M,0,11982,12019,443.3411,408.2531,432.9629,409.6012 M,0,12019,12057,432.9629,409.6012,422.4937,409.3735 M,0,12057,12094,422.4937,409.3735,412.119,408.013 M,0,12094,12131,412.119,408.013,401.9578,405.5365
Sprite,Foreground,Centre,"sb/hl.png",335,355 S,2,12282,13032,0.7,0.14 F,2,12282,13032,1,0 P,0,12282,13032,A C,0,12282,,36,74,255
Sprite,Foreground,Centre,"sb/hl.png",0,0 S,2,12732,13781,0.7,0.14 F,2,12732,13781,1,0 P,0,12732,13781,A C,0,12732,,36,74,255 M,0,12732,12769,113,411,114.3581,400.5882 M,0,12769,12807,114.3581,400.5882,115.7161,390.1764 M,0,12807,12844,115.7161,390.1764,117.0742,379.7646 M,0,12844,12882,117.0742,379.7646,118.4323,369.3528 M,0,12882,12919,118.4323,369.3528,119.7903,358.941 M,0,12919,12957,119.7903,358.941,121.1484,348.5292 M,0,12957,12994,121.1484,348.5292,122.5064,338.1174 M,0,12994,13031,122.5064,338.1174,123.8645,327.7056
Sprite,Foreground,Centre,"sb/hl.png",0,0 S,2,13182,14231,0.7,0.14 F,2,13182,14231,1,0 P,0,13182,14231,A C,0,13182,,36,74,255 M,0,13182,13219,83,250,93.38246,251.3928 M,0,13219,13257,93.38246,251.3928,103.8446,251.5566 M,0,13257,13294,103.8446,251.5566,114.2451,250.491 M,0,13294,13332,114.2451,250.491,124.444,248.2119 M,0,13332,13369,124.444,248.2119,134.3956,244.9998 M,0,13369,13407,134.3956,244.9998,143.7067,240.2212 M,0,13407,13444,143.7067,240.2212,152.3844,234.3871 M,0,13444,13481,152.3844,234.3871,160.3124,227.5773
Sprite,Foreground,Centre,"sb/hl.png",0,0 S,2,13632,14681,0.7,0.14 F,2,13632,14681,1,0 P,0,13632,14681,A C,0,13632,,36,74,255 M,0,13632,13669,236,158,246.3825,156.6072 M,0,13669,13707,246.3825,156.6072,256.8445,156.4434 M,0,13707,13744,256.8445,156.4434,267.2451,157.509 M,0,13744,13782,267.2451,157.509,277.444,159.7881 M,0,13782,13819,277.444,159.7881,287.3956,163.0002 M,0,13819,13857,287.3956,163.0002,296.7067,167.7788 M,0,13857,13894,296.7067,167.7788,305.3844,173.6129 M,0,13894,13931,305.3844,173.6129,313.3124,180.4227
Sprite,Foreground,Centre,"sb/hl.png",349,273 S,2,14082,14832,0.7,0.14 F,2,14082,14832,1,0 P,0,14082,14832,A C,0,14082,,36,74,255
Sprite,Foreground,Centre,"sb/hl.png",349,273 S,2,14232,14982,0.7,0.14 F,2,14232,14982,1,0 P,0,14232,14982,A C,0,14232,,223,223,223
Sprite,Foreground,Centre,"sb/hl.png",434,64 S,2,14682,15432,0.7,0.14 F,2,14682,15432,1,0 P,0,14682,15432,A C,0,14682,,223,223,223
Sprite,Foreground,Centre,"sb/hl.png",511,151 S,2,14982,15732,0.7,0.14 F,2,14982,15732,1,0 P,0,14982,15732,A C,0,14982,,223,223,223
Sprite,Foreground,Centre,"sb/hl.png",0,0 S,2,15132,16181,0.7,0.14 F,2,15132,16181,1,0 P,0,15132,16181,A C,0,15132,,223,223,223 M,0,15132,15169,511,151,503.1663,157.964 M,0,15169,15207,503.1663,157.964,494.6641,164.0783 M,0,15207,15244,494.6641,164.0783,485.5828,169.2802 M,0,15244,15282,485.5828,169.2802,476.0174,173.5165 M,0,15282,15319,476.0174,173.5165,466.155,177.0523 M,0,15319,15357,466.155,177.0523,455.8753,179.0814 M,0,15357,15394,455.8753,179.0814,445.4495,180.0395 M,0,15394,15431,445.4495,180.0395,434.9863,179.9178
Sprite,Foreground,Centre,"sb/hl.png",0,0 S,2,15582,16481,0.7,0.14 F,2,15582,16481,1,0 P,0,15582,16481,A C,0,15582,,223,223,223 M,0,15582,15619,328,170,318.3719,165.8787 M,0,15619,15657,318.3719,165.8787,309.3289,160.6216 M,0,15657,15694,309.3289,160.6216,301.001,154.3067 M,0,15694,15731,301.001,154.3067,293.2019,147.3062
Sprite,Foreground,Centre,"sb/hl.png",0,0 S,2,16032,17081,0.7,0.14 F,2,16032,17081,1,0 P,0,16032,17081,A C,0,16032,,223,223,223 M,0,16032,16069,94,246,104.3265,247.8909 M,0,16069,16107,104.3265,247.8909,114.5189,250.4067 M,0,16107,16144,114.5189,250.4067,124.5524,253.4973 M,0,16144,16182,124.5524,253.4973,134.4082,257.1152 M,0,16182,16219,134.4082,257.1152,144.0772,261.2066 M,0,16219,16257,144.0772,261.2066,153.5528,265.7283 M,0,16257,16294,153.5528,265.7283,162.8358,270.6334 M,0,16294,16331,162.8358,270.6334,171.9277,275.8845
Sprite,Foreground,Centre,"sb/hl.png",214,363 S,2,16482,17232,0.7,0.14 F,2,16482,17232,1,0 P,0,16482,17232,A C,0,16482,,223,223,223
Sprite,Foreground,Centre,"sb/hl.png",0,0 S,2,16632,17531,0.7,0.14 F,2,16632,17531,1,0 P,0,16632,17531,A C,0,16632,,149,255,218 M,0,16632,16669,288,276,290.0489,265.7064 M,0,16669,16707,290.0489,265.7064,291.5861,255.3261 M,0,16707,16744,291.5861,255.3261,292.6081,244.884 M,0,16744,16781,292.6081,244.884,293.2724,234.4089
Sprite,Foreground,Centre,"sb/hl.png",0,0 S,2,16932,17831,0.7,0.14 F,2,16932,17831,1,0 P,0,16932,17831,A C,0,16932,,149,255,218 M,0,16932,16969,376,250,374.9961,260.4501 M,0,16969,17007,374.9961,260.4501,373.6578,270.8617 M,0,17007,17044,373.6578,270.8617,371.9863,281.2244 M,0,17044,17081,371.9863,281.2244,370.0892,291.5503
Sprite,Foreground,Centre,"sb/hl.png",508,401 S,2,17382,18132,0.7,0.14 F,2,17382,18132,1,0 P,0,17382,18132,A C,0,17382,,149,255,218
Sprite,Foreground,Centre,"sb/hl.png",0,0 S,2,17532,18581,0.7,0.14 F,2,17532,18581,1,0 P,0,17532,18581,A C,0,17532,,149,255,218 M,0,17532,17569,508,401,506.0556,390.6898 M,0,17569,17607,506.0556,390.6898,504.8036,380.2767 M,0,17607,17644,504.8036,380.2767,504.2491,369.8059 M,0,17644,17682,504.2491,369.8059,504.173,359.3127 M,0,17682,17719,504.173,359.3127,505.1355,348.8654 M,0,17719,17757,505.1355,348.8654,506.792,338.5093 M,0,17757,17794,506.792,338.5093,509.1351,328.2891 M,0,17794,17831,509.1351,328.2891,511.954,318.1825
Sprite,Foreground,Centre,"sb/hl.png",0,0 S,2,17982,19031,0.7,0.14 F,2,17982,19031,1,0 P,0,17982,19031,A C,0,17982,,149,255,218 M,0,17982,18019,576,236,565.6033,234.5309 M,0,18019,18057,565.6033,234.5309,555.2065,233.0618 M,0,18057,18094,555.2065,233.0618,544.8098,231.5927 M,0,18094,18132,544.8098,231.5927,534.4131,230.1236 M,0,18132,18169,534.4131,230.1236,524.0164,228.6545 M,0,18169,18207,524.0164,228.6545,513.6197,227.1854 M,0,18207,18244,513.6197,227.1854,503.223,225.7163 M,0,18244,18281,503.223,225.7163,492.8263,224.2472
Sprite,Foreground,Centre,"sb/hl.png",0,0 S,2,18432,19481,0.7,0.14 F,2,18432,19481,1,0 P,0,18432,19481,A C,0,18432,,149,255,218 M,0,18432,18469,386,230,375.6033,228.5309 M,0,18469,18507,375.6033,228.5309,365.2066,227.0618 M,0,18507,18544,365.2066,227.0618,354.8098,225.5927 M,0,18544,18582,354.8098,225.5927,344.4131,224.1236 M,0,18582,18619,344.4131,224.1236,334.0164,222.6545 M,0,18619,18657,334.0164,222.6545,323.6197,221.1854 M,0,18657,18694,323.6197,221.1854,313.223,219.7163 M,0,18694,18731,313.223,219.7163,302.8263,218.2472
Sprite,Foreground,Centre,"sb/hl.png",214,275 S,2,18882,19632,0.7,0.14 F,2,18882,19632,1,0 P,0,18882,19632,A C,0,18882,,149,255,218
Sprite,Foreground,Centre,"sb/hl.png",189,147 S,2,19032,19782,0.7,0.14 F,2,19032,19782,1,0 P,0,19032,19782,A C,0,19032,,149,255,218
Sprite,Foreground,Centre,"sb/hl.png",0,0 S,2,20637,21626,0.7,0.14 F,2,20637,21626,1,0 P,0,20637,21626,A C,0,20637,,36,74,255 M,0,20637,20676,480,187,467.3072,190.3402 M,0,20676,20716,467.3072,190.3402,454.6143,193.6805 M,0,20716,20756,454.6143,193.6805,441.9251,196.9685 M,0,20756,20796,441.9251,196.9685,429.8287,191.8752 M,0,20796,20836,429.8287,191.8752,417.7322,186.782 M,0,20836,20876,417.7322,186.782,405.6357,181.6887
Sprite,Foreground,Centre,"sb/hl.png",0,0 S,2,20956,21942,0.7,0.14 F,2,20956,21942,1,0 P,0,20956,21942,A C,0,20956,,36,74,255 M,0,20956,20995,391,172,392.6845,185.0164 M,0,20995,21034,392.6845,185.0164,394.369,198.0329 M,0,21034,21074,394.369,198.0329,396.0534,211.0494 M,0,21074,21113,396.0534,211.0494,397.7379,224.0658 M,0,21113,21153,397.7379,224.0658,399.4224,237.0823 M,0,21153,21192,399.4224,237.0823,401.1069,250.0988
Sprite,Foreground,Centre,"sb/hl.png",0,0 S,2,21271,22176,0.7,0.14 F,2,21271,22176,1,0 P,0,21271,22176,A C,0,21271,,36,74,255 M,0,21271,21309,420,273,418.4203,283.3805 M,0,21309,21348,418.4203,283.3805,416.8407,293.761 M,0,21348,21387,416.8407,293.761,415.2611,304.1415 M,0,21387,21426,415.2611,304.1415,413.6814,314.522
Sprite,Foreground,Centre,"sb/hl.png",0,0 S,2,21582,22482,0.7,0.14 F,2,21582,22482,1,0 P,0,21582,22482,A C,0,21582,,223,223,223 M,0,21582,21619,355,396,351.7068,383.3385 M,0,21619,21657,351.7068,383.3385,346.791,371.2308 M,0,21657,21694,346.791,371.2308,340.4417,359.8255 M,0,21694,21732,340.4417,359.8255,332.2305,349.6576
Sprite,Foreground,Centre,"sb/hl.png",181,333 S,2,22032,22782,0.7,0.14 F,2,22032,22782,1,0 P,0,22032,22782,A C,0,22032,,223,223,223
Sprite,Foreground,Centre,"sb/hl.png",138,406 S,2,22182,22932,0.7,0.14 F,2,22182,22932,1,0 P,0,22182,22932,A C,0,22182,,223,223,223
Sprite,Foreground,Centre,"sb/hl.png",96,221 S,2,22482,23232,0.7,0.14 F,2,22482,23232,1,0 P,0,22482,23232,A C,0,22482,,223,223,223
Sprite,Foreground,Centre,"sb/hl.png",0,0 S,2,22782,23832,0.7,0.14 F,2,22782,23832,1,0 P,0,22782,23832,A C,0,22782,,223,223,223 M,0,22782,22819,138,406,150.3205,410.4535 M,0,22819,22857,150.3205,410.4535,162.9746,413.8386 M,0,22857,22894,162.9746,413.8386,175.9775,415.4108 M,0,22894,22932,175.9775,415.4108,189.0615,415.7553 M,0,22932,22969,189.0615,415.7553,202.0832,414.3673 M,0,22969,23007,202.0832,414.3673,214.881,411.6562 M,0,23007,23044,214.881,411.6562,227.3293,407.5719 M,0,23044,23082,227.3293,407.5719,239.1804,401.9576
Sprite,Foreground,Centre,"sb/hl.png",0,0 S,2,23382,24432,0.7,0.14 F,2,23382,24432,1,0 P,0,23382,24432,A C,0,23382,,223,223,223 M,0,23382,23419,326,237,313.6795,232.5465 M,0,23419,23457,313.6795,232.5465,301.0254,229.1615 M,0,23457,23494,301.0254,229.1615,288.0225,227.5892 M,0,23494,23532,288.0225,227.5892,274.9385,227.2446 M,0,23532,23569,274.9385,227.2446,261.9168,228.6327 M,0,23569,23607,261.9168,228.6327,249.119,231.3438 M,0,23607,23644,249.119,231.3438,236.6707,235.4281 M,0,23644,23682,236.6707,235.4281,224.8196,241.0424
Sprite,Foreground,Centre,"sb/hl.png",285,321 S,2,23832,24582,0.7,0.14 F,2,23832,24582,1,0 P,0,23832,24582,A C,0,23832,,223,223,223
Sprite,Foreground,Centre,"sb/hl.png",285,321 S,2,23907,24657,0.7,0.14 F,2,23907,24657,1,0 P,0,23907,24657,A C,0,23907,,223,223,223
Sprite,Foreground,Centre,"sb/hl.png",0,0 S,2,23982,25182,0.7,0.14 F,2,23982,25182,1,0 P,0,23982,25182,A C,0,23982,,149,255,218 M,0,23982,24019,285,321,284.3517,307.891 M,0,24019,24057,284.3517,307.891,283.7035,294.782 M,0,24057,24094,283.7035,294.782,283.0553,281.6731 M,0,24094,24132,283.0553,281.6731,282.407,268.5641 M,0,24132,24169,282.407,268.5641,281.7588,255.4551 M,0,24169,24207,281.7588,255.4551,281.1105,242.3461 M,0,24207,24244,281.1105,242.3461,280.4623,229.2371 M,0,24244,24282,280.4623,229.2371,279.814,216.1281 M,0,24282,24319,279.814,216.1281,279.1658,203.0192 M,0,24319,24357,279.1658,203.0192,278.5175,189.9102 M,0,24357,24394,278.5175,189.9102,277.8693,176.8012 M,0,24394,24432,277.8693,176.8012,277.221,163.6922
Sprite,Foreground,Centre,"sb/hl.png",273,77 S,2,24582,25332,0.7,0.14 F,2,24582,25332,1,0 P,0,24582,25332,A C,0,24582,,149,255,218
Sprite,Foreground,Centre,"sb/hl.png",402,258 S,2,24882,25632,0.7,0.14 F,2,24882,25632,1,0 P,0,24882,25632,A C,0,24882,,149,255,218
Sprite,Foreground,Centre,"sb/hl.png",0,0 S,2,25182,26232,0.7,0.14 F,2,25182,26232,1,0 P,0,25182,26232,A C,0,25182,,149,255,218 M,0,25182,25219,473,76,459.8989,75.51118 M,0,25219,25257,459.8989,75.51118,446.7914,75.85429 M,0,25257,25294,446.7914,75.85429,433.8074,77.65977 M,0,25294,25332,433.8074,77.65977,420.9772,80.33936 M,0,25332,25369,420.9772,80.33936,408.5089,84.38335 M,0,25369,25407,408.5089,84.38335,396.368,89.31181 M,0,25407,25444,396.368,89.31181,384.7979,95.46983 M,0,25444,25482,384.7979,95.46983,373.6689,102.3982
Sprite,Foreground,Centre,"sb/hl.png",0,0 S,2,25782,26832,0.7,0.14 F,2,25782,26832,1,0 P,0,25782,26832,A C,0,25782,,149,255,218 M,0,25782,25819,244,236,257.1135,235.9971 M,0,25819,25857,257.1135,235.9971,270.2067,235.252 M,0,25857,25894,270.2067,235.252,283.1614,233.2249 M,0,25894,25932,283.1614,233.2249,295.9666,230.4139 M,0,25932,25969,295.9666,230.4139,308.4523,226.4115 M,0,25969,26007,308.4523,226.4115,320.6467,221.6066 M,0,26007,26044,320.6467,221.6066,332.3642,215.7251 M,0,26044,26082,332.3642,215.7251,343.7036,209.1405
Sprite,Foreground,Centre,"sb/hl.png",473,76 S,2,26382,27132,0.7,0.14 F,2,26382,27132,1,0 P,0,26382,27132,A C,0,26382,,36,74,255
Sprite,Foreground,Centre,"sb/hl.png",0,0 S,2,26532,27582,0.7,0.14 F,2,26532,27582,1,0 P,0,26532,27582,A C,0,26532,,36,74,255 M,0,26532,26569,473,76,475.1039,88.95528 M,0,26569,26607,475.1039,88.95528,477.2077,101.9106 M,0,26607,26644,477.2077,101.9106,479.3116,114.8659 M,0,26644,26682,479.3116,114.8659,481.4154,127.8211 M,0,26682,26719,481.4154,127.8211,483.5193,140.7764 M,0,26719,26757,483.5193,140.7764,485.6231,153.7317 M,0,26757,26794,485.6231,153.7317,487.727,166.687 M,0,26794,26832,487.727,166.687,489.8308,179.6423
Sprite,Foreground,Centre,"sb/hl.png",510,280 S,2,26982,27732,0.7,0.14 F,2,26982,27732,1,0 P,0,26982,27732,A C,0,26982,,36,74,255
Sprite,Foreground,Centre,"sb/hl.png",473,76 S,2,27282,28032,0.7,0.14 F,2,27282,28032,1,0 P,0,27282,28032,A C,0,27282,,36,74,255
Sprite,Foreground,Centre,"sb/hl.png",0,0 S,2,27582,28632,0.7,0.14 F,2,27582,28632,1,0 P,0,27582,28632,A C,0,27582,,36,74,255 M,0,27582,27619,343,209,330.1085,211.4146 M,0,27619,27657,330.1085,211.4146,317.111,213.1823 M,0,27657,27694,317.111,213.1823,304.0099,213.7827 M,0,27694,27732,304.0099,213.7827,290.896,213.688 M,0,27732,27769,290.896,213.688,277.8391,212.4629 M,0,27769,27807,277.8391,212.4629,264.8738,210.5087 M,0,27807,27844,264.8738,210.5087,252.1142,207.4818 M,0,27844,27882,252.1142,207.4818,239.5592,203.708
Sprite,Foreground,Centre,"sb/hl.png",0,0 S,2,28182,29232,0.7,0.14 F,2,28182,29232,1,0 P,0,28182,29232,A C,0,28182,,36,74,255 M,0,28182,28219,64,119,76.83324,116.2982 M,0,28219,28257,76.83324,116.2982,89.79399,114.2894 M,0,28257,28294,89.79399,114.2894,102.8841,113.5049 M,0,28294,28332,102.8841,113.5049,115.9958,113.4755 M,0,28332,28369,115.9958,113.4755,129.0581,114.6251 M,0,28369,28407,129.0581,114.6251,142.0212,116.5747 M,0,28407,28444,142.0212,116.5747,154.7715,119.6334 M,0,28444,28482,154.7715,119.6334,167.2898,123.5167
Sprite,Foreground,Centre,"sb/hl.png",243,187 S,2,28632,29382,0.7,0.14 F,2,28632,29382,1,0 P,0,28632,29382,A C,0,28632,,36,74,255
Sprite,Foreground,Centre,"sb/hl.png",243,187 S,2,28707,29457,0.7,0.14 F,2,28707,29457,1,0 P,0,28707,29457,A C,0,28707,,36,74,255
Sprite,Foreground,Centre,"sb/hl.png",0,0 S,2,28782,29982,0.7,0.14 F,2,28782,29982,1,0 P,0,28782,29982,A C,0,28782,,223,223,223 M,0,28782,28819,242,187,241.0386,200.0897 M,0,28819,28857,241.0386,200.0897,240.0772,213.1795 M,0,28857,28894,240.0772,213.1795,239.1158,226.2692 M,0,28894,28932,239.1158,226.2692,238.1544,239.359 M,0,28932,28969,238.1544,239.359,237.193,252.4487 M,0,28969,29007,237.193,252.4487,236.2316,265.5385 M,0,29007,29044,236.2316,265.5385,235.2702,278.6282 M,0,29044,29082,235.2702,278.6282,234.3089,291.7179 M,0,29082,29119,234.3089,291.7179,233.3475,304.8077 M,0,29119,29157,233.3475,304.8077,232.3861,317.8974 M,0,29157,29194,232.3861,317.8974,231.4247,330.9872 M,0,29194,29232,231.4247,330.9872,230.4633,344.0769
Sprite,Foreground,Centre,"sb/hl.png",229,426 S,2,29382,30132,0.7,0.14 F,2,29382,30132,1,0 P,0,29382,30132,A C,0,29382,,223,223,223
Sprite,Foreground,Centre,"sb/hl.png",0,0 S,2,29682,30882,0.7,0.14 F,2,29682,30882,1,0 P,0,29682,30882,A C,0,29682,,223,223,223 M,0,29682,29719,363,269,375.5919,265.3344 M,0,29719,29757,375.5919,265.3344,388.3745,262.413 M,0,29757,29794,388.3745,262.413,401.3697,260.6593 M,0,29794,29832,401.3697,260.6593,414.4469,259.7696 M,0,29832,29869,414.4469,259.7696,427.5617,259.8368 M,0,29869,29907,427.5617,259.8368,440.6114,261.129 M,0,29907,29944,440.6114,261.129,453.549,263.2418 M,0,29944,29982,453.549,263.2418,466.3069,266.2955 M,0,29982,30019,466.3069,266.2955,478.7069,270.5642 M,0,30019,30057,478.7069,270.5642,490.825,275.5692 M,0,30057,30094,490.825,275.5692,502.4517,281.6325 M,0,30094,30132,502.4517,281.6325,513.6362,288.4658
Sprite,Foreground,Centre,"sb/hl.png",0,0 S,2,30282,31632,0.7,0.14 F,2,30282,31632,1,0 P,0,30282,31632,A C,0,30282,,223,223,223 M,0,30282,30319,575,341,570.3464,328.7427 M,0,30319,30357,570.3464,328.7427,566.5036,316.2088 M,0,30357,30394,566.5036,316.2088,564.0184,303.3374 M,0,30394,30432,564.0184,303.3374,562.4686,290.3259 M,0,30432,30469,562.4686,290.3259,562.2246,277.2203 M,0,30469,30507,562.2246,277.2203,563.0154,264.1444 M,0,30507,30544,563.0154,264.1444,564.8834,251.1683 M,0,30544,30582,564.8834,251.1683,568.1251,238.4663 M,0,30582,30619,568.1251,238.4663,564.8834,251.1683 M,0,30619,30657,564.8834,251.1683,563.0154,264.1444 M,0,30657,30694,563.0154,264.1444,562.2246,277.2203 M,0,30694,30732,562.2246,277.2203,562.4686,290.3259 M,0,30732,30769,562.4686,290.3259,564.0184,303.3374 M,0,30769,30807,564.0184,303.3374,566.5036,316.2088 M,0,30807,30844,566.5036,316.2088,570.3464,328.7427 M,0,30844,30882,570.3464,328.7427,575,341
Sprite,Foreground,Centre,"sb/hl.png",425,431 S,2,31182,31932,0.7,0.14 F,2,31182,31932,1,0 P,0,31182,31932,A C,0,31182,,149,255,218
Sprite,Foreground,Centre,"sb/hl.png",0,0 S,2,31332,32382,0.7,0.14 F,2,31332,32382,1,0 P,0,31332,32382,A C,0,31332,,149,255,218 M,0,31332,31369,425,431,416.8229,420.7521 M,0,31369,31407,416.8229,420.7521,407.9874,411.0675 M,0,31407,31444,407.9874,411.0675,398.1502,402.4034 M,0,31444,31482,398.1502,402.4034,387.7141,394.4799 M,0,31482,31519,387.7141,394.4799,376.5182,387.6643 M,0,31519,31557,376.5182,387.6643,364.8249,381.7606 M,0,31557,31594,364.8249,381.7606,352.6679,376.8512 M,0,31594,31632,352.6679,376.8512,340.0463,373.3103
Sprite,Foreground,Centre,"sb/hl.png",235,380 S,2,31782,32532,0.7,0.14 F,2,31782,32532,1,0 P,0,31782,32532,A C,0,31782,,149,255,218
Sprite,Foreground,Centre,"sb/hl.png",0,0 S,2,32082,33132,0.7,0.14 F,2,32082,33132,1,0 P,0,32082,33132,A C,0,32082,,36,74,255 M,0,32082,32119,271,186,269.4665,172.9649 M,0,32119,32157,269.4665,172.9649,267.9329,159.9298 M,0,32157,32194,267.9329,159.9298,266.3994,146.8947 M,0,32194,32232,266.3994,146.8947,264.8658,133.8596 M,0,32232,32269,264.8658,133.8596,263.3323,120.8245 M,0,32269,32307,263.3323,120.8245,261.7988,107.7894 M,0,32307,32344,261.7988,107.7894,260.2652,94.75429 M,0,32344,32382,260.2652,94.75429,258.7317,81.71918
Sprite,Foreground,Centre,"sb/hl.png",0,0 S,2,32682,33732,0.7,0.14 F,2,32682,33732,1,0 P,0,32682,33732,A C,0,32682,,36,74,255 M,0,32682,32719,357,268,358.5335,254.9649 M,0,32719,32757,358.5335,254.9649,360.0671,241.9298 M,0,32757,32794,360.0671,241.9298,361.6006,228.8947 M,0,32794,32832,361.6006,228.8947,363.1342,215.8596 M,0,32832,32869,363.1342,215.8596,364.6677,202.8245 M,0,32869,32907,364.6677,202.8245,366.2012,189.7894 M,0,32907,32944,366.2012,189.7894,367.7348,176.7543 M,0,32944,32982,367.7348,176.7543,369.2683,163.7192
Sprite,Foreground,Centre,"sb/hl.png",444,355 S,2,33282,34032,0.7,0.14 F,2,33282,34032,1,0 P,0,33282,34032,A C,0,33282,,36,74,255
Sprite,Foreground,Centre,"sb/hl.png",510,278 S,2,33432,34182,0.7,0.14 F,2,33432,34182,1,0 P,0,33432,34182,A C,0,33432,,36,74,255
Sprite,Foreground,Centre,"sb/hl.png",510,278 S,2,33507,34257,0.7,0.14 F,2,33507,34257,1,0 P,0,33507,34257,A C,0,33507,,36,74,255
Sprite,Foreground,Centre,"sb/hl.png",0,0 S,2,33582,34782,0.7,0.14 F,2,33582,34782,1,0 P,0,33582,34782,A C,0,33582,,36,74,255 M,0,33582,33619,510,278,508.4523,264.9666 M,0,33619,33657,508.4523,264.9666,506.9046,251.9332 M,0,33657,33694,506.9046,251.9332,505.3568,238.8997 M,0,33694,33732,505.3568,238.8997,503.8091,225.8663 M,0,33732,33769,503.8091,225.8663,502.2614,212.8329 M,0,33769,33807,502.2614,212.8329,500.7137,199.7994 M,0,33807,33844,500.7137,199.7994,499.166,186.766 M,0,33844,33882,499.166,186.766,497.6183,173.7326 M,0,33882,33919,497.6183,173.7326,496.0705,160.6992 M,0,33919,33957,496.0705,160.6992,494.5228,147.6657 M,0,33957,33994,494.5228,147.6657,492.9751,134.6323 M,0,33994,34032,492.9751,134.6323,491.4274,121.5989
Sprite,Foreground,Centre,"sb/hl.png",0,0 S,2,34182,35532,0.7,0.14 F,2,34182,35532,1,0 P,0,34182,35532,A C,0,34182,,36,74,255 M,0,34182,34219,400,162,400.7488,148.8964 M,0,34219,34257,400.7488,148.8964,401.4976,135.7928 M,0,34257,34294,401.4976,135.7928,402.2463,122.6891 M,0,34294,34332,402.2463,122.6891,402.9951,109.5855 M,0,34332,34369,402.9951,109.5855,403.7439,96.48188 M,0,34369,34407,403.7439,96.48188,404.4927,83.37826 M,0,34407,34444,404.4927,83.37826,405.2415,70.27464 M,0,34444,34482,405.2415,70.27464,405.9902,57.17101 M,0,34482,34519,405.9902,57.17101,405.2415,70.27462 M,0,34519,34557,405.2415,70.27462,404.4927,83.37825 M,0,34557,34594,404.4927,83.37825,403.7439,96.48187 M,0,34594,34632,403.7439,96.48187,402.9951,109.5855 M,0,34632,34669,402.9951,109.5855,402.2463,122.6891 M,0,34669,34707,402.2463,122.6891,401.4976,135.7927 M,0,34707,34744,401.4976,135.7927,400.7488,148.8964 M,0,34744,34782,400.7488,148.8964,400,162
Sprite,Foreground,Centre,"sb/hl.png",0,0 S,2,35082,36432,0.7,0.14 F,2,35082,36432,1,0 P,0,35082,36432,A C,0,35082,,36,74,255 M,0,35082,35119,297,333,297.756,346.1032 M,0,35119,35157,297.756,346.1032,298.5119,359.2064 M,0,35157,35194,298.5119,359.2064,299.2679,372.3096 M,0,35194,35232,299.2679,372.3096,300.0238,385.4128 M,0,35232,35269,300.0238,385.4128,300.7798,398.5161 M,0,35269,35307,300.7798,398.5161,301.5357,411.6193 M,0,35307,35344,301.5357,411.6193,302.2917,424.7225 M,0,35344,35382,302.2917,424.7225,303,437 M,0,35382,35419,303,437,302.2917,424.7225 M,0,35419,35457,302.2917,424.7225,301.5357,411.6193 M,0,35457,35494,301.5357,411.6193,300.7798,398.5161 M,0,35494,35532,300.7798,398.5161,300.0238,385.4128 M,0,35532,35569,300.0238,385.4128,299.2679,372.3096 M,0,35569,35607,299.2679,372.3096,298.5119,359.2064 M,0,35607,35644,298.5119,359.2064,297.756,346.1032 M,0,35644,35682,297.756,346.1032,297,333
Sprite,Foreground,Centre,"sb/hl.png",219,160 S,2,35982,36732,0.7,0.14 F,2,35982,36732,1,0 P,0,35982,36732,A C,0,35982,,223,223,223
Sprite,Foreground,Centre,"sb/hl.png",0,0 S,2,36132,37182,0.7,0.14 F,2,36132,37182,1,0 P,0,36132,37182,A C,0,36132,,223,223,223 M,0,36132,36169,219,160,218.1186,173.0954 M,0,36169,36207,218.1186,173.0954,217.2372,186.1907 M,0,36207,36244,217.2372,186.1907,216.3557,199.2861 M,0,36244,36282,216.3557,199.2861,215.4743,212.3815 M,0,36282,36319,215.4743,212.3815,214.5929,225.4769 M,0,36319,36357,214.5929,225.4769,213.7115,238.5722 M,0,36357,36394,213.7115,238.5722,212.8301,251.6676 M,0,36394,36432,212.8301,251.6676,212,264
Sprite,Foreground,Centre,"sb/hl.png",208,359 S,2,36582,37332,0.7,0.14 F,2,36582,37332,1,0 P,0,36582,37332,A C,0,36582,,223,223,223
Sprite,Foreground,Centre,"sb/hl.png",0,0 S,2,36882,37932,0.7,0.14 F,2,36882,37932,1,0 P,0,36882,37932,A C,0,36882,,223,223,223 M,0,36882,36919,348,232,360.8782,229.512 M,0,36919,36957,360.8782,229.512,373.8641,227.664 M,0,36957,36994,373.8641,227.664,386.959,226.9315 M,0,36994,37032,386.959,226.9315,400.0725,226.8982 M,0,37032,37069,400.0725,226.8982,413.1462,227.9343 M,0,37069,37107,413.1462,227.9343,426.1357,229.7156 M,0,37107,37144,426.1357,229.7156,438.9506,232.5014 M,0,37144,37182,438.9506,232.5014,451.567,236.0625
Sprite,Foreground,Centre,"sb/hl.png",0,0 S,2,37482,38532,0.7,0.14 F,2,37482,38532,1,0 P,0,37482,38532,A C,0,37482,,223,223,223 M,0,37482,37519,285,327,276.257,317.2238 M,0,37519,37557,276.257,317.2238,268.0245,307.0125 M,0,37557,37594,268.0245,307.0125,260.7451,296.1037 M,0,37594,37632,260.7451,296.1037,254.0728,284.8149 M,0,37632,37669,254.0728,284.8149,248.4016,272.9908 M,0,37669,37707,248.4016,272.9908,243.4278,260.8602 M,0,37707,37744,243.4278,260.8602,239.4775,248.3561 M,0,37744,37782,239.4775,248.3561,236.3055,235.6369
Sprite,Foreground,Centre,"sb/hl.png",398,334 S,2,38082,38832,0.7,0.14 F,2,38082,38832,1,0 P,0,38082,38832,A C,0,38082,,223,223,223
Sprite,Foreground,Centre,"sb/hl.png",342,421 S,2,38232,38982,0.7,0.14 F,2,38232,38982,1,0 P,0,38232,38982,A C,0,38232,,223,223,223
Sprite,Foreground,Centre,"sb/hl.png",342,421 S,2,38307,39057,0.7,0.14 F,2,38307,39057,1,0 P,0,38307,39057,A C,0,38307,,223,223,223
Sprite,Foreground,Centre,"sb/hl.png",0,0 S,2,38382,39432,0.7,0.14 F,2,38382,39432,1,0 P,0,38382,39432,A C,0,38382,,149,255,218 M,0,38382,38419,342,421,329.5762,425.2096 M,0,38419,38457,329.5762,425.2096,316.9726,428.8469 M,0,38457,38494,316.9726,428.8469,304.123,431.4808 M,0,38494,38532,304.123,431.4808,291.1606,433.4771 M,0,38532,38569,291.1606,433.4771,278.084,434.4947 M,0,38569,38607,278.084,434.4947,264.9749,434.818 M,0,38607,38644,264.9749,434.818,251.8735,434.2037 M,0,38644,38682,251.8735,434.2037,238.8321,432.8492
Sprite,Foreground,Centre,"sb/hl.png",156,386 S,2,38832,39582,0.7,0.14 F,2,38832,39582,1,0 P,0,38832,39582,A C,0,38832,,149,255,218
Sprite,Foreground,Centre,"sb/hl.png",0,0 S,2,38982,39882,0.7,0.14 F,2,38982,39882,1,0 P,0,38982,39882,A C,0,38982,,149,255,218 M,0,38982,39019,156,386,148.8956,375.0054 M,0,39019,39057,148.8956,375.0054,143.1547,363.2557 M,0,39057,39094,143.1547,363.2557,138.7186,350.963 M,0,39094,39132,138.7186,350.963,136.2718,338.1142
Sprite,Foreground,Centre,"sb/hl.png",0,0 S,2,39282,40332,0.7,0.14 F,2,39282,40332,1,0 P,0,39282,40332,A C,0,39282,,149,255,218 M,0,39282,39319,73,266,77.42837,253.6514 M,0,39319,39357,77.42837,253.6514,81.31039,241.1208 M,0,39357,39394,81.31039,241.1208,84.27828,228.3432 M,0,39394,39432,84.27828,228.3432,86.6246,215.4394 M,0,39432,39469,86.6246,215.4394,88.09225,202.4046 M,0,39469,39507,88.09225,202.4046,88.86951,189.314 M,0,39507,39544,88.86951,189.314,88.91859,176.1956 M,0,39544,39582,88.91859,176.1956,88.0145,163.1089
Sprite,Foreground,Centre,"sb/hl.png",0,0 S,2,39882,41232,0.7,0.14 F,2,39882,41232,1,0 P,0,39882,41232,A C,0,39882,,149,255,218 M,0,39882,39919,263,93,262.142,106.0898 M,0,39919,39957,262.142,106.0898,261.9243,119.204 M,0,39957,39994,261.9243,119.204,262.6876,132.2985 M,0,39994,40032,262.6876,132.2985,264.1744,145.3267 M,0,40032,40069,264.1744,145.3267,266.4508,158.2453 M,0,40069,40107,266.4508,158.2453,269.713,170.9502 M,0,40107,40144,269.713,170.9502,273.6464,183.46 M,0,40144,40182,273.6464,183.46,278,195 M,0,40182,40219,278,195,273.6464,183.46 M,0,40219,40257,273.6464,183.46,269.713,170.9502 M,0,40257,40294,269.713,170.9502,266.4508,158.2453 M,0,40294,40332,266.4508,158.2453,264.1744,145.3267 M,0,40332,40369,264.1744,145.3267,262.6876,132.2985 M,0,40369,40407,262.6876,132.2985,261.9243,119.204 M,0,40407,40444,261.9243,119.204,262.142,106.0898 M,0,40444,40482,262.142,106.0898,263,93
Sprite,Foreground,Centre,"sb/ring.png",355,396 S,19,21582,22332,0.125,0.55 F,6,21582,22332,0.7,0
Sprite,Foreground,Centre,"sb/ring.png",259,367 S,19,187182,187682,0.125,0.55 F,6,187182,187682,0.7,0
Sprite,Foreground,Centre,"sb/ring.png",436,168 S,19,40782,41532,0.125,0.55 F,6,40782,41532,0.7,0
Sprite,Foreground,Centre,"sb/ring.png",263,410 S,19,59982,60732,0.125,0.55 F,6,59982,60732,0.7,0
Sprite,Foreground,Centre,"sb/hl.png",0,0 S,2,57582,58782,0.7,0.14 F,2,57582,58782,1,0 P,0,57582,58782,A C,0,57582,,36,74,255 M,0,57582,57619,173,272,175.3665,284.902 M,0,57619,57657,175.3665,284.902,177.0963,297.9037 M,0,57657,57694,177.0963,297.9037,177.7924,311.0013 M,0,57694,57732,177.7924,311.0013,177.773,324.1141 M,0,57732,57769,177.773,324.1141,176.9421,337.2081 M,0,57769,57807,176.9421,337.2081,175.0197,350.1835 M,0,57807,57844,175.0197,350.1835,176.9421,337.2081 M,0,57844,57882,176.9421,337.2081,177.773,324.1141 M,0,57882,57919,177.773,324.1141,177.7924,311.0013 M,0,57919,57957,177.7924,311.0013,177.0963,297.9037 M,0,57957,57994,177.0963,297.9037,175.3665,284.902 M,0,57994,58032,175.3665,284.902,173,272
Sprite,Foreground,Centre,"sb/hl.png",0,0 S,2,58182,59382,0.7,0.14 F,2,58182,59382,1,0 P,0,58182,59382,A C,0,58182,,36,74,255 M,0,58182,58219,134,179,121.6002,174.7255 M,0,58219,58257,121.6002,174.7255,109.4423,169.8067 M,0,58257,58294,109.4423,169.8067,97.75217,163.8623 M,0,58294,58332,97.75217,163.8623,86.42873,157.253 M,0,58332,58369,86.42873,157.253,75.6716,149.7524 M,0,58369,58407,75.6716,149.7524,65.41483,141.5893 M,0,58407,58444,65.41483,141.5893,75.67159,149.7524 M,0,58444,58482,75.67159,149.7524,86.42873,157.253 M,0,58482,58519,86.42873,157.253,97.75217,163.8623 M,0,58519,58557,97.75217,163.8623,109.4423,169.8067 M,0,58557,58594,109.4423,169.8067,121.6001,174.7255 M,0,58594,58632,121.6001,174.7255,134,179
Sprite,Foreground,Centre,"sb/hl.png",0,0 S,2,58782,59982,0.7,0.14 F,2,58782,59982,1,0 P,0,58782,59982,A C,0,58782,,36,74,255 M,0,58782,58819,234,191,243.8236,182.3096 M,0,58819,58857,243.8236,182.3096,254.0924,174.1516 M,0,58857,58894,254.0924,174.1516,265.0234,166.9054 M,0,58894,58932,265.0234,166.9054,276.3567,160.3137 M,0,58932,58969,276.3567,160.3137,288.113,154.4886 M,0,58969,59007,288.113,154.4886,300.3472,149.7613 M,0,59007,59044,300.3472,149.7613,288.113,154.4886 M,0,59044,59082,288.113,154.4886,276.3567,160.3136 M,0,59082,59119,276.3567,160.3136,265.0234,166.9054 M,0,59119,59157,265.0234,166.9054,254.0924,174.1515 M,0,59157,59194,254.0924,174.1515,243.8236,182.3096 M,0,59194,59232,243.8236,182.3096,234,191
Sprite,Foreground,Centre,"sb/hl.png",0,0 S,2,59382,60582,0.7,0.14 F,2,59382,60582,1,0 P,0,59382,60582,A C,0,59382,,36,74,255 M,0,59382,59419,173,272,171.8531,285.0748 M,0,59419,59457,171.8531,285.0748,170.7062,298.1496 M,0,59457,59494,170.7062,298.1496,169.5593,311.2244 M,0,59494,59532,169.5593,311.2244,168.4124,324.2992 M,0,59532,59569,168.4124,324.2992,169.5593,311.2244 M,0,59569,59607,169.5593,311.2244,170.7062,298.1496 M,0,59607,59644,170.7062,298.1496,171.8531,285.0748 M,0,59644,59682,171.8531,285.0748,173,272 M,0,59682,59719,173,272,171.8531,285.0748 M,0,59719,59757,171.8531,285.0748,170.7062,298.1496 M,0,59757,59794,170.7062,298.1496,169.5593,311.2244 M,0,59794,59832,169.5593,311.2244,168.4124,324.2992
Sprite,Foreground,Centre,"sb/hl.png",0,0 S,2,76782,77982,0.7,0.14 F,2,76782,77982,1,0 P,0,76782,77982,A C,0,76782,,36,74,255 M,0,76782,76819,398,145,396.7408,131.9355 M,0,76819,76857,396.7408,131.9355,395.4815,118.8711 M,0,76857,76894,395.4815,118.8711,394.2223,105.8066 M,0,76894,76932,394.2223,105.8066,392.9631,92.74219 M,0,76932,76969,392.9631,92.74219,391.7039,79.67773 M,0,76969,77007,391.7039,79.67773,390.4446,66.61327 M,0,77007,77044,390.4446,66.61327,391.7039,79.67772 M,0,77044,77082,391.7039,79.67772,392.9631,92.74217 M,0,77082,77119,392.9631,92.74217,394.2223,105.8066 M,0,77119,77157,394.2223,105.8066,395.4815,118.8711 M,0,77157,77194,395.4815,118.8711,396.7408,131.9355 M,0,77194,77232,396.7408,131.9355,398,145
Sprite,Foreground,Centre,"sb/hl.png",0,0 S,2,77382,78582,0.7,0.14 F,2,77382,78582,1,0 P,0,77382,78582,A C,0,77382,,36,74,255 M,0,77382,77419,330,225,328.6609,238.0565 M,0,77419,77457,328.6609,238.0565,327.3217,251.113 M,0,77457,77494,327.3217,251.113,325.9826,264.1695 M,0,77494,77532,325.9826,264.1695,324.6435,277.226 M,0,77532,77569,324.6435,277.226,323.3044,290.2825 M,0,77569,77607,323.3044,290.2825,322,303 M,0,77607,77644,322,303,323.3044,290.2825 M,0,77644,77682,323.3044,290.2825,324.6435,277.226 M,0,77682,77719,324.6435,277.226,325.9826,264.1695 M,0,77719,77757,325.9826,264.1695,327.3217,251.113 M,0,77757,77794,327.3217,251.113,328.6609,238.0565 M,0,77794,77832,328.6609,238.0565,330,225
Sprite,Foreground,Centre,"sb/hl.png",0,0 S,2,77982,79182,0.7,0.14 F,2,77982,79182,1,0 P,0,77982,79182,A C,0,77982,,36,74,255 M,0,77982,78019,265,141,253.8882,134.0483 M,0,78019,78057,253.8882,134.0483,242.2981,127.93 M,0,78057,78094,242.2981,127.93,230.0566,123.252 M,0,78094,78132,230.0566,123.252,217.4842,119.5787 M,0,78132,78169,217.4842,119.5787,204.572,117.3491 M,0,78169,78207,204.572,117.3491,191.5241,116.12 M,0,78207,78244,191.5241,116.12,204.572,117.3491 M,0,78244,78282,204.572,117.3491,217.4842,119.5786 M,0,78282,78319,217.4842,119.5786,230.0566,123.252 M,0,78319,78357,230.0566,123.252,242.2981,127.93 M,0,78357,78394,242.2981,127.93,253.8882,134.0483 M,0,78394,78432,253.8882,134.0483,265,141
Sprite,Foreground,Centre,"sb/ring.png",330,225 S,19,78582,79332,0.125,0.55 F,6,78582,79332,0.7,0
Sprite,Foreground,Centre,"sb/ring.png",330,225 S,19,78882,79632,0.125,0.55 F,6,78882,79632,0.7,0
Sprite,Foreground,Centre,"sb/ring.png",488,270 S,19,79182,79932,0.125,0.55 F,6,79182,79932,0.7,0
Sprite,Foreground,Centre,"sb/ring.png",163,93 S,19,98382,99132,0.125,0.55 F,6,98382,99132,0.7,0
Sprite,Foreground,Centre,"sb/ring.png",173,210 S,19,117582,118332,0.125,0.55 F,6,117582,118332,0.7,0
Sprite,Foreground,Centre,"sb/ring.png",145,278 S,19,128982,129732,0.125,0.55 F,6,128982,129732,0.7,0
Sprite,Foreground,Centre,"sb/ring.png",280,223 S,19,129132,129882,0.125,0.55 F,6,129132,129882,0.7,0
Sprite,Foreground,Centre,"sb/ring.png",199,329 S,19,129282,130032,0.125,0.55 F,6,129282,130032,0.7,0
Sprite,Foreground,Centre,"sb/ring.png",151,205 S,19,129432,130182,0.125,0.55 F,6,129432,130182,0.7,0
Sprite,Foreground,Centre,"sb/ring.png",214,338 S,19,129582,130332,0.125,0.55 F,6,129582,130332,0.7,0
Sprite,Foreground,Centre,"sb/ring.png",137,146 S,19,139182,140682,0.125,0.55 F,6,139182,140682,0.7,0
Sprite,Foreground,Centre,"sb/ring.png",475,305 S,19,131382,132882,0.125,0.55 F,6,131382,132882,0.7,0
Sprite,Foreground,Centre,"sb/ring.png",335,336 S,19,131532,133032,0.125,0.55 F,6,131532,133032,0.7,0
Sprite,Foreground,Centre,"sb/ring.png",457,224 S,19,131682,133182,0.125,0.55 F,6,131682,133182,0.7,0
Sprite,Foreground,Centre,"sb/ring.png",417,362 S,19,131832,133332,0.125,0.55 F,6,131832,133332,0.7,0
Sprite,Foreground,Centre,"sb/ring.png",114,81 S,19,143982,144482,0.125,0.55 F,6,143982,144482,0.7,0
Sprite,Foreground,Centre,"sb/ring.png",114,81 S,19,144132,144632,0.125,0.55 F,6,144132,144632,0.7,0
Sprite,Foreground,Centre,"sb/ring.png",72,238 S,19,144432,144932,0.125,0.55 F,6,144432,144932,0.7,0
Sprite,Foreground,Centre,"sb/ring.png",72,238 S,19,144582,145082,0.125,0.55 F,6,144582,145082,0.7,0
Sprite,Foreground,Centre,"sb/ring.png",231,280 S,19,144882,145382,0.125,0.55 F,6,144882,145382,0.7,0
Sprite,Foreground,Centre,"sb/ring.png",231,280 S,19,145032,145532,0.125,0.55 F,6,145032,145532,0.7,0
Sprite,Foreground,Centre,"sb/ring.png",271,121 S,19,145332,145832,0.125,0.55 F,6,145332,145832,0.7,0
Sprite,Foreground,Centre,"sb/ring.png",271,121 S,19,145482,145982,0.125,0.55 F,6,145482,145982,0.7,0
Sprite,Foreground,Centre,"sb/ring.png",231,280 S,19,145782,146282,0.125,0.55 F,6,145782,146282,0.7,0
Sprite,Foreground,Centre,"sb/ring.png",231,280 S,19,146382,146882,0.125,0.55 F,6,146382,146882,0.7,0
Sprite,Foreground,Centre,"sb/ring.png",231,280 S,19,146532,147032,0.125,0.55 F,6,146532,147032,0.7,0
Sprite,Foreground,Centre,"sb/ring.png",390,246 S,19,146832,147332,0.125,0.55 F,6,146832,147332,0.7,0
Sprite,Foreground,Centre,"sb/ring.png",390,246 S,19,146982,147482,0.125,0.55 F,6,146982,147482,0.7,0
Sprite,Foreground,Centre,"sb/ring.png",359,86 S,19,147282,147782,0.125,0.55 F,6,147282,147782,0.7,0
Sprite,Foreground,Centre,"sb/ring.png",359,86 S,19,147432,147932,0.125,0.55 F,6,147432,147932,0.7,0
Sprite,Foreground,Centre,"sb/ring.png",198,118 S,19,147732,148232,0.125,0.55 F,6,147732,148232,0.7,0
Sprite,Foreground,Centre,"sb/ring.png",198,118 S,19,147882,148382,0.125,0.55 F,6,147882,148382,0.7,0
Sprite,Foreground,Centre,"sb/ring.png",359,86 S,19,148182,148682,0.125,0.55 F,6,148182,148682,0.7,0
Sprite,Foreground,Centre,"sb/ring.png",236,292 S,19,153582,154082,0.125,0.55 F,6,153582,154082,0.7,0
Sprite,Foreground,Centre,"sb/ring.png",236,292 S,19,153732,154232,0.125,0.55 F,6,153732,154232,0.7,0
Sprite,Foreground,Centre,"sb/ring.png",393,334 S,19,154032,154532,0.125,0.55 F,6,154032,154532,0.7,0
Sprite,Foreground,Centre,"sb/ring.png",393,334 S,19,154182,154682,0.125,0.55 F,6,154182,154682,0.7,0
Sprite,Foreground,Centre,"sb/ring.png",435,175 S,19,154482,154982,0.125,0.55 F,6,154482,154982,0.7,0
Sprite,Foreground,Centre,"sb/ring.png",435,175 S,19,154632,155132,0.125,0.55 F,6,154632,155132,0.7,0
Sprite,Foreground,Centre,"sb/ring.png",276,135 S,19,154932,155432,0.125,0.55 F,6,154932,155432,0.7,0
Sprite,Foreground,Centre,"sb/ring.png",287,210 S,19,155082,155582,0.125,0.55 F,6,155082,155582,0.7,0
Sprite,Foreground,Centre,"sb/ring.png",335,88 S,19,155232,155732,0.125,0.55 F,6,155232,155732,0.7,0
Sprite,Foreground,Centre,"sb/ring.png",346,163 S,19,155382,155882,0.125,0.55 F,6,155382,155882,0.7,0
Sprite,Foreground,Centre,"sb/ring.png",378,323 S,19,155982,156482,0.125,0.55 F,6,155982,156482,0.7,0
Sprite,Foreground,Centre,"sb/ring.png",378,323 S,19,156132,156632,0.125,0.55 F,6,156132,156632,0.7,0
Sprite,Foreground,Centre,"sb/ring.png",346,163 S,19,156432,156932,0.125,0.55 F,6,156432,156932,0.7,0
Sprite,Foreground,Centre,"sb/ring.png",346,163 S,19,156582,157082,0.125,0.55 F,6,156582,157082,0.7,0
Sprite,Foreground,Centre,"sb/ring.png",186,195 S,19,156882,157382,0.125,0.55 F,6,156882,157382,0.7,0
Sprite,Foreground,Centre,"sb/ring.png",186,195 S,19,157032,157532,0.125,0.55 F,6,157032,157532,0.7,0
Sprite,Foreground,Centre,"sb/ring.png",220,354 S,19,157332,157832,0.125,0.55 F,6,157332,157832,0.7,0
Sprite,Foreground,Centre,"sb/ring.png",282,312 S,19,157482,157982,0.125,0.55 F,6,157482,157982,0.7,0
Sprite,Foreground,Centre,"sb/ring.png",151,323 S,19,157632,158132,0.125,0.55 F,6,157632,158132,0.7,0
Sprite,Foreground,Centre,"sb/ring.png",213,281 S,19,157782,158282,0.125,0.55 F,6,157782,158282,0.7,0
Sprite,Foreground,Centre,"sb/ring.png",335,165 S,19,194382,194882,0.125,0.55 F,6,194382,194882,0.7,0
Sprite,Foreground,Centre,"sb/ring.png",409,317 S,19,194532,195032,0.125,0.55 F,6,194532,195032,0.7,0
Sprite,Foreground,Centre,"sb/ring.png",442,103 S,19,194832,195332,0.125,0.55 F,6,194832,195332,0.7,0
Sprite,Foreground,Centre,"sb/ring.png",573,257 S,19,194982,195482,0.125,0.55 F,6,194982,195482,0.7,0
Sprite,Foreground,Centre,"sb/ring.png",542,116 S,19,195207,195707,0.125,0.55 F,6,195207,195707,0.7,0
Sprite,Foreground,Centre,"sb/ring.png",542,116 S,19,195282,195782,0.125,0.55 F,6,195282,195782,0.7,0
Sprite,Foreground,Centre,"sb/ring.png",495,280 S,19,195432,195932,0.125,0.55 F,6,195432,195932,0.7,0
Sprite,Foreground,Centre,"sb/ring.png",305,192 S,19,195732,196232,0.125,0.55 F,6,195732,196232,0.7,0
Sprite,Foreground,Centre,"sb/ring.png",305,192 S,19,195882,196382,0.125,0.55 F,6,195882,196382,0.7,0
Sprite,Foreground,Centre,"sb/ring.png",385,278 S,19,196182,196682,0.125,0.55 F,6,196182,196682,0.7,0
Sprite,Foreground,Centre,"sb/ring.png",314,302 S,19,203982,204482,0.125,0.55 F,6,203982,204482,0.7,0
Sprite,Foreground,Centre,"sb/ring.png",314,302 S,19,204132,204632,0.125,0.55 F,6,204132,204632,0.7,0
Sprite,Foreground,Centre,"sb/ring.png",106,225 S,19,204432,204932,0.125,0.55 F,6,204432,204932,0.7,0
Sprite,Foreground,Centre,"sb/ring.png",106,225 S,19,204582,205082,0.125,0.55 F,6,204582,205082,0.7,0
Sprite,Foreground,Centre,"sb/ring.png",289,399 S,19,204882,205382,0.125,0.55 F,6,204882,205382,0.7,0
Sprite,Foreground,Centre,"sb/ring.png",289,399 S,19,205032,205532,0.125,0.55 F,6,205032,205532,0.7,0
Sprite,Foreground,Centre,"sb/ring.png",203,198 S,19,205332,205832,0.125,0.55 F,6,205332,205832,0.7,0
Sprite,Foreground,Centre,"sb/ring.png",203,198 S,19,205482,205982,0.125,0.55 F,6,205482,205982,0.7,0
Sprite,Foreground,Centre,"sb/ring.png",131,415 S,19,205782,206282,0.125,0.55 F,6,205782,206282,0.7,0
Sprite,Foreground,Centre,"sb/ring.png",324,168 S,19,206382,206882,0.125,0.55 F,6,206382,206882,0.7,0
Sprite,Foreground,Centre,"sb/ring.png",502,82 S,19,223182,223682,0.125,0.55 F,6,223182,223682,0.7,0
Sprite,Foreground,Centre,"sb/ring.png",502,82 S,19,223332,223832,0.125,0.55 F,6,223332,223832,0.7,0
Sprite,Foreground,Centre,"sb/ring.png",492,315 S,19,223632,224132,0.125,0.55 F,6,223632,224132,0.7,0
Sprite,Foreground,Centre,"sb/ring.png",492,315 S,19,223782,224282,0.125,0.55 F,6,223782,224282,0.7,0
Sprite,Foreground,Centre,"sb/ring.png",319,169 S,19,224082,224582,0.125,0.55 F,6,224082,224582,0.7,0
Sprite,Foreground,Centre,"sb/ring.png",319,169 S,19,224232,224732,0.125,0.55 F,6,224232,224732,0.7,0
Sprite,Foreground,Centre,"sb/ring.png",502,82 S,19,224532,225032,0.125,0.55 F,6,224532,225032,0.7,0
Sprite,Foreground,Centre,"sb/ring.png",502,82 S,19,224682,225182,0.125,0.55 F,6,224682,225182,0.7,0
Sprite,Foreground,Centre,"sb/ring.png",347,306 S,19,224982,225482,0.125,0.55 F,6,224982,225482,0.7,0
Sprite,Foreground,Centre,"sb/ring.png",347,306 S,19,225582,226082,0.125,0.55 F,6,225582,226082,0.7,0
Sprite,Foreground,Centre,"sb/ring.png",316,108 S,19,244782,246282,0.125,0.55 F,6,244782,246282,0.7,0
Sprite,Foreground,Centre,"sb/d.png",0,0 M,4,187182,187782,259,367,326,462 F,0,187182,187782,1,0 S,0,187182,187782,0.7,0.28 P,0,187182,187782,A
Sprite,Foreground,Centre,"sb/d.png",0,0 M,4,187182,187782,259,367,339,384 F,0,187182,187782,1,0 S,0,187182,187782,0.7,0.28 P,0,187182,187782,A
Sprite,Foreground,Centre,"sb/d.png",0,0 M,4,187182,187782,259,367,170,384 F,0,187182,187782,1,0 S,0,187182,187782,0.7,0.28 P,0,187182,187782,A
Sprite,Foreground,Centre,"sb/d.png",0,0 M,4,187182,187782,259,367,380,349 F,0,187182,187782,1,0 S,0,187182,187782,0.7,0.28 P,0,187182,187782,A
Sprite,Foreground,Centre,"sb/d.png",0,0 M,4,187182,187782,259,367,402,299 F,0,187182,187782,1,0 S,0,187182,187782,0.7,0.28 P,0,187182,187782,A
Sprite,Foreground,Centre,"sb/d.png",0,0 M,4,187182,187782,259,367,196,357 F,0,187182,187782,1,0 S,0,187182,187782,0.7,0.28 P,0,187182,187782,A
Sprite,Foreground,Centre,"sb/d.png",0,0 M,4,187182,187782,259,367,298,357 F,0,187182,187782,1,0 S,0,187182,187782,0.7,0.28 P,0,187182,187782,A
Sprite,Foreground,Centre,"sb/d.png",0,0 M,4,187482,188082,230,129,374,-12 F,0,187482,188082,1,0 S,0,187482,188082,0.7,0.28 P,0,187482,188082,A
Sprite,Foreground,Centre,"sb/d.png",0,0 M,4,187482,188082,230,129,338,277 F,0,187482,188082,1,0 S,0,187482,188082,0.7,0.28 P,0,187482,188082,A
Sprite,Foreground,Centre,"sb/d.png",0,0 M,4,187482,188082,230,129,283,73 F,0,187482,188082,1,0 S,0,187482,188082,0.7,0.28 P,0,187482,188082,A
Sprite,Foreground,Centre,"sb/d.png",0,0 M,4,187482,188082,230,129,325,233 F,0,187482,188082,1,0 S,0,187482,188082,0.7,0.28 P,0,187482,188082,A
Sprite,Foreground,Centre,"sb/d.png",0,0 M,4,187482,188082,230,129,377,-12 F,0,187482,188082,1,0 S,0,187482,188082,0.7,0.28 P,0,187482,188082,A
Sprite,Foreground,Centre,"sb/d.png",0,0 M,4,187482,188082,230,129,289,136 F,0,187482,188082,1,0 S,0,187482,188082,0.7,0.28 P,0,187482,188082,A
Sprite,Foreground,Centre,"sb/d.png",0,0 M,4,187482,188082,230,129,360,185 F,0,187482,188082,1,0 S,0,187482,188082,0.7,0.28 P,0,187482,188082,A
Sprite,Foreground,Centre,"sb/d.png",0,0 M,4,187632,188232,366,213,380,87 F,0,187632,188232,1,0 S,0,187632,188232,0.7,0.28 P,0,187632,188232,A
Sprite,Foreground,Centre,"sb/d.png",0,0 M,4,187632,188232,366,213,272,198 F,0,187632,188232,1,0 S,0,187632,188232,0.7,0.28 P,0,187632,188232,A
Sprite,Foreground,Centre,"sb/d.png",0,0 M,4,187632,188232,366,213,305,359 F,0,187632,188232,1,0 S,0,187632,188232,0.7,0.28 P,0,187632,188232,A
Sprite,Foreground,Centre,"sb/d.png",0,0 M,4,187632,188232,366,213,408,291 F,0,187632,188232,1,0 S,0,187632,188232,0.7,0.28 P,0,187632,188232,A
Sprite,Foreground,Centre,"sb/d.png",0,0 M,4,187632,188232,366,213,225,177 F,0,187632,188232,1,0 S,0,187632,188232,0.7,0.28 P,0,187632,188232,A
Sprite,Foreground,Centre,"sb/d.png",0,0 M,4,187632,188232,366,213,318,350 F,0,187632,188232,1,0 S,0,187632,188232,0.7,0.28 P,0,187632,188232,A
Sprite,Foreground,Centre,"sb/d.png",0,0 M,4,187632,188232,366,213,367,277 F,0,187632,188232,1,0 S,0,187632,188232,0.7,0.28 P,0,187632,188232,A
Sprite,Foreground,Centre,"sb/d.png",0,0 M,4,187932,188532,128,276,13,208 F,0,187932,188532,1,0 S,0,187932,188532,0.7,0.28 P,0,187932,188532,A
Sprite,Foreground,Centre,"sb/d.png",0,0 M,4,187932,188532,128,276,250,364 F,0,187932,188532,1,0 S,0,187932,188532,0.7,0.28 P,0,187932,188532,A
Sprite,Foreground,Centre,"sb/d.png",0,0 M,4,187932,188532,128,276,79,263 F,0,187932,188532,1,0 S,0,187932,188532,0.7,0.28 P,0,187932,188532,A
Sprite,Foreground,Centre,"sb/d.png",0,0 M,4,187932,188532,128,276,22,192 F,0,187932,188532,1,0 S,0,187932,188532,0.7,0.28 P,0,187932,188532,A
Sprite,Foreground,Centre,"sb/d.png",0,0 M,4,187932,188532,128,276,101,341 F,0,187932,188532,1,0 S,0,187932,188532,0.7,0.28 P,0,187932,188532,A
Sprite,Foreground,Centre,"sb/d.png",0,0 M,4,187932,188532,128,276,163,272 F,0,187932,188532,1,0 S,0,187932,188532,0.7,0.28 P,0,187932,188532,A
Sprite,Foreground,Centre,"sb/d.png",0,0 M,4,187932,188532,128,276,36,389 F,0,187932,188532,1,0 S,0,187932,188532,0.7,0.28 P,0,187932,188532,A
Sprite,Foreground,Centre,"sb/d.png",0,0 M,4,188082,188682,128,276,225,346 F,0,188082,188682,1,0 S,0,188082,188682,0.7,0.28 P,0,188082,188682,A
Sprite,Foreground,Centre,"sb/d.png",0,0 M,4,188082,188682,128,276,235,329 F,0,188082,188682,1,0 S,0,188082,188682,0.7,0.28 P,0,188082,188682,A
Sprite,Foreground,Centre,"sb/d.png",0,0 M,4,188082,188682,128,276,165,191 F,0,188082,188682,1,0 S,0,188082,188682,0.7,0.28 P,0,188082,188682,A
Sprite,Foreground,Centre,"sb/d.png",0,0 M,4,188082,188682,128,276,246,394 F,0,188082,188682,1,0 S,0,188082,188682,0.7,0.28 P,0,188082,188682,A
Sprite,Foreground,Centre,"sb/d.png",0,0 M,4,188082,188682,128,276,3,377 F,0,188082,188682,1,0 S,0,188082,188682,0.7,0.28 P,0,188082,188682,A
Sprite,Foreground,Centre,"sb/d.png",0,0 M,4,188082,188682,128,276,29,319 F,0,188082,188682,1,0 S,0,188082,188682,0.7,0.28 P,0,188082,188682,A
Sprite,Foreground,Centre,"sb/d.png",0,0 M,4,188082,188682,128,276,226,191 F,0,188082,188682,1,0 S,0,188082,188682,0.7,0.28 P,0,188082,188682,A
Sprite,Foreground,Centre,"sb/d.png",0,0 M,4,188382,188982,267,410,416,404 F,0,188382,188982,1,0 S,0,188382,188982,0.7,0.28 P,0,188382,188982,A
Sprite,Foreground,Centre,"sb/d.png",0,0 M,4,188382,188982,267,410,312,475 F,0,188382,188982,1,0 S,0,188382,188982,0.7,0.28 P,0,188382,188982,A
Sprite,Foreground,Centre,"sb/d.png",0,0 M,4,188382,188982,267,410,359,290 F,0,188382,188982,1,0 S,0,188382,188982,0.7,0.28 P,0,188382,188982,A
Sprite,Foreground,Centre,"sb/d.png",0,0 M,4,188382,188982,267,410,335,475 F,0,188382,188982,1,0 S,0,188382,188982,0.7,0.28 P,0,188382,188982,A
Sprite,Foreground,Centre,"sb/d.png",0,0 M,4,188382,188982,267,410,154,531 F,0,188382,188982,1,0 S,0,188382,188982,0.7,0.28 P,0,188382,188982,A
Sprite,Foreground,Centre,"sb/d.png",0,0 M,4,188382,188982,267,410,173,403 F,0,188382,188982,1,0 S,0,188382,188982,0.7,0.28 P,0,188382,188982,A
Sprite,Foreground,Centre,"sb/d.png",0,0 M,4,188382,188982,267,410,279,357 F,0,188382,188982,1,0 S,0,188382,188982,0.7,0.28 P,0,188382,188982,A
Sprite,Foreground,Centre,"sb/d.png",0,0 M,4,188682,189282,365,214,416,204 F,0,188682,189282,1,0 S,0,188682,189282,0.7,0.28 P,0,188682,189282,A
Sprite,Foreground,Centre,"sb/d.png",0,0 M,4,188682,189282,365,214,465,306 F,0,188682,189282,1,0 S,0,188682,189282,0.7,0.28 P,0,188682,189282,A
Sprite,Foreground,Centre,"sb/d.png",0,0 M,4,188682,189282,365,214,453,293 F,0,188682,189282,1,0 S,0,188682,189282,0.7,0.28 P,0,188682,189282,A
Sprite,Foreground,Centre,"sb/d.png",0,0 M,4,188682,189282,365,214,496,152 F,0,188682,189282,1,0 S,0,188682,189282,0.7,0.28 P,0,188682,189282,A
Sprite,Foreground,Centre,"sb/d.png",0,0 M,4,188682,189282,365,214,371,263 F,0,188682,189282,1,0 S,0,188682,189282,0.7,0.28 P,0,188682,189282,A
Sprite,Foreground,Centre,"sb/d.png",0,0 M,4,188682,189282,365,214,314,150 F,0,188682,189282,1,0 S,0,188682,189282,0.7,0.28 P,0,188682,189282,A
Sprite,Foreground,Centre,"sb/d.png",0,0 M,4,188682,189282,365,214,461,130 F,0,188682,189282,1,0 S,0,188682,189282,0.7,0.28 P,0,188682,189282,A
Sprite,Foreground,Centre,"sb/d.png",0,0 M,4,189132,189732,520,438,426,308 F,0,189132,189732,1,0 S,0,189132,189732,0.7,0.28 P,0,189132,189732,A
Sprite,Foreground,Centre,"sb/d.png",0,0 M,4,189132,189732,520,438,557,495 F,0,189132,189732,1,0 S,0,189132,189732,0.7,0.28 P,0,189132,189732,A
Sprite,Foreground,Centre,"sb/d.png",0,0 M,4,189132,189732,520,438,559,566 F,0,189132,189732,1,0 S,0,189132,189732,0.7,0.28 P,0,189132,189732,A
Sprite,Foreground,Centre,"sb/d.png",0,0 M,4,189132,189732,520,438,436,566 F,0,189132,189732,1,0 S,0,189132,189732,0.7,0.28 P,0,189132,189732,A
Sprite,Foreground,Centre,"sb/d.png",0,0 M,4,189132,189732,520,438,389,558 F,0,189132,189732,1,0 S,0,189132,189732,0.7,0.28 P,0,189132,189732,A
Sprite,Foreground,Centre,"sb/d.png",0,0 M,4,189132,189732,520,438,573,316 F,0,189132,189732,1,0 S,0,189132,189732,0.7,0.28 P,0,189132,189732,A
Sprite,Foreground,Centre,"sb/d.png",0,0 M,4,189132,189732,520,438,414,320 F,0,189132,189732,1,0 S,0,189132,189732,0.7,0.28 P,0,189132,189732,A
Sprite,Foreground,Centre,"sb/d.png",0,0 M,4,189282,189882,520,438,552,573 F,0,189282,189882,1,0 S,0,189282,189882,0.7,0.28 P,0,189282,189882,A
Sprite,Foreground,Centre,"sb/d.png",0,0 M,4,189282,189882,520,438,517,332 F,0,189282,189882,1,0 S,0,189282,189882,0.7,0.28 P,0,189282,189882,A
Sprite,Foreground,Centre,"sb/d.png",0,0 M,4,189282,189882,520,438,573,458 F,0,189282,189882,1,0 S,0,189282,189882,0.7,0.28 P,0,189282,189882,A
Sprite,Foreground,Centre,"sb/d.png",0,0 M,4,189282,189882,520,438,437,473 F,0,189282,189882,1,0 S,0,189282,189882,0.7,0.28 P,0,189282,189882,A
Sprite,Foreground,Centre,"sb/d.png",0,0 M,4,189282,189882,520,438,371,396 F,0,189282,189882,1,0 S,0,189282,189882,0.7,0.28 P,0,189282,189882,A
Sprite,Foreground,Centre,"sb/d.png",0,0 M,4,189282,189882,520,438,625,306 F,0,189282,189882,1,0 S,0,189282,189882,0.7,0.28 P,0,189282,189882,A
Sprite,Foreground,Centre,"sb/d.png",0,0 M,4,189282,189882,520,438,454,499 F,0,189282,189882,1,0 S,0,189282,189882,0.7,0.28 P,0,189282,189882,A
Sprite,Foreground,Centre,"sb/d.png",0,0 M,4,189582,190182,576,235,713,381 F,0,189582,190182,1,0 S,0,189582,190182,0.7,0.28 P,0,189582,190182,A
Sprite,Foreground,Centre,"sb/d.png",0,0 M,4,189582,190182,576,235,542,241 F,0,189582,190182,1,0 S,0,189582,190182,0.7,0.28 P,0,189582,190182,A
Sprite,Foreground,Centre,"sb/d.png",0,0 M,4,189582,190182,576,235,510,236 F,0,189582,190182,1,0 S,0,189582,190182,0.7,0.28 P,0,189582,190182,A
Sprite,Foreground,Centre,"sb/d.png",0,0 M,4,189582,190182,576,235,585,102 F,0,189582,190182,1,0 S,0,189582,190182,0.7,0.28 P,0,189582,190182,A
Sprite,Foreground,Centre,"sb/d.png",0,0 M,4,189582,190182,576,235,510,233 F,0,189582,190182,1,0 S,0,189582,190182,0.7,0.28 P,0,189582,190182,A
Sprite,Foreground,Centre,"sb/d.png",0,0 M,4,189582,190182,576,235,679,268 F,0,189582,190182,1,0 S,0,189582,190182,0.7,0.28 P,0,189582,190182,A
Sprite,Foreground,Centre,"sb/d.png",0,0 M,4,189582,190182,576,235,457,307 F,0,189582,190182,1,0 S,0,189582,190182,0.7,0.28 P,0,189582,190182,A
Sprite,Foreground,Centre,"sb/d.png",0,0 M,4,189882,190482,370,184,340,314 F,0,189882,190482,1,0 S,0,189882,190482,0.7,0.28 P,0,189882,190482,A
Sprite,Foreground,Centre,"sb/d.png",0,0 M,4,189882,190482,370,184,259,243 F,0,189882,190482,1,0 S,0,189882,190482,0.7,0.28 P,0,189882,190482,A
Sprite,Foreground,Centre,"sb/d.png",0,0 M,4,189882,190482,370,184,404,283 F,0,189882,190482,1,0 S,0,189882,190482,0.7,0.28 P,0,189882,190482,A
Sprite,Foreground,Centre,"sb/d.png",0,0 M,4,189882,190482,370,184,425,204 F,0,189882,190482,1,0 S,0,189882,190482,0.7,0.28 P,0,189882,190482,A
Sprite,Foreground,Centre,"sb/d.png",0,0 M,4,189882,190482,370,184,271,89 F,0,189882,190482,1,0 S,0,189882,190482,0.7,0.28 P,0,189882,190482,A
Sprite,Foreground,Centre,"sb/d.png",0,0 M,4,189882,190482,370,184,402,109 F,0,189882,190482,1,0 S,0,189882,190482,0.7,0.28 P,0,189882,190482,A
Sprite,Foreground,Centre,"sb/d.png",0,0 M,4,189882,190482,370,184,519,204 F,0,189882,190482,1,0 S,0,189882,190482,0.7,0.28 P,0,189882,190482,A
Sprite,Foreground,Centre,"sb/d.png",0,0 M,4,190032,190632,370,184,239,113 F,0,190032,190632,1,0 S,0,190032,190632,0.7,0.28 P,0,190032,190632,A
Sprite,Foreground,Centre,"sb/d.png",0,0 M,4,190032,190632,370,184,472,204 F,0,190032,190632,1,0 S,0,190032,190632,0.7,0.28 P,0,190032,190632,A
Sprite,Foreground,Centre,"sb/d.png",0,0 M,4,190032,190632,370,184,413,188 F,0,190032,190632,1,0 S,0,190032,190632,0.7,0.28 P,0,190032,190632,A
Sprite,Foreground,Centre,"sb/d.png",0,0 M,4,190032,190632,370,184,511,57 F,0,190032,190632,1,0 S,0,190032,190632,0.7,0.28 P,0,190032,190632,A
Sprite,Foreground,Centre,"sb/d.png",0,0 M,4,190032,190632,370,184,373,80 F,0,190032,190632,1,0 S,0,190032,190632,0.7,0.28 P,0,190032,190632,A
Sprite,Foreground,Centre,"sb/d.png",0,0 M,4,190032,190632,370,184,464,226 F,0,190032,190632,1,0 S,0,190032,190632,0.7,0.28 P,0,190032,190632,A
Sprite,Foreground,Centre,"sb/d.png",0,0 M,4,190032,190632,370,184,392,199 F,0,190032,190632,1,0 S,0,190032,190632,0.7,0.28 P,0,190032,190632,A
Sprite,Foreground,Centre,"sb/d.png",0,0 M,4,190482,191082,499,432,550,580 F,0,190482,191082,1,0 S,0,190482,191082,0.7,0.28 P,0,190482,191082,A
Sprite,Foreground,Centre,"sb/d.png",0,0 M,4,190482,191082,499,432,439,301 F,0,190482,191082,1,0 S,0,190482,191082,0.7,0.28 P,0,190482,191082,A
Sprite,Foreground,Centre,"sb/d.png",0,0 M,4,190482,191082,499,432,488,426 F,0,190482,191082,1,0 S,0,190482,191082,0.7,0.28 P,0,190482,191082,A
Sprite,Foreground,Centre,"sb/d.png",0,0 M,4,190482,191082,499,432,413,303 F,0,190482,191082,1,0 S,0,190482,191082,0.7,0.28 P,0,190482,191082,A
Sprite,Foreground,Centre,"sb/d.png",0,0 M,4,190482,191082,499,432,418,327 F,0,190482,191082,1,0 S,0,190482,191082,0.7,0.28 P,0,190482,191082,A
Sprite,Foreground,Centre,"sb/d.png",0,0 M,4,190482,191082,499,432,483,417 F,0,190482,191082,1,0 S,0,190482,191082,0.7,0.28 P,0,190482,191082,A
Sprite,Foreground,Centre,"sb/d.png",0,0 M,4,190482,191082,499,432,354,398 F,0,190482,191082,1,0 S,0,190482,191082,0.7,0.28 P,0,190482,191082,A
Sprite,Foreground,Centre,"sb/d.png",0,0 M,4,190782,191382,320,376,414,286 F,0,190782,191382,1,0 S,0,190782,191382,0.7,0.28 P,0,190782,191382,A
Sprite,Foreground,Centre,"sb/d.png",0,0 M,4,190782,191382,320,376,444,234 F,0,190782,191382,1,0 S,0,190782,191382,0.7,0.28 P,0,190782,191382,A
Sprite,Foreground,Centre,"sb/d.png",0,0 M,4,190782,191382,320,376,322,514 F,0,190782,191382,1,0 S,0,190782,191382,0.7,0.28 P,0,190782,191382,A
Sprite,Foreground,Centre,"sb/d.png",0,0 M,4,190782,191382,320,376,468,231 F,0,190782,191382,1,0 S,0,190782,191382,0.7,0.28 P,0,190782,191382,A
Sprite,Foreground,Centre,"sb/d.png",0,0 M,4,190782,191382,320,376,366,309 F,0,190782,191382,1,0 S,0,190782,191382,0.7,0.28 P,0,190782,191382,A
Sprite,Foreground,Centre,"sb/d.png",0,0 M,4,190782,191382,320,376,460,402 F,0,190782,191382,1,0 S,0,190782,191382,0.7,0.28 P,0,190782,191382,A
Sprite,Foreground,Centre,"sb/d.png",0,0 M,4,190782,191382,320,376,401,323 F,0,190782,191382,1,0 S,0,190782,191382,0.7,0.28 P,0,190782,191382,A
Sprite,Foreground,Centre,"sb/d.png",0,0 M,4,191082,191682,297,270,273,412 F,0,191082,191682,1,0 S,0,191082,191682,0.7,0.28 P,0,191082,191682,A
Sprite,Foreground,Centre,"sb/d.png",0,0 M,4,191082,191682,297,270,412,411 F,0,191082,191682,1,0 S,0,191082,191682,0.7,0.28 P,0,191082,191682,A
Sprite,Foreground,Centre,"sb/d.png",0,0 M,4,191082,191682,297,270,223,159 F,0,191082,191682,1,0 S,0,191082,191682,0.7,0.28 P,0,191082,191682,A
Sprite,Foreground,Centre,"sb/d.png",0,0 M,4,191082,191682,297,270,416,173 F,0,191082,191682,1,0 S,0,191082,191682,0.7,0.28 P,0,191082,191682,A
Sprite,Foreground,Centre,"sb/d.png",0,0 M,4,191082,191682,297,270,411,283 F,0,191082,191682,1,0 S,0,191082,191682,0.7,0.28 P,0,191082,191682,A
Sprite,Foreground,Centre,"sb/d.png",0,0 M,4,191082,191682,297,270,382,274 F,0,191082,191682,1,0 S,0,191082,191682,0.7,0.28 P,0,191082,191682,A
Sprite,Foreground,Centre,"sb/d.png",0,0 M,4,191082,191682,297,270,252,417 F,0,191082,191682,1,0 S,0,191082,191682,0.7,0.28 P,0,191082,191682,A
Sprite,Foreground,Centre,"sb/d.png",0,0 M,4,191382,191982,187,417,47,474 F,0,191382,191982,1,0 S,0,191382,191982,0.7,0.28 P,0,191382,191982,A
Sprite,Foreground,Centre,"sb/d.png",0,0 M,4,191382,191982,187,417,73,325 F,0,191382,191982,1,0 S,0,191382,191982,0.7,0.28 P,0,191382,191982,A
Sprite,Foreground,Centre,"sb/d.png",0,0 M,4,191382,191982,187,417,185,441 F,0,191382,191982,1,0 S,0,191382,191982,0.7,0.28 P,0,191382,191982,A
Sprite,Foreground,Centre,"sb/d.png",0,0 M,4,191382,191982,187,417,115,360 F,0,191382,191982,1,0 S,0,191382,191982,0.7,0.28 P,0,191382,191982,A
Sprite,Foreground,Centre,"sb/d.png",0,0 M,4,191382,191982,187,417,109,502 F,0,191382,191982,1,0 S,0,191382,191982,0.7,0.28 P,0,191382,191982,A
Sprite,Foreground,Centre,"sb/d.png",0,0 M,4,191382,191982,187,417,76,450 F,0,191382,191982,1,0 S,0,191382,191982,0.7,0.28 P,0,191382,191982,A
Sprite,Foreground,Centre,"sb/d.png",0,0 M,4,191382,191982,187,417,204,463 F,0,191382,191982,1,0 S,0,191382,191982,0.7,0.28 P,0,191382,191982,A
Sprite,Foreground,Centre,"sb/d.png",0,0 M,4,191457,192057,187,417,139,273 F,0,191457,192057,1,0 S,0,191457,192057,0.7,0.28 P,0,191457,192057,A
Sprite,Foreground,Centre,"sb/d.png",0,0 M,4,191457,192057,187,417,66,530 F,0,191457,192057,1,0 S,0,191457,192057,0.7,0.28 P,0,191457,192057,A
Sprite,Foreground,Centre,"sb/d.png",0,0 M,4,191457,192057,187,417,250,534 F,0,191457,192057,1,0 S,0,191457,192057,0.7,0.28 P,0,191457,192057,A
Sprite,Foreground,Centre,"sb/d.png",0,0 M,4,191457,192057,187,417,232,343 F,0,191457,192057,1,0 S,0,191457,192057,0.7,0.28 P,0,191457,192057,A
Sprite,Foreground,Centre,"sb/d.png",0,0 M,4,191457,192057,187,417,116,409 F,0,191457,192057,1,0 S,0,191457,192057,0.7,0.28 P,0,191457,192057,A
Sprite,Foreground,Centre,"sb/d.png",0,0 M,4,191457,192057,187,417,95,533 F,0,191457,192057,1,0 S,0,191457,192057,0.7,0.28 P,0,191457,192057,A
Sprite,Foreground,Centre,"sb/d.png",0,0 M,4,191457,192057,187,417,184,458 F,0,191457,192057,1,0 S,0,191457,192057,0.7,0.28 P,0,191457,192057,A
Sprite,Foreground,Centre,"sb/d.png",0,0 M,4,191532,192132,187,417,132,377 F,0,191532,192132,1,0 S,0,191532,192132,0.7,0.28 P,0,191532,192132,A
Sprite,Foreground,Centre,"sb/d.png",0,0 M,4,191532,192132,187,417,110,565 F,0,191532,192132,1,0 S,0,191532,192132,0.7,0.28 P,0,191532,192132,A
Sprite,Foreground,Centre,"sb/d.png",0,0 M,4,191532,192132,187,417,220,267 F,0,191532,192132,1,0 S,0,191532,192132,0.7,0.28 P,0,191532,192132,A
Sprite,Foreground,Centre,"sb/d.png",0,0 M,4,191532,192132,187,417,332,555 F,0,191532,192132,1,0 S,0,191532,192132,0.7,0.28 P,0,191532,192132,A
Sprite,Foreground,Centre,"sb/d.png",0,0 M,4,191532,192132,187,417,84,498 F,0,191532,192132,1,0 S,0,191532,192132,0.7,0.28 P,0,191532,192132,A
Sprite,Foreground,Centre,"sb/d.png",0,0 M,4,191532,192132,187,417,64,324 F,0,191532,192132,1,0 S,0,191532,192132,0.7,0.28 P,0,191532,192132,A
Sprite,Foreground,Centre,"sb/d.png",0,0 M,4,191532,192132,187,417,55,300 F,0,191532,192132,1,0 S,0,191532,192132,0.7,0.28 P,0,191532,192132,A
Sprite,Foreground,Centre,"sb/d.png",0,0 M,4,191682,192282,165,255,234,135 F,0,191682,192282,1,0 S,0,191682,192282,0.7,0.28 P,0,191682,192282,A
Sprite,Foreground,Centre,"sb/d.png",0,0 M,4,191682,192282,165,255,266,297 F,0,191682,192282,1,0 S,0,191682,192282,0.7,0.28 P,0,191682,192282,A
Sprite,Foreground,Centre,"sb/d.png",0,0 M,4,191682,192282,165,255,186,177 F,0,191682,192282,1,0 S,0,191682,192282,0.7,0.28 P,0,191682,192282,A
Sprite,Foreground,Centre,"sb/d.png",0,0 M,4,191682,192282,165,255,266,362 F,0,191682,192282,1,0 S,0,191682,192282,0.7,0.28 P,0,191682,192282,A
Sprite,Foreground,Centre,"sb/d.png",0,0 M,4,191682,192282,165,255,149,377 F,0,191682,192282,1,0 S,0,191682,192282,0.7,0.28 P,0,191682,192282,A
Sprite,Foreground,Centre,"sb/d.png",0,0 M,4,191682,192282,165,255,255,243 F,0,191682,192282,1,0 S,0,191682,192282,0.7,0.28 P,0,191682,192282,A
Sprite,Foreground,Centre,"sb/d.png",0,0 M,4,191682,192282,165,255,117,338 F,0,191682,192282,1,0 S,0,191682,192282,0.7,0.28 P,0,191682,192282,A
Sprite,Foreground,Centre,"sb/d.png",0,0 M,4,191982,192582,237,302,215,346 F,0,191982,192582,1,0 S,0,191982,192582,0.7,0.28 P,0,191982,192582,A
Sprite,Foreground,Centre,"sb/d.png",0,0 M,4,191982,192582,237,302,386,334 F,0,191982,192582,1,0 S,0,191982,192582,0.7,0.28 P,0,191982,192582,A
Sprite,Foreground,Centre,"sb/d.png",0,0 M,4,191982,192582,237,302,113,339 F,0,191982,192582,1,0 S,0,191982,192582,0.7,0.28 P,0,191982,192582,A
Sprite,Foreground,Centre,"sb/d.png",0,0 M,4,191982,192582,237,302,384,413 F,0,191982,192582,1,0 S,0,191982,192582,0.7,0.28 P,0,191982,192582,A
Sprite,Foreground,Centre,"sb/d.png",0,0 M,4,191982,192582,237,302,248,193 F,0,191982,192582,1,0 S,0,191982,192582,0.7,0.28 P,0,191982,192582,A
Sprite,Foreground,Centre,"sb/d.png",0,0 M,4,191982,192582,237,302,87,319 F,0,191982,192582,1,0 S,0,191982,192582,0.7,0.28 P,0,191982,192582,A
Sprite,Foreground,Centre,"sb/d.png",0,0 M,4,191982,192582,237,302,288,265 F,0,191982,192582,1,0 S,0,191982,192582,0.7,0.28 P,0,191982,192582,A
Sprite,Foreground,Centre,"sb/d.png",0,0 M,4,192432,193032,268,198,377,145 F,0,192432,193032,1,0 S,0,192432,193032,0.7,0.28 P,0,192432,193032,A
Sprite,Foreground,Centre,"sb/d.png",0,0 M,4,192432,193032,268,198,353,203 F,0,192432,193032,1,0 S,0,192432,193032,0.7,0.28 P,0,192432,193032,A
Sprite,Foreground,Centre,"sb/d.png",0,0 M,4,192432,193032,268,198,366,210 F,0,192432,193032,1,0 S,0,192432,193032,0.7,0.28 P,0,192432,193032,A
Sprite,Foreground,Centre,"sb/d.png",0,0 M,4,192432,193032,268,198,274,96 F,0,192432,193032,1,0 S,0,192432,193032,0.7,0.28 P,0,192432,193032,A
Sprite,Foreground,Centre,"sb/d.png",0,0 M,4,192432,193032,268,198,308,213 F,0,192432,193032,1,0 S,0,192432,193032,0.7,0.28 P,0,192432,193032,A
Sprite,Foreground,Centre,"sb/d.png",0,0 M,4,192432,193032,268,198,212,122 F,0,192432,193032,1,0 S,0,192432,193032,0.7,0.28 P,0,192432,193032,A
Sprite,Foreground,Centre,"sb/d.png",0,0 M,4,192432,193032,268,198,358,186 F,0,192432,193032,1,0 S,0,192432,193032,0.7,0.28 P,0,192432,193032,A
Sprite,Foreground,Centre,"sb/d.png",0,0 M,4,192882,193482,371,414,497,365 F,0,192882,193482,1,0 S,0,192882,193482,0.7,0.28 P,0,192882,193482,A
Sprite,Foreground,Centre,"sb/d.png",0,0 M,4,192882,193482,371,414,278,309 F,0,192882,193482,1,0 S,0,192882,193482,0.7,0.28 P,0,192882,193482,A
Sprite,Foreground,Centre,"sb/d.png",0,0 M,4,192882,193482,371,414,419,325 F,0,192882,193482,1,0 S,0,192882,193482,0.7,0.28 P,0,192882,193482,A
Sprite,Foreground,Centre,"sb/d.png",0,0 M,4,192882,193482,371,414,381,416 F,0,192882,193482,1,0 S,0,192882,193482,0.7,0.28 P,0,192882,193482,A
Sprite,Foreground,Centre,"sb/d.png",0,0 M,4,192882,193482,371,414,452,408 F,0,192882,193482,1,0 S,0,192882,193482,0.7,0.28 P,0,192882,193482,A
Sprite,Foreground,Centre,"sb/d.png",0,0 M,4,192882,193482,371,414,251,395 F,0,192882,193482,1,0 S,0,192882,193482,0.7,0.28 P,0,192882,193482,A
Sprite,Foreground,Centre,"sb/d.png",0,0 M,4,192882,193482,371,414,256,521 F,0,192882,193482,1,0 S,0,192882,193482,0.7,0.28 P,0,192882,193482,A
Sprite,Foreground,Centre,"sb/d.png",0,0 M,4,193182,193782,208,401,226,461 F,0,193182,193782,1,0 S,0,193182,193782,0.7,0.28 P,0,193182,193782,A
Sprite,Foreground,Centre,"sb/d.png",0,0 M,4,193182,193782,208,401,250,255 F,0,193182,193782,1,0 S,0,193182,193782,0.7,0.28 P,0,193182,193782,A
Sprite,Foreground,Centre,"sb/d.png",0,0 M,4,193182,193782,208,401,228,388 F,0,193182,193782,1,0 S,0,193182,193782,0.7,0.28 P,0,193182,193782,A
Sprite,Foreground,Centre,"sb/d.png",0,0 M,4,193182,193782,208,401,356,287 F,0,193182,193782,1,0 S,0,193182,193782,0.7,0.28 P,0,193182,193782,A
Sprite,Foreground,Centre,"sb/d.png",0,0 M,4,193182,193782,208,401,94,335 F,0,193182,193782,1,0 S,0,193182,193782,0.7,0.28 P,0,193182,193782,A
Sprite,Foreground,Centre,"sb/d.png",0,0 M,4,193182,193782,208,401,247,490 F,0,193182,193782,1,0 S,0,193182,193782,0.7,0.28 P,0,193182,193782,A
Sprite,Foreground,Centre,"sb/d.png",0,0 M,4,193182,193782,208,401,134,330 F,0,193182,193782,1,0 S,0,193182,193782,0.7,0.28 P,0,193182,193782,A
Sprite,Foreground,Centre,"sb/d.png",0,0 M,4,193482,194082,182,304,35,287 F,0,193482,194082,1,0 S,0,193482,194082,0.7,0.28 P,0,193482,194082,A
Sprite,Foreground,Centre,"sb/d.png",0,0 M,4,193482,194082,182,304,120,405 F,0,193482,194082,1,0 S,0,193482,194082,0.7,0.28 P,0,193482,194082,A
Sprite,Foreground,Centre,"sb/d.png",0,0 M,4,193482,194082,182,304,278,313 F,0,193482,194082,1,0 S,0,193482,194082,0.7,0.28 P,0,193482,194082,A
Sprite,Foreground,Centre,"sb/d.png",0,0 M,4,193482,194082,182,304,317,214 F,0,193482,194082,1,0 S,0,193482,194082,0.7,0.28 P,0,193482,194082,A
Sprite,Foreground,Centre,"sb/d.png",0,0 M,4,193482,194082,182,304,315,409 F,0,193482,194082,1,0 S,0,193482,194082,0.7,0.28 P,0,193482,194082,A
Sprite,Foreground,Centre,"sb/d.png",0,0 M,4,193482,194082,182,304,300,294 F,0,193482,194082,1,0 S,0,193482,194082,0.7,0.28 P,0,193482,194082,A
Sprite,Foreground,Centre,"sb/d.png",0,0 M,4,193482,194082,182,304,285,260 F,0,193482,194082,1,0 S,0,193482,194082,0.7,0.28 P,0,193482,194082,A
Sprite,Foreground,Centre,"sb/d.png",0,0 M,4,193782,194382,277,337,292,278 F,0,193782,194382,1,0 S,0,193782,194382,0.7,0.28 P,0,193782,194382,A
Sprite,Foreground,Centre,"sb/d.png",0,0 M,4,193782,194382,277,337,252,304 F,0,193782,194382,1,0 S,0,193782,194382,0.7,0.28 P,0,193782,194382,A
Sprite,Foreground,Centre,"sb/d.png",0,0 M,4,193782,194382,277,337,253,385 F,0,193782,194382,1,0 S,0,193782,194382,0.7,0.28 P,0,193782,194382,A
Sprite,Foreground,Centre,"sb/d.png",0,0 M,4,193782,194382,277,337,307,466 F,0,193782,194382,1,0 S,0,193782,194382,0.7,0.28 P,0,193782,194382,A
Sprite,Foreground,Centre,"sb/d.png",0,0 M,4,193782,194382,277,337,400,276 F,0,193782,194382,1,0 S,0,193782,194382,0.7,0.28 P,0,193782,194382,A
Sprite,Foreground,Centre,"sb/d.png",0,0 M,4,193782,194382,277,337,331,289 F,0,193782,194382,1,0 S,0,193782,194382,0.7,0.28 P,0,193782,194382,A
Sprite,Foreground,Centre,"sb/d.png",0,0 M,4,193782,194382,277,337,267,426 F,0,193782,194382,1,0 S,0,193782,194382,0.7,0.28 P,0,193782,194382,A
Sprite,Foreground,Centre,"sb/d.png",0,0 M,4,194082,194682,193,142,108,264 F,0,194082,194682,1,0 S,0,194082,194682,0.7,0.28 P,0,194082,194682,A
Sprite,Foreground,Centre,"sb/d.png",0,0 M,4,194082,194682,193,142,198,250 F,0,194082,194682,1,0 S,0,194082,194682,0.7,0.28 P,0,194082,194682,A
Sprite,Foreground,Centre,"sb/d.png",0,0 M,4,194082,194682,193,142,327,73 F,0,194082,194682,1,0 S,0,194082,194682,0.7,0.28 P,0,194082,194682,A
Sprite,Foreground,Centre,"sb/d.png",0,0 M,4,194082,194682,193,142,192,90 F,0,194082,194682,1,0 S,0,194082,194682,0.7,0.28 P,0,194082,194682,A
Sprite,Foreground,Centre,"sb/d.png",0,0 M,4,194082,194682,193,142,99,70 F,0,194082,194682,1,0 S,0,194082,194682,0.7,0.28 P,0,194082,194682,A
Sprite,Foreground,Centre,"sb/d.png",0,0 M,4,194082,194682,193,142,227,168 F,0,194082,194682,1,0 S,0,194082,194682,0.7,0.28 P,0,194082,194682,A
Sprite,Foreground,Centre,"sb/d.png",0,0 M,4,194082,194682,193,142,315,100 F,0,194082,194682,1,0 S,0,194082,194682,0.7,0.28 P,0,194082,194682,A
Sprite,Foreground,Centre,"sb/d.png",0,0 M,4,194382,194982,335,165,412,251 F,0,194382,194982,1,0 S,0,194382,194982,0.7,0.28 P,0,194382,194982,A
Sprite,Foreground,Centre,"sb/d.png",0,0 M,4,194382,194982,335,165,220,45 F,0,194382,194982,1,0 S,0,194382,194982,0.7,0.28 P,0,194382,194982,A
Sprite,Foreground,Centre,"sb/d.png",0,0 M,4,194382,194982,335,165,369,206 F,0,194382,194982,1,0 S,0,194382,194982,0.7,0.28 P,0,194382,194982,A
Sprite,Foreground,Centre,"sb/d.png",0,0 M,4,194382,194982,335,165,356,259 F,0,194382,194982,1,0 S,0,194382,194982,0.7,0.28 P,0,194382,194982,A
Sprite,Foreground,Centre,"sb/d.png",0,0 M,4,194382,194982,335,165,444,86 F,0,194382,194982,1,0 S,0,194382,194982,0.7,0.28 P,0,194382,194982,A
Sprite,Foreground,Centre,"sb/d.png",0,0 M,4,194382,194982,335,165,298,192 F,0,194382,194982,1,0 S,0,194382,194982,0.7,0.28 P,0,194382,194982,A
Sprite,Foreground,Centre,"sb/d.png",0,0 M,4,194382,194982,335,165,384,39 F,0,194382,194982,1,0 S,0,194382,194982,0.7,0.28 P,0,194382,194982,A
Sprite,Foreground,Centre,"sb/d.png",0,0 M,4,194532,195132,409,317,418,465 F,0,194532,195132,1,0 S,0,194532,195132,0.7,0.28 P,0,194532,195132,A
Sprite,Foreground,Centre,"sb/d.png",0,0 M,4,194532,195132,409,317,306,311 F,0,194532,195132,1,0 S,0,194532,195132,0.7,0.28 P,0,194532,195132,A
Sprite,Foreground,Centre,"sb/d.png",0,0 M,4,194532,195132,409,317,278,212 F,0,194532,195132,1,0 S,0,194532,195132,0.7,0.28 P,0,194532,195132,A
Sprite,Foreground,Centre,"sb/d.png",0,0 M,4,194532,195132,409,317,554,177 F,0,194532,195132,1,0 S,0,194532,195132,0.7,0.28 P,0,194532,195132,A
Sprite,Foreground,Centre,"sb/d.png",0,0 M,4,194532,195132,409,317,358,177 F,0,194532,195132,1,0 S,0,194532,195132,0.7,0.28 P,0,194532,195132,A
Sprite,Foreground,Centre,"sb/d.png",0,0 M,4,194532,195132,409,317,414,339 F,0,194532,195132,1,0 S,0,194532,195132,0.7,0.28 P,0,194532,195132,A
Sprite,Foreground,Centre,"sb/d.png",0,0 M,4,194532,195132,409,317,516,234 F,0,194532,195132,1,0 S,0,194532,195132,0.7,0.28 P,0,194532,195132,A
Sprite,Foreground,Centre,"sb/d.png",0,0 M,4,194832,195432,442,103,326,0 F,0,194832,195432,1,0 S,0,194832,195432,0.7,0.28 P,0,194832,195432,A
Sprite,Foreground,Centre,"sb/d.png",0,0 M,4,194832,195432,442,103,524,202 F,0,194832,195432,1,0 S,0,194832,195432,0.7,0.28 P,0,194832,195432,A
Sprite,Foreground,Centre,"sb/d.png",0,0 M,4,194832,195432,442,103,518,25 F,0,194832,195432,1,0 S,0,194832,195432,0.7,0.28 P,0,194832,195432,A
Sprite,Foreground,Centre,"sb/d.png",0,0 M,4,194832,195432,442,103,344,-10 F,0,194832,195432,1,0 S,0,194832,195432,0.7,0.28 P,0,194832,195432,A
Sprite,Foreground,Centre,"sb/d.png",0,0 M,4,194832,195432,442,103,345,126 F,0,194832,195432,1,0 S,0,194832,195432,0.7,0.28 P,0,194832,195432,A
Sprite,Foreground,Centre,"sb/d.png",0,0 M,4,194832,195432,442,103,510,201 F,0,194832,195432,1,0 S,0,194832,195432,0.7,0.28 P,0,194832,195432,A
Sprite,Foreground,Centre,"sb/d.png",0,0 M,4,194832,195432,442,103,360,73 F,0,194832,195432,1,0 S,0,194832,195432,0.7,0.28 P,0,194832,195432,A
Sprite,Foreground,Centre,"sb/d.png",0,0 M,4,194982,195582,573,257,436,191 F,0,194982,195582,1,0 S,0,194982,195582,0.7,0.28 P,0,194982,195582,A
Sprite,Foreground,Centre,"sb/d.png",0,0 M,4,194982,195582,573,257,568,214 F,0,194982,195582,1,0 S,0,194982,195582,0.7,0.28 P,0,194982,195582,A
Sprite,Foreground,Centre,"sb/d.png",0,0 M,4,194982,195582,573,257,605,231 F,0,194982,195582,1,0 S,0,194982,195582,0.7,0.28 P,0,194982,195582,A
Sprite,Foreground,Centre,"sb/d.png",0,0 M,4,194982,195582,573,257,661,164 F,0,194982,195582,1,0 S,0,194982,195582,0.7,0.28 P,0,194982,195582,A
Sprite,Foreground,Centre,"sb/d.png",0,0 M,4,194982,195582,573,257,453,147 F,0,194982,195582,1,0 S,0,194982,195582,0.7,0.28 P,0,194982,195582,A
Sprite,Foreground,Centre,"sb/d.png",0,0 M,4,194982,195582,573,257,580,333 F,0,194982,195582,1,0 S,0,194982,195582,0.7,0.28 P,0,194982,195582,A
Sprite,Foreground,Centre,"sb/d.png",0,0 M,4,194982,195582,573,257,535,323 F,0,194982,195582,1,0 S,0,194982,195582,0.7,0.28 P,0,194982,195582,A
Sprite,Foreground,Centre,"sb/d.png",0,0 M,4,195207,195807,542,116,529,-9 F,0,195207,195807,1,0 S,0,195207,195807,0.7,0.28 P,0,195207,195807,A
Sprite,Foreground,Centre,"sb/d.png",0,0 M,4,195207,195807,542,116,567,-22 F,0,195207,195807,1,0 S,0,195207,195807,0.7,0.28 P,0,195207,195807,A
Sprite,Foreground,Centre,"sb/d.png",0,0 M,4,195207,195807,542,116,625,69 F,0,195207,195807,1,0 S,0,195207,195807,0.7,0.28 P,0,195207,195807,A
Sprite,Foreground,Centre,"sb/d.png",0,0 M,4,195207,195807,542,116,601,178 F,0,195207,195807,1,0 S,0,195207,195807,0.7,0.28 P,0,195207,195807,A
Sprite,Foreground,Centre,"sb/d.png",0,0 M,4,195207,195807,542,116,531,129 F,0,195207,195807,1,0 S,0,195207,195807,0.7,0.28 P,0,195207,195807,A
Sprite,Foreground,Centre,"sb/d.png",0,0 M,4,195207,195807,542,116,643,92 F,0,195207,195807,1,0 S,0,195207,195807,0.7,0.28 P,0,195207,195807,A
Sprite,Foreground,Centre,"sb/d.png",0,0 M,4,195207,195807,542,116,663,88 F,0,195207,195807,1,0 S,0,195207,195807,0.7,0.28 P,0,195207,195807,A
Sprite,Foreground,Centre,"sb/d.png",0,0 M,4,195282,195882,542,116,636,140 F,0,195282,195882,1,0 S,0,195282,195882,0.7,0.28 P,0,195282,195882,A
Sprite,Foreground,Centre,"sb/d.png",0,0 M,4,195282,195882,542,116,617,36 F,0,195282,195882,1,0 S,0,195282,195882,0.7,0.28 P,0,195282,195882,A
Sprite,Foreground,Centre,"sb/d.png",0,0 M,4,195282,195882,542,116,669,141 F,0,195282,195882,1,0 S,0,195282,195882,0.7,0.28 P,0,195282,195882,A
Sprite,Foreground,Centre,"sb/d.png",0,0 M,4,195282,195882,542,116,689,-19 F,0,195282,195882,1,0 S,0,195282,195882,0.7,0.28 P,0,195282,195882,A
Sprite,Foreground,Centre,"sb/d.png",0,0 M,4,195282,195882,542,116,556,14 F,0,195282,195882,1,0 S,0,195282,195882,0.7,0.28 P,0,195282,195882,A
Sprite,Foreground,Centre,"sb/d.png",0,0 M,4,195282,195882,542,116,681,98 F,0,195282,195882,1,0 S,0,195282,195882,0.7,0.28 P,0,195282,195882,A
Sprite,Foreground,Centre,"sb/d.png",0,0 M,4,195282,195882,542,116,521,243 F,0,195282,195882,1,0 S,0,195282,195882,0.7,0.28 P,0,195282,195882,A
Sprite,Foreground,Centre,"sb/d.png",0,0 M,4,195432,196032,495,280,361,322 F,0,195432,196032,1,0 S,0,195432,196032,0.7,0.28 P,0,195432,196032,A
Sprite,Foreground,Centre,"sb/d.png",0,0 M,4,195432,196032,495,280,437,429 F,0,195432,196032,1,0 S,0,195432,196032,0.7,0.28 P,0,195432,196032,A
Sprite,Foreground,Centre,"sb/d.png",0,0 M,4,195432,196032,495,280,604,266 F,0,195432,196032,1,0 S,0,195432,196032,0.7,0.28 P,0,195432,196032,A
Sprite,Foreground,Centre,"sb/d.png",0,0 M,4,195432,196032,495,280,545,158 F,0,195432,196032,1,0 S,0,195432,196032,0.7,0.28 P,0,195432,196032,A
Sprite,Foreground,Centre,"sb/d.png",0,0 M,4,195432,196032,495,280,642,336 F,0,195432,196032,1,0 S,0,195432,196032,0.7,0.28 P,0,195432,196032,A
Sprite,Foreground,Centre,"sb/d.png",0,0 M,4,195432,196032,495,280,360,394 F,0,195432,196032,1,0 S,0,195432,196032,0.7,0.28 P,0,195432,196032,A
Sprite,Foreground,Centre,"sb/d.png",0,0 M,4,195432,196032,495,280,555,231 F,0,195432,196032,1,0 S,0,195432,196032,0.7,0.28 P,0,195432,196032,A
Sprite,Foreground,Centre,"sb/d.png",0,0 M,4,195732,196332,305,192,399,323 F,0,195732,196332,1,0 S,0,195732,196332,0.7,0.28 P,0,195732,196332,A
Sprite,Foreground,Centre,"sb/d.png",0,0 M,4,195732,196332,305,192,310,97 F,0,195732,196332,1,0 S,0,195732,196332,0.7,0.28 P,0,195732,196332,A
Sprite,Foreground,Centre,"sb/d.png",0,0 M,4,195732,196332,305,192,308,157 F,0,195732,196332,1,0 S,0,195732,196332,0.7,0.28 P,0,195732,196332,A
Sprite,Foreground,Centre,"sb/d.png",0,0 M,4,195732,196332,305,192,268,198 F,0,195732,196332,1,0 S,0,195732,196332,0.7,0.28 P,0,195732,196332,A
Sprite,Foreground,Centre,"sb/d.png",0,0 M,4,195732,196332,305,192,270,129 F,0,195732,196332,1,0 S,0,195732,196332,0.7,0.28 P,0,195732,196332,A
Sprite,Foreground,Centre,"sb/d.png",0,0 M,4,195732,196332,305,192,404,279 F,0,195732,196332,1,0 S,0,195732,196332,0.7,0.28 P,0,195732,196332,A
Sprite,Foreground,Centre,"sb/d.png",0,0 M,4,195732,196332,305,192,373,163 F,0,195732,196332,1,0 S,0,195732,196332,0.7,0.28 P,0,195732,196332,A
Sprite,Foreground,Centre,"sb/d.png",0,0 M,4,195882,196482,305,192,315,169 F,0,195882,196482,1,0 S,0,195882,196482,0.7,0.28 P,0,195882,196482,A
Sprite,Foreground,Centre,"sb/d.png",0,0 M,4,195882,196482,305,192,177,142 F,0,195882,196482,1,0 S,0,195882,196482,0.7,0.28 P,0,195882,196482,A
Sprite,Foreground,Centre,"sb/d.png",0,0 M,4,195882,196482,305,192,429,274 F,0,195882,196482,1,0 S,0,195882,196482,0.7,0.28 P,0,195882,196482,A
Sprite,Foreground,Centre,"sb/d.png",0,0 M,4,195882,196482,305,192,350,289 F,0,195882,196482,1,0 S,0,195882,196482,0.7,0.28 P,0,195882,196482,A
Sprite,Foreground,Centre,"sb/d.png",0,0 M,4,195882,196482,305,192,226,293 F,0,195882,196482,1,0 S,0,195882,196482,0.7,0.28 P,0,195882,196482,A
Sprite,Foreground,Centre,"sb/d.png",0,0 M,4,195882,196482,305,192,322,177 F,0,195882,196482,1,0 S,0,195882,196482,0.7,0.28 P,0,195882,196482,A
Sprite,Foreground,Centre,"sb/d.png",0,0 M,4,195882,196482,305,192,377,258 F,0,195882,196482,1,0 S,0,195882,196482,0.7,0.28 P,0,195882,196482,A
Sprite,Foreground,Centre,"sb/d.png",0,0 M,4,196182,196782,385,278,411,146 F,0,196182,196782,1,0 S,0,196182,196782,0.7,0.28 P,0,196182,196782,A
Sprite,Foreground,Centre,"sb/d.png",0,0 M,4,196182,196782,385,278,289,140 F,0,196182,196782,1,0 S,0,196182,196782,0.7,0.28 P,0,196182,196782,A
Sprite,Foreground,Centre,"sb/d.png",0,0 M,4,196182,196782,385,278,500,324 F,0,196182,196782,1,0 S,0,196182,196782,0.7,0.28 P,0,196182,196782,A
Sprite,Foreground,Centre,"sb/d.png",0,0 M,4,196182,196782,385,278,305,310 F,0,196182,196782,1,0 S,0,196182,196782,0.7,0.28 P,0,196182,196782,A
Sprite,Foreground,Centre,"sb/d.png",0,0 M,4,196182,196782,385,278,427,362 F,0,196182,196782,1,0 S,0,196182,196782,0.7,0.28 P,0,196182,196782,A
Sprite,Foreground,Centre,"sb/d.png",0,0 M,4,196182,196782,385,278,514,141 F,0,196182,196782,1,0 S,0,196182,196782,0.7,0.28 P,0,196182,196782,A
Sprite,Foreground,Centre,"sb/d.png",0,0 M,4,196182,196782,385,278,398,288 F,0,196182,196782,1,0 S,0,196182,196782,0.7,0.28 P,0,196182,196782,A
Sprite,Foreground,Centre,"sb/d.png",0,0 M,4,196782,197382,299,361,226,216 F,0,196782,197382,1,0 S,0,196782,197382,0.7,0.28 P,0,196782,197382,A
Sprite,Foreground,Centre,"sb/d.png",0,0 M,4,196782,197382,299,361,199,233 F,0,196782,197382,1,0 S,0,196782,197382,0.7,0.28 P,0,196782,197382,A
Sprite,Foreground,Centre,"sb/d.png",0,0 M,4,196782,197382,299,361,366,289 F,0,196782,197382,1,0 S,0,196782,197382,0.7,0.28 P,0,196782,197382,A
Sprite,Foreground,Centre,"sb/d.png",0,0 M,4,196782,197382,299,361,316,381 F,0,196782,197382,1,0 S,0,196782,197382,0.7,0.28 P,0,196782,197382,A
Sprite,Foreground,Centre,"sb/d.png",0,0 M,4,196782,197382,299,361,333,426 F,0,196782,197382,1,0 S,0,196782,197382,0.7,0.28 P,0,196782,197382,A
Sprite,Foreground,Centre,"sb/d.png",0,0 M,4,196782,197382,299,361,438,488 F,0,196782,197382,1,0 S,0,196782,197382,0.7,0.28 P,0,196782,197382,A
Sprite,Foreground,Centre,"sb/d.png",0,0 M,4,196782,197382,299,361,354,508 F,0,196782,197382,1,0 S,0,196782,197382,0.7,0.28 P,0,196782,197382,A
Sprite,Foreground,Centre,"sb/d.png",0,0 M,4,197082,197682,402,304,462,358 F,0,197082,197682,1,0 S,0,197082,197682,0.7,0.28 P,0,197082,197682,A
Sprite,Foreground,Centre,"sb/d.png",0,0 M,4,197082,197682,402,304,439,171 F,0,197082,197682,1,0 S,0,197082,197682,0.7,0.28 P,0,197082,197682,A
Sprite,Foreground,Centre,"sb/d.png",0,0 M,4,197082,197682,402,304,444,350 F,0,197082,197682,1,0 S,0,197082,197682,0.7,0.28 P,0,197082,197682,A
Sprite,Foreground,Centre,"sb/d.png",0,0 M,4,197082,197682,402,304,531,250 F,0,197082,197682,1,0 S,0,197082,197682,0.7,0.28 P,0,197082,197682,A
Sprite,Foreground,Centre,"sb/d.png",0,0 M,4,197082,197682,402,304,284,391 F,0,197082,197682,1,0 S,0,197082,197682,0.7,0.28 P,0,197082,197682,A
Sprite,Foreground,Centre,"sb/d.png",0,0 M,4,197082,197682,402,304,523,176 F,0,197082,197682,1,0 S,0,197082,197682,0.7,0.28 P,0,197082,197682,A
Sprite,Foreground,Centre,"sb/d.png",0,0 M,4,197082,197682,402,304,302,431 F,0,197082,197682,1,0 S,0,197082,197682,0.7,0.28 P,0,197082,197682,A
Sprite,Foreground,Centre,"sb/d.png",0,0 M,4,197232,197832,402,304,487,241 F,0,197232,197832,1,0 S,0,197232,197832,0.7,0.28 P,0,197232,197832,A
Sprite,Foreground,Centre,"sb/d.png",0,0 M,4,197232,197832,402,304,372,415 F,0,197232,197832,1,0 S,0,197232,197832,0.7,0.28 P,0,197232,197832,A
Sprite,Foreground,Centre,"sb/d.png",0,0 M,4,197232,197832,402,304,321,189 F,0,197232,197832,1,0 S,0,197232,197832,0.7,0.28 P,0,197232,197832,A
Sprite,Foreground,Centre,"sb/d.png",0,0 M,4,197232,197832,402,304,421,219 F,0,197232,197832,1,0 S,0,197232,197832,0.7,0.28 P,0,197232,197832,A
Sprite,Foreground,Centre,"sb/d.png",0,0 M,4,197232,197832,402,304,453,298 F,0,197232,197832,1,0 S,0,197232,197832,0.7,0.28 P,0,197232,197832,A
Sprite,Foreground,Centre,"sb/d.png",0,0 M,4,197232,197832,402,304,469,298 F,0,197232,197832,1,0 S,0,197232,197832,0.7,0.28 P,0,197232,197832,A
Sprite,Foreground,Centre,"sb/d.png",0,0 M,4,197232,197832,402,304,300,160 F,0,197232,197832,1,0 S,0,197232,197832,0.7,0.28 P,0,197232,197832,A
Sprite,Foreground,Centre,"sb/d.png",0,0 M,4,197532,198132,272,175,256,164 F,0,197532,198132,1,0 S,0,197532,198132,0.7,0.28 P,0,197532,198132,A
Sprite,Foreground,Centre,"sb/d.png",0,0 M,4,197532,198132,272,175,144,312 F,0,197532,198132,1,0 S,0,197532,198132,0.7,0.28 P,0,197532,198132,A
Sprite,Foreground,Centre,"sb/d.png",0,0 M,4,197532,198132,272,175,412,98 F,0,197532,198132,1,0 S,0,197532,198132,0.7,0.28 P,0,197532,198132,A
Sprite,Foreground,Centre,"sb/d.png",0,0 M,4,197532,198132,272,175,393,313 F,0,197532,198132,1,0 S,0,197532,198132,0.7,0.28 P,0,197532,198132,A
Sprite,Foreground,Centre,"sb/d.png",0,0 M,4,197532,198132,272,175,168,287 F,0,197532,198132,1,0 S,0,197532,198132,0.7,0.28 P,0,197532,198132,A
Sprite,Foreground,Centre,"sb/d.png",0,0 M,4,197532,198132,272,175,243,291 F,0,197532,198132,1,0 S,0,197532,198132,0.7,0.28 P,0,197532,198132,A
Sprite,Foreground,Centre,"sb/d.png",0,0 M,4,197532,198132,272,175,302,305 F,0,197532,198132,1,0 S,0,197532,198132,0.7,0.28 P,0,197532,198132,A
Sprite,Foreground,Centre,"sb/d.png",0,0 M,4,197682,198282,272,175,394,137 F,0,197682,198282,1,0 S,0,197682,198282,0.7,0.28 P,0,197682,198282,A
Sprite,Foreground,Centre,"sb/d.png",0,0 M,4,197682,198282,272,175,172,220 F,0,197682,198282,1,0 S,0,197682,198282,0.7,0.28 P,0,197682,198282,A
Sprite,Foreground,Centre,"sb/d.png",0,0 M,4,197682,198282,272,175,149,214 F,0,197682,198282,1,0 S,0,197682,198282,0.7,0.28 P,0,197682,198282,A
Sprite,Foreground,Centre,"sb/d.png",0,0 M,4,197682,198282,272,175,357,121 F,0,197682,198282,1,0 S,0,197682,198282,0.7,0.28 P,0,197682,198282,A
Sprite,Foreground,Centre,"sb/d.png",0,0 M,4,197682,198282,272,175,216,53 F,0,197682,198282,1,0 S,0,197682,198282,0.7,0.28 P,0,197682,198282,A
Sprite,Foreground,Centre,"sb/d.png",0,0 M,4,197682,198282,272,175,330,195 F,0,197682,198282,1,0 S,0,197682,198282,0.7,0.28 P,0,197682,198282,A
Sprite,Foreground,Centre,"sb/d.png",0,0 M,4,197682,198282,272,175,249,170 F,0,197682,198282,1,0 S,0,197682,198282,0.7,0.28 P,0,197682,198282,A
Sprite,Foreground,Centre,"sb/d.png",0,0 M,4,197982,198582,381,97,233,-10 F,0,197982,198582,1,0 S,0,197982,198582,0.7,0.28 P,0,197982,198582,A
Sprite,Foreground,Centre,"sb/d.png",0,0 M,4,197982,198582,381,97,331,-5 F,0,197982,198582,1,0 S,0,197982,198582,0.7,0.28 P,0,197982,198582,A
Sprite,Foreground,Centre,"sb/d.png",0,0 M,4,197982,198582,381,97,379,220 F,0,197982,198582,1,0 S,0,197982,198582,0.7,0.28 P,0,197982,198582,A
Sprite,Foreground,Centre,"sb/d.png",0,0 M,4,197982,198582,381,97,492,139 F,0,197982,198582,1,0 S,0,197982,198582,0.7,0.28 P,0,197982,198582,A
Sprite,Foreground,Centre,"sb/d.png",0,0 M,4,197982,198582,381,97,445,231 F,0,197982,198582,1,0 S,0,197982,198582,0.7,0.28 P,0,197982,198582,A
Sprite,Foreground,Centre,"sb/d.png",0,0 M,4,197982,198582,381,97,262,224 F,0,197982,198582,1,0 S,0,197982,198582,0.7,0.28 P,0,197982,198582,A
Sprite,Foreground,Centre,"sb/d.png",0,0 M,4,197982,198582,381,97,237,193 F,0,197982,198582,1,0 S,0,197982,198582,0.7,0.28 P,0,197982,198582,A
Sprite,Foreground,Centre,"sb/d.png",0,0 M,4,198282,198882,150,210,41,218 F,0,198282,198882,1,0 S,0,198282,198882,0.7,0.28 P,0,198282,198882,A
Sprite,Foreground,Centre,"sb/d.png",0,0 M,4,198282,198882,150,210,140,162 F,0,198282,198882,1,0 S,0,198282,198882,0.7,0.28 P,0,198282,198882,A
Sprite,Foreground,Centre,"sb/d.png",0,0 M,4,198282,198882,150,210,154,248 F,0,198282,198882,1,0 S,0,198282,198882,0.7,0.28 P,0,198282,198882,A
Sprite,Foreground,Centre,"sb/d.png",0,0 M,4,198282,198882,150,210,93,148 F,0,198282,198882,1,0 S,0,198282,198882,0.7,0.28 P,0,198282,198882,A
Sprite,Foreground,Centre,"sb/d.png",0,0 M,4,198282,198882,150,210,94,82 F,0,198282,198882,1,0 S,0,198282,198882,0.7,0.28 P,0,198282,198882,A
Sprite,Foreground,Centre,"sb/d.png",0,0 M,4,198282,198882,150,210,116,219 F,0,198282,198882,1,0 S,0,198282,198882,0.7,0.28 P,0,198282,198882,A
Sprite,Foreground,Centre,"sb/d.png",0,0 M,4,198282,198882,150,210,71,97 F,0,198282,198882,1,0 S,0,198282,198882,0.7,0.28 P,0,198282,198882,A
Sprite,Foreground,Centre,"sb/d.png",0,0 M,4,198582,199182,247,93,142,236 F,0,198582,199182,1,0 S,0,198582,199182,0.7,0.28 P,0,198582,199182,A
Sprite,Foreground,Centre,"sb/d.png",0,0 M,4,198582,199182,247,93,176,63 F,0,198582,199182,1,0 S,0,198582,199182,0.7,0.28 P,0,198582,199182,A
Sprite,Foreground,Centre,"sb/d.png",0,0 M,4,198582,199182,247,93,342,69 F,0,198582,199182,1,0 S,0,198582,199182,0.7,0.28 P,0,198582,199182,A
Sprite,Foreground,Centre,"sb/d.png",0,0 M,4,198582,199182,247,93,382,-54 F,0,198582,199182,1,0 S,0,198582,199182,0.7,0.28 P,0,198582,199182,A
Sprite,Foreground,Centre,"sb/d.png",0,0 M,4,198582,199182,247,93,258,15 F,0,198582,199182,1,0 S,0,198582,199182,0.7,0.28 P,0,198582,199182,A
Sprite,Foreground,Centre,"sb/d.png",0,0 M,4,198582,199182,247,93,215,150 F,0,198582,199182,1,0 S,0,198582,199182,0.7,0.28 P,0,198582,199182,A
Sprite,Foreground,Centre,"sb/d.png",0,0 M,4,198582,199182,247,93,116,23 F,0,198582,199182,1,0 S,0,198582,199182,0.7,0.28 P,0,198582,199182,A
Sprite,Foreground,Centre,"sb/d.png",0,0 M,4,198882,199482,333,262,380,178 F,0,198882,199482,1,0 S,0,198882,199482,0.7,0.28 P,0,198882,199482,A
Sprite,Foreground,Centre,"sb/d.png",0,0 M,4,198882,199482,333,262,346,162 F,0,198882,199482,1,0 S,0,198882,199482,0.7,0.28 P,0,198882,199482,A
Sprite,Foreground,Centre,"sb/d.png",0,0 M,4,198882,199482,333,262,366,400 F,0,198882,199482,1,0 S,0,198882,199482,0.7,0.28 P,0,198882,199482,A
Sprite,Foreground,Centre,"sb/d.png",0,0 M,4,198882,199482,333,262,238,348 F,0,198882,199482,1,0 S,0,198882,199482,0.7,0.28 P,0,198882,199482,A
Sprite,Foreground,Centre,"sb/d.png",0,0 M,4,198882,199482,333,262,371,218 F,0,198882,199482,1,0 S,0,198882,199482,0.7,0.28 P,0,198882,199482,A
Sprite,Foreground,Centre,"sb/d.png",0,0 M,4,198882,199482,333,262,198,350 F,0,198882,199482,1,0 S,0,198882,199482,0.7,0.28 P,0,198882,199482,A
Sprite,Foreground,Centre,"sb/d.png",0,0 M,4,198882,199482,333,262,234,325 F,0,198882,199482,1,0 S,0,198882,199482,0.7,0.28 P,0,198882,199482,A
Sprite,Foreground,Centre,"sb/d.png",0,0 M,4,199182,199782,367,69,465,-3 F,0,199182,199782,1,0 S,0,199182,199782,0.7,0.28 P,0,199182,199782,A
Sprite,Foreground,Centre,"sb/d.png",0,0 M,4,199182,199782,367,69,449,207 F,0,199182,199782,1,0 S,0,199182,199782,0.7,0.28 P,0,199182,199782,A
Sprite,Foreground,Centre,"sb/d.png",0,0 M,4,199182,199782,367,69,419,143 F,0,199182,199782,1,0 S,0,199182,199782,0.7,0.28 P,0,199182,199782,A
Sprite,Foreground,Centre,"sb/d.png",0,0 M,4,199182,199782,367,69,364,139 F,0,199182,199782,1,0 S,0,199182,199782,0.7,0.28 P,0,199182,199782,A
Sprite,Foreground,Centre,"sb/d.png",0,0 M,4,199182,199782,367,69,421,130 F,0,199182,199782,1,0 S,0,199182,199782,0.7,0.28 P,0,199182,199782,A
Sprite,Foreground,Centre,"sb/d.png",0,0 M,4,199182,199782,367,69,249,98 F,0,199182,199782,1,0 S,0,199182,199782,0.7,0.28 P,0,199182,199782,A
Sprite,Foreground,Centre,"sb/d.png",0,0 M,4,199182,199782,367,69,477,-44 F,0,199182,199782,1,0 S,0,199182,199782,0.7,0.28 P,0,199182,199782,A
Sprite,Foreground,Centre,"sb/d.png",0,0 M,4,199632,200232,569,212,715,129 F,0,199632,200232,1,0 S,0,199632,200232,0.7,0.28 P,0,199632,200232,A
Sprite,Foreground,Centre,"sb/d.png",0,0 M,4,199632,200232,569,212,702,309 F,0,199632,200232,1,0 S,0,199632,200232,0.7,0.28 P,0,199632,200232,A
Sprite,Foreground,Centre,"sb/d.png",0,0 M,4,199632,200232,569,212,588,75 F,0,199632,200232,1,0 S,0,199632,200232,0.7,0.28 P,0,199632,200232,A
Sprite,Foreground,Centre,"sb/d.png",0,0 M,4,199632,200232,569,212,609,90 F,0,199632,200232,1,0 S,0,199632,200232,0.7,0.28 P,0,199632,200232,A
Sprite,Foreground,Centre,"sb/d.png",0,0 M,4,199632,200232,569,212,577,127 F,0,199632,200232,1,0 S,0,199632,200232,0.7,0.28 P,0,199632,200232,A
Sprite,Foreground,Centre,"sb/d.png",0,0 M,4,199632,200232,569,212,694,144 F,0,199632,200232,1,0 S,0,199632,200232,0.7,0.28 P,0,199632,200232,A
Sprite,Foreground,Centre,"sb/d.png",0,0 M,4,199632,200232,569,212,701,171 F,0,199632,200232,1,0 S,0,199632,200232,0.7,0.28 P,0,199632,200232,A
Sprite,Foreground,Centre,"sb/d.png",0,0 M,4,199932,200532,576,386,531,509 F,0,199932,200532,1,0 S,0,199932,200532,0.7,0.28 P,0,199932,200532,A
Sprite,Foreground,Centre,"sb/d.png",0,0 M,4,199932,200532,576,386,531,242 F,0,199932,200532,1,0 S,0,199932,200532,0.7,0.28 P,0,199932,200532,A
Sprite,Foreground,Centre,"sb/d.png",0,0 M,4,199932,200532,576,386,501,308 F,0,199932,200532,1,0 S,0,199932,200532,0.7,0.28 P,0,199932,200532,A
Sprite,Foreground,Centre,"sb/d.png",0,0 M,4,199932,200532,576,386,480,319 F,0,199932,200532,1,0 S,0,199932,200532,0.7,0.28 P,0,199932,200532,A
Sprite,Foreground,Centre,"sb/d.png",0,0 M,4,199932,200532,576,386,566,365 F,0,199932,200532,1,0 S,0,199932,200532,0.7,0.28 P,0,199932,200532,A
Sprite,Foreground,Centre,"sb/d.png",0,0 M,4,199932,200532,576,386,430,330 F,0,199932,200532,1,0 S,0,199932,200532,0.7,0.28 P,0,199932,200532,A
Sprite,Foreground,Centre,"sb/d.png",0,0 M,4,199932,200532,576,386,658,513 F,0,199932,200532,1,0 S,0,199932,200532,0.7,0.28 P,0,199932,200532,A
Sprite,Foreground,Centre,"sb/d.png",0,0 M,4,200082,200682,576,386,587,488 F,0,200082,200682,1,0 S,0,200082,200682,0.7,0.28 P,0,200082,200682,A
Sprite,Foreground,Centre,"sb/d.png",0,0 M,4,200082,200682,576,386,444,240 F,0,200082,200682,1,0 S,0,200082,200682,0.7,0.28 P,0,200082,200682,A
Sprite,Foreground,Centre,"sb/d.png",0,0 M,4,200082,200682,576,386,453,253 F,0,200082,200682,1,0 S,0,200082,200682,0.7,0.28 P,0,200082,200682,A
Sprite,Foreground,Centre,"sb/d.png",0,0 M,4,200082,200682,576,386,665,356 F,0,200082,200682,1,0 S,0,200082,200682,0.7,0.28 P,0,200082,200682,A
Sprite,Foreground,Centre,"sb/d.png",0,0 M,4,200082,200682,576,386,548,303 F,0,200082,200682,1,0 S,0,200082,200682,0.7,0.28 P,0,200082,200682,A
Sprite,Foreground,Centre,"sb/d.png",0,0 M,4,200082,200682,576,386,494,274 F,0,200082,200682,1,0 S,0,200082,200682,0.7,0.28 P,0,200082,200682,A
Sprite,Foreground,Centre,"sb/d.png",0,0 M,4,200082,200682,576,386,448,456 F,0,200082,200682,1,0 S,0,200082,200682,0.7,0.28 P,0,200082,200682,A
Sprite,Foreground,Centre,"sb/d.png",0,0 M,4,200382,200982,569,212,639,228 F,0,200382,200982,1,0 S,0,200382,200982,0.7,0.28 P,0,200382,200982,A
Sprite,Foreground,Centre,"sb/d.png",0,0 M,4,200382,200982,569,212,432,181 F,0,200382,200982,1,0 S,0,200382,200982,0.7,0.28 P,0,200382,200982,A
Sprite,Foreground,Centre,"sb/d.png",0,0 M,4,200382,200982,569,212,660,100 F,0,200382,200982,1,0 S,0,200382,200982,0.7,0.28 P,0,200382,200982,A
Sprite,Foreground,Centre,"sb/d.png",0,0 M,4,200382,200982,569,212,534,292 F,0,200382,200982,1,0 S,0,200382,200982,0.7,0.28 P,0,200382,200982,A
Sprite,Foreground,Centre,"sb/d.png",0,0 M,4,200382,200982,569,212,525,87 F,0,200382,200982,1,0 S,0,200382,200982,0.7,0.28 P,0,200382,200982,A
Sprite,Foreground,Centre,"sb/d.png",0,0 M,4,200382,200982,569,212,523,250 F,0,200382,200982,1,0 S,0,200382,200982,0.7,0.28 P,0,200382,200982,A
Sprite,Foreground,Centre,"sb/d.png",0,0 M,4,200382,200982,569,212,701,274 F,0,200382,200982,1,0 S,0,200382,200982,0.7,0.28 P,0,200382,200982,A
Sprite,Foreground,Centre,"sb/d.png",0,0 M,4,200682,201282,404,415,480,418 F,0,200682,201282,1,0 S,0,200682,201282,0.7,0.28 P,0,200682,201282,A
Sprite,Foreground,Centre,"sb/d.png",0,0 M,4,200682,201282,404,415,496,339 F,0,200682,201282,1,0 S,0,200682,201282,0.7,0.28 P,0,200682,201282,A
Sprite,Foreground,Centre,"sb/d.png",0,0 M,4,200682,201282,404,415,334,478 F,0,200682,201282,1,0 S,0,200682,201282,0.7,0.28 P,0,200682,201282,A
Sprite,Foreground,Centre,"sb/d.png",0,0 M,4,200682,201282,404,415,420,470 F,0,200682,201282,1,0 S,0,200682,201282,0.7,0.28 P,0,200682,201282,A
Sprite,Foreground,Centre,"sb/d.png",0,0 M,4,200682,201282,404,415,301,535 F,0,200682,201282,1,0 S,0,200682,201282,0.7,0.28 P,0,200682,201282,A
Sprite,Foreground,Centre,"sb/d.png",0,0 M,4,200682,201282,404,415,308,529 F,0,200682,201282,1,0 S,0,200682,201282,0.7,0.28 P,0,200682,201282,A
Sprite,Foreground,Centre,"sb/d.png",0,0 M,4,200682,201282,404,415,423,549 F,0,200682,201282,1,0 S,0,200682,201282,0.7,0.28 P,0,200682,201282,A
Sprite,Foreground,Centre,"sb/d.png",0,0 M,4,200982,201582,276,191,276,78 F,0,200982,201582,1,0 S,0,200982,201582,0.7,0.28 P,0,200982,201582,A
Sprite,Foreground,Centre,"sb/d.png",0,0 M,4,200982,201582,276,191,363,77 F,0,200982,201582,1,0 S,0,200982,201582,0.7,0.28 P,0,200982,201582,A
Sprite,Foreground,Centre,"sb/d.png",0,0 M,4,200982,201582,276,191,175,175 F,0,200982,201582,1,0 S,0,200982,201582,0.7,0.28 P,0,200982,201582,A
Sprite,Foreground,Centre,"sb/d.png",0,0 M,4,200982,201582,276,191,289,315 F,0,200982,201582,1,0 S,0,200982,201582,0.7,0.28 P,0,200982,201582,A
Sprite,Foreground,Centre,"sb/d.png",0,0 M,4,200982,201582,276,191,242,226 F,0,200982,201582,1,0 S,0,200982,201582,0.7,0.28 P,0,200982,201582,A
Sprite,Foreground,Centre,"sb/d.png",0,0 M,4,200982,201582,276,191,279,235 F,0,200982,201582,1,0 S,0,200982,201582,0.7,0.28 P,0,200982,201582,A
Sprite,Foreground,Centre,"sb/d.png",0,0 M,4,200982,201582,276,191,287,271 F,0,200982,201582,1,0 S,0,200982,201582,0.7,0.28 P,0,200982,201582,A
Sprite,Foreground,Centre,"sb/d.png",0,0 M,4,201282,201882,207,354,203,496 F,0,201282,201882,1,0 S,0,201282,201882,0.7,0.28 P,0,201282,201882,A
Sprite,Foreground,Centre,"sb/d.png",0,0 M,4,201282,201882,207,354,257,343 F,0,201282,201882,1,0 S,0,201282,201882,0.7,0.28 P,0,201282,201882,A
Sprite,Foreground,Centre,"sb/d.png",0,0 M,4,201282,201882,207,354,91,230 F,0,201282,201882,1,0 S,0,201282,201882,0.7,0.28 P,0,201282,201882,A
Sprite,Foreground,Centre,"sb/d.png",0,0 M,4,201282,201882,207,354,251,473 F,0,201282,201882,1,0 S,0,201282,201882,0.7,0.28 P,0,201282,201882,A
Sprite,Foreground,Centre,"sb/d.png",0,0 M,4,201282,201882,207,354,181,497 F,0,201282,201882,1,0 S,0,201282,201882,0.7,0.28 P,0,201282,201882,A
Sprite,Foreground,Centre,"sb/d.png",0,0 M,4,201282,201882,207,354,315,312 F,0,201282,201882,1,0 S,0,201282,201882,0.7,0.28 P,0,201282,201882,A
Sprite,Foreground,Centre,"sb/d.png",0,0 M,4,201282,201882,207,354,111,218 F,0,201282,201882,1,0 S,0,201282,201882,0.7,0.28 P,0,201282,201882,A
Sprite,Foreground,Centre,"sb/d.png",0,0 M,4,201582,202182,296,181,264,73 F,0,201582,202182,1,0 S,0,201582,202182,0.7,0.28 P,0,201582,202182,A
Sprite,Foreground,Centre,"sb/d.png",0,0 M,4,201582,202182,296,181,210,308 F,0,201582,202182,1,0 S,0,201582,202182,0.7,0.28 P,0,201582,202182,A
Sprite,Foreground,Centre,"sb/d.png",0,0 M,4,201582,202182,296,181,314,161 F,0,201582,202182,1,0 S,0,201582,202182,0.7,0.28 P,0,201582,202182,A
Sprite,Foreground,Centre,"sb/d.png",0,0 M,4,201582,202182,296,181,226,99 F,0,201582,202182,1,0 S,0,201582,202182,0.7,0.28 P,0,201582,202182,A
Sprite,Foreground,Centre,"sb/d.png",0,0 M,4,201582,202182,296,181,234,98 F,0,201582,202182,1,0 S,0,201582,202182,0.7,0.28 P,0,201582,202182,A
Sprite,Foreground,Centre,"sb/d.png",0,0 M,4,201582,202182,296,181,284,179 F,0,201582,202182,1,0 S,0,201582,202182,0.7,0.28 P,0,201582,202182,A
Sprite,Foreground,Centre,"sb/d.png",0,0 M,4,201582,202182,296,181,195,283 F,0,201582,202182,1,0 S,0,201582,202182,0.7,0.28 P,0,201582,202182,A
Sprite,Foreground,Centre,"sb/d.png",0,0 M,4,202032,202632,430,404,316,311 F,0,202032,202632,1,0 S,0,202032,202632,0.7,0.28 P,0,202032,202632,A
Sprite,Foreground,Centre,"sb/d.png",0,0 M,4,202032,202632,430,404,501,439 F,0,202032,202632,1,0 S,0,202032,202632,0.7,0.28 P,0,202032,202632,A
Sprite,Foreground,Centre,"sb/d.png",0,0 M,4,202032,202632,430,404,332,489 F,0,202032,202632,1,0 S,0,202032,202632,0.7,0.28 P,0,202032,202632,A
Sprite,Foreground,Centre,"sb/d.png",0,0 M,4,202032,202632,430,404,338,308 F,0,202032,202632,1,0 S,0,202032,202632,0.7,0.28 P,0,202032,202632,A
Sprite,Foreground,Centre,"sb/d.png",0,0 M,4,202032,202632,430,404,350,469 F,0,202032,202632,1,0 S,0,202032,202632,0.7,0.28 P,0,202032,202632,A
Sprite,Foreground,Centre,"sb/d.png",0,0 M,4,202032,202632,430,404,509,396 F,0,202032,202632,1,0 S,0,202032,202632,0.7,0.28 P,0,202032,202632,A
Sprite,Foreground,Centre,"sb/d.png",0,0 M,4,202032,202632,430,404,370,434 F,0,202032,202632,1,0 S,0,202032,202632,0.7,0.28 P,0,202032,202632,A
Sprite,Foreground,Centre,"sb/d.png",0,0 M,4,202182,202782,430,404,492,497 F,0,202182,202782,1,0 S,0,202182,202782,0.7,0.28 P,0,202182,202782,A
Sprite,Foreground,Centre,"sb/d.png",0,0 M,4,202182,202782,430,404,357,494 F,0,202182,202782,1,0 S,0,202182,202782,0.7,0.28 P,0,202182,202782,A
Sprite,Foreground,Centre,"sb/d.png",0,0 M,4,202182,202782,430,404,359,402 F,0,202182,202782,1,0 S,0,202182,202782,0.7,0.28 P,0,202182,202782,A
Sprite,Foreground,Centre,"sb/d.png",0,0 M,4,202182,202782,430,404,435,327 F,0,202182,202782,1,0 S,0,202182,202782,0.7,0.28 P,0,202182,202782,A
Sprite,Foreground,Centre,"sb/d.png",0,0 M,4,202182,202782,430,404,400,429 F,0,202182,202782,1,0 S,0,202182,202782,0.7,0.28 P,0,202182,202782,A
Sprite,Foreground,Centre,"sb/d.png",0,0 M,4,202182,202782,430,404,306,285 F,0,202182,202782,1,0 S,0,202182,202782,0.7,0.28 P,0,202182,202782,A
Sprite,Foreground,Centre,"sb/d.png",0,0 M,4,202182,202782,430,404,430,331 F,0,202182,202782,1,0 S,0,202182,202782,0.7,0.28 P,0,202182,202782,A
Sprite,Foreground,Centre,"sb/d.png",0,0 M,4,202482,203082,544,240,598,222 F,0,202482,203082,1,0 S,0,202482,203082,0.7,0.28 P,0,202482,203082,A
Sprite,Foreground,Centre,"sb/d.png",0,0 M,4,202482,203082,544,240,394,276 F,0,202482,203082,1,0 S,0,202482,203082,0.7,0.28 P,0,202482,203082,A
Sprite,Foreground,Centre,"sb/d.png",0,0 M,4,202482,203082,544,240,671,331 F,0,202482,203082,1,0 S,0,202482,203082,0.7,0.28 P,0,202482,203082,A
Sprite,Foreground,Centre,"sb/d.png",0,0 M,4,202482,203082,544,240,626,157 F,0,202482,203082,1,0 S,0,202482,203082,0.7,0.28 P,0,202482,203082,A
Sprite,Foreground,Centre,"sb/d.png",0,0 M,4,202482,203082,544,240,466,163 F,0,202482,203082,1,0 S,0,202482,203082,0.7,0.28 P,0,202482,203082,A
Sprite,Foreground,Centre,"sb/d.png",0,0 M,4,202482,203082,544,240,450,209 F,0,202482,203082,1,0 S,0,202482,203082,0.7,0.28 P,0,202482,203082,A
Sprite,Foreground,Centre,"sb/d.png",0,0 M,4,202482,203082,544,240,649,154 F,0,202482,203082,1,0 S,0,202482,203082,0.7,0.28 P,0,202482,203082,A
Sprite,Foreground,Centre,"sb/d.png",0,0 M,4,202782,203382,430,404,552,403 F,0,202782,203382,1,0 S,0,202782,203382,0.7,0.28 P,0,202782,203382,A
Sprite,Foreground,Centre,"sb/d.png",0,0 M,4,202782,203382,430,404,327,280 F,0,202782,203382,1,0 S,0,202782,203382,0.7,0.28 P,0,202782,203382,A
Sprite,Foreground,Centre,"sb/d.png",0,0 M,4,202782,203382,430,404,320,453 F,0,202782,203382,1,0 S,0,202782,203382,0.7,0.28 P,0,202782,203382,A
Sprite,Foreground,Centre,"sb/d.png",0,0 M,4,202782,203382,430,404,436,398 F,0,202782,203382,1,0 S,0,202782,203382,0.7,0.28 P,0,202782,203382,A
Sprite,Foreground,Centre,"sb/d.png",0,0 M,4,202782,203382,430,404,569,452 F,0,202782,203382,1,0 S,0,202782,203382,0.7,0.28 P,0,202782,203382,A
Sprite,Foreground,Centre,"sb/d.png",0,0 M,4,202782,203382,430,404,348,454 F,0,202782,203382,1,0 S,0,202782,203382,0.7,0.28 P,0,202782,203382,A
Sprite,Foreground,Centre,"sb/d.png",0,0 M,4,202782,203382,430,404,377,517 F,0,202782,203382,1,0 S,0,202782,203382,0.7,0.28 P,0,202782,203382,A
Sprite,Foreground,Centre,"sb/d.png",0,0 M,4,203082,203682,340,143,427,38 F,0,203082,203682,1,0 S,0,203082,203682,0.7,0.28 P,0,203082,203682,A
Sprite,Foreground,Centre,"sb/d.png",0,0 M,4,203082,203682,340,143,349,13 F,0,203082,203682,1,0 S,0,203082,203682,0.7,0.28 P,0,203082,203682,A
Sprite,Foreground,Centre,"sb/d.png",0,0 M,4,203082,203682,340,143,274,274 F,0,203082,203682,1,0 S,0,203082,203682,0.7,0.28 P,0,203082,203682,A
Sprite,Foreground,Centre,"sb/d.png",0,0 M,4,203082,203682,340,143,340,230 F,0,203082,203682,1,0 S,0,203082,203682,0.7,0.28 P,0,203082,203682,A
Sprite,Foreground,Centre,"sb/d.png",0,0 M,4,203082,203682,340,143,405,36 F,0,203082,203682,1,0 S,0,203082,203682,0.7,0.28 P,0,203082,203682,A
Sprite,Foreground,Centre,"sb/d.png",0,0 M,4,203082,203682,340,143,354,141 F,0,203082,203682,1,0 S,0,203082,203682,0.7,0.28 P,0,203082,203682,A
Sprite,Foreground,Centre,"sb/d.png",0,0 M,4,203082,203682,340,143,438,138 F,0,203082,203682,1,0 S,0,203082,203682,0.7,0.28 P,0,203082,203682,A
Sprite,Foreground,Centre,"sb/d.png",0,0 M,4,203382,203982,140,335,161,189 F,0,203382,203982,1,0 S,0,203382,203982,0.7,0.28 P,0,203382,203982,A
Sprite,Foreground,Centre,"sb/d.png",0,0 M,4,203382,203982,140,335,173,445 F,0,203382,203982,1,0 S,0,203382,203982,0.7,0.28 P,0,203382,203982,A
Sprite,Foreground,Centre,"sb/d.png",0,0 M,4,203382,203982,140,335,183,276 F,0,203382,203982,1,0 S,0,203382,203982,0.7,0.28 P,0,203382,203982,A
Sprite,Foreground,Centre,"sb/d.png",0,0 M,4,203382,203982,140,335,91,455 F,0,203382,203982,1,0 S,0,203382,203982,0.7,0.28 P,0,203382,203982,A
Sprite,Foreground,Centre,"sb/d.png",0,0 M,4,203382,203982,140,335,118,185 F,0,203382,203982,1,0 S,0,203382,203982,0.7,0.28 P,0,203382,203982,A
Sprite,Foreground,Centre,"sb/d.png",0,0 M,4,203382,203982,140,335,280,436 F,0,203382,203982,1,0 S,0,203382,203982,0.7,0.28 P,0,203382,203982,A
Sprite,Foreground,Centre,"sb/d.png",0,0 M,4,203382,203982,140,335,211,244 F,0,203382,203982,1,0 S,0,203382,203982,0.7,0.28 P,0,203382,203982,A
Sprite,Foreground,Centre,"sb/d.png",0,0 M,4,203682,204282,219,212,211,164 F,0,203682,204282,1,0 S,0,203682,204282,0.7,0.28 P,0,203682,204282,A
Sprite,Foreground,Centre,"sb/d.png",0,0 M,4,203682,204282,219,212,186,139 F,0,203682,204282,1,0 S,0,203682,204282,0.7,0.28 P,0,203682,204282,A
Sprite,Foreground,Centre,"sb/d.png",0,0 M,4,203682,204282,219,212,213,331 F,0,203682,204282,1,0 S,0,203682,204282,0.7,0.28 P,0,203682,204282,A
Sprite,Foreground,Centre,"sb/d.png",0,0 M,4,203682,204282,219,212,198,88 F,0,203682,204282,1,0 S,0,203682,204282,0.7,0.28 P,0,203682,204282,A
Sprite,Foreground,Centre,"sb/d.png",0,0 M,4,203682,204282,219,212,282,97 F,0,203682,204282,1,0 S,0,203682,204282,0.7,0.28 P,0,203682,204282,A
Sprite,Foreground,Centre,"sb/d.png",0,0 M,4,203682,204282,219,212,103,336 F,0,203682,204282,1,0 S,0,203682,204282,0.7,0.28 P,0,203682,204282,A
Sprite,Foreground,Centre,"sb/d.png",0,0 M,4,203682,204282,219,212,282,96 F,0,203682,204282,1,0 S,0,203682,204282,0.7,0.28 P,0,203682,204282,A
Sprite,Foreground,Centre,"sb/d.png",0,0 M,4,203982,204582,314,302,398,156 F,0,203982,204582,1,0 S,0,203982,204582,0.7,0.28 P,0,203982,204582,A
Sprite,Foreground,Centre,"sb/d.png",0,0 M,4,203982,204582,314,302,325,343 F,0,203982,204582,1,0 S,0,203982,204582,0.7,0.28 P,0,203982,204582,A
Sprite,Foreground,Centre,"sb/d.png",0,0 M,4,203982,204582,314,302,415,163 F,0,203982,204582,1,0 S,0,203982,204582,0.7,0.28 P,0,203982,204582,A
Sprite,Foreground,Centre,"sb/d.png",0,0 M,4,203982,204582,314,302,436,436 F,0,203982,204582,1,0 S,0,203982,204582,0.7,0.28 P,0,203982,204582,A
Sprite,Foreground,Centre,"sb/d.png",0,0 M,4,203982,204582,314,302,178,260 F,0,203982,204582,1,0 S,0,203982,204582,0.7,0.28 P,0,203982,204582,A
Sprite,Foreground,Centre,"sb/d.png",0,0 M,4,203982,204582,314,302,170,157 F,0,203982,204582,1,0 S,0,203982,204582,0.7,0.28 P,0,203982,204582,A
Sprite,Foreground,Centre,"sb/d.png",0,0 M,4,203982,204582,314,302,325,418 F,0,203982,204582,1,0 S,0,203982,204582,0.7,0.28 P,0,203982,204582,A
Sprite,Foreground,Centre,"sb/d.png",0,0 M,4,204132,204732,314,302,381,311 F,0,204132,204732,1,0 S,0,204132,204732,0.7,0.28 P,0,204132,204732,A
Sprite,Foreground,Centre,"sb/d.png",0,0 M,4,204132,204732,314,302,194,285 F,0,204132,204732,1,0 S,0,204132,204732,0.7,0.28 P,0,204132,204732,A
Sprite,Foreground,Centre,"sb/d.png",0,0 M,4,204132,204732,314,302,223,242 F,0,204132,204732,1,0 S,0,204132,204732,0.7,0.28 P,0,204132,204732,A
Sprite,Foreground,Centre,"sb/d.png",0,0 M,4,204132,204732,314,302,258,264 F,0,204132,204732,1,0 S,0,204132,204732,0.7,0.28 P,0,204132,204732,A
Sprite,Foreground,Centre,"sb/d.png",0,0 M,4,204132,204732,314,302,389,238 F,0,204132,204732,1,0 S,0,204132,204732,0.7,0.28 P,0,204132,204732,A
Sprite,Foreground,Centre,"sb/d.png",0,0 M,4,204132,204732,314,302,168,430 F,0,204132,204732,1,0 S,0,204132,204732,0.7,0.28 P,0,204132,204732,A
Sprite,Foreground,Centre,"sb/d.png",0,0 M,4,204132,204732,314,302,179,297 F,0,204132,204732,1,0 S,0,204132,204732,0.7,0.28 P,0,204132,204732,A
Sprite,Foreground,Centre,"sb/d.png",0,0 M,4,204432,205032,106,225,47,222 F,0,204432,205032,1,0 S,0,204432,205032,0.7,0.28 P,0,204432,205032,A
Sprite,Foreground,Centre,"sb/d.png",0,0 M,4,204432,205032,106,225,181,293 F,0,204432,205032,1,0 S,0,204432,205032,0.7,0.28 P,0,204432,205032,A
Sprite,Foreground,Centre,"sb/d.png",0,0 M,4,204432,205032,106,225,133,142 F,0,204432,205032,1,0 S,0,204432,205032,0.7,0.28 P,0,204432,205032,A
Sprite,Foreground,Centre,"sb/d.png",0,0 M,4,204432,205032,106,225,-8,198 F,0,204432,205032,1,0 S,0,204432,205032,0.7,0.28 P,0,204432,205032,A
Sprite,Foreground,Centre,"sb/d.png",0,0 M,4,204432,205032,106,225,94,174 F,0,204432,205032,1,0 S,0,204432,205032,0.7,0.28 P,0,204432,205032,A
Sprite,Foreground,Centre,"sb/d.png",0,0 M,4,204432,205032,106,225,-44,285 F,0,204432,205032,1,0 S,0,204432,205032,0.7,0.28 P,0,204432,205032,A
Sprite,Foreground,Centre,"sb/d.png",0,0 M,4,204432,205032,106,225,43,232 F,0,204432,205032,1,0 S,0,204432,205032,0.7,0.28 P,0,204432,205032,A
Sprite,Foreground,Centre,"sb/d.png",0,0 M,4,204582,205182,106,225,43,84 F,0,204582,205182,1,0 S,0,204582,205182,0.7,0.28 P,0,204582,205182,A
Sprite,Foreground,Centre,"sb/d.png",0,0 M,4,204582,205182,106,225,26,213 F,0,204582,205182,1,0 S,0,204582,205182,0.7,0.28 P,0,204582,205182,A
Sprite,Foreground,Centre,"sb/d.png",0,0 M,4,204582,205182,106,225,64,237 F,0,204582,205182,1,0 S,0,204582,205182,0.7,0.28 P,0,204582,205182,A
Sprite,Foreground,Centre,"sb/d.png",0,0 M,4,204582,205182,106,225,64,129 F,0,204582,205182,1,0 S,0,204582,205182,0.7,0.28 P,0,204582,205182,A
Sprite,Foreground,Centre,"sb/d.png",0,0 M,4,204582,205182,106,225,-39,276 F,0,204582,205182,1,0 S,0,204582,205182,0.7,0.28 P,0,204582,205182,A
Sprite,Foreground,Centre,"sb/d.png",0,0 M,4,204582,205182,106,225,170,198 F,0,204582,205182,1,0 S,0,204582,205182,0.7,0.28 P,0,204582,205182,A
Sprite,Foreground,Centre,"sb/d.png",0,0 M,4,204582,205182,106,225,195,196 F,0,204582,205182,1,0 S,0,204582,205182,0.7,0.28 P,0,204582,205182,A
Sprite,Foreground,Centre,"sb/d.png",0,0 M,4,204882,205482,289,399,218,323 F,0,204882,205482,1,0 S,0,204882,205482,0.7,0.28 P,0,204882,205482,A
Sprite,Foreground,Centre,"sb/d.png",0,0 M,4,204882,205482,289,399,326,521 F,0,204882,205482,1,0 S,0,204882,205482,0.7,0.28 P,0,204882,205482,A
Sprite,Foreground,Centre,"sb/d.png",0,0 M,4,204882,205482,289,399,434,376 F,0,204882,205482,1,0 S,0,204882,205482,0.7,0.28 P,0,204882,205482,A
Sprite,Foreground,Centre,"sb/d.png",0,0 M,4,204882,205482,289,399,332,415 F,0,204882,205482,1,0 S,0,204882,205482,0.7,0.28 P,0,204882,205482,A
Sprite,Foreground,Centre,"sb/d.png",0,0 M,4,204882,205482,289,399,321,337 F,0,204882,205482,1,0 S,0,204882,205482,0.7,0.28 P,0,204882,205482,A
Sprite,Foreground,Centre,"sb/d.png",0,0 M,4,204882,205482,289,399,267,343 F,0,204882,205482,1,0 S,0,204882,205482,0.7,0.28 P,0,204882,205482,A
Sprite,Foreground,Centre,"sb/d.png",0,0 M,4,204882,205482,289,399,368,342 F,0,204882,205482,1,0 S,0,204882,205482,0.7,0.28 P,0,204882,205482,A
Sprite,Foreground,Centre,"sb/d.png",0,0 M,4,205032,205632,289,399,159,479 F,0,205032,205632,1,0 S,0,205032,205632,0.7,0.28 P,0,205032,205632,A
Sprite,Foreground,Centre,"sb/d.png",0,0 M,4,205032,205632,289,399,272,398 F,0,205032,205632,1,0 S,0,205032,205632,0.7,0.28 P,0,205032,205632,A
Sprite,Foreground,Centre,"sb/d.png",0,0 M,4,205032,205632,289,399,142,486 F,0,205032,205632,1,0 S,0,205032,205632,0.7,0.28 P,0,205032,205632,A
Sprite,Foreground,Centre,"sb/d.png",0,0 M,4,205032,205632,289,399,164,464 F,0,205032,205632,1,0 S,0,205032,205632,0.7,0.28 P,0,205032,205632,A
Sprite,Foreground,Centre,"sb/d.png",0,0 M,4,205032,205632,289,399,155,414 F,0,205032,205632,1,0 S,0,205032,205632,0.7,0.28 P,0,205032,205632,A
Sprite,Foreground,Centre,"sb/d.png",0,0 M,4,205032,205632,289,399,309,401 F,0,205032,205632,1,0 S,0,205032,205632,0.7,0.28 P,0,205032,205632,A
Sprite,Foreground,Centre,"sb/d.png",0,0 M,4,205032,205632,289,399,175,285 F,0,205032,205632,1,0 S,0,205032,205632,0.7,0.28 P,0,205032,205632,A
Sprite,Foreground,Centre,"sb/d.png",0,0 M,4,205332,205932,203,198,194,72 F,0,205332,205932,1,0 S,0,205332,205932,0.7,0.28 P,0,205332,205932,A
Sprite,Foreground,Centre,"sb/d.png",0,0 M,4,205332,205932,203,198,57,101 F,0,205332,205932,1,0 S,0,205332,205932,0.7,0.28 P,0,205332,205932,A
Sprite,Foreground,Centre,"sb/d.png",0,0 M,4,205332,205932,203,198,180,263 F,0,205332,205932,1,0 S,0,205332,205932,0.7,0.28 P,0,205332,205932,A
Sprite,Foreground,Centre,"sb/d.png",0,0 M,4,205332,205932,203,198,97,112 F,0,205332,205932,1,0 S,0,205332,205932,0.7,0.28 P,0,205332,205932,A
Sprite,Foreground,Centre,"sb/d.png",0,0 M,4,205332,205932,203,198,265,75 F,0,205332,205932,1,0 S,0,205332,205932,0.7,0.28 P,0,205332,205932,A
Sprite,Foreground,Centre,"sb/d.png",0,0 M,4,205332,205932,203,198,267,307 F,0,205332,205932,1,0 S,0,205332,205932,0.7,0.28 P,0,205332,205932,A
Sprite,Foreground,Centre,"sb/d.png",0,0 M,4,205332,205932,203,198,316,268 F,0,205332,205932,1,0 S,0,205332,205932,0.7,0.28 P,0,205332,205932,A
Sprite,Foreground,Centre,"sb/d.png",0,0 M,4,205482,206082,203,198,180,330 F,0,205482,206082,1,0 S,0,205482,206082,0.7,0.28 P,0,205482,206082,A
Sprite,Foreground,Centre,"sb/d.png",0,0 M,4,205482,206082,203,198,63,61 F,0,205482,206082,1,0 S,0,205482,206082,0.7,0.28 P,0,205482,206082,A
Sprite,Foreground,Centre,"sb/d.png",0,0 M,4,205482,206082,203,198,286,62 F,0,205482,206082,1,0 S,0,205482,206082,0.7,0.28 P,0,205482,206082,A
Sprite,Foreground,Centre,"sb/d.png",0,0 M,4,205482,206082,203,198,87,123 F,0,205482,206082,1,0 S,0,205482,206082,0.7,0.28 P,0,205482,206082,A
Sprite,Foreground,Centre,"sb/d.png",0,0 M,4,205482,206082,203,198,121,112 F,0,205482,206082,1,0 S,0,205482,206082,0.7,0.28 P,0,205482,206082,A
Sprite,Foreground,Centre,"sb/d.png",0,0 M,4,205482,206082,203,198,173,50 F,0,205482,206082,1,0 S,0,205482,206082,0.7,0.28 P,0,205482,206082,A
Sprite,Foreground,Centre,"sb/d.png",0,0 M,4,205482,206082,203,198,149,211 F,0,205482,206082,1,0 S,0,205482,206082,0.7,0.28 P,0,205482,206082,A
Sprite,Foreground,Centre,"sb/d.png",0,0 M,4,205782,206382,131,415,39,286 F,0,205782,206382,1,0 S,0,205782,206382,0.7,0.28 P,0,205782,206382,A
Sprite,Foreground,Centre,"sb/d.png",0,0 M,4,205782,206382,131,415,83,407 F,0,205782,206382,1,0 S,0,205782,206382,0.7,0.28 P,0,205782,206382,A
Sprite,Foreground,Centre,"sb/d.png",0,0 M,4,205782,206382,131,415,71,422 F,0,205782,206382,1,0 S,0,205782,206382,0.7,0.28 P,0,205782,206382,A
Sprite,Foreground,Centre,"sb/d.png",0,0 M,4,205782,206382,131,415,6,423 F,0,205782,206382,1,0 S,0,205782,206382,0.7,0.28 P,0,205782,206382,A
Sprite,Foreground,Centre,"sb/d.png",0,0 M,4,205782,206382,131,415,64,339 F,0,205782,206382,1,0 S,0,205782,206382,0.7,0.28 P,0,205782,206382,A
Sprite,Foreground,Centre,"sb/d.png",0,0 M,4,205782,206382,131,415,247,279 F,0,205782,206382,1,0 S,0,205782,206382,0.7,0.28 P,0,205782,206382,A
Sprite,Foreground,Centre,"sb/d.png",0,0 M,4,205782,206382,131,415,30,521 F,0,205782,206382,1,0 S,0,205782,206382,0.7,0.28 P,0,205782,206382,A
Sprite,Foreground,Centre,"sb/d.png",0,0 M,4,206382,206982,324,168,192,123 F,0,206382,206982,1,0 S,0,206382,206982,0.7,0.28 P,0,206382,206982,A
Sprite,Foreground,Centre,"sb/d.png",0,0 M,4,206382,206982,324,168,409,61 F,0,206382,206982,1,0 S,0,206382,206982,0.7,0.28 P,0,206382,206982,A
Sprite,Foreground,Centre,"sb/d.png",0,0 M,4,206382,206982,324,168,447,122 F,0,206382,206982,1,0 S,0,206382,206982,0.7,0.28 P,0,206382,206982,A
Sprite,Foreground,Centre,"sb/d.png",0,0 M,4,206382,206982,324,168,262,51 F,0,206382,206982,1,0 S,0,206382,206982,0.7,0.28 P,0,206382,206982,A
Sprite,Foreground,Centre,"sb/d.png",0,0 M,4,206382,206982,324,168,328,174 F,0,206382,206982,1,0 S,0,206382,206982,0.7,0.28 P,0,206382,206982,A
Sprite,Foreground,Centre,"sb/d.png",0,0 M,4,206382,206982,324,168,393,40 F,0,206382,206982,1,0 S,0,206382,206982,0.7,0.28 P,0,206382,206982,A
Sprite,Foreground,Centre,"sb/d.png",0,0 M,4,206382,206982,324,168,176,84 F,0,206382,206982,1,0 S,0,206382,206982,0.7,0.28 P,0,206382,206982,A
Sprite,Foreground,Centre,"sb/d.png",0,0 M,4,206832,207432,209,418,314,507 F,0,206832,207432,1,0 S,0,206832,207432,0.7,0.28 P,0,206832,207432,A
Sprite,Foreground,Centre,"sb/d.png",0,0 M,4,206832,207432,209,418,292,393 F,0,206832,207432,1,0 S,0,206832,207432,0.7,0.28 P,0,206832,207432,A
Sprite,Foreground,Centre,"sb/d.png",0,0 M,4,206832,207432,209,418,178,449 F,0,206832,207432,1,0 S,0,206832,207432,0.7,0.28 P,0,206832,207432,A
Sprite,Foreground,Centre,"sb/d.png",0,0 M,4,206832,207432,209,418,64,458 F,0,206832,207432,1,0 S,0,206832,207432,0.7,0.28 P,0,206832,207432,A
Sprite,Foreground,Centre,"sb/d.png",0,0 M,4,206832,207432,209,418,283,340 F,0,206832,207432,1,0 S,0,206832,207432,0.7,0.28 P,0,206832,207432,A
Sprite,Foreground,Centre,"sb/d.png",0,0 M,4,206832,207432,209,418,227,374 F,0,206832,207432,1,0 S,0,206832,207432,0.7,0.28 P,0,206832,207432,A
Sprite,Foreground,Centre,"sb/d.png",0,0 M,4,206832,207432,209,418,254,537 F,0,206832,207432,1,0 S,0,206832,207432,0.7,0.28 P,0,206832,207432,A
Sprite,Foreground,Centre,"sb/d.png",0,0 M,4,206982,207582,209,418,257,503 F,0,206982,207582,1,0 S,0,206982,207582,0.7,0.28 P,0,206982,207582,A
Sprite,Foreground,Centre,"sb/d.png",0,0 M,4,206982,207582,209,418,106,487 F,0,206982,207582,1,0 S,0,206982,207582,0.7,0.28 P,0,206982,207582,A
Sprite,Foreground,Centre,"sb/d.png",0,0 M,4,206982,207582,209,418,324,345 F,0,206982,207582,1,0 S,0,206982,207582,0.7,0.28 P,0,206982,207582,A
Sprite,Foreground,Centre,"sb/d.png",0,0 M,4,206982,207582,209,418,115,530 F,0,206982,207582,1,0 S,0,206982,207582,0.7,0.28 P,0,206982,207582,A
Sprite,Foreground,Centre,"sb/d.png",0,0 M,4,206982,207582,209,418,188,344 F,0,206982,207582,1,0 S,0,206982,207582,0.7,0.28 P,0,206982,207582,A
Sprite,Foreground,Centre,"sb/d.png",0,0 M,4,206982,207582,209,418,88,559 F,0,206982,207582,1,0 S,0,206982,207582,0.7,0.28 P,0,206982,207582,A
Sprite,Foreground,Centre,"sb/d.png",0,0 M,4,206982,207582,209,418,134,293 F,0,206982,207582,1,0 S,0,206982,207582,0.7,0.28 P,0,206982,207582,A
Sprite,Foreground,Centre,"sb/d.png",0,0 M,4,207282,207882,327,238,343,333 F,0,207282,207882,1,0 S,0,207282,207882,0.7,0.28 P,0,207282,207882,A
Sprite,Foreground,Centre,"sb/d.png",0,0 M,4,207282,207882,327,238,399,156 F,0,207282,207882,1,0 S,0,207282,207882,0.7,0.28 P,0,207282,207882,A
Sprite,Foreground,Centre,"sb/d.png",0,0 M,4,207282,207882,327,238,332,346 F,0,207282,207882,1,0 S,0,207282,207882,0.7,0.28 P,0,207282,207882,A
Sprite,Foreground,Centre,"sb/d.png",0,0 M,4,207282,207882,327,238,379,232 F,0,207282,207882,1,0 S,0,207282,207882,0.7,0.28 P,0,207282,207882,A
Sprite,Foreground,Centre,"sb/d.png",0,0 M,4,207282,207882,327,238,318,228 F,0,207282,207882,1,0 S,0,207282,207882,0.7,0.28 P,0,207282,207882,A
Sprite,Foreground,Centre,"sb/d.png",0,0 M,4,207282,207882,327,238,371,255 F,0,207282,207882,1,0 S,0,207282,207882,0.7,0.28 P,0,207282,207882,A
Sprite,Foreground,Centre,"sb/d.png",0,0 M,4,207282,207882,327,238,427,215 F,0,207282,207882,1,0 S,0,207282,207882,0.7,0.28 P,0,207282,207882,A
Sprite,Foreground,Centre,"sb/d.png",0,0 M,4,207582,208182,396,440,426,452 F,0,207582,208182,1,0 S,0,207582,208182,0.7,0.28 P,0,207582,208182,A
Sprite,Foreground,Centre,"sb/d.png",0,0 M,4,207582,208182,396,440,421,456 F,0,207582,208182,1,0 S,0,207582,208182,0.7,0.28 P,0,207582,208182,A
Sprite,Foreground,Centre,"sb/d.png",0,0 M,4,207582,208182,396,440,454,409 F,0,207582,208182,1,0 S,0,207582,208182,0.7,0.28 P,0,207582,208182,A
Sprite,Foreground,Centre,"sb/d.png",0,0 M,4,207582,208182,396,440,380,509 F,0,207582,208182,1,0 S,0,207582,208182,0.7,0.28 P,0,207582,208182,A
Sprite,Foreground,Centre,"sb/d.png",0,0 M,4,207582,208182,396,440,355,290 F,0,207582,208182,1,0 S,0,207582,208182,0.7,0.28 P,0,207582,208182,A
Sprite,Foreground,Centre,"sb/d.png",0,0 M,4,207582,208182,396,440,302,514 F,0,207582,208182,1,0 S,0,207582,208182,0.7,0.28 P,0,207582,208182,A
Sprite,Foreground,Centre,"sb/d.png",0,0 M,4,207582,208182,396,440,255,582 F,0,207582,208182,1,0 S,0,207582,208182,0.7,0.28 P,0,207582,208182,A
Sprite,Foreground,Centre,"sb/d.png",0,0 M,4,207882,208482,534,317,494,323 F,0,207882,208482,1,0 S,0,207882,208482,0.7,0.28 P,0,207882,208482,A
Sprite,Foreground,Centre,"sb/d.png",0,0 M,4,207882,208482,534,317,480,294 F,0,207882,208482,1,0 S,0,207882,208482,0.7,0.28 P,0,207882,208482,A
Sprite,Foreground,Centre,"sb/d.png",0,0 M,4,207882,208482,534,317,490,447 F,0,207882,208482,1,0 S,0,207882,208482,0.7,0.28 P,0,207882,208482,A
Sprite,Foreground,Centre,"sb/d.png",0,0 M,4,207882,208482,534,317,407,446 F,0,207882,208482,1,0 S,0,207882,208482,0.7,0.28 P,0,207882,208482,A
Sprite,Foreground,Centre,"sb/d.png",0,0 M,4,207882,208482,534,317,533,266 F,0,207882,208482,1,0 S,0,207882,208482,0.7,0.28 P,0,207882,208482,A
Sprite,Foreground,Centre,"sb/d.png",0,0 M,4,207882,208482,534,317,635,404 F,0,207882,208482,1,0 S,0,207882,208482,0.7,0.28 P,0,207882,208482,A
Sprite,Foreground,Centre,"sb/d.png",0,0 M,4,207882,208482,534,317,450,221 F,0,207882,208482,1,0 S,0,207882,208482,0.7,0.28 P,0,207882,208482,A
Sprite,Foreground,Centre,"sb/d.png",0,0 M,4,208332,208932,325,154,268,210 F,0,208332,208932,1,0 S,0,208332,208932,0.7,0.28 P,0,208332,208932,A
Sprite,Foreground,Centre,"sb/d.png",0,0 M,4,208332,208932,325,154,199,101 F,0,208332,208932,1,0 S,0,208332,208932,0.7,0.28 P,0,208332,208932,A
Sprite,Foreground,Centre,"sb/d.png",0,0 M,4,208332,208932,325,154,301,233 F,0,208332,208932,1,0 S,0,208332,208932,0.7,0.28 P,0,208332,208932,A
Sprite,Foreground,Centre,"sb/d.png",0,0 M,4,208332,208932,325,154,256,270 F,0,208332,208932,1,0 S,0,208332,208932,0.7,0.28 P,0,208332,208932,A
Sprite,Foreground,Centre,"sb/d.png",0,0 M,4,208332,208932,325,154,376,166 F,0,208332,208932,1,0 S,0,208332,208932,0.7,0.28 P,0,208332,208932,A
Sprite,Foreground,Centre,"sb/d.png",0,0 M,4,208332,208932,325,154,257,259 F,0,208332,208932,1,0 S,0,208332,208932,0.7,0.28 P,0,208332,208932,A
Sprite,Foreground,Centre,"sb/d.png",0,0 M,4,208332,208932,325,154,365,251 F,0,208332,208932,1,0 S,0,208332,208932,0.7,0.28 P,0,208332,208932,A
Sprite,Foreground,Centre,"sb/d.png",0,0 M,4,208482,209082,325,154,311,226 F,0,208482,209082,1,0 S,0,208482,209082,0.7,0.28 P,0,208482,209082,A
Sprite,Foreground,Centre,"sb/d.png",0,0 M,4,208482,209082,325,154,187,234 F,0,208482,209082,1,0 S,0,208482,209082,0.7,0.28 P,0,208482,209082,A
Sprite,Foreground,Centre,"sb/d.png",0,0 M,4,208482,209082,325,154,423,213 F,0,208482,209082,1,0 S,0,208482,209082,0.7,0.28 P,0,208482,209082,A
Sprite,Foreground,Centre,"sb/d.png",0,0 M,4,208482,209082,325,154,209,288 F,0,208482,209082,1,0 S,0,208482,209082,0.7,0.28 P,0,208482,209082,A
Sprite,Foreground,Centre,"sb/d.png",0,0 M,4,208482,209082,325,154,219,70 F,0,208482,209082,1,0 S,0,208482,209082,0.7,0.28 P,0,208482,209082,A
Sprite,Foreground,Centre,"sb/d.png",0,0 M,4,208482,209082,325,154,236,274 F,0,208482,209082,1,0 S,0,208482,209082,0.7,0.28 P,0,208482,209082,A
Sprite,Foreground,Centre,"sb/d.png",0,0 M,4,208482,209082,325,154,279,205 F,0,208482,209082,1,0 S,0,208482,209082,0.7,0.28 P,0,208482,209082,A
Sprite,Foreground,Centre,"sb/d.png",0,0 M,4,208782,209382,248,335,111,260 F,0,208782,209382,1,0 S,0,208782,209382,0.7,0.28 P,0,208782,209382,A
Sprite,Foreground,Centre,"sb/d.png",0,0 M,4,208782,209382,248,335,313,456 F,0,208782,209382,1,0 S,0,208782,209382,0.7,0.28 P,0,208782,209382,A
Sprite,Foreground,Centre,"sb/d.png",0,0 M,4,208782,209382,248,335,150,265 F,0,208782,209382,1,0 S,0,208782,209382,0.7,0.28 P,0,208782,209382,A
Sprite,Foreground,Centre,"sb/d.png",0,0 M,4,208782,209382,248,335,223,387 F,0,208782,209382,1,0 S,0,208782,209382,0.7,0.28 P,0,208782,209382,A
Sprite,Foreground,Centre,"sb/d.png",0,0 M,4,208782,209382,248,335,373,443 F,0,208782,209382,1,0 S,0,208782,209382,0.7,0.28 P,0,208782,209382,A
Sprite,Foreground,Centre,"sb/d.png",0,0 M,4,208782,209382,248,335,196,265 F,0,208782,209382,1,0 S,0,208782,209382,0.7,0.28 P,0,208782,209382,A
Sprite,Foreground,Centre,"sb/d.png",0,0 M,4,208782,209382,248,335,308,328 F,0,208782,209382,1,0 S,0,208782,209382,0.7,0.28 P,0,208782,209382,A
Sprite,Foreground,Centre,"sb/d.png",0,0 M,4,209232,209832,65,170,170,254 F,0,209232,209832,1,0 S,0,209232,209832,0.7,0.28 P,0,209232,209832,A
Sprite,Foreground,Centre,"sb/d.png",0,0 M,4,209232,209832,65,170,-40,170 F,0,209232,209832,1,0 S,0,209232,209832,0.7,0.28 P,0,209232,209832,A
Sprite,Foreground,Centre,"sb/d.png",0,0 M,4,209232,209832,65,170,5,95 F,0,209232,209832,1,0 S,0,209232,209832,0.7,0.28 P,0,209232,209832,A
Sprite,Foreground,Centre,"sb/d.png",0,0 M,4,209232,209832,65,170,57,247 F,0,209232,209832,1,0 S,0,209232,209832,0.7,0.28 P,0,209232,209832,A
Sprite,Foreground,Centre,"sb/d.png",0,0 M,4,209232,209832,65,170,2,41 F,0,209232,209832,1,0 S,0,209232,209832,0.7,0.28 P,0,209232,209832,A
Sprite,Foreground,Centre,"sb/d.png",0,0 M,4,209232,209832,65,170,203,176 F,0,209232,209832,1,0 S,0,209232,209832,0.7,0.28 P,0,209232,209832,A
Sprite,Foreground,Centre,"sb/d.png",0,0 M,4,209232,209832,65,170,-66,128 F,0,209232,209832,1,0 S,0,209232,209832,0.7,0.28 P,0,209232,209832,A
Sprite,Foreground,Centre,"sb/d.png",0,0 M,4,209682,210282,331,56,342,163 F,0,209682,210282,1,0 S,0,209682,210282,0.7,0.28 P,0,209682,210282,A
Sprite,Foreground,Centre,"sb/d.png",0,0 M,4,209682,210282,331,56,216,62 F,0,209682,210282,1,0 S,0,209682,210282,0.7,0.28 P,0,209682,210282,A
Sprite,Foreground,Centre,"sb/d.png",0,0 M,4,209682,210282,331,56,305,86 F,0,209682,210282,1,0 S,0,209682,210282,0.7,0.28 P,0,209682,210282,A
Sprite,Foreground,Centre,"sb/d.png",0,0 M,4,209682,210282,331,56,434,32 F,0,209682,210282,1,0 S,0,209682,210282,0.7,0.28 P,0,209682,210282,A
Sprite,Foreground,Centre,"sb/d.png",0,0 M,4,209682,210282,331,56,428,16 F,0,209682,210282,1,0 S,0,209682,210282,0.7,0.28 P,0,209682,210282,A
Sprite,Foreground,Centre,"sb/d.png",0,0 M,4,209682,210282,331,56,383,15 F,0,209682,210282,1,0 S,0,209682,210282,0.7,0.28 P,0,209682,210282,A
Sprite,Foreground,Centre,"sb/d.png",0,0 M,4,209682,210282,331,56,303,139 F,0,209682,210282,1,0 S,0,209682,210282,0.7,0.28 P,0,209682,210282,A
Sprite,Foreground,Centre,"sb/d.png",0,0 M,4,209982,210582,353,267,449,170 F,0,209982,210582,1,0 S,0,209982,210582,0.7,0.28 P,0,209982,210582,A
Sprite,Foreground,Centre,"sb/d.png",0,0 M,4,209982,210582,353,267,335,285 F,0,209982,210582,1,0 S,0,209982,210582,0.7,0.28 P,0,209982,210582,A
Sprite,Foreground,Centre,"sb/d.png",0,0 M,4,209982,210582,353,267,501,308 F,0,209982,210582,1,0 S,0,209982,210582,0.7,0.28 P,0,209982,210582,A
Sprite,Foreground,Centre,"sb/d.png",0,0 M,4,209982,210582,353,267,232,227 F,0,209982,210582,1,0 S,0,209982,210582,0.7,0.28 P,0,209982,210582,A
Sprite,Foreground,Centre,"sb/d.png",0,0 M,4,209982,210582,353,267,224,328 F,0,209982,210582,1,0 S,0,209982,210582,0.7,0.28 P,0,209982,210582,A
Sprite,Foreground,Centre,"sb/d.png",0,0 M,4,209982,210582,353,267,383,145 F,0,209982,210582,1,0 S,0,209982,210582,0.7,0.28 P,0,209982,210582,A
Sprite,Foreground,Centre,"sb/d.png",0,0 M,4,209982,210582,353,267,262,202 F,0,209982,210582,1,0 S,0,209982,210582,0.7,0.28 P,0,209982,210582,A
Sprite,Foreground,Centre,"sb/d.png",0,0 M,4,210282,210882,576,175,713,219 F,0,210282,210882,1,0 S,0,210282,210882,0.7,0.28 P,0,210282,210882,A
Sprite,Foreground,Centre,"sb/d.png",0,0 M,4,210282,210882,576,175,709,220 F,0,210282,210882,1,0 S,0,210282,210882,0.7,0.28 P,0,210282,210882,A
Sprite,Foreground,Centre,"sb/d.png",0,0 M,4,210282,210882,576,175,486,41 F,0,210282,210882,1,0 S,0,210282,210882,0.7,0.28 P,0,210282,210882,A
Sprite,Foreground,Centre,"sb/d.png",0,0 M,4,210282,210882,576,175,466,42 F,0,210282,210882,1,0 S,0,210282,210882,0.7,0.28 P,0,210282,210882,A
Sprite,Foreground,Centre,"sb/d.png",0,0 M,4,210282,210882,576,175,648,267 F,0,210282,210882,1,0 S,0,210282,210882,0.7,0.28 P,0,210282,210882,A
Sprite,Foreground,Centre,"sb/d.png",0,0 M,4,210282,210882,576,175,681,55 F,0,210282,210882,1,0 S,0,210282,210882,0.7,0.28 P,0,210282,210882,A
Sprite,Foreground,Centre,"sb/d.png",0,0 M,4,210282,210882,576,175,615,153 F,0,210282,210882,1,0 S,0,210282,210882,0.7,0.28 P,0,210282,210882,A
Sprite,Foreground,Centre,"sb/d.png",0,0 M,4,210582,211182,311,56,448,140 F,0,210582,211182,1,0 S,0,210582,211182,0.7,0.28 P,0,210582,211182,A
Sprite,Foreground,Centre,"sb/d.png",0,0 M,4,210582,211182,311,56,408,186 F,0,210582,211182,1,0 S,0,210582,211182,0.7,0.28 P,0,210582,211182,A
Sprite,Foreground,Centre,"sb/d.png",0,0 M,4,210582,211182,311,56,414,114 F,0,210582,211182,1,0 S,0,210582,211182,0.7,0.28 P,0,210582,211182,A
Sprite,Foreground,Centre,"sb/d.png",0,0 M,4,210582,211182,311,56,441,-60 F,0,210582,211182,1,0 S,0,210582,211182,0.7,0.28 P,0,210582,211182,A
Sprite,Foreground,Centre,"sb/d.png",0,0 M,4,210582,211182,311,56,350,26 F,0,210582,211182,1,0 S,0,210582,211182,0.7,0.28 P,0,210582,211182,A
Sprite,Foreground,Centre,"sb/d.png",0,0 M,4,210582,211182,311,56,318,34 F,0,210582,211182,1,0 S,0,210582,211182,0.7,0.28 P,0,210582,211182,A
Sprite,Foreground,Centre,"sb/d.png",0,0 M,4,210582,211182,311,56,240,-43 F,0,210582,211182,1,0 S,0,210582,211182,0.7,0.28 P,0,210582,211182,A
Sprite,Foreground,Centre,"sb/d.png",0,0 M,4,210882,211482,191,267,277,241 F,0,210882,211482,1,0 S,0,210882,211482,0.7,0.28 P,0,210882,211482,A
Sprite,Foreground,Centre,"sb/d.png",0,0 M,4,210882,211482,191,267,316,213 F,0,210882,211482,1,0 S,0,210882,211482,0.7,0.28 P,0,210882,211482,A
Sprite,Foreground,Centre,"sb/d.png",0,0 M,4,210882,211482,191,267,161,284 F,0,210882,211482,1,0 S,0,210882,211482,0.7,0.28 P,0,210882,211482,A
Sprite,Foreground,Centre,"sb/d.png",0,0 M,4,210882,211482,191,267,179,169 F,0,210882,211482,1,0 S,0,210882,211482,0.7,0.28 P,0,210882,211482,A
Sprite,Foreground,Centre,"sb/d.png",0,0 M,4,210882,211482,191,267,168,123 F,0,210882,211482,1,0 S,0,210882,211482,0.7,0.28 P,0,210882,211482,A
Sprite,Foreground,Centre,"sb/d.png",0,0 M,4,210882,211482,191,267,89,222 F,0,210882,211482,1,0 S,0,210882,211482,0.7,0.28 P,0,210882,211482,A
Sprite,Foreground,Centre,"sb/d.png",0,0 M,4,210882,211482,191,267,233,345 F,0,210882,211482,1,0 S,0,210882,211482,0.7,0.28 P,0,210882,211482,A
Sprite,Foreground,Centre,"sb/d.png",0,0 M,4,211182,211782,301,59,281,98 F,0,211182,211782,1,0 S,0,211182,211782,0.7,0.28 P,0,211182,211782,A
Sprite,Foreground,Centre,"sb/d.png",0,0 M,4,211182,211782,301,59,363,177 F,0,211182,211782,1,0 S,0,211182,211782,0.7,0.28 P,0,211182,211782,A
Sprite,Foreground,Centre,"sb/d.png",0,0 M,4,211182,211782,301,59,152,110 F,0,211182,211782,1,0 S,0,211182,211782,0.7,0.28 P,0,211182,211782,A
Sprite,Foreground,Centre,"sb/d.png",0,0 M,4,211182,211782,301,59,274,-5 F,0,211182,211782,1,0 S,0,211182,211782,0.7,0.28 P,0,211182,211782,A
Sprite,Foreground,Centre,"sb/d.png",0,0 M,4,211182,211782,301,59,414,108 F,0,211182,211782,1,0 S,0,211182,211782,0.7,0.28 P,0,211182,211782,A
Sprite,Foreground,Centre,"sb/d.png",0,0 M,4,211182,211782,301,59,225,59 F,0,211182,211782,1,0 S,0,211182,211782,0.7,0.28 P,0,211182,211782,A
Sprite,Foreground,Centre,"sb/d.png",0,0 M,4,211182,211782,301,59,255,162 F,0,211182,211782,1,0 S,0,211182,211782,0.7,0.28 P,0,211182,211782,A
Sprite,Foreground,Centre,"sb/d.png",0,0 M,4,211632,212232,307,326,162,339 F,0,211632,212232,1,0 S,0,211632,212232,0.7,0.28 P,0,211632,212232,A
Sprite,Foreground,Centre,"sb/d.png",0,0 M,4,211632,212232,307,326,195,408 F,0,211632,212232,1,0 S,0,211632,212232,0.7,0.28 P,0,211632,212232,A
Sprite,Foreground,Centre,"sb/d.png",0,0 M,4,211632,212232,307,326,394,465 F,0,211632,212232,1,0 S,0,211632,212232,0.7,0.28 P,0,211632,212232,A
Sprite,Foreground,Centre,"sb/d.png",0,0 M,4,211632,212232,307,326,238,274 F,0,211632,212232,1,0 S,0,211632,212232,0.7,0.28 P,0,211632,212232,A
Sprite,Foreground,Centre,"sb/d.png",0,0 M,4,211632,212232,307,326,423,335 F,0,211632,212232,1,0 S,0,211632,212232,0.7,0.28 P,0,211632,212232,A
Sprite,Foreground,Centre,"sb/d.png",0,0 M,4,211632,212232,307,326,367,197 F,0,211632,212232,1,0 S,0,211632,212232,0.7,0.28 P,0,211632,212232,A
Sprite,Foreground,Centre,"sb/d.png",0,0 M,4,211632,212232,307,326,446,410 F,0,211632,212232,1,0 S,0,211632,212232,0.7,0.28 P,0,211632,212232,A
Sprite,Foreground,Centre,"sb/d.png",0,0 M,4,212082,212682,553,235,510,325 F,0,212082,212682,1,0 S,0,212082,212682,0.7,0.28 P,0,212082,212682,A
Sprite,Foreground,Centre,"sb/d.png",0,0 M,4,212082,212682,553,235,634,233 F,0,212082,212682,1,0 S,0,212082,212682,0.7,0.28 P,0,212082,212682,A
Sprite,Foreground,Centre,"sb/d.png",0,0 M,4,212082,212682,553,235,418,137 F,0,212082,212682,1,0 S,0,212082,212682,0.7,0.28 P,0,212082,212682,A
Sprite,Foreground,Centre,"sb/d.png",0,0 M,4,212082,212682,553,235,606,384 F,0,212082,212682,1,0 S,0,212082,212682,0.7,0.28 P,0,212082,212682,A
Sprite,Foreground,Centre,"sb/d.png",0,0 M,4,212082,212682,553,235,610,274 F,0,212082,212682,1,0 S,0,212082,212682,0.7,0.28 P,0,212082,212682,A
Sprite,Foreground,Centre,"sb/d.png",0,0 M,4,212082,212682,553,235,529,263 F,0,212082,212682,1,0 S,0,212082,212682,0.7,0.28 P,0,212082,212682,A
Sprite,Foreground,Centre,"sb/d.png",0,0 M,4,212082,212682,553,235,631,234 F,0,212082,212682,1,0 S,0,212082,212682,0.7,0.28 P,0,212082,212682,A
Sprite,Foreground,Centre,"sb/d.png",0,0 M,4,212382,212982,407,87,417,13 F,0,212382,212982,1,0 S,0,212382,212982,0.7,0.28 P,0,212382,212982,A
Sprite,Foreground,Centre,"sb/d.png",0,0 M,4,212382,212982,407,87,279,206 F,0,212382,212982,1,0 S,0,212382,212982,0.7,0.28 P,0,212382,212982,A
Sprite,Foreground,Centre,"sb/d.png",0,0 M,4,212382,212982,407,87,319,122 F,0,212382,212982,1,0 S,0,212382,212982,0.7,0.28 P,0,212382,212982,A
Sprite,Foreground,Centre,"sb/d.png",0,0 M,4,212382,212982,407,87,304,201 F,0,212382,212982,1,0 S,0,212382,212982,0.7,0.28 P,0,212382,212982,A
Sprite,Foreground,Centre,"sb/d.png",0,0 M,4,212382,212982,407,87,525,53 F,0,212382,212982,1,0 S,0,212382,212982,0.7,0.28 P,0,212382,212982,A
Sprite,Foreground,Centre,"sb/d.png",0,0 M,4,212382,212982,407,87,425,140 F,0,212382,212982,1,0 S,0,212382,212982,0.7,0.28 P,0,212382,212982,A
Sprite,Foreground,Centre,"sb/d.png",0,0 M,4,212382,212982,407,87,404,-31 F,0,212382,212982,1,0 S,0,212382,212982,0.7,0.28 P,0,212382,212982,A
Sprite,Foreground,Centre,"sb/d.png",0,0 M,4,212532,213132,335,209,408,111 F,0,212532,213132,1,0 S,0,212532,213132,0.7,0.28 P,0,212532,213132,A
Sprite,Foreground,Centre,"sb/d.png",0,0 M,4,212532,213132,335,209,242,339 F,0,212532,213132,1,0 S,0,212532,213132,0.7,0.28 P,0,212532,213132,A
Sprite,Foreground,Centre,"sb/d.png",0,0 M,4,212532,213132,335,209,396,248 F,0,212532,213132,1,0 S,0,212532,213132,0.7,0.28 P,0,212532,213132,A
Sprite,Foreground,Centre,"sb/d.png",0,0 M,4,212532,213132,335,209,464,82 F,0,212532,213132,1,0 S,0,212532,213132,0.7,0.28 P,0,212532,213132,A
Sprite,Foreground,Centre,"sb/d.png",0,0 M,4,212532,213132,335,209,452,285 F,0,212532,213132,1,0 S,0,212532,213132,0.7,0.28 P,0,212532,213132,A
Sprite,Foreground,Centre,"sb/d.png",0,0 M,4,212532,213132,335,209,320,111 F,0,212532,213132,1,0 S,0,212532,213132,0.7,0.28 P,0,212532,213132,A
Sprite,Foreground,Centre,"sb/d.png",0,0 M,4,212532,213132,335,209,234,64 F,0,212532,213132,1,0 S,0,212532,213132,0.7,0.28 P,0,212532,213132,A
Sprite,Foreground,Centre,"sb/d.png",0,0 M,4,212682,213282,172,104,277,102 F,0,212682,213282,1,0 S,0,212682,213282,0.7,0.28 P,0,212682,213282,A
Sprite,Foreground,Centre,"sb/d.png",0,0 M,4,212682,213282,172,104,127,13 F,0,212682,213282,1,0 S,0,212682,213282,0.7,0.28 P,0,212682,213282,A
Sprite,Foreground,Centre,"sb/d.png",0,0 M,4,212682,213282,172,104,82,185 F,0,212682,213282,1,0 S,0,212682,213282,0.7,0.28 P,0,212682,213282,A
Sprite,Foreground,Centre,"sb/d.png",0,0 M,4,212682,213282,172,104,259,144 F,0,212682,213282,1,0 S,0,212682,213282,0.7,0.28 P,0,212682,213282,A
Sprite,Foreground,Centre,"sb/d.png",0,0 M,4,212682,213282,172,104,159,194 F,0,212682,213282,1,0 S,0,212682,213282,0.7,0.28 P,0,212682,213282,A
Sprite,Foreground,Centre,"sb/d.png",0,0 M,4,212682,213282,172,104,280,58 F,0,212682,213282,1,0 S,0,212682,213282,0.7,0.28 P,0,212682,213282,A
Sprite,Foreground,Centre,"sb/d.png",0,0 M,4,212682,213282,172,104,208,96 F,0,212682,213282,1,0 S,0,212682,213282,0.7,0.28 P,0,212682,213282,A
Sprite,Foreground,Centre,"sb/d.png",0,0 M,4,212982,213582,174,273,295,238 F,0,212982,213582,1,0 S,0,212982,213582,0.7,0.28 P,0,212982,213582,A
Sprite,Foreground,Centre,"sb/d.png",0,0 M,4,212982,213582,174,273,304,234 F,0,212982,213582,1,0 S,0,212982,213582,0.7,0.28 P,0,212982,213582,A
Sprite,Foreground,Centre,"sb/d.png",0,0 M,4,212982,213582,174,273,229,294 F,0,212982,213582,1,0 S,0,212982,213582,0.7,0.28 P,0,212982,213582,A
Sprite,Foreground,Centre,"sb/d.png",0,0 M,4,212982,213582,174,273,99,278 F,0,212982,213582,1,0 S,0,212982,213582,0.7,0.28 P,0,212982,213582,A
Sprite,Foreground,Centre,"sb/d.png",0,0 M,4,212982,213582,174,273,155,269 F,0,212982,213582,1,0 S,0,212982,213582,0.7,0.28 P,0,212982,213582,A
Sprite,Foreground,Centre,"sb/d.png",0,0 M,4,212982,213582,174,273,291,162 F,0,212982,213582,1,0 S,0,212982,213582,0.7,0.28 P,0,212982,213582,A
Sprite,Foreground,Centre,"sb/d.png",0,0 M,4,212982,213582,174,273,193,260 F,0,212982,213582,1,0 S,0,212982,213582,0.7,0.28 P,0,212982,213582,A
Sprite,Foreground,Centre,"sb/d.png",0,0 M,4,213282,213882,277,333,235,279 F,0,213282,213882,1,0 S,0,213282,213882,0.7,0.28 P,0,213282,213882,A
Sprite,Foreground,Centre,"sb/d.png",0,0 M,4,213282,213882,277,333,261,193 F,0,213282,213882,1,0 S,0,213282,213882,0.7,0.28 P,0,213282,213882,A
Sprite,Foreground,Centre,"sb/d.png",0,0 M,4,213282,213882,277,333,262,224 F,0,213282,213882,1,0 S,0,213282,213882,0.7,0.28 P,0,213282,213882,A
Sprite,Foreground,Centre,"sb/d.png",0,0 M,4,213282,213882,277,333,135,303 F,0,213282,213882,1,0 S,0,213282,213882,0.7,0.28 P,0,213282,213882,A
Sprite,Foreground,Centre,"sb/d.png",0,0 M,4,213282,213882,277,333,137,292 F,0,213282,213882,1,0 S,0,213282,213882,0.7,0.28 P,0,213282,213882,A
Sprite,Foreground,Centre,"sb/d.png",0,0 M,4,213282,213882,277,333,269,398 F,0,213282,213882,1,0 S,0,213282,213882,0.7,0.28 P,0,213282,213882,A
Sprite,Foreground,Centre,"sb/d.png",0,0 M,4,213282,213882,277,333,221,216 F,0,213282,213882,1,0 S,0,213282,213882,0.7,0.28 P,0,213282,213882,A
Sprite,Foreground,Centre,"sb/d.png",0,0 M,4,213582,214182,397,440,462,407 F,0,213582,214182,1,0 S,0,213582,214182,0.7,0.28 P,0,213582,214182,A
Sprite,Foreground,Centre,"sb/d.png",0,0 M,4,213582,214182,397,440,268,396 F,0,213582,214182,1,0 S,0,213582,214182,0.7,0.28 P,0,213582,214182,A
Sprite,Foreground,Centre,"sb/d.png",0,0 M,4,213582,214182,397,440,249,426 F,0,213582,214182,1,0 S,0,213582,214182,0.7,0.28 P,0,213582,214182,A
Sprite,Foreground,Centre,"sb/d.png",0,0 M,4,213582,214182,397,440,298,441 F,0,213582,214182,1,0 S,0,213582,214182,0.7,0.28 P,0,213582,214182,A
Sprite,Foreground,Centre,"sb/d.png",0,0 M,4,213582,214182,397,440,492,313 F,0,213582,214182,1,0 S,0,213582,214182,0.7,0.28 P,0,213582,214182,A
Sprite,Foreground,Centre,"sb/d.png",0,0 M,4,213582,214182,397,440,393,468 F,0,213582,214182,1,0 S,0,213582,214182,0.7,0.28 P,0,213582,214182,A
Sprite,Foreground,Centre,"sb/d.png",0,0 M,4,213582,214182,397,440,477,390 F,0,213582,214182,1,0 S,0,213582,214182,0.7,0.28 P,0,213582,214182,A
Sprite,Foreground,Centre,"sb/d.png",0,0 M,4,213732,214332,397,440,263,549 F,0,213732,214332,1,0 S,0,213732,214332,0.7,0.28 P,0,213732,214332,A
Sprite,Foreground,Centre,"sb/d.png",0,0 M,4,213732,214332,397,440,339,311 F,0,213732,214332,1,0 S,0,213732,214332,0.7,0.28 P,0,213732,214332,A
Sprite,Foreground,Centre,"sb/d.png",0,0 M,4,213732,214332,397,440,308,389 F,0,213732,214332,1,0 S,0,213732,214332,0.7,0.28 P,0,213732,214332,A
Sprite,Foreground,Centre,"sb/d.png",0,0 M,4,213732,214332,397,440,328,330 F,0,213732,214332,1,0 S,0,213732,214332,0.7,0.28 P,0,213732,214332,A
Sprite,Foreground,Centre,"sb/d.png",0,0 M,4,213732,214332,397,440,353,537 F,0,213732,214332,1,0 S,0,213732,214332,0.7,0.28 P,0,213732,214332,A
Sprite,Foreground,Centre,"sb/d.png",0,0 M,4,213732,214332,397,440,515,434 F,0,213732,214332,1,0 S,0,213732,214332,0.7,0.28 P,0,213732,214332,A
Sprite,Foreground,Centre,"sb/d.png",0,0 M,4,213732,214332,397,440,381,441 F,0,213732,214332,1,0 S,0,213732,214332,0.7,0.28 P,0,213732,214332,A
Sprite,Foreground,Centre,"sb/d.png",0,0 M,4,214032,214632,568,329,523,349 F,0,214032,214632,1,0 S,0,214032,214632,0.7,0.28 P,0,214032,214632,A
Sprite,Foreground,Centre,"sb/d.png",0,0 M,4,214032,214632,568,329,686,469 F,0,214032,214632,1,0 S,0,214032,214632,0.7,0.28 P,0,214032,214632,A
Sprite,Foreground,Centre,"sb/d.png",0,0 M,4,214032,214632,568,329,494,221 F,0,214032,214632,1,0 S,0,214032,214632,0.7,0.28 P,0,214032,214632,A
Sprite,Foreground,Centre,"sb/d.png",0,0 M,4,214032,214632,568,329,657,193 F,0,214032,214632,1,0 S,0,214032,214632,0.7,0.28 P,0,214032,214632,A
Sprite,Foreground,Centre,"sb/d.png",0,0 M,4,214032,214632,568,329,542,339 F,0,214032,214632,1,0 S,0,214032,214632,0.7,0.28 P,0,214032,214632,A
Sprite,Foreground,Centre,"sb/d.png",0,0 M,4,214032,214632,568,329,454,211 F,0,214032,214632,1,0 S,0,214032,214632,0.7,0.28 P,0,214032,214632,A
Sprite,Foreground,Centre,"sb/d.png",0,0 M,4,214032,214632,568,329,504,435 F,0,214032,214632,1,0 S,0,214032,214632,0.7,0.28 P,0,214032,214632,A
Sprite,Foreground,Centre,"sb/d.png",0,0 M,4,214182,214782,568,329,568,289 F,0,214182,214782,1,0 S,0,214182,214782,0.7,0.28 P,0,214182,214782,A
Sprite,Foreground,Centre,"sb/d.png",0,0 M,4,214182,214782,568,329,581,436 F,0,214182,214782,1,0 S,0,214182,214782,0.7,0.28 P,0,214182,214782,A
Sprite,Foreground,Centre,"sb/d.png",0,0 M,4,214182,214782,568,329,529,387 F,0,214182,214782,1,0 S,0,214182,214782,0.7,0.28 P,0,214182,214782,A
Sprite,Foreground,Centre,"sb/d.png",0,0 M,4,214182,214782,568,329,521,230 F,0,214182,214782,1,0 S,0,214182,214782,0.7,0.28 P,0,214182,214782,A
Sprite,Foreground,Centre,"sb/d.png",0,0 M,4,214182,214782,568,329,435,300 F,0,214182,214782,1,0 S,0,214182,214782,0.7,0.28 P,0,214182,214782,A
Sprite,Foreground,Centre,"sb/d.png",0,0 M,4,214182,214782,568,329,571,473 F,0,214182,214782,1,0 S,0,214182,214782,0.7,0.28 P,0,214182,214782,A
Sprite,Foreground,Centre,"sb/d.png",0,0 M,4,214182,214782,568,329,669,353 F,0,214182,214782,1,0 S,0,214182,214782,0.7,0.28 P,0,214182,214782,A
Sprite,Foreground,Centre,"sb/d.png",0,0 M,4,214482,215082,391,234,252,157 F,0,214482,215082,1,0 S,0,214482,215082,0.7,0.28 P,0,214482,215082,A
Sprite,Foreground,Centre,"sb/d.png",0,0 M,4,214482,215082,391,234,379,241 F,0,214482,215082,1,0 S,0,214482,215082,0.7,0.28 P,0,214482,215082,A
Sprite,Foreground,Centre,"sb/d.png",0,0 M,4,214482,215082,391,234,243,284 F,0,214482,215082,1,0 S,0,214482,215082,0.7,0.28 P,0,214482,215082,A
Sprite,Foreground,Centre,"sb/d.png",0,0 M,4,214482,215082,391,234,287,159 F,0,214482,215082,1,0 S,0,214482,215082,0.7,0.28 P,0,214482,215082,A
Sprite,Foreground,Centre,"sb/d.png",0,0 M,4,214482,215082,391,234,295,240 F,0,214482,215082,1,0 S,0,214482,215082,0.7,0.28 P,0,214482,215082,A
Sprite,Foreground,Centre,"sb/d.png",0,0 M,4,214482,215082,391,234,342,271 F,0,214482,215082,1,0 S,0,214482,215082,0.7,0.28 P,0,214482,215082,A
Sprite,Foreground,Centre,"sb/d.png",0,0 M,4,214482,215082,391,234,402,86 F,0,214482,215082,1,0 S,0,214482,215082,0.7,0.28 P,0,214482,215082,A
Sprite,Foreground,Centre,"sb/d.png",0,0 M,4,214782,215382,285,377,269,458 F,0,214782,215382,1,0 S,0,214782,215382,0.7,0.28 P,0,214782,215382,A
Sprite,Foreground,Centre,"sb/d.png",0,0 M,4,214782,215382,285,377,419,256 F,0,214782,215382,1,0 S,0,214782,215382,0.7,0.28 P,0,214782,215382,A
Sprite,Foreground,Centre,"sb/d.png",0,0 M,4,214782,215382,285,377,148,352 F,0,214782,215382,1,0 S,0,214782,215382,0.7,0.28 P,0,214782,215382,A
Sprite,Foreground,Centre,"sb/d.png",0,0 M,4,214782,215382,285,377,325,522 F,0,214782,215382,1,0 S,0,214782,215382,0.7,0.28 P,0,214782,215382,A
Sprite,Foreground,Centre,"sb/d.png",0,0 M,4,214782,215382,285,377,218,237 F,0,214782,215382,1,0 S,0,214782,215382,0.7,0.28 P,0,214782,215382,A
Sprite,Foreground,Centre,"sb/d.png",0,0 M,4,214782,215382,285,377,168,452 F,0,214782,215382,1,0 S,0,214782,215382,0.7,0.28 P,0,214782,215382,A
Sprite,Foreground,Centre,"sb/d.png",0,0 M,4,214782,215382,285,377,182,281 F,0,214782,215382,1,0 S,0,214782,215382,0.7,0.28 P,0,214782,215382,A
Sprite,Foreground,Centre,"sb/d.png",0,0 M,4,215082,215682,213,181,216,178 F,0,215082,215682,1,0 S,0,215082,215682,0.7,0.28 P,0,215082,215682,A
Sprite,Foreground,Centre,"sb/d.png",0,0 M,4,215082,215682,213,181,199,113 F,0,215082,215682,1,0 S,0,215082,215682,0.7,0.28 P,0,215082,215682,A
Sprite,Foreground,Centre,"sb/d.png",0,0 M,4,215082,215682,213,181,154,95 F,0,215082,215682,1,0 S,0,215082,215682,0.7,0.28 P,0,215082,215682,A
Sprite,Foreground,Centre,"sb/d.png",0,0 M,4,215082,215682,213,181,66,81 F,0,215082,215682,1,0 S,0,215082,215682,0.7,0.28 P,0,215082,215682,A
Sprite,Foreground,Centre,"sb/d.png",0,0 M,4,215082,215682,213,181,84,210 F,0,215082,215682,1,0 S,0,215082,215682,0.7,0.28 P,0,215082,215682,A
Sprite,Foreground,Centre,"sb/d.png",0,0 M,4,215082,215682,213,181,93,216 F,0,215082,215682,1,0 S,0,215082,215682,0.7,0.28 P,0,215082,215682,A
Sprite,Foreground,Centre,"sb/d.png",0,0 M,4,215082,215682,213,181,272,106 F,0,215082,215682,1,0 S,0,215082,215682,0.7,0.28 P,0,215082,215682,A
Sprite,Foreground,Centre,"sb/d.png",0,0 M,4,215382,215982,299,390,204,247 F,0,215382,215982,1,0 S,0,215382,215982,0.7,0.28 P,0,215382,215982,A
Sprite,Foreground,Centre,"sb/d.png",0,0 M,4,215382,215982,299,390,305,464 F,0,215382,215982,1,0 S,0,215382,215982,0.7,0.28 P,0,215382,215982,A
Sprite,Foreground,Centre,"sb/d.png",0,0 M,4,215382,215982,299,390,196,341 F,0,215382,215982,1,0 S,0,215382,215982,0.7,0.28 P,0,215382,215982,A
Sprite,Foreground,Centre,"sb/d.png",0,0 M,4,215382,215982,299,390,365,325 F,0,215382,215982,1,0 S,0,215382,215982,0.7,0.28 P,0,215382,215982,A
Sprite,Foreground,Centre,"sb/d.png",0,0 M,4,215382,215982,299,390,285,364 F,0,215382,215982,1,0 S,0,215382,215982,0.7,0.28 P,0,215382,215982,A
Sprite,Foreground,Centre,"sb/d.png",0,0 M,4,215382,215982,299,390,429,365 F,0,215382,215982,1,0 S,0,215382,215982,0.7,0.28 P,0,215382,215982,A
Sprite,Foreground,Centre,"sb/d.png",0,0 M,4,215382,215982,299,390,433,255 F,0,215382,215982,1,0 S,0,215382,215982,0.7,0.28 P,0,215382,215982,A
Sprite,Foreground,Centre,"sb/d.png",0,0 M,4,215682,216282,227,168,366,145 F,0,215682,216282,1,0 S,0,215682,216282,0.7,0.28 P,0,215682,216282,A
Sprite,Foreground,Centre,"sb/d.png",0,0 M,4,215682,216282,227,168,201,94 F,0,215682,216282,1,0 S,0,215682,216282,0.7,0.28 P,0,215682,216282,A
Sprite,Foreground,Centre,"sb/d.png",0,0 M,4,215682,216282,227,168,229,310 F,0,215682,216282,1,0 S,0,215682,216282,0.7,0.28 P,0,215682,216282,A
Sprite,Foreground,Centre,"sb/d.png",0,0 M,4,215682,216282,227,168,298,225 F,0,215682,216282,1,0 S,0,215682,216282,0.7,0.28 P,0,215682,216282,A
Sprite,Foreground,Centre,"sb/d.png",0,0 M,4,215682,216282,227,168,96,36 F,0,215682,216282,1,0 S,0,215682,216282,0.7,0.28 P,0,215682,216282,A
Sprite,Foreground,Centre,"sb/d.png",0,0 M,4,215682,216282,227,168,172,114 F,0,215682,216282,1,0 S,0,215682,216282,0.7,0.28 P,0,215682,216282,A
Sprite,Foreground,Centre,"sb/d.png",0,0 M,4,215682,216282,227,168,376,101 F,0,215682,216282,1,0 S,0,215682,216282,0.7,0.28 P,0,215682,216282,A
Sprite,Foreground,Centre,"sb/d.png",0,0 M,4,215982,216582,396,303,456,258 F,0,215982,216582,1,0 S,0,215982,216582,0.7,0.28 P,0,215982,216582,A
Sprite,Foreground,Centre,"sb/d.png",0,0 M,4,215982,216582,396,303,545,280 F,0,215982,216582,1,0 S,0,215982,216582,0.7,0.28 P,0,215982,216582,A
Sprite,Foreground,Centre,"sb/d.png",0,0 M,4,215982,216582,396,303,461,268 F,0,215982,216582,1,0 S,0,215982,216582,0.7,0.28 P,0,215982,216582,A
Sprite,Foreground,Centre,"sb/d.png",0,0 M,4,215982,216582,396,303,485,229 F,0,215982,216582,1,0 S,0,215982,216582,0.7,0.28 P,0,215982,216582,A
Sprite,Foreground,Centre,"sb/d.png",0,0 M,4,215982,216582,396,303,400,262 F,0,215982,216582,1,0 S,0,215982,216582,0.7,0.28 P,0,215982,216582,A
Sprite,Foreground,Centre,"sb/d.png",0,0 M,4,215982,216582,396,303,424,399 F,0,215982,216582,1,0 S,0,215982,216582,0.7,0.28 P,0,215982,216582,A
Sprite,Foreground,Centre,"sb/d.png",0,0 M,4,215982,216582,396,303,383,221 F,0,215982,216582,1,0 S,0,215982,216582,0.7,0.28 P,0,215982,216582,A
Sprite,Foreground,Centre,"sb/d.png",0,0 M,4,216432,217032,459,144,319,6 F,0,216432,217032,1,0 S,0,216432,217032,0.7,0.28 P,0,216432,217032,A
Sprite,Foreground,Centre,"sb/d.png",0,0 M,4,216432,217032,459,144,410,260 F,0,216432,217032,1,0 S,0,216432,217032,0.7,0.28 P,0,216432,217032,A
Sprite,Foreground,Centre,"sb/d.png",0,0 M,4,216432,217032,459,144,389,281 F,0,216432,217032,1,0 S,0,216432,217032,0.7,0.28 P,0,216432,217032,A
Sprite,Foreground,Centre,"sb/d.png",0,0 M,4,216432,217032,459,144,370,187 F,0,216432,217032,1,0 S,0,216432,217032,0.7,0.28 P,0,216432,217032,A
Sprite,Foreground,Centre,"sb/d.png",0,0 M,4,216432,217032,459,144,364,247 F,0,216432,217032,1,0 S,0,216432,217032,0.7,0.28 P,0,216432,217032,A
Sprite,Foreground,Centre,"sb/d.png",0,0 M,4,216432,217032,459,144,342,211 F,0,216432,217032,1,0 S,0,216432,217032,0.7,0.28 P,0,216432,217032,A
Sprite,Foreground,Centre,"sb/d.png",0,0 M,4,216432,217032,459,144,462,142 F,0,216432,217032,1,0 S,0,216432,217032,0.7,0.28 P,0,216432,217032,A
Sprite,Foreground,Centre,"sb/d.png",0,0 M,4,216582,217182,459,144,596,131 F,0,216582,217182,1,0 S,0,216582,217182,0.7,0.28 P,0,216582,217182,A
Sprite,Foreground,Centre,"sb/d.png",0,0 M,4,216582,217182,459,144,437,244 F,0,216582,217182,1,0 S,0,216582,217182,0.7,0.28 P,0,216582,217182,A
Sprite,Foreground,Centre,"sb/d.png",0,0 M,4,216582,217182,459,144,410,126 F,0,216582,217182,1,0 S,0,216582,217182,0.7,0.28 P,0,216582,217182,A
Sprite,Foreground,Centre,"sb/d.png",0,0 M,4,216582,217182,459,144,483,25 F,0,216582,217182,1,0 S,0,216582,217182,0.7,0.28 P,0,216582,217182,A
Sprite,Foreground,Centre,"sb/d.png",0,0 M,4,216582,217182,459,144,434,146 F,0,216582,217182,1,0 S,0,216582,217182,0.7,0.28 P,0,216582,217182,A
Sprite,Foreground,Centre,"sb/d.png",0,0 M,4,216582,217182,459,144,518,162 F,0,216582,217182,1,0 S,0,216582,217182,0.7,0.28 P,0,216582,217182,A
Sprite,Foreground,Centre,"sb/d.png",0,0 M,4,216582,217182,459,144,384,207 F,0,216582,217182,1,0 S,0,216582,217182,0.7,0.28 P,0,216582,217182,A
Sprite,Foreground,Centre,"sb/d.png",0,0 M,4,216882,217482,548,285,671,149 F,0,216882,217482,1,0 S,0,216882,217482,0.7,0.28 P,0,216882,217482,A
Sprite,Foreground,Centre,"sb/d.png",0,0 M,4,216882,217482,548,285,596,340 F,0,216882,217482,1,0 S,0,216882,217482,0.7,0.28 P,0,216882,217482,A
Sprite,Foreground,Centre,"sb/d.png",0,0 M,4,216882,217482,548,285,552,288 F,0,216882,217482,1,0 S,0,216882,217482,0.7,0.28 P,0,216882,217482,A
Sprite,Foreground,Centre,"sb/d.png",0,0 M,4,216882,217482,548,285,594,141 F,0,216882,217482,1,0 S,0,216882,217482,0.7,0.28 P,0,216882,217482,A
Sprite,Foreground,Centre,"sb/d.png",0,0 M,4,216882,217482,548,285,615,264 F,0,216882,217482,1,0 S,0,216882,217482,0.7,0.28 P,0,216882,217482,A
Sprite,Foreground,Centre,"sb/d.png",0,0 M,4,216882,217482,548,285,414,146 F,0,216882,217482,1,0 S,0,216882,217482,0.7,0.28 P,0,216882,217482,A
Sprite,Foreground,Centre,"sb/d.png",0,0 M,4,216882,217482,548,285,420,151 F,0,216882,217482,1,0 S,0,216882,217482,0.7,0.28 P,0,216882,217482,A
Sprite,Foreground,Centre,"sb/d.png",0,0 M,4,217182,217782,386,314,285,209 F,0,217182,217782,1,0 S,0,217182,217782,0.7,0.28 P,0,217182,217782,A
Sprite,Foreground,Centre,"sb/d.png",0,0 M,4,217182,217782,386,314,330,462 F,0,217182,217782,1,0 S,0,217182,217782,0.7,0.28 P,0,217182,217782,A
Sprite,Foreground,Centre,"sb/d.png",0,0 M,4,217182,217782,386,314,498,255 F,0,217182,217782,1,0 S,0,217182,217782,0.7,0.28 P,0,217182,217782,A
Sprite,Foreground,Centre,"sb/d.png",0,0 M,4,217182,217782,386,314,324,180 F,0,217182,217782,1,0 S,0,217182,217782,0.7,0.28 P,0,217182,217782,A
Sprite,Foreground,Centre,"sb/d.png",0,0 M,4,217182,217782,386,314,517,391 F,0,217182,217782,1,0 S,0,217182,217782,0.7,0.28 P,0,217182,217782,A
Sprite,Foreground,Centre,"sb/d.png",0,0 M,4,217182,217782,386,314,381,169 F,0,217182,217782,1,0 S,0,217182,217782,0.7,0.28 P,0,217182,217782,A
Sprite,Foreground,Centre,"sb/d.png",0,0 M,4,217182,217782,386,314,429,443 F,0,217182,217782,1,0 S,0,217182,217782,0.7,0.28 P,0,217182,217782,A
Sprite,Foreground,Centre,"sb/d.png",0,0 M,4,217482,218082,327,177,364,276 F,0,217482,218082,1,0 S,0,217482,218082,0.7,0.28 P,0,217482,218082,A
Sprite,Foreground,Centre,"sb/d.png",0,0 M,4,217482,218082,327,177,233,239 F,0,217482,218082,1,0 S,0,217482,218082,0.7,0.28 P,0,217482,218082,A
Sprite,Foreground,Centre,"sb/d.png",0,0 M,4,217482,218082,327,177,388,174 F,0,217482,218082,1,0 S,0,217482,218082,0.7,0.28 P,0,217482,218082,A
Sprite,Foreground,Centre,"sb/d.png",0,0 M,4,217482,218082,327,177,397,67 F,0,217482,218082,1,0 S,0,217482,218082,0.7,0.28 P,0,217482,218082,A
Sprite,Foreground,Centre,"sb/d.png",0,0 M,4,217482,218082,327,177,231,155 F,0,217482,218082,1,0 S,0,217482,218082,0.7,0.28 P,0,217482,218082,A
Sprite,Foreground,Centre,"sb/d.png",0,0 M,4,217482,218082,327,177,239,27 F,0,217482,218082,1,0 S,0,217482,218082,0.7,0.28 P,0,217482,218082,A
Sprite,Foreground,Centre,"sb/d.png",0,0 M,4,217482,218082,327,177,428,308 F,0,217482,218082,1,0 S,0,217482,218082,0.7,0.28 P,0,217482,218082,A
Sprite,Foreground,Centre,"sb/d.png",0,0 M,4,217782,218382,307,388,377,537 F,0,217782,218382,1,0 S,0,217782,218382,0.7,0.28 P,0,217782,218382,A
Sprite,Foreground,Centre,"sb/d.png",0,0 M,4,217782,218382,307,388,391,327 F,0,217782,218382,1,0 S,0,217782,218382,0.7,0.28 P,0,217782,218382,A
Sprite,Foreground,Centre,"sb/d.png",0,0 M,4,217782,218382,307,388,266,395 F,0,217782,218382,1,0 S,0,217782,218382,0.7,0.28 P,0,217782,218382,A
Sprite,Foreground,Centre,"sb/d.png",0,0 M,4,217782,218382,307,388,438,317 F,0,217782,218382,1,0 S,0,217782,218382,0.7,0.28 P,0,217782,218382,A
Sprite,Foreground,Centre,"sb/d.png",0,0 M,4,217782,218382,307,388,215,448 F,0,217782,218382,1,0 S,0,217782,218382,0.7,0.28 P,0,217782,218382,A
Sprite,Foreground,Centre,"sb/d.png",0,0 M,4,217782,218382,307,388,362,522 F,0,217782,218382,1,0 S,0,217782,218382,0.7,0.28 P,0,217782,218382,A
Sprite,Foreground,Centre,"sb/d.png",0,0 M,4,217782,218382,307,388,281,494 F,0,217782,218382,1,0 S,0,217782,218382,0.7,0.28 P,0,217782,218382,A
Sprite,Foreground,Centre,"sb/d.png",0,0 M,4,217857,218457,307,388,190,508 F,0,217857,218457,1,0 S,0,217857,218457,0.7,0.28 P,0,217857,218457,A
Sprite,Foreground,Centre,"sb/d.png",0,0 M,4,217857,218457,307,388,217,386 F,0,217857,218457,1,0 S,0,217857,218457,0.7,0.28 P,0,217857,218457,A
Sprite,Foreground,Centre,"sb/d.png",0,0 M,4,217857,218457,307,388,416,455 F,0,217857,218457,1,0 S,0,217857,218457,0.7,0.28 P,0,217857,218457,A
Sprite,Foreground,Centre,"sb/d.png",0,0 M,4,217857,218457,307,388,275,506 F,0,217857,218457,1,0 S,0,217857,218457,0.7,0.28 P,0,217857,218457,A
Sprite,Foreground,Centre,"sb/d.png",0,0 M,4,217857,218457,307,388,229,342 F,0,217857,218457,1,0 S,0,217857,218457,0.7,0.28 P,0,217857,218457,A
Sprite,Foreground,Centre,"sb/d.png",0,0 M,4,217857,218457,307,388,257,412 F,0,217857,218457,1,0 S,0,217857,218457,0.7,0.28 P,0,217857,218457,A
Sprite,Foreground,Centre,"sb/d.png",0,0 M,4,217857,218457,307,388,253,247 F,0,217857,218457,1,0 S,0,217857,218457,0.7,0.28 P,0,217857,218457,A
Sprite,Foreground,Centre,"sb/d.png",0,0 M,4,217932,218532,307,388,448,504 F,0,217932,218532,1,0 S,0,217932,218532,0.7,0.28 P,0,217932,218532,A
Sprite,Foreground,Centre,"sb/d.png",0,0 M,4,217932,218532,307,388,393,499 F,0,217932,218532,1,0 S,0,217932,218532,0.7,0.28 P,0,217932,218532,A
Sprite,Foreground,Centre,"sb/d.png",0,0 M,4,217932,218532,307,388,296,345 F,0,217932,218532,1,0 S,0,217932,218532,0.7,0.28 P,0,217932,218532,A
Sprite,Foreground,Centre,"sb/d.png",0,0 M,4,217932,218532,307,388,253,519 F,0,217932,218532,1,0 S,0,217932,218532,0.7,0.28 P,0,217932,218532,A
Sprite,Foreground,Centre,"sb/d.png",0,0 M,4,217932,218532,307,388,450,293 F,0,217932,218532,1,0 S,0,217932,218532,0.7,0.28 P,0,217932,218532,A
Sprite,Foreground,Centre,"sb/d.png",0,0 M,4,217932,218532,307,388,353,273 F,0,217932,218532,1,0 S,0,217932,218532,0.7,0.28 P,0,217932,218532,A
Sprite,Foreground,Centre,"sb/d.png",0,0 M,4,217932,218532,307,388,454,346 F,0,217932,218532,1,0 S,0,217932,218532,0.7,0.28 P,0,217932,218532,A
Sprite,Foreground,Centre,"sb/d.png",0,0 M,4,218082,218682,190,302,230,297 F,0,218082,218682,1,0 S,0,218082,218682,0.7,0.28 P,0,218082,218682,A
Sprite,Foreground,Centre,"sb/d.png",0,0 M,4,218082,218682,190,302,46,379 F,0,218082,218682,1,0 S,0,218082,218682,0.7,0.28 P,0,218082,218682,A
Sprite,Foreground,Centre,"sb/d.png",0,0 M,4,218082,218682,190,302,63,415 F,0,218082,218682,1,0 S,0,218082,218682,0.7,0.28 P,0,218082,218682,A
Sprite,Foreground,Centre,"sb/d.png",0,0 M,4,218082,218682,190,302,47,236 F,0,218082,218682,1,0 S,0,218082,218682,0.7,0.28 P,0,218082,218682,A
Sprite,Foreground,Centre,"sb/d.png",0,0 M,4,218082,218682,190,302,107,365 F,0,218082,218682,1,0 S,0,218082,218682,0.7,0.28 P,0,218082,218682,A
Sprite,Foreground,Centre,"sb/d.png",0,0 M,4,218082,218682,190,302,81,186 F,0,218082,218682,1,0 S,0,218082,218682,0.7,0.28 P,0,218082,218682,A
Sprite,Foreground,Centre,"sb/d.png",0,0 M,4,218082,218682,190,302,202,404 F,0,218082,218682,1,0 S,0,218082,218682,0.7,0.28 P,0,218082,218682,A
Sprite,Foreground,Centre,"sb/d.png",0,0 M,4,218382,218982,327,177,403,156 F,0,218382,218982,1,0 S,0,218382,218982,0.7,0.28 P,0,218382,218982,A
Sprite,Foreground,Centre,"sb/d.png",0,0 M,4,218382,218982,327,177,466,261 F,0,218382,218982,1,0 S,0,218382,218982,0.7,0.28 P,0,218382,218982,A
Sprite,Foreground,Centre,"sb/d.png",0,0 M,4,218382,218982,327,177,238,299 F,0,218382,218982,1,0 S,0,218382,218982,0.7,0.28 P,0,218382,218982,A
Sprite,Foreground,Centre,"sb/d.png",0,0 M,4,218382,218982,327,177,264,119 F,0,218382,218982,1,0 S,0,218382,218982,0.7,0.28 P,0,218382,218982,A
Sprite,Foreground,Centre,"sb/d.png",0,0 M,4,218382,218982,327,177,451,271 F,0,218382,218982,1,0 S,0,218382,218982,0.7,0.28 P,0,218382,218982,A
Sprite,Foreground,Centre,"sb/d.png",0,0 M,4,218382,218982,327,177,321,44 F,0,218382,218982,1,0 S,0,218382,218982,0.7,0.28 P,0,218382,218982,A
Sprite,Foreground,Centre,"sb/d.png",0,0 M,4,218382,218982,327,177,336,78 F,0,218382,218982,1,0 S,0,218382,218982,0.7,0.28 P,0,218382,218982,A
Sprite,Foreground,Centre,"sb/d.png",0,0 M,4,218832,219432,428,82,554,-64 F,0,218832,219432,1,0 S,0,218832,219432,0.7,0.28 P,0,218832,219432,A
Sprite,Foreground,Centre,"sb/d.png",0,0 M,4,218832,219432,428,82,530,155 F,0,218832,219432,1,0 S,0,218832,219432,0.7,0.28 P,0,218832,219432,A
Sprite,Foreground,Centre,"sb/d.png",0,0 M,4,218832,219432,428,82,497,-58 F,0,218832,219432,1,0 S,0,218832,219432,0.7,0.28 P,0,218832,219432,A
Sprite,Foreground,Centre,"sb/d.png",0,0 M,4,218832,219432,428,82,355,158 F,0,218832,219432,1,0 S,0,218832,219432,0.7,0.28 P,0,218832,219432,A
Sprite,Foreground,Centre,"sb/d.png",0,0 M,4,218832,219432,428,82,376,104 F,0,218832,219432,1,0 S,0,218832,219432,0.7,0.28 P,0,218832,219432,A
Sprite,Foreground,Centre,"sb/d.png",0,0 M,4,218832,219432,428,82,429,64 F,0,218832,219432,1,0 S,0,218832,219432,0.7,0.28 P,0,218832,219432,A
Sprite,Foreground,Centre,"sb/d.png",0,0 M,4,218832,219432,428,82,279,138 F,0,218832,219432,1,0 S,0,218832,219432,0.7,0.28 P,0,218832,219432,A
Sprite,Foreground,Centre,"sb/d.png",0,0 M,4,219282,219882,513,317,561,189 F,0,219282,219882,1,0 S,0,219282,219882,0.7,0.28 P,0,219282,219882,A
Sprite,Foreground,Centre,"sb/d.png",0,0 M,4,219282,219882,513,317,583,272 F,0,219282,219882,1,0 S,0,219282,219882,0.7,0.28 P,0,219282,219882,A
Sprite,Foreground,Centre,"sb/d.png",0,0 M,4,219282,219882,513,317,607,311 F,0,219282,219882,1,0 S,0,219282,219882,0.7,0.28 P,0,219282,219882,A
Sprite,Foreground,Centre,"sb/d.png",0,0 M,4,219282,219882,513,317,418,330 F,0,219282,219882,1,0 S,0,219282,219882,0.7,0.28 P,0,219282,219882,A
Sprite,Foreground,Centre,"sb/d.png",0,0 M,4,219282,219882,513,317,428,428 F,0,219282,219882,1,0 S,0,219282,219882,0.7,0.28 P,0,219282,219882,A
Sprite,Foreground,Centre,"sb/d.png",0,0 M,4,219282,219882,513,317,637,192 F,0,219282,219882,1,0 S,0,219282,219882,0.7,0.28 P,0,219282,219882,A
Sprite,Foreground,Centre,"sb/d.png",0,0 M,4,219282,219882,513,317,383,265 F,0,219282,219882,1,0 S,0,219282,219882,0.7,0.28 P,0,219282,219882,A
Sprite,Foreground,Centre,"sb/d.png",0,0 M,4,219582,220182,374,378,394,290 F,0,219582,220182,1,0 S,0,219582,220182,0.7,0.28 P,0,219582,220182,A
Sprite,Foreground,Centre,"sb/d.png",0,0 M,4,219582,220182,374,378,306,233 F,0,219582,220182,1,0 S,0,219582,220182,0.7,0.28 P,0,219582,220182,A
Sprite,Foreground,Centre,"sb/d.png",0,0 M,4,219582,220182,374,378,328,483 F,0,219582,220182,1,0 S,0,219582,220182,0.7,0.28 P,0,219582,220182,A
Sprite,Foreground,Centre,"sb/d.png",0,0 M,4,219582,220182,374,378,331,291 F,0,219582,220182,1,0 S,0,219582,220182,0.7,0.28 P,0,219582,220182,A
Sprite,Foreground,Centre,"sb/d.png",0,0 M,4,219582,220182,374,378,484,345 F,0,219582,220182,1,0 S,0,219582,220182,0.7,0.28 P,0,219582,220182,A
Sprite,Foreground,Centre,"sb/d.png",0,0 M,4,219582,220182,374,378,338,380 F,0,219582,220182,1,0 S,0,219582,220182,0.7,0.28 P,0,219582,220182,A
Sprite,Foreground,Centre,"sb/d.png",0,0 M,4,219582,220182,374,378,398,527 F,0,219582,220182,1,0 S,0,219582,220182,0.7,0.28 P,0,219582,220182,A
Sprite,Foreground,Centre,"sb/d.png",0,0 M,4,219882,220482,322,266,203,233 F,0,219882,220482,1,0 S,0,219882,220482,0.7,0.28 P,0,219882,220482,A
Sprite,Foreground,Centre,"sb/d.png",0,0 M,4,219882,220482,322,266,254,344 F,0,219882,220482,1,0 S,0,219882,220482,0.7,0.28 P,0,219882,220482,A
Sprite,Foreground,Centre,"sb/d.png",0,0 M,4,219882,220482,322,266,442,297 F,0,219882,220482,1,0 S,0,219882,220482,0.7,0.28 P,0,219882,220482,A
Sprite,Foreground,Centre,"sb/d.png",0,0 M,4,219882,220482,322,266,366,368 F,0,219882,220482,1,0 S,0,219882,220482,0.7,0.28 P,0,219882,220482,A
Sprite,Foreground,Centre,"sb/d.png",0,0 M,4,219882,220482,322,266,195,155 F,0,219882,220482,1,0 S,0,219882,220482,0.7,0.28 P,0,219882,220482,A
Sprite,Foreground,Centre,"sb/d.png",0,0 M,4,219882,220482,322,266,245,130 F,0,219882,220482,1,0 S,0,219882,220482,0.7,0.28 P,0,219882,220482,A
Sprite,Foreground,Centre,"sb/d.png",0,0 M,4,219882,220482,322,266,468,228 F,0,219882,220482,1,0 S,0,219882,220482,0.7,0.28 P,0,219882,220482,A
Sprite,Foreground,Centre,"sb/d.png",0,0 M,4,220032,220632,274,412,362,553 F,0,220032,220632,1,0 S,0,220032,220632,0.7,0.28 P,0,220032,220632,A
Sprite,Foreground,Centre,"sb/d.png",0,0 M,4,220032,220632,274,412,373,456 F,0,220032,220632,1,0 S,0,220032,220632,0.7,0.28 P,0,220032,220632,A
Sprite,Foreground,Centre,"sb/d.png",0,0 M,4,220032,220632,274,412,413,541 F,0,220032,220632,1,0 S,0,220032,220632,0.7,0.28 P,0,220032,220632,A
Sprite,Foreground,Centre,"sb/d.png",0,0 M,4,220032,220632,274,412,179,297 F,0,220032,220632,1,0 S,0,220032,220632,0.7,0.28 P,0,220032,220632,A
Sprite,Foreground,Centre,"sb/d.png",0,0 M,4,220032,220632,274,412,213,408 F,0,220032,220632,1,0 S,0,220032,220632,0.7,0.28 P,0,220032,220632,A
Sprite,Foreground,Centre,"sb/d.png",0,0 M,4,220032,220632,274,412,152,308 F,0,220032,220632,1,0 S,0,220032,220632,0.7,0.28 P,0,220032,220632,A
Sprite,Foreground,Centre,"sb/d.png",0,0 M,4,220032,220632,274,412,223,397 F,0,220032,220632,1,0 S,0,220032,220632,0.7,0.28 P,0,220032,220632,A
Sprite,Foreground,Centre,"sb/d.png",0,0 M,4,220107,220707,275,412,186,364 F,0,220107,220707,1,0 S,0,220107,220707,0.7,0.28 P,0,220107,220707,A
Sprite,Foreground,Centre,"sb/d.png",0,0 M,4,220107,220707,275,412,416,353 F,0,220107,220707,1,0 S,0,220107,220707,0.7,0.28 P,0,220107,220707,A
Sprite,Foreground,Centre,"sb/d.png",0,0 M,4,220107,220707,275,412,395,317 F,0,220107,220707,1,0 S,0,220107,220707,0.7,0.28 P,0,220107,220707,A
Sprite,Foreground,Centre,"sb/d.png",0,0 M,4,220107,220707,275,412,257,510 F,0,220107,220707,1,0 S,0,220107,220707,0.7,0.28 P,0,220107,220707,A
Sprite,Foreground,Centre,"sb/d.png",0,0 M,4,220107,220707,275,412,303,307 F,0,220107,220707,1,0 S,0,220107,220707,0.7,0.28 P,0,220107,220707,A
Sprite,Foreground,Centre,"sb/d.png",0,0 M,4,220107,220707,275,412,179,401 F,0,220107,220707,1,0 S,0,220107,220707,0.7,0.28 P,0,220107,220707,A
Sprite,Foreground,Centre,"sb/d.png",0,0 M,4,220107,220707,275,412,329,480 F,0,220107,220707,1,0 S,0,220107,220707,0.7,0.28 P,0,220107,220707,A
Sprite,Foreground,Centre,"sb/d.png",0,0 M,4,220182,220782,274,412,162,305 F,0,220182,220782,1,0 S,0,220182,220782,0.7,0.28 P,0,220182,220782,A
Sprite,Foreground,Centre,"sb/d.png",0,0 M,4,220182,220782,274,412,356,351 F,0,220182,220782,1,0 S,0,220182,220782,0.7,0.28 P,0,220182,220782,A
Sprite,Foreground,Centre,"sb/d.png",0,0 M,4,220182,220782,274,412,383,556 F,0,220182,220782,1,0 S,0,220182,220782,0.7,0.28 P,0,220182,220782,A
Sprite,Foreground,Centre,"sb/d.png",0,0 M,4,220182,220782,274,412,248,531 F,0,220182,220782,1,0 S,0,220182,220782,0.7,0.28 P,0,220182,220782,A
Sprite,Foreground,Centre,"sb/d.png",0,0 M,4,220182,220782,274,412,292,481 F,0,220182,220782,1,0 S,0,220182,220782,0.7,0.28 P,0,220182,220782,A
Sprite,Foreground,Centre,"sb/d.png",0,0 M,4,220182,220782,274,412,287,457 F,0,220182,220782,1,0 S,0,220182,220782,0.7,0.28 P,0,220182,220782,A
Sprite,Foreground,Centre,"sb/d.png",0,0 M,4,220182,220782,274,412,368,557 F,0,220182,220782,1,0 S,0,220182,220782,0.7,0.28 P,0,220182,220782,A
Sprite,Foreground,Centre,"sb/d.png",0,0 M,4,220332,220932,212,328,89,414 F,0,220332,220932,1,0 S,0,220332,220932,0.7,0.28 P,0,220332,220932,A
Sprite,Foreground,Centre,"sb/d.png",0,0 M,4,220332,220932,212,328,262,402 F,0,220332,220932,1,0 S,0,220332,220932,0.7,0.28 P,0,220332,220932,A
Sprite,Foreground,Centre,"sb/d.png",0,0 M,4,220332,220932,212,328,143,236 F,0,220332,220932,1,0 S,0,220332,220932,0.7,0.28 P,0,220332,220932,A
Sprite,Foreground,Centre,"sb/d.png",0,0 M,4,220332,220932,212,328,252,399 F,0,220332,220932,1,0 S,0,220332,220932,0.7,0.28 P,0,220332,220932,A
Sprite,Foreground,Centre,"sb/d.png",0,0 M,4,220332,220932,212,328,109,459 F,0,220332,220932,1,0 S,0,220332,220932,0.7,0.28 P,0,220332,220932,A
Sprite,Foreground,Centre,"sb/d.png",0,0 M,4,220332,220932,212,328,106,418 F,0,220332,220932,1,0 S,0,220332,220932,0.7,0.28 P,0,220332,220932,A
Sprite,Foreground,Centre,"sb/d.png",0,0 M,4,220332,220932,212,328,342,468 F,0,220332,220932,1,0 S,0,220332,220932,0.7,0.28 P,0,220332,220932,A
Sprite,Foreground,Centre,"sb/d.png",0,0 M,4,220482,221082,374,378,337,431 F,0,220482,221082,1,0 S,0,220482,221082,0.7,0.28 P,0,220482,221082,A
Sprite,Foreground,Centre,"sb/d.png",0,0 M,4,220482,221082,374,378,363,377 F,0,220482,221082,1,0 S,0,220482,221082,0.7,0.28 P,0,220482,221082,A
Sprite,Foreground,Centre,"sb/d.png",0,0 M,4,220482,221082,374,378,298,365 F,0,220482,221082,1,0 S,0,220482,221082,0.7,0.28 P,0,220482,221082,A
Sprite,Foreground,Centre,"sb/d.png",0,0 M,4,220482,221082,374,378,521,274 F,0,220482,221082,1,0 S,0,220482,221082,0.7,0.28 P,0,220482,221082,A
Sprite,Foreground,Centre,"sb/d.png",0,0 M,4,220482,221082,374,378,437,467 F,0,220482,221082,1,0 S,0,220482,221082,0.7,0.28 P,0,220482,221082,A
Sprite,Foreground,Centre,"sb/d.png",0,0 M,4,220482,221082,374,378,311,332 F,0,220482,221082,1,0 S,0,220482,221082,0.7,0.28 P,0,220482,221082,A
Sprite,Foreground,Centre,"sb/d.png",0,0 M,4,220482,221082,374,378,234,320 F,0,220482,221082,1,0 S,0,220482,221082,0.7,0.28 P,0,220482,221082,A
Sprite,Foreground,Centre,"sb/d.png",0,0 M,4,220782,221382,533,269,616,190 F,0,220782,221382,1,0 S,0,220782,221382,0.7,0.28 P,0,220782,221382,A
Sprite,Foreground,Centre,"sb/d.png",0,0 M,4,220782,221382,533,269,611,194 F,0,220782,221382,1,0 S,0,220782,221382,0.7,0.28 P,0,220782,221382,A
Sprite,Foreground,Centre,"sb/d.png",0,0 M,4,220782,221382,533,269,494,255 F,0,220782,221382,1,0 S,0,220782,221382,0.7,0.28 P,0,220782,221382,A
Sprite,Foreground,Centre,"sb/d.png",0,0 M,4,220782,221382,533,269,604,360 F,0,220782,221382,1,0 S,0,220782,221382,0.7,0.28 P,0,220782,221382,A
Sprite,Foreground,Centre,"sb/d.png",0,0 M,4,220782,221382,533,269,528,249 F,0,220782,221382,1,0 S,0,220782,221382,0.7,0.28 P,0,220782,221382,A
Sprite,Foreground,Centre,"sb/d.png",0,0 M,4,220782,221382,533,269,440,264 F,0,220782,221382,1,0 S,0,220782,221382,0.7,0.28 P,0,220782,221382,A
Sprite,Foreground,Centre,"sb/d.png",0,0 M,4,220782,221382,533,269,410,236 F,0,220782,221382,1,0 S,0,220782,221382,0.7,0.28 P,0,220782,221382,A
Sprite,Foreground,Centre,"sb/d.png",0,0 M,4,221232,221832,400,290,546,391 F,0,221232,221832,1,0 S,0,221232,221832,0.7,0.28 P,0,221232,221832,A
Sprite,Foreground,Centre,"sb/d.png",0,0 M,4,221232,221832,400,290,294,158 F,0,221232,221832,1,0 S,0,221232,221832,0.7,0.28 P,0,221232,221832,A
Sprite,Foreground,Centre,"sb/d.png",0,0 M,4,221232,221832,400,290,264,273 F,0,221232,221832,1,0 S,0,221232,221832,0.7,0.28 P,0,221232,221832,A
Sprite,Foreground,Centre,"sb/d.png",0,0 M,4,221232,221832,400,290,405,405 F,0,221232,221832,1,0 S,0,221232,221832,0.7,0.28 P,0,221232,221832,A
Sprite,Foreground,Centre,"sb/d.png",0,0 M,4,221232,221832,400,290,330,153 F,0,221232,221832,1,0 S,0,221232,221832,0.7,0.28 P,0,221232,221832,A
Sprite,Foreground,Centre,"sb/d.png",0,0 M,4,221232,221832,400,290,370,246 F,0,221232,221832,1,0 S,0,221232,221832,0.7,0.28 P,0,221232,221832,A
Sprite,Foreground,Centre,"sb/d.png",0,0 M,4,221232,221832,400,290,548,420 F,0,221232,221832,1,0 S,0,221232,221832,0.7,0.28 P,0,221232,221832,A
Sprite,Foreground,Centre,"sb/d.png",0,0 M,4,221682,222282,526,124,398,235 F,0,221682,222282,1,0 S,0,221682,222282,0.7,0.28 P,0,221682,222282,A
Sprite,Foreground,Centre,"sb/d.png",0,0 M,4,221682,222282,526,124,513,251 F,0,221682,222282,1,0 S,0,221682,222282,0.7,0.28 P,0,221682,222282,A
Sprite,Foreground,Centre,"sb/d.png",0,0 M,4,221682,222282,526,124,423,71 F,0,221682,222282,1,0 S,0,221682,222282,0.7,0.28 P,0,221682,222282,A
Sprite,Foreground,Centre,"sb/d.png",0,0 M,4,221682,222282,526,124,663,249 F,0,221682,222282,1,0 S,0,221682,222282,0.7,0.28 P,0,221682,222282,A
Sprite,Foreground,Centre,"sb/d.png",0,0 M,4,221682,222282,526,124,428,243 F,0,221682,222282,1,0 S,0,221682,222282,0.7,0.28 P,0,221682,222282,A
Sprite,Foreground,Centre,"sb/d.png",0,0 M,4,221682,222282,526,124,505,118 F,0,221682,222282,1,0 S,0,221682,222282,0.7,0.28 P,0,221682,222282,A
Sprite,Foreground,Centre,"sb/d.png",0,0 M,4,221682,222282,526,124,444,145 F,0,221682,222282,1,0 S,0,221682,222282,0.7,0.28 P,0,221682,222282,A
Sprite,Foreground,Centre,"sb/d.png",0,0 M,4,221982,222582,415,307,323,165 F,0,221982,222582,1,0 S,0,221982,222582,0.7,0.28 P,0,221982,222582,A
Sprite,Foreground,Centre,"sb/d.png",0,0 M,4,221982,222582,415,307,356,386 F,0,221982,222582,1,0 S,0,221982,222582,0.7,0.28 P,0,221982,222582,A
Sprite,Foreground,Centre,"sb/d.png",0,0 M,4,221982,222582,415,307,374,337 F,0,221982,222582,1,0 S,0,221982,222582,0.7,0.28 P,0,221982,222582,A
Sprite,Foreground,Centre,"sb/d.png",0,0 M,4,221982,222582,415,307,315,419 F,0,221982,222582,1,0 S,0,221982,222582,0.7,0.28 P,0,221982,222582,A
Sprite,Foreground,Centre,"sb/d.png",0,0 M,4,221982,222582,415,307,459,225 F,0,221982,222582,1,0 S,0,221982,222582,0.7,0.28 P,0,221982,222582,A
Sprite,Foreground,Centre,"sb/d.png",0,0 M,4,221982,222582,415,307,355,334 F,0,221982,222582,1,0 S,0,221982,222582,0.7,0.28 P,0,221982,222582,A
Sprite,Foreground,Centre,"sb/d.png",0,0 M,4,221982,222582,415,307,501,425 F,0,221982,222582,1,0 S,0,221982,222582,0.7,0.28 P,0,221982,222582,A
Sprite,Foreground,Centre,"sb/d.png",0,0 M,4,222282,222882,319,169,460,233 F,0,222282,222882,1,0 S,0,222282,222882,0.7,0.28 P,0,222282,222882,A
Sprite,Foreground,Centre,"sb/d.png",0,0 M,4,222282,222882,319,169,423,23 F,0,222282,222882,1,0 S,0,222282,222882,0.7,0.28 P,0,222282,222882,A
Sprite,Foreground,Centre,"sb/d.png",0,0 M,4,222282,222882,319,169,307,259 F,0,222282,222882,1,0 S,0,222282,222882,0.7,0.28 P,0,222282,222882,A
Sprite,Foreground,Centre,"sb/d.png",0,0 M,4,222282,222882,319,169,388,203 F,0,222282,222882,1,0 S,0,222282,222882,0.7,0.28 P,0,222282,222882,A
Sprite,Foreground,Centre,"sb/d.png",0,0 M,4,222282,222882,319,169,462,99 F,0,222282,222882,1,0 S,0,222282,222882,0.7,0.28 P,0,222282,222882,A
Sprite,Foreground,Centre,"sb/d.png",0,0 M,4,222282,222882,319,169,266,248 F,0,222282,222882,1,0 S,0,222282,222882,0.7,0.28 P,0,222282,222882,A
Sprite,Foreground,Centre,"sb/d.png",0,0 M,4,222282,222882,319,169,299,39 F,0,222282,222882,1,0 S,0,222282,222882,0.7,0.28 P,0,222282,222882,A
Sprite,Foreground,Centre,"sb/d.png",0,0 M,4,222507,223107,226,190,274,115 F,0,222507,223107,1,0 S,0,222507,223107,0.7,0.28 P,0,222507,223107,A
Sprite,Foreground,Centre,"sb/d.png",0,0 M,4,222507,223107,226,190,264,209 F,0,222507,223107,1,0 S,0,222507,223107,0.7,0.28 P,0,222507,223107,A
Sprite,Foreground,Centre,"sb/d.png",0,0 M,4,222507,223107,226,190,141,324 F,0,222507,223107,1,0 S,0,222507,223107,0.7,0.28 P,0,222507,223107,A
Sprite,Foreground,Centre,"sb/d.png",0,0 M,4,222507,223107,226,190,282,111 F,0,222507,223107,1,0 S,0,222507,223107,0.7,0.28 P,0,222507,223107,A
Sprite,Foreground,Centre,"sb/d.png",0,0 M,4,222507,223107,226,190,297,230 F,0,222507,223107,1,0 S,0,222507,223107,0.7,0.28 P,0,222507,223107,A
Sprite,Foreground,Centre,"sb/d.png",0,0 M,4,222507,223107,226,190,373,158 F,0,222507,223107,1,0 S,0,222507,223107,0.7,0.28 P,0,222507,223107,A
Sprite,Foreground,Centre,"sb/d.png",0,0 M,4,222507,223107,226,190,306,100 F,0,222507,223107,1,0 S,0,222507,223107,0.7,0.28 P,0,222507,223107,A
Sprite,Foreground,Centre,"sb/d.png",0,0 M,4,222582,223182,226,190,142,108 F,0,222582,223182,1,0 S,0,222582,223182,0.7,0.28 P,0,222582,223182,A
Sprite,Foreground,Centre,"sb/d.png",0,0 M,4,222582,223182,226,190,263,210 F,0,222582,223182,1,0 S,0,222582,223182,0.7,0.28 P,0,222582,223182,A
Sprite,Foreground,Centre,"sb/d.png",0,0 M,4,222582,223182,226,190,237,58 F,0,222582,223182,1,0 S,0,222582,223182,0.7,0.28 P,0,222582,223182,A
Sprite,Foreground,Centre,"sb/d.png",0,0 M,4,222582,223182,226,190,360,177 F,0,222582,223182,1,0 S,0,222582,223182,0.7,0.28 P,0,222582,223182,A
Sprite,Foreground,Centre,"sb/d.png",0,0 M,4,222582,223182,226,190,90,164 F,0,222582,223182,1,0 S,0,222582,223182,0.7,0.28 P,0,222582,223182,A
Sprite,Foreground,Centre,"sb/d.png",0,0 M,4,222582,223182,226,190,82,167 F,0,222582,223182,1,0 S,0,222582,223182,0.7,0.28 P,0,222582,223182,A
Sprite,Foreground,Centre,"sb/d.png",0,0 M,4,222582,223182,226,190,328,214 F,0,222582,223182,1,0 S,0,222582,223182,0.7,0.28 P,0,222582,223182,A
Sprite,Foreground,Centre,"sb/d.png",0,0 M,4,222732,223332,332,69,197,-70 F,0,222732,223332,1,0 S,0,222732,223332,0.7,0.28 P,0,222732,223332,A
Sprite,Foreground,Centre,"sb/d.png",0,0 M,4,222732,223332,332,69,314,98 F,0,222732,223332,1,0 S,0,222732,223332,0.7,0.28 P,0,222732,223332,A
Sprite,Foreground,Centre,"sb/d.png",0,0 M,4,222732,223332,332,69,231,-51 F,0,222732,223332,1,0 S,0,222732,223332,0.7,0.28 P,0,222732,223332,A
Sprite,Foreground,Centre,"sb/d.png",0,0 M,4,222732,223332,332,69,245,38 F,0,222732,223332,1,0 S,0,222732,223332,0.7,0.28 P,0,222732,223332,A
Sprite,Foreground,Centre,"sb/d.png",0,0 M,4,222732,223332,332,69,361,139 F,0,222732,223332,1,0 S,0,222732,223332,0.7,0.28 P,0,222732,223332,A
Sprite,Foreground,Centre,"sb/d.png",0,0 M,4,222732,223332,332,69,293,171 F,0,222732,223332,1,0 S,0,222732,223332,0.7,0.28 P,0,222732,223332,A
Sprite,Foreground,Centre,"sb/d.png",0,0 M,4,222732,223332,332,69,244,139 F,0,222732,223332,1,0 S,0,222732,223332,0.7,0.28 P,0,222732,223332,A
Sprite,Foreground,Centre,"sb/d.png",0,0 M,4,222882,223482,420,236,563,150 F,0,222882,223482,1,0 S,0,222882,223482,0.7,0.28 P,0,222882,223482,A
Sprite,Foreground,Centre,"sb/d.png",0,0 M,4,222882,223482,420,236,277,105 F,0,222882,223482,1,0 S,0,222882,223482,0.7,0.28 P,0,222882,223482,A
Sprite,Foreground,Centre,"sb/d.png",0,0 M,4,222882,223482,420,236,279,244 F,0,222882,223482,1,0 S,0,222882,223482,0.7,0.28 P,0,222882,223482,A
Sprite,Foreground,Centre,"sb/d.png",0,0 M,4,222882,223482,420,236,387,311 F,0,222882,223482,1,0 S,0,222882,223482,0.7,0.28 P,0,222882,223482,A
Sprite,Foreground,Centre,"sb/d.png",0,0 M,4,222882,223482,420,236,462,312 F,0,222882,223482,1,0 S,0,222882,223482,0.7,0.28 P,0,222882,223482,A
Sprite,Foreground,Centre,"sb/d.png",0,0 M,4,222882,223482,420,236,338,198 F,0,222882,223482,1,0 S,0,222882,223482,0.7,0.28 P,0,222882,223482,A
Sprite,Foreground,Centre,"sb/d.png",0,0 M,4,222882,223482,420,236,305,147 F,0,222882,223482,1,0 S,0,222882,223482,0.7,0.28 P,0,222882,223482,A
Sprite,Foreground,Centre,"sb/d.png",0,0 M,4,223182,223782,502,82,412,-4 F,0,223182,223782,1,0 S,0,223182,223782,0.7,0.28 P,0,223182,223782,A
Sprite,Foreground,Centre,"sb/d.png",0,0 M,4,223182,223782,502,82,515,169 F,0,223182,223782,1,0 S,0,223182,223782,0.7,0.28 P,0,223182,223782,A
Sprite,Foreground,Centre,"sb/d.png",0,0 M,4,223182,223782,502,82,384,-36 F,0,223182,223782,1,0 S,0,223182,223782,0.7,0.28 P,0,223182,223782,A
Sprite,Foreground,Centre,"sb/d.png",0,0 M,4,223182,223782,502,82,408,141 F,0,223182,223782,1,0 S,0,223182,223782,0.7,0.28 P,0,223182,223782,A
Sprite,Foreground,Centre,"sb/d.png",0,0 M,4,223182,223782,502,82,410,50 F,0,223182,223782,1,0 S,0,223182,223782,0.7,0.28 P,0,223182,223782,A
Sprite,Foreground,Centre,"sb/d.png",0,0 M,4,223182,223782,502,82,420,132 F,0,223182,223782,1,0 S,0,223182,223782,0.7,0.28 P,0,223182,223782,A
Sprite,Foreground,Centre,"sb/d.png",0,0 M,4,223182,223782,502,82,649,178 F,0,223182,223782,1,0 S,0,223182,223782,0.7,0.28 P,0,223182,223782,A
Sprite,Foreground,Centre,"sb/d.png",0,0 M,4,223332,223932,502,82,540,199 F,0,223332,223932,1,0 S,0,223332,223932,0.7,0.28 P,0,223332,223932,A
Sprite,Foreground,Centre,"sb/d.png",0,0 M,4,223332,223932,502,82,411,140 F,0,223332,223932,1,0 S,0,223332,223932,0.7,0.28 P,0,223332,223932,A
Sprite,Foreground,Centre,"sb/d.png",0,0 M,4,223332,223932,502,82,607,-4 F,0,223332,223932,1,0 S,0,223332,223932,0.7,0.28 P,0,223332,223932,A
Sprite,Foreground,Centre,"sb/d.png",0,0 M,4,223332,223932,502,82,496,182 F,0,223332,223932,1,0 S,0,223332,223932,0.7,0.28 P,0,223332,223932,A
Sprite,Foreground,Centre,"sb/d.png",0,0 M,4,223332,223932,502,82,469,218 F,0,223332,223932,1,0 S,0,223332,223932,0.7,0.28 P,0,223332,223932,A
Sprite,Foreground,Centre,"sb/d.png",0,0 M,4,223332,223932,502,82,469,25 F,0,223332,223932,1,0 S,0,223332,223932,0.7,0.28 P,0,223332,223932,A
Sprite,Foreground,Centre,"sb/d.png",0,0 M,4,223332,223932,502,82,408,21 F,0,223332,223932,1,0 S,0,223332,223932,0.7,0.28 P,0,223332,223932,A
Sprite,Foreground,Centre,"sb/d.png",0,0 M,4,223632,224232,492,315,461,371 F,0,223632,224232,1,0 S,0,223632,224232,0.7,0.28 P,0,223632,224232,A
Sprite,Foreground,Centre,"sb/d.png",0,0 M,4,223632,224232,492,315,452,402 F,0,223632,224232,1,0 S,0,223632,224232,0.7,0.28 P,0,223632,224232,A
Sprite,Foreground,Centre,"sb/d.png",0,0 M,4,223632,224232,492,315,636,167 F,0,223632,224232,1,0 S,0,223632,224232,0.7,0.28 P,0,223632,224232,A
Sprite,Foreground,Centre,"sb/d.png",0,0 M,4,223632,224232,492,315,401,280 F,0,223632,224232,1,0 S,0,223632,224232,0.7,0.28 P,0,223632,224232,A
Sprite,Foreground,Centre,"sb/d.png",0,0 M,4,223632,224232,492,315,398,339 F,0,223632,224232,1,0 S,0,223632,224232,0.7,0.28 P,0,223632,224232,A
Sprite,Foreground,Centre,"sb/d.png",0,0 M,4,223632,224232,492,315,561,195 F,0,223632,224232,1,0 S,0,223632,224232,0.7,0.28 P,0,223632,224232,A
Sprite,Foreground,Centre,"sb/d.png",0,0 M,4,223632,224232,492,315,505,248 F,0,223632,224232,1,0 S,0,223632,224232,0.7,0.28 P,0,223632,224232,A
Sprite,Foreground,Centre,"sb/d.png",0,0 M,4,223782,224382,492,315,348,353 F,0,223782,224382,1,0 S,0,223782,224382,0.7,0.28 P,0,223782,224382,A
Sprite,Foreground,Centre,"sb/d.png",0,0 M,4,223782,224382,492,315,593,274 F,0,223782,224382,1,0 S,0,223782,224382,0.7,0.28 P,0,223782,224382,A
Sprite,Foreground,Centre,"sb/d.png",0,0 M,4,223782,224382,492,315,503,335 F,0,223782,224382,1,0 S,0,223782,224382,0.7,0.28 P,0,223782,224382,A
Sprite,Foreground,Centre,"sb/d.png",0,0 M,4,223782,224382,492,315,379,390 F,0,223782,224382,1,0 S,0,223782,224382,0.7,0.28 P,0,223782,224382,A
Sprite,Foreground,Centre,"sb/d.png",0,0 M,4,223782,224382,492,315,509,324 F,0,223782,224382,1,0 S,0,223782,224382,0.7,0.28 P,0,223782,224382,A
Sprite,Foreground,Centre,"sb/d.png",0,0 M,4,223782,224382,492,315,498,436 F,0,223782,224382,1,0 S,0,223782,224382,0.7,0.28 P,0,223782,224382,A
Sprite,Foreground,Centre,"sb/d.png",0,0 M,4,223782,224382,492,315,558,275 F,0,223782,224382,1,0 S,0,223782,224382,0.7,0.28 P,0,223782,224382,A
Sprite,Foreground,Centre,"sb/d.png",0,0 M,4,224082,224682,319,169,415,196 F,0,224082,224682,1,0 S,0,224082,224682,0.7,0.28 P,0,224082,224682,A
Sprite,Foreground,Centre,"sb/d.png",0,0 M,4,224082,224682,319,169,288,257 F,0,224082,224682,1,0 S,0,224082,224682,0.7,0.28 P,0,224082,224682,A
Sprite,Foreground,Centre,"sb/d.png",0,0 M,4,224082,224682,319,169,444,285 F,0,224082,224682,1,0 S,0,224082,224682,0.7,0.28 P,0,224082,224682,A
Sprite,Foreground,Centre,"sb/d.png",0,0 M,4,224082,224682,319,169,259,171 F,0,224082,224682,1,0 S,0,224082,224682,0.7,0.28 P,0,224082,224682,A
Sprite,Foreground,Centre,"sb/d.png",0,0 M,4,224082,224682,319,169,176,149 F,0,224082,224682,1,0 S,0,224082,224682,0.7,0.28 P,0,224082,224682,A
Sprite,Foreground,Centre,"sb/d.png",0,0 M,4,224082,224682,319,169,375,313 F,0,224082,224682,1,0 S,0,224082,224682,0.7,0.28 P,0,224082,224682,A
Sprite,Foreground,Centre,"sb/d.png",0,0 M,4,224082,224682,319,169,356,91 F,0,224082,224682,1,0 S,0,224082,224682,0.7,0.28 P,0,224082,224682,A
Sprite,Foreground,Centre,"sb/d.png",0,0 M,4,224232,224832,319,169,379,204 F,0,224232,224832,1,0 S,0,224232,224832,0.7,0.28 P,0,224232,224832,A
Sprite,Foreground,Centre,"sb/d.png",0,0 M,4,224232,224832,319,169,458,244 F,0,224232,224832,1,0 S,0,224232,224832,0.7,0.28 P,0,224232,224832,A
Sprite,Foreground,Centre,"sb/d.png",0,0 M,4,224232,224832,319,169,369,80 F,0,224232,224832,1,0 S,0,224232,224832,0.7,0.28 P,0,224232,224832,A
Sprite,Foreground,Centre,"sb/d.png",0,0 M,4,224232,224832,319,169,413,248 F,0,224232,224832,1,0 S,0,224232,224832,0.7,0.28 P,0,224232,224832,A
Sprite,Foreground,Centre,"sb/d.png",0,0 M,4,224232,224832,319,169,203,27 F,0,224232,224832,1,0 S,0,224232,224832,0.7,0.28 P,0,224232,224832,A
Sprite,Foreground,Centre,"sb/d.png",0,0 M,4,224232,224832,319,169,401,205 F,0,224232,224832,1,0 S,0,224232,224832,0.7,0.28 P,0,224232,224832,A
Sprite,Foreground,Centre,"sb/d.png",0,0 M,4,224232,224832,319,169,221,212 F,0,224232,224832,1,0 S,0,224232,224832,0.7,0.28 P,0,224232,224832,A
Sprite,Foreground,Centre,"sb/d.png",0,0 M,4,224532,225132,502,82,390,182 F,0,224532,225132,1,0 S,0,224532,225132,0.7,0.28 P,0,224532,225132,A
Sprite,Foreground,Centre,"sb/d.png",0,0 M,4,224532,225132,502,82,433,-46 F,0,224532,225132,1,0 S,0,224532,225132,0.7,0.28 P,0,224532,225132,A
Sprite,Foreground,Centre,"sb/d.png",0,0 M,4,224532,225132,502,82,437,181 F,0,224532,225132,1,0 S,0,224532,225132,0.7,0.28 P,0,224532,225132,A
Sprite,Foreground,Centre,"sb/d.png",0,0 M,4,224532,225132,502,82,521,111 F,0,224532,225132,1,0 S,0,224532,225132,0.7,0.28 P,0,224532,225132,A
Sprite,Foreground,Centre,"sb/d.png",0,0 M,4,224532,225132,502,82,406,213 F,0,224532,225132,1,0 S,0,224532,225132,0.7,0.28 P,0,224532,225132,A
Sprite,Foreground,Centre,"sb/d.png",0,0 M,4,224532,225132,502,82,406,129 F,0,224532,225132,1,0 S,0,224532,225132,0.7,0.28 P,0,224532,225132,A
Sprite,Foreground,Centre,"sb/d.png",0,0 M,4,224532,225132,502,82,644,86 F,0,224532,225132,1,0 S,0,224532,225132,0.7,0.28 P,0,224532,225132,A
Sprite,Foreground,Centre,"sb/d.png",0,0 M,4,224682,225282,502,82,532,52 F,0,224682,225282,1,0 S,0,224682,225282,0.7,0.28 P,0,224682,225282,A
Sprite,Foreground,Centre,"sb/d.png",0,0 M,4,224682,225282,502,82,554,98 F,0,224682,225282,1,0 S,0,224682,225282,0.7,0.28 P,0,224682,225282,A
Sprite,Foreground,Centre,"sb/d.png",0,0 M,4,224682,225282,502,82,634,196 F,0,224682,225282,1,0 S,0,224682,225282,0.7,0.28 P,0,224682,225282,A
Sprite,Foreground,Centre,"sb/d.png",0,0 M,4,224682,225282,502,82,366,213 F,0,224682,225282,1,0 S,0,224682,225282,0.7,0.28 P,0,224682,225282,A
Sprite,Foreground,Centre,"sb/d.png",0,0 M,4,224682,225282,502,82,522,162 F,0,224682,225282,1,0 S,0,224682,225282,0.7,0.28 P,0,224682,225282,A
Sprite,Foreground,Centre,"sb/d.png",0,0 M,4,224682,225282,502,82,423,87 F,0,224682,225282,1,0 S,0,224682,225282,0.7,0.28 P,0,224682,225282,A
Sprite,Foreground,Centre,"sb/d.png",0,0 M,4,224682,225282,502,82,517,-51 F,0,224682,225282,1,0 S,0,224682,225282,0.7,0.28 P,0,224682,225282,A
Sprite,Foreground,Centre,"sb/d.png",0,0 M,4,224982,225582,347,306,339,266 F,0,224982,225582,1,0 S,0,224982,225582,0.7,0.28 P,0,224982,225582,A
Sprite,Foreground,Centre,"sb/d.png",0,0 M,4,224982,225582,347,306,203,245 F,0,224982,225582,1,0 S,0,224982,225582,0.7,0.28 P,0,224982,225582,A
Sprite,Foreground,Centre,"sb/d.png",0,0 M,4,224982,225582,347,306,411,352 F,0,224982,225582,1,0 S,0,224982,225582,0.7,0.28 P,0,224982,225582,A
Sprite,Foreground,Centre,"sb/d.png",0,0 M,4,224982,225582,347,306,310,213 F,0,224982,225582,1,0 S,0,224982,225582,0.7,0.28 P,0,224982,225582,A
Sprite,Foreground,Centre,"sb/d.png",0,0 M,4,224982,225582,347,306,246,339 F,0,224982,225582,1,0 S,0,224982,225582,0.7,0.28 P,0,224982,225582,A
Sprite,Foreground,Centre,"sb/d.png",0,0 M,4,224982,225582,347,306,406,394 F,0,224982,225582,1,0 S,0,224982,225582,0.7,0.28 P,0,224982,225582,A
Sprite,Foreground,Centre,"sb/d.png",0,0 M,4,224982,225582,347,306,400,187 F,0,224982,225582,1,0 S,0,224982,225582,0.7,0.28 P,0,224982,225582,A
//Storyboard Sound Samples

[TimingPoints]
9582,300,4,2,2,60,1,0
9582,-166.666666666667,4,2,2,60,0,0
20637,319.148936170213,4,2,2,60,1,0
20637,-133.333333333333,4,2,2,60,0,0
20956,315.789473684211,4,2,2,60,1,0
20956,-133.333333333333,4,2,2,60,0,0
21271,310.077519379845,4,2,2,60,1,0
21271,-166.666666666667,4,2,2,60,0,0
21582,300,4,2,2,65,1,0
21582,-133.333333333333,4,2,2,65,0,0
40782,-133.333333333333,4,2,2,55,0,0
44382,-133.333333333333,4,2,2,45,0,0
44982,-133.333333333333,4,2,2,55,0,0
49182,-133.333333333333,4,2,2,45,0,0
49782,-133.333333333333,4,2,2,55,0,0
50382,-133.333333333333,4,2,2,60,0,0
59982,-105.263157894737,4,2,1,85,0,0
76782,-133.333333333333,4,2,1,75,0,0
78582,-133.333333333333,4,2,1,70,0,0
79182,-125,4,2,1,60,0,0
84357,-125,4,2,1,70,0,0
84432,-125,4,2,1,60,0,0
86982,-133.333333333333,4,2,1,60,0,0
88182,-133.333333333333,4,2,1,70,0,0
88482,-133.333333333333,4,2,1,60,0,0
88782,-125,4,2,1,60,0,0
97182,-125,4,2,1,60,0,0
98382,-105.263157894737,4,2,1,75,0,0
112782,-105.263157894737,4,2,1,65,0,0
114882,-105.263157894737,4,2,2,65,0,0
115182,-133.333333333333,4,2,2,65,0,0
117582,-100,4,2,1,75,0,0
124782,-100,4,2,2,65,0,0
127182,-100,4,2,1,75,0,0
131982,-133.333333333333,4,2,1,65,0,0
139182,-153.846153846153,4,2,2,45,0,0
143982,-117.647058823529,4,2,2,45,0,0
148782,-153.846153846153,4,2,2,45,0,0
153582,-117.647058823529,4,2,2,45,0,0
158382,-142.857142857143,4,2,2,45,0,0
167982,-117.647058823529,4,2,2,55,0,0
184782,318.302387267904,4,2,2,35,1,0
184782,-166.666666666667,4,2,2,35,0,0
184942,300,4,2,2,35,1,0
184942,-166.666666666667,4,2,2,35,0,0
187182,300,4,2,1,80,1,1
187182,-100,4,2,1,80,0,1
203982,-117.647058823529,4,2,1,80,0,0
206382,-100,4,2,1,80,0,1
223182,-100,4,2,1,75,0,0
225582,-125,4,2,1,75,0,0
225957,-125,4,2,1,75,0,0
226032,-125,4,2,1,75,0,0
228357,-125,4,2,1,75,0,0
228432,-125,4,2,1,75,0,0
230757,-125,4,2,1,75,0,0
230832,-125,4,2,1,75,0,0
233157,-125,4,2,1,75,0,0
233232,-125,4,2,1,75,0,0
235557,-125,4,2,1,75,0,0
235632,-125,4,2,1,75,0,0
237957,-125,4,2,1,75,0,0
238032,-125,4,2,1,75,0,0
240357,-125,4,2,1,75,0,0
240432,-125,4,2,1,75,0,0
242757,-125,4,2,1,75,0,0
242832,-125,4,2,1,75,0,0
243582,-105.263157894737,4,2,1,75,0,0
244331,-105.263157894737,4,2,1,65,0,0
244782,-90.9090909090909,4,2,1,65,0,0
245007,-90.9090909090909,4,2,1,5,0,0
245082,-90.9090909090909,4,2,1,35,0,0
249582,-90.9090909090909,4,2,1,5,0,0

[Colours]
Combo1 : 223,223,223
Combo2 : 149,255,218
Combo3 : 36,74,255

[HitObjects]
256,192,5982,12,0,9432,0:0:0:0:
62,263,9582,6,0,L|149:247,1,83.9999974365235,6|2,0:2|0:0,0:0:0:0:
261,196,10182,1,2,0:0:0:0:
261,196,10332,2,0,L|245:283,1,83.9999974365235,2|0,0:0|0:0,0:0:0:0:
230,361,10782,1,2,0:0:0:0:
449,188,11232,2,0,L|465:275,1,83.9999974365235,2|0,0:0|0:0,0:0:0:0:
418,337,11682,1,2,0:0:0:0:
418,337,11832,6,0,P|391:350|321:343,1,83.9999974365235,2|2,0:0|0:0,0:0:0:0:
271,299,12282,1,2,0:0:0:0:
49,355,12732,2,0,L|61:263,1,83.9999974365235,2|2,0:0|0:0,0:0:0:0:
19,194,13182,2,0,P|55:194|103:165,1,83.9999974365235,2|0,0:2|0:2,0:0:0:0:
172,102,13632,2,0,P|208:102|256:131,1,83.9999974365235,2|0,0:2|0:2,0:0:0:0:
285,217,14082,1,2,0:0:0:0:
285,217,14232,5,2,0:0:0:0:
370,8,14682,1,2,0:0:0:0:
447,95,14982,1,0,0:0:0:0:
447,95,15132,2,0,P|406:120|360:123,1,83.9999974365235,2|2,0:0|0:0,0:0:0:0:
264,114,15582,2,0,P|241:102|224:85,1,41.9999987182618,2|0,0:0|0:0,0:0:0:0:
30,190,16032,2,0,B|70:196|113:223,1,83.9999974365235,2|0,0:0|0:0,0:0:0:0:
150,307,16482,1,2,0:0:0:0:
224,220,16632,6,0,P|228:197|229:162,1,41.9999987182618,2|2,0:0|0:2,0:0:0:0:
312,194,16932,2,0,P|310:213|306:236,1,41.9999987182618,2|0,0:0|0:0,0:0:0:0:
444,345,17382,1,2,0:0:0:0:
444,345,17532,2,0,P|440:309|454:247,1,83.9999974365235,2|2,0:2|0:0,0:0:0:0:
512,180,17982,2,0,L|420:167,1,83.9999974365235,2|0,0:2|0:2,0:0:0:0:
322,174,18432,2,0,L|230:161,1,83.9999974365235,2|0,0:2|0:2,0:0:0:0:
150,219,18882,1,2,0:0:0:0:
125,91,19032,1,10,0:0:0:0:
416,131,20637,6,0,B|378:141|378:141|340:125,1,78.7500030040742,2|0,0:0|0:0,0:0:0:0:
327,116,20956,2,0,L|338:201,1,78.7500030040742,2|0,0:0|0:0,0:0:0:0:
356,217,21271,2,0,L|349:263,1,41.9999987182618,2|0,0:0|0:0,0:0:0:0:
291,340,21582,6,0,P|280:309|261:286,1,52.5000020027161,6|0,1:2|1:2,0:0:0:0:
117,277,22032,1,2,0:2:0:0:
74,350,22182,1,0,1:2:0:0:
32,165,22482,1,2,0:2:0:0:
74,350,22782,2,0,P|123:360|177:345,1,105.000004005432,2|2,0:2|0:2,0:0:0:0:
262,181,23382,2,0,P|213:171|159:186,1,105.000004005432,2|2,0:2|0:2,0:0:0:0:
221,265,23832,1,0,1:2:0:0:
221,265,23907,1,0,1:2:0:0:
221,265,23982,6,0,L|212:83,1,157.500006008148,2|0,1:2|0:0,0:0:0:0:
209,21,24582,1,0,1:0:0:0:
338,202,24882,1,2,0:2:0:0:
409,20,25182,2,0,P|362:23|306:49,1,105.000004005432,2|2,0:2|0:2,0:0:0:0:
180,180,25782,2,0,P|226:176|283:151,1,105.000004005432,2|2,0:2|0:2,0:0:0:0:
409,20,26382,5,0,1:2:0:0:
409,20,26532,2,0,L|428:137,1,105.000004005432,0|0,1:2|0:0,0:0:0:0:
446,224,26982,1,0,1:2:0:0:
409,20,27282,1,0,0:0:0:0:
279,153,27582,2,0,P|217:157|163:143,1,105.000004005432,2|2,0:2|0:2,0:0:0:0:
0,63,28182,2,0,P|61:58|115:72,1,105.000004005432,2|2,0:2|0:2,0:0:0:0:
179,131,28632,1,0,1:2:0:0:
179,131,28707,1,0,1:2:0:0:
178,131,28782,6,0,L|165:308,1,157.500006008148,2|2,1:2|0:2,0:0:0:0:
165,370,29382,1,8,1:2:0:0:
299,213,29682,2,0,P|389:207|459:239,1,157.500006008148,2|0,0:2|0:0,0:0:0:0:
511,285,30282,2,0,P|498:227|507:173,2,105.000004005432,2|2|2,0:2|0:2|0:2,0:0:0:0:
361,375,31182,5,2,1:2:0:0:
361,375,31332,2,0,P|317:334|266:315,1,105.000004005432,0|0,1:2|0:0,0:0:0:0:
171,324,31782,1,2,1:2:0:0:
207,130,32082,6,0,L|193:11,1,105.000004005432,2|2,0:2|0:2,0:0:0:0:
293,212,32682,2,0,L|307:93,1,105.000004005432,2|2,0:2|0:2,0:0:0:0:
380,299,33282,1,2,0:2:0:0:
446,222,33432,1,0,1:2:0:0:
446,222,33507,1,0,1:2:0:0:
446,222,33582,2,0,L|427:62,1,157.500006008148,2|2,1:2|0:2,0:0:0:0:
336,106,34182,2,0,L|342:1,2,105.000004005432,0|2|2,1:2|0:2|0:2,0:0:0:0:
233,277,35082,2,0,L|239:381,2,105.000004005432,2|2|2,0:2|0:2|0:2,0:0:0:0:
155,104,35982,5,0,1:2:0:0:
155,104,36132,2,0,L|148:208,1,105.000004005432,0|0,1:2|1:0,0:0:0:0:
144,303,36582,1,0,1:2:0:0:
284,176,36882,2,0,P|340:171|399:184,1,105.000004005432,2|0,0:2|0:0,0:0:0:0:
221,271,37482,2,0,P|188:225|170:167,1,105.000004005432,2|2,0:2|0:2,0:0:0:0:
334,278,38082,1,2,0:2:0:0:
278,365,38232,1,0,1:2:0:0:
278,365,38307,1,0,1:2:0:0:
278,365,38382,6,0,P|223:378|163:375,1,105.000004005432,2|0,1:2|0:0,0:0:0:0:
92,330,38832,1,2,0:2:0:0:
92,330,38982,2,0,P|76:300|71:271,1,52.5000020027161,0|0,1:2|0:0,0:0:0:0:
9,210,39282,2,0,P|22:164|23:97,1,105.000004005432,2|0,0:2|0:0,0:0:0:0:
199,37,39882,2,0,P|200:89|214:139,2,105.000004005432,2|2|2,0:2|0:2|0:2,0:0:0:0:
372,112,40782,6,0,P|373:163|362:220,1,105.000004005432,14|0,0:2|0:0,0:0:0:0:
320,301,41232,1,0,0:0:0:0:
320,301,41382,2,0,L|324:328,2,26.2500010013581,2|0|0,1:2|1:0|1:0,0:0:0:0:
246,241,41682,2,0,P|216:235|176:236,1,52.5000020027161
107,277,41982,6,0,L|95:207,1,52.5000020027161,2|2,0:2|0:0,0:0:0:0:
21,144,42282,2,0,L|12:195,1,52.5000020027161,2|0,0:2|0:0,0:0:0:0:
83,90,42582,2,0,L|78:64,2,26.2500010013581,2|0|0,1:2|1:0|1:0,0:0:0:0:
172,141,42882,2,0,P|187:139|217:133,3,26.2500010013581,2|0|0|0,0:2|0:0|0:0|0:0,0:0:0:0:
237,109,43182,6,0,P|267:100|304:101,1,52.5000020027161,2|0,0:2|0:0,0:0:0:0:
361,167,43482,2,0,P|331:176|294:175,1,52.5000020027161,2|2,0:2|0:0,0:0:0:0:
404,92,43782,2,0,L|410:60,2,26.2500010013581,0|0|0,1:2|1:0|1:0,0:0:0:0:
449,166,44082,2,0,P|462:194|467:230,1,52.5000020027161,2|2,0:2|0:2,0:0:0:0:
455,308,44382,5,0,3:2:0:0:
455,308,44532,2,0,L|384:313,1,52.5000020027161,0|0,3:0|3:0,0:0:0:0:
336,379,44832,1,0,3:0:0:0:
336,379,44982,2,0,L|265:374,1,52.5000020027161,2|2,1:2|1:2,0:0:0:0:
217,308,45282,2,0,L|146:313,1,52.5000020027161,2|0,0:2|0:0,0:0:0:0:
93,337,45507,1,0,0:0:0:0:
93,337,45582,6,0,L|88:309,3,26.2500010013581,2|0|0|0,1:2|0:0|0:0|0:0,0:0:0:0:
26,259,45882,2,0,L|31:231,3,26.2500010013581,2|0|0|0,1:2|0:0|0:0|0:0,0:0:0:0:
67,164,46182,2,0,P|62:150|59:131,2,26.2500010013581,2|2|2,1:2|1:2|1:2,0:0:0:0:
147,230,46482,2,0,P|163:231|175:229,3,26.2500010013581,2|2|2|2,0:2|0:0|0:0|0:0,0:0:0:0:
249,191,46782,6,0,P|258:160|261:129,1,52.5000020027161,2|2,1:2|1:2,0:0:0:0:
321,40,47082,2,0,P|322:67|333:106,1,52.5000020027161,2|0,0:2|1:0,0:0:0:0:
408,150,47382,2,0,L|436:142,2,26.2500010013581,2|0|0,1:2|1:0|1:0,0:0:0:0:
364,237,47682,2,0,P|366:251|369:263,3,26.2500010013581,2|2|2|2,0:2|0:2|0:2|0:2,0:0:0:0:
375,342,47982,6,0,P|346:331|317:326,1,52.5000020027161,2|0,1:2|0:0,0:0:0:0:
248,333,48207,1,0,0:0:0:0:
248,333,48282,2,0,P|228:335|212:341,3,26.2500010013581,2|0|0|0,0:2|0:0|1:0|0:0,0:0:0:0:
145,327,48582,2,0,P|132:342|125:358,2,26.2500010013581,2|0|0,1:2|1:0|1:0,0:0:0:0:
195,225,48882,2,0,P|198:208|198:189,3,26.2500010013581,2|2|2|2,0:2|0:2|0:2|0:2,0:0:0:0:
193,129,49182,5,0,3:2:0:0:
193,129,49332,2,0,L|185:70,1,52.5000020027161,2|2,3:0|3:2,0:0:0:0:
109,30,49632,1,0,3:0:0:0:
109,30,49782,2,0,L|101:89,1,52.5000020027161,2|0,1:2|1:0,0:0:0:0:
85,186,50082,1,2,0:2:0:0:
85,186,50232,1,2,3:2:0:0:
12,113,50382,6,0,P|0:77|2:38,1,52.5000020027161,2|0,0:2|0:0,0:0:0:0:
85,186,50682,2,0,P|91:211|92:237,1,52.5000020027161,2|2,0:2|0:2,0:0:0:0:
179,121,50982,2,0,P|196:114|219:111,3,26.2500010013581,2|2|2|2,1:2|1:2|1:2|0:2,0:0:0:0:
282,107,51282,2,0,L|349:118,2,52.5000020027161,2|2|2,0:2|0:2|0:2,0:0:0:0:
162,233,51882,2,0,L|110:241,2,52.5000020027161,2|2|2,0:2|0:2|1:2,0:0:0:0:
372,324,52482,2,0,L|375:292,3,26.2500010013581,2|2|2|2,0:2|0:2|0:2|0:2,0:0:0:0:
417,239,52782,6,0,P|392:227|347:226,1,52.5000020027161,2|0,0:2|0:0,0:0:0:0:
243,175,53082,2,0,P|237:189|227:206,3,26.2500010013581,2|2|2|2,0:2|0:2|0:2|0:2,0:0:0:0:
176,246,53382,2,0,P|160:247|141:247,3,26.2500010013581,2|2|2|2,1:2|1:2|1:2|0:2,0:0:0:0:
78,248,53682,2,0,L|21:238,2,52.5000020027161,2|2|2,0:2|0:2|3:2,0:0:0:0:
255,163,54282,2,0,L|312:153,2,52.5000020027161,2|2|2,3:2|3:2|1:2,0:0:0:0:
96,76,54882,2,0,L|38:68,1,52.5000020027161,2|2,0:2|0:2,0:0:0:0:
139,148,55182,6,0,P|162:128|179:88,1,52.5000020027161,2|2,0:2|0:2,0:0:0:0:
239,0,55482,2,0,P|244:29|270:64,1,52.5000020027161,2|2,3:2|0:2,0:0:0:0:
366,84,55782,2,0,P|380:83|400:80,3,26.2500010013581,2|2|2|2,3:2|1:2|1:2|0:2,0:0:0:0:
466,60,56082,1,2,0:2:0:0:
464,79,56157,1,2,0:2:0:0:
463,99,56232,1,2,0:2:0:0:
462,118,56307,1,2,0:2:0:0:
460,138,56382,6,0,L|455:205,1,52.5000020027161,2|0,0:2|0:0,0:0:0:0:
396,318,56682,2,0,L|392:265,1,52.5000020027161,2|0,0:2|0:0,0:0:0:0:
339,167,56982,2,0,L|342:141,2,26.2500010013581,2|0|0,1:2|1:0|1:0,0:0:0:0:
261,240,57282,2,0,P|232:243|190:236,1,52.5000020027161,2|2,0:2|0:2,0:0:0:0:
109,216,57582,6,0,P|114:264|107:313,2,78.7500030040742,0|0|0,3:0|1:0|1:0,0:0:0:0:
70,123,58182,2,0,P|25:103|-13:72,2,78.7500030040742,0|0|0,3:0|1:0|1:0,0:0:0:0:
170,135,58782,2,0,P|209:106|255:88,2,78.7500030040742,0|0|0,3:0|1:0|1:0,0:0:0:0:
109,216,59382,2,0,L|104:273,3,52.5000020027161,2|0|0|0,3:2|1:2|3:2|1:2,0:0:0:0:
199,354,59982,6,0,L|194:286,1,66.4999982242585,4|0,3:1|0:0,0:0:0:0:
236,130,60282,2,0,P|285:176|360:181,1,132.999996448517,10|0,0:0|0:0,0:0:0:0:
476,149,60732,1,0,3:2:0:0:
476,149,60882,2,0,P|467:188|467:231,1,66.4999982242585,10|2,0:2|0:2,0:0:0:0:
441,352,61182,6,0,P|438:318|430:286,1,66.4999982242585,0|0,3:2|0:0,0:0:0:0:
283,319,61482,1,10,0:0:0:0:
283,319,61632,2,0,P|314:328|347:332,1,66.4999982242585,2|0,0:0|0:0,0:0:0:0:
245,198,61932,1,0,3:2:0:0:
174,353,62082,1,10,0:0:0:0:
174,353,62382,6,0,L|164:279,1,66.4999982242585,0|0,3:2|0:0,0:0:0:0:
96,171,62682,2,0,P|82:160|58:149,4,33.2499991121292,10|0|2|2|2,0:0|0:0|0:2|0:2|0:2,0:0:0:0:
165,287,63132,1,0,3:2:0:0:
270,186,63282,2,0,P|307:173|351:175,1,66.4999982242585,8|2,0:0|0:0,0:0:0:0:
165,287,63582,6,0,L|174:199,1,66.4999982242585,2|0,3:2|0:0,0:0:0:0:
209,66,63882,1,10,0:0:0:0:
209,66,64032,2,0,L|193:204,1,132.999996448517,0|0,3:2|3:2,0:0:0:0:
53,228,64482,2,0,L|42:135,1,66.4999982242585,10|0,0:0|3:2,0:0:0:0:
180,303,64782,6,0,L|173:370,1,66.4999982242585,2|0,3:2|0:0,0:0:0:0:
269,228,65082,2,0,P|327:197|393:196,1,132.999996448517,10|0,0:0|0:0,0:0:0:0:
505,284,65532,1,0,3:2:0:0:
505,284,65682,2,0,L|510:232,3,33.2499991121292,10|2|2|2,0:2|0:2|0:2|0:2,0:0:0:0:
482,177,65982,6,0,L|474:100,1,66.4999982242585,2|0,3:2|0:0,0:0:0:0:
389,20,66282,2,0,P|330:50|264:51,1,132.999996448517,10|0,0:0|0:0,0:0:0:0:
144,24,66732,1,0,3:2:0:0:
187,154,66882,2,0,P|189:187|180:228,1,66.4999982242585,10|0,0:0|0:0,0:0:0:0:
51,331,67182,6,0,P|44:298|46:265,1,66.4999982242585,0|0,3:2|0:0,0:0:0:0:
249,284,67482,1,10,0:0:0:0:
249,284,67632,2,0,P|188:308|124:295,1,132.999996448517,2|0,0:2|0:2,0:0:0:0:
11,174,68082,2,0,P|8:157|7:140,3,33.2499991121292,10|0|2|0,0:0|0:0|0:0|0:0,0:0:0:0:
84,115,68382,6,0,P|92:149|90:181,1,66.4999982242585,2|0,3:2|0:0,0:0:0:0:
170,314,68682,1,8,0:0:0:0:
170,314,68832,2,0,P|156:243|168:174,1,132.999996448517,2|0,3:2|0:0,0:0:0:0:
267,35,69282,2,0,P|270:70|257:112,1,66.4999982242585,8|0,0:0|0:0,0:0:0:0:
234,266,69582,6,0,P|230:230|243:188,1,66.4999982242585,0|0,3:2|0:0,0:0:0:0:
443,225,69882,2,0,P|384:249|300:233,1,132.999996448517,10|0,0:0|0:0,0:0:0:0:
195,137,70332,1,0,3:2:0:0:
141,301,70482,2,0,P|136:318|134:339,3,33.2499991121292,10|2|2|2,0:0|0:0|0:0|0:0,0:0:0:0:
62,362,70782,6,0,P|59:323|53:288,1,66.4999982242585,2|0,3:2|0:0,0:0:0:0:
105,128,71082,1,10,0:0:0:0:
105,128,71232,2,0,P|108:167|114:202,1,66.4999982242585,2|2,0:0|0:0,0:0:0:0:
233,330,71532,1,0,3:2:0:0:
233,330,71682,2,0,P|230:291|224:256,1,66.4999982242585,8|0,0:0|0:0,0:0:0:0:
314,163,71982,6,0,P|351:173|391:174,1,66.4999982242585,0|0,3:2|0:0,0:0:0:0:
484,92,72282,2,0,L|490:59,4,33.2499991121292,10|2|2|2|2,0:0|0:0|0:0|0:0|0:0,0:0:0:0:
448,215,72732,1,0,3:2:0:0:
406,72,72882,2,0,L|391:4,1,66.4999982242585,8|2,0:0|0:0,0:0:0:0:
324,152,73182,6,0,L|320:218,1,66.4999982242585,0|0,3:2|0:0,0:0:0:0:
244,73,73482,1,10,0:0:0:0:
244,73,73632,2,0,P|190:103|117:90,1,132.999996448517,2|0,3:2|3:2,0:0:0:0:
9,19,74082,2,0,L|14:68,3,33.2499991121292,10|2|2|2,0:0|0:0|0:0|0:0,0:0:0:0:
49,117,74382,6,0,L|42:183,1,66.4999982242585,2|0,3:2|0:0,0:0:0:0:
78,343,74682,2,0,P|111:292|184:268,1,132.999996448517,10|0,0:0|0:0,0:0:0:0:
289,334,75132,1,0,3:2:0:0:
369,211,75282,2,0,P|371:189|367:160,2,33.2499991121292,10|2|2,0:0|0:0|0:0,0:0:0:0:
289,334,75582,6,0,P|252:340|206:330,1,66.4999982242585,2|0,3:2|0:0,0:0:0:0:
369,211,75882,2,0,L|385:363,1,132.999996448517,10|0,0:0|0:0,0:0:0:0:
259,235,76332,1,0,3:2:0:0:
259,235,76482,2,0,L|267:157,1,66.4999982242585,10|0,0:0|0:0,0:0:0:0:
334,89,76782,6,0,L|326:6,2,78.7500030040742,0|0|0,3:2|1:2|1:2,0:0:0:0:
266,169,77382,2,0,L|258:247,2,78.7500030040742,0|0|2,1:2|1:2|1:2,0:0:0:0:
201,85,77982,2,0,P|163:66|124:60,2,78.7500030040742,2|0|2,1:2|1:2|1:2,0:0:0:0:
266,169,78582,1,8,0:0:0:0:
266,169,78882,2,0,P|288:162|320:159,1,52.5000020027161,8|0,0:0|3:0,0:0:0:0:
424,214,79182,6,0,L|433:283,1,56,4|0,3:1|0:0,0:0:0:0:
355,379,79482,2,0,L|362:323,1,56,10|2,0:2|0:2,0:0:0:0:
305,237,79782,1,0,3:2:0:0:
305,237,79932,1,2,3:2:0:0:
201,279,80082,2,0,P|186:281|165:278,3,28,10|2|2|2,0:2|0:2|0:2|0:2,0:0:0:0:
97,247,80382,6,0,L|89:185,1,56,2|2,3:2|0:2,0:0:0:0:
160,92,80682,2,0,L|168:154,1,56,10|2,0:2|0:2,0:0:0:0:
261,226,80982,2,0,L|252:164,1,56,2|0,0:2|3:2,0:0:0:0:
315,76,81282,2,0,P|336:80|351:79,3,28,10|2|2|2,0:0|0:0|0:0|0:0,0:0:0:0:
418,65,81582,6,0,L|427:129,1,56,2|0,3:2|0:0,0:0:0:0:
492,210,81882,2,0,L|488:249,3,28,10|2|2|2,0:0|0:0|0:0|0:0,0:0:0:0:
427,275,82182,2,0,L|429:302,3,28,2|2|2|2,0:0|0:0|3:2|0:0,0:0:0:0:
380,359,82482,2,0,P|359:348|327:341,1,56,10|2,0:0|0:0,0:0:0:0:
216,352,82782,6,0,P|186:359|157:358,1,56,2|0,3:2|0:0,0:0:0:0:
16,319,83082,1,8,0:0:0:0:
16,319,83232,1,2,3:2:0:0:
115,239,83382,2,0,P|129:243|155:248,2,28,2|2|2,0:0|0:0|0:0,0:0:0:0:
27,153,83682,2,0,P|24:137|24:125,3,28,10|2|2|2,0:0|0:0|0:0|0:0,0:0:0:0:
57,56,83982,6,0,P|86:63|129:63,1,56,2|2,3:2|0:0,0:0:0:0:
223,35,84282,2,0,L|231:2,2,28,8|0|0,0:0|0:0|0:0,0:0:0:0:
320,124,84582,1,2,0:0:0:0:
320,124,84732,1,2,3:2:0:0:
400,19,84882,2,0,L|427:22,3,28,10|2|2|2,0:0|0:0|0:0|0:0,0:0:0:0:
485,67,85182,6,0,L|512:64,2,28,2|0|0,3:2|0:0|0:0,0:0:0:0:
416,151,85482,1,10,0:0:0:0:
416,151,85632,2,0,P|410:179|408:222,1,56,2|2,0:0|0:0,0:0:0:0:
367,322,85932,1,2,3:2:0:0:
317,215,86082,2,0,P|311:194|301:177,3,28,10|0|2|2,0:0|0:0|0:0|0:0,0:0:0:0:
243,145,86382,6,0,P|216:150|173:152,1,56,2|0,3:2|0:0,0:0:0:0:
98,220,86682,2,0,P|125:222|153:227,1,56,8|2,0:0|3:2,0:0:0:0:
227,301,86982,2,0,L|232:340,3,26.2500010013581,2|0|2|2,0:0|0:0|0:0|0:0,0:0:0:0:
306,368,87282,1,10,3:2:0:0:
316,359,87357,1,2,0:0:0:0:
327,352,87432,1,2,0:0:0:0:
339,347,87507,1,2,0:0:0:0:
352,344,87582,6,0,P|384:344|421:347,1,52.5000020027161,2|0,3:2|0:0,0:0:0:0:
512,283,87882,1,10,0:0:0:0:
512,283,88032,2,0,P|480:283|443:280,1,52.5000020027161,2|0,3:2|0:0,0:0:0:0:
337,111,88482,2,0,P|339:138|346:171,1,52.5000020027161,8|0,3:2|0:0,0:0:0:0:
267,257,88782,6,0,P|264:221|256:194,1,56,2|0,3:2|0:0,0:0:0:0:
144,302,89082,2,0,P|176:317|204:323,1,56,10|0,0:0|0:0,0:0:0:0:
150,196,89382,1,2,0:0:0:0:
59,318,89532,1,2,3:2:0:0:
4,197,89682,2,0,P|0:183|-1:168,3,28,10|2|2|2,0:0|0:0|0:0|0:0,0:0:0:0:
39,104,89982,6,0,P|43:78|52:50,1,56,2|2,3:2|0:0,0:0:0:0:
150,196,90282,1,10,0:0:0:0:
150,196,90432,2,0,P|124:153|129:90,1,112,2|0,3:2|3:2,0:0:0:0:
205,13,90882,2,0,P|219:12|236:12,3,28,10|2|2|2,0:0|0:0|0:0|0:0,0:0:0:0:
296,61,91182,6,0,L|363:56,1,56,2|0,3:2|0:0,0:0:0:0:
472,32,91482,2,0,P|472:46|475:61,3,28,10|2|2|2,0:0|0:0|0:0|0:0,0:0:0:0:
504,135,91782,2,0,P|504:148|501:162,3,28,2|2|2|2,0:0|0:0|3:2|0:0,0:0:0:0:
460,229,92082,2,0,P|460:257|466:287,1,56,10|2,0:0|0:0,0:0:0:0:
376,377,92382,6,0,P|376:349|370:321,1,56,2|0,3:2|0:0,0:0:0:0:
285,208,92682,2,0,P|279:235|279:263,1,56,8|2,0:0|3:2,0:0:0:0:
164,339,92982,2,0,L|168:367,2,28,2|2|2,0:0|0:0|3:2,0:0:0:0:
91,271,93282,1,10,0:0:0:0:
31,344,93432,1,2,3:2:0:0:
180,375,93582,6,0,P|188:334|189:295,1,56,2|2,3:2|3:2,0:0:0:0:
263,222,93882,2,0,P|261:196|247:165,1,56,10|0,0:0|0:0,0:0:0:0:
126,83,94182,2,0,P|121:102|119:115,3,28,2|2|2|2,0:0|0:0|3:2|0:0,0:0:0:0:
72,171,94482,2,0,P|74:184|78:198,3,28,10|2|2|2,0:0|0:0|0:0|0:0,0:0:0:0:
87,271,94782,6,0,P|119:286|144:291,1,56,0|0,3:2|0:0,0:0:0:0:
284,277,95082,1,8,0:0:0:0:
284,277,95232,2,0,P|250:287|228:300,1,56,0|2,3:2|0:0,0:0:0:0:
363,360,95532,1,2,3:2:0:0:
391,217,95682,2,0,L|387:179,3,28,10|2|2|2,0:0|0:0|0:0|0:0,0:0:0:0:
338,129,95982,6,0,L|344:64,1,56,2|0,3:2|0:0,0:0:0:0:
248,175,96282,1,10,0:0:0:0:
248,175,96432,2,0,L|233:37,1,112,0|2,3:2|0:0,0:0:0:0:
144,196,96882,2,0,L|141:234,3,28,10|2|2|2,3:2|0:0|0:0|0:0,0:0:0:0:
97,289,97182,6,0,L|103:346,1,56,2|0,3:2|0:0,0:0:0:0:
14,237,97482,2,0,L|8:294,1,56,10|0,0:0|3:2,0:0:0:0:
99,37,98082,5,10,3:2:0:0:
99,37,98382,6,0,P|131:51|168:57,1,66.4999982242585,4|0,3:1|0:0,0:0:0:0:
296,17,98682,2,0,L|282:172,1,132.999996448517,10|0,0:0|0:0,0:0:0:0:
271,288,99132,1,0,3:2:0:0:
183,179,99282,2,0,P|169:170|148:162,3,33.2499991121292,10|2|2|2,0:0|0:0|0:0|0:0,0:0:0:0:
67,160,99582,6,0,L|-8:173,1,66.4999982242585,2|2,3:2|0:0,0:0:0:0:
103,287,99882,1,10,0:0:0:0:
103,287,100032,2,0,L|234:264,1,132.999996448517,0|0,3:2|3:2,0:0:0:0:
350,199,100482,2,0,L|284:187,1,66.4999982242585,10|2,0:0|0:0,0:0:0:0:
419,255,100782,6,0,P|432:226|436:191,1,66.4999982242585,2|0,3:2|0:0,0:0:0:0:
395,57,101082,2,0,P|379:36|361:23,3,33.2499991121292,10|2|2|2,0:0|0:0|0:0|0:0,0:0:0:0:
293,38,101382,2,0,P|255:30|212:33,1,66.4999982242585,2|2,0:0|3:2,0:0:0:0:
86,90,101682,2,0,P|119:89|151:82,1,66.4999982242585,8|0,0:0|0:0,0:0:0:0:
13,36,101982,5,0,3:2:0:0:
52,248,102282,2,0,L|69:367,2,99.7499973363877,8|0|0,0:0|3:2|3:2,0:0:0:0:
81,122,102882,2,0,L|89:62,3,33.2499991121292,10|2|2|2,0:0|0:0|3:2|0:0,0:0:0:0:
149,36,103182,6,0,P|168:67|201:86,1,66.4999982242585,2|0,3:2|0:0,0:0:0:0:
316,115,103482,2,0,P|256:140|199:203,1,132.999996448517,8|2,0:0|0:0,0:0:0:0:
178,323,103932,1,2,3:2:0:0:
178,323,104007,1,2,0:0:0:0:
178,323,104082,2,0,L|181:356,3,33.2499991121292,10|2|2|2,0:0|0:0|0:0|0:0,0:0:0:0:
263,378,104382,6,0,L|271:286,1,66.4999982242585,2|2,3:2|0:0,0:0:0:0:
349,184,104682,2,0,L|355:250,2,66.4999982242585,10|0|0,0:0|0:0|0:0,0:0:0:0:
270,50,105132,1,0,3:2:0:0:
270,50,105282,2,0,L|264:116,1,66.4999982242585,8|0,0:0|0:0,0:0:0:0:
187,240,105582,6,0,P|182:200|171:167,1,66.4999982242585,0|0,3:2|0:0,0:0:0:0:
37,83,105882,1,8,0:0:0:0:
37,83,106032,2,0,P|109:93|173:72,1,132.999996448517,0|2,3:2|0:0,0:0:0:0:
283,138,106482,2,0,P|297:132|325:127,3,33.2499991121292,10|2|2|2,0:0|0:0|0:0|0:0,0:0:0:0:
381,95,106782,6,0,P|409:96|452:113,1,66.4999982242585,2|0,3:2|0:0,0:0:0:0:
495,240,107082,1,8,0:0:0:0:
495,240,107232,2,0,L|481:383,1,132.999996448517,0|0,3:2|0:0,0:0:0:0:
363,210,107682,2,0,L|369:276,1,66.4999982242585,8|0,0:0|3:2,0:0:0:0:
246,384,107982,6,0,L|252:318,1,66.4999982242585,0|0,3:2|0:0,0:0:0:0:
220,170,108282,2,0,P|182:208|92:213,1,132.999996448517,8|2,0:0|0:0,0:0:0:0:
243,72,108732,1,2,0:0:0:0:
292,226,108882,2,0,L|294:259,3,33.2499991121292,10|2|2|2,0:0|0:0|0:0|0:0,0:0:0:0:
343,321,109182,6,0,L|340:354,2,33.2499991121292,2|2|2,3:2|0:0|0:0,0:0:0:0:
427,193,109482,2,0,P|461:182|494:179,2,66.4999982242585,8|0|0,0:0|0:0|0:0,0:0:0:0:
295,259,109932,1,0,3:2:0:0:
351,116,110082,2,0,P|352:80|347:47,1,66.4999982242585,8|0,0:0|0:0,0:0:0:0:
295,259,110382,5,2,3:2:0:0:
54,203,110682,1,10,0:0:0:0:
54,203,110757,1,2,0:0:0:0:
54,203,110832,2,0,L|19:205,2,33.2499991121292,2|2|2,0:0|0:0|0:0,0:0:0:0:
190,154,111132,1,0,3:2:0:0:
156,304,111282,2,0,P|150:267|150:234,1,66.4999982242585,8|0,0:0|0:0,0:0:0:0:
263,111,111582,6,0,P|269:148|269:181,1,66.4999982242585,2|0,3:2|0:0,0:0:0:0:
339,349,111882,2,0,P|331:313|333:282,1,66.4999982242585,10|2,0:0|0:0,0:0:0:0:
399,139,112182,1,0,3:2:0:0:
444,253,112332,1,0,3:2:0:0:
302,180,112482,2,0,P|284:177|267:176,4,33.2499991121292,10|2|2|2|2,0:0|0:0|0:0|0:0|3:2,0:0:0:0:
269,176,114882,5,0,3:2:0:0:
197,74,115182,6,0,P|161:53|118:37,2,78.7500030040742,0|0|0,3:2|1:2|1:2,0:0:0:0:
322,62,115782,2,0,P|351:30|388:6,2,78.7500030040742,0|0|0,1:2|1:2|1:2,0:0:0:0:
269,176,116382,2,0,L|274:260,2,78.7500030040742,0|0|0,1:2|1:2|1:2,0:0:0:0:
322,62,116982,2,0,L|328:9,2,52.5000020027161,0|0|0,3:0|1:0|3:0,0:0:0:0:
109,154,117582,6,0,P|122:193|130:247,1,70,4|0,3:1|0:0,0:0:0:0:
164,360,117882,2,0,P|171:325|182:292,1,70,10|0,0:0|0:0,0:0:0:0:
318,212,118182,1,2,0:0:0:0:
244,349,118332,1,0,3:2:0:0:
127,222,118482,2,0,P|116:188|109:154,1,70,10|2,0:0|0:0,0:0:0:0:
262,276,118782,5,0,3:2:0:0:
112,302,118932,1,2,0:0:0:0:
192,137,119082,2,0,P|202:170|209:204,1,70,8|0,0:0|0:0,0:0:0:0:
246,344,119382,2,0,P|252:309|263:276,1,70,2|0,0:0|3:2,0:0:0:0:
363,204,119682,2,0,L|445:211,1,70,10|2,0:0|0:0,0:0:0:0:
458,225,119907,1,0,0:0:0:0:
458,225,119982,5,2,3:2:0:0:
398,315,120132,1,0,0:0:0:0:
345,216,120282,2,0,P|340:181|341:146,1,70,10|0,0:0|0:0,0:0:0:0:
431,67,120582,2,0,P|432:102|427:137,1,70,2|0,0:0|3:2,0:0:0:0:
286,74,120882,1,10,0:0:0:0:
286,74,121032,6,0,L|361:64,1,70,2|0,0:0|3:2,0:0:0:0:
252,161,121332,1,2,0:0:0:0:
252,161,121482,2,0,P|223:142|194:110,1,70,8|0,0:0|0:0,0:0:0:0:
121,7,121782,2,0,P|121:41|108:82,1,70,2|0,0:0|3:2,0:0:0:0:
54,188,122082,2,0,P|86:171|128:162,1,70,10|0,0:0|0:0,0:0:0:0:
151,171,122307,1,0,0:0:0:0:
151,171,122382,5,0,3:2:0:0:
247,241,122532,1,0,0:0:0:0:
135,312,122682,2,0,L|143:232,1,70,10|0,0:0|0:0,0:0:0:0:
240,171,122982,2,0,L|248:251,1,70,2|0,0:0|3:2,0:0:0:0:
293,356,123282,1,10,0:0:0:0:
353,253,123432,2,0,P|380:233|423:222,1,70,0|0,0:0|3:2,0:0:0:0:
475,347,123732,5,2,0:0:0:0:
475,347,123882,2,0,P|444:333|413:301,1,70,8|0,0:0|0:0,0:0:0:0:
498,226,124182,2,0,P|493:245|484:266,2,35,2|0|0,0:0|0:0|3:2,0:0:0:0:
508,126,124482,2,0,L|503:55,1,70,10|2,0:0|0:0,0:0:0:0:
494,45,124707,1,0,0:0:0:0:
484,33,124782,6,0,P|423:57|328:51,1,140,2|2,3:2|0:0,0:0:0:0:
186,79,125382,1,2,0:0:0:0:
186,79,125682,2,0,P|221:82|274:93,1,70,2|2,0:0|0:0,0:0:0:0:
188,173,127182,6,0,L|199:262,1,70,2|0,3:2|0:0,0:0:0:0:
299,337,127482,2,0,L|310:248,1,70,10|0,0:0|0:0,0:0:0:0:
310,250,127707,1,0,0:0:0:0:
312,233,127782,1,2,0:0:0:0:
390,154,127932,1,0,3:2:0:0:
422,286,128082,2,0,L|432:375,2,70,10|2|0,0:0|0:0|3:2,0:0:0:0:
390,154,128532,5,2,0:0:0:0:
294,264,128682,2,0,P|254:268|203:260,1,70,8|2,0:0|0:0,0:0:0:0:
81,222,128982,1,0,3:2:0:0:
216,167,129132,1,0,3:2:0:0:
135,273,129282,1,10,3:2:0:0:
87,149,129432,1,0,3:2:0:0:
150,282,129582,6,0,P|157:316|161:358,1,70,0|0,3:2|0:0,0:0:0:0:
0,261,129882,2,0,P|3:226|10:191,1,70,10|0,0:0|0:0,0:0:0:0:
69,75,130182,1,2,0:0:0:0:
69,75,130257,1,0,0:0:0:0:
69,75,130332,1,0,3:2:0:0:
170,134,130482,2,0,L|249:121,1,70,10|2,0:0|0:0,0:0:0:0:
369,98,130782,1,0,3:2:0:0:
332,224,130932,5,2,0:0:0:0:
332,224,131007,1,0,0:0:0:0:
332,224,131082,2,0,P|316:190|313:154,1,70,10|0,0:0|0:0,0:0:0:0:
411,249,131382,1,0,3:2:0:0:
271,280,131532,1,0,3:2:0:0:
393,168,131682,1,8,3:2:0:0:
353,306,131832,2,0,L|344:355,2,35,0|0|0,3:2|0:0|3:2,0:0:0:0:
256,192,133632,12,2,136632,0:0:0:0:
186,121,136782,6,0,L|102:107,2,78.7500030040742,10|0|0,3:2|0:0|0:0,0:0:0:0:
284,89,137382,2,0,L|338:23,2,78.7500030040742,2|0|2,0:0|0:0|0:0,0:0:0:0:
262,186,137982,2,0,L|289:269,2,78.7500030040742,2|0|2,0:0|0:0|0:0,0:0:0:0:
220,50,138582,1,2,3:2:0:0:
161,174,138732,1,0,3:2:0:0:
73,90,138882,1,0,3:2:0:0:
73,90,138957,1,0,3:2:0:0:
73,90,139032,1,0,3:2:0:0:
73,90,139107,1,0,3:2:0:0:
73,90,139182,6,0,L|51:319,1,227.499989585877,6|0,3:2|0:0,0:0:0:0:
105,377,140082,2,0,P|159:314|265:309,1,181.999991668702,2|0,0:0|0:0,0:0:0:0:
390,367,140982,2,0,P|429:377|482:364,1,90.9999958343508,2|0,0:0|0:0,0:0:0:0:
504,291,141432,1,0,0:0:0:0:
504,291,141507,1,0,0:0:0:0:
504,291,141582,6,0,L|513:50,1,227.499989585877,2|0,3:2|0:0,0:0:0:0:
444,24,142482,2,0,P|373:73|285:41,1,181.999991668702,2|0,3:2|0:0,0:0:0:0:
169,11,143382,2,0,L|162:65,1,45.4999979171754,2|0,0:0|0:0,0:0:0:0:
114,149,143682,2,0,L|108:103,1,45.4999979171754,2|0,0:0|0:0,0:0:0:0:
50,25,143982,5,14,0:0:0:0:
50,25,144132,1,10,0:0:0:0:
8,182,144432,5,10,0:0:0:0:
8,182,144582,1,10,0:0:0:0:
167,224,144882,5,10,0:0:0:0:
167,224,145032,1,10,0:0:0:0:
207,65,145332,5,10,0:0:0:0:
207,65,145482,1,10,0:0:0:0:
167,224,145782,5,10,0:0:0:0:
167,224,146382,5,10,0:0:0:0:
167,224,146532,1,10,0:0:0:0:
326,190,146832,5,10,0:0:0:0:
326,190,146982,1,10,0:0:0:0:
295,30,147282,5,10,0:0:0:0:
295,30,147432,1,10,0:0:0:0:
134,62,147732,5,10,0:0:0:0:
134,62,147882,1,10,0:0:0:0:
295,30,148182,5,10,0:0:0:0:
295,30,148782,6,0,L|283:271,1,227.499989585877,6|0,3:2|0:0,0:0:0:0:
296,333,149682,2,0,P|253:270|138:256,1,181.999991668702,2|0,0:0|0:0,0:0:0:0:
23,291,150582,2,0,L|17:196,1,90.9999958343508,2|0,0:0|0:0,0:0:0:0:
12,116,151032,1,0,0:0:0:0:
12,116,151107,1,0,0:0:0:0:
12,116,151182,6,0,P|105:169|205:92,1,227.499989585877,2|0,3:2|0:0,0:0:0:0:
271,76,152082,2,0,P|269:100|275:141,1,45.4999979171754,2|0,3:2|0:0,0:0:0:0:
357,190,152382,2,0,P|359:166|353:125,1,45.4999979171754,2|0,0:0|0:0,0:0:0:0:
260,66,152682,2,0,P|258:90|264:131,1,45.4999979171754,2|0,0:0|0:0,0:0:0:0:
368,200,152982,2,0,P|371:153|361:97,1,90.9999958343508,2|0,0:0|0:0,0:0:0:0:
172,236,153582,5,14,0:0:0:0:
172,236,153732,1,10,0:0:0:0:
329,278,154032,5,10,0:0:0:0:
329,278,154182,1,10,0:0:0:0:
371,119,154482,5,10,0:0:0:0:
371,119,154632,1,10,0:0:0:0:
212,79,154932,5,10,0:0:0:0:
223,154,155082,1,10,0:0:0:0:
271,32,155232,1,10,0:0:0:0:
282,107,155382,1,10,0:0:0:0:
314,267,155982,5,10,0:0:0:0:
314,267,156132,1,10,0:0:0:0:
282,107,156432,5,10,0:0:0:0:
282,107,156582,1,10,0:0:0:0:
122,139,156882,5,10,0:0:0:0:
122,139,157032,1,10,0:0:0:0:
156,298,157332,5,10,0:0:0:0:
218,256,157482,1,10,0:0:0:0:
87,267,157632,1,10,0:0:0:0:
149,225,157782,1,10,0:0:0:0:
149,225,158382,6,0,P|143:196|148:166,1,48.9999985046387,6|2,0:0|0:0,0:0:0:0:
85,128,158682,2,0,P|107:108|135:97,1,48.9999985046387,2|2,0:0|0:0,0:0:0:0:
137,24,158982,1,2,1:2:0:0:
137,24,159057,1,0,1:2:0:0:
137,24,159132,2,0,P|165:33|188:52,1,48.9999985046387,0|2,1:2|0:0,0:0:0:0:
249,115,159432,6,0,P|293:80|349:65,1,97.9999970092774,2|2,0:0|0:0,0:0:0:0:
370,3,159882,2,0,P|397:27|411:49,1,48.9999985046387,2|2,0:0|0:0,0:0:0:0:
488,95,160182,1,2,1:2:0:0:
488,95,160257,1,0,1:2:0:0:
488,95,160332,2,0,L|492:34,2,48.9999985046387,2|2|2,1:2|0:0|0:0,0:0:0:0:
435,189,160782,6,0,L|439:249,1,48.9999985046387,2|2,0:0|0:0,0:0:0:0:
333,171,161082,2,0,L|358:226,1,48.9999985046387,2|2,0:0|0:0,0:0:0:0:
230,188,161382,1,2,1:2:0:0:
230,188,161457,1,0,1:2:0:0:
230,188,161532,2,0,L|272:231,1,48.9999985046387,2|2,1:2|0:0,0:0:0:0:
315,286,161832,1,2,0:0:0:0:
193,372,161982,6,0,P|205:323|246:293,1,97.9999970092774,2|2,1:2|1:2,0:0:0:0:
315,286,162432,1,2,1:2:0:0:
394,341,162582,2,0,L|450:335,1,48.9999985046387,2|0,1:2|1:2,0:0:0:0:
512,266,162882,2,0,L|463:260,1,48.9999985046387,2|0,0:0|0:0,0:0:0:0:
382,211,163182,6,0,P|400:187|409:158,1,48.9999985046387,2|2,0:0|0:0,0:0:0:0:
483,154,163482,2,0,P|472:126|452:103,1,48.9999985046387,2|2,0:0|0:0,0:0:0:0:
484,38,163782,1,2,1:2:0:0:
484,38,163857,1,0,1:2:0:0:
484,38,163932,2,0,P|454:33|425:39,1,48.9999985046387,2|2,0:0|0:0,0:0:0:0:
374,88,164232,1,2,0:0:0:0:
308,21,164382,6,0,L|257:27,1,48.9999985046387,2|2,0:0|0:0,0:0:0:0:
156,88,164682,2,0,L|207:94,1,48.9999985046387,2|2,0:0|0:0,0:0:0:0:
103,19,164982,1,2,1:2:0:0:
103,19,165057,1,0,1:2:0:0:
103,19,165132,1,2,1:2:0:0:
34,91,165282,2,0,P|28:123|33:158,1,48.9999985046387,2|2,0:0|0:0,0:0:0:0:
87,240,165582,6,0,P|93:208|88:173,1,48.9999985046387,2|2,0:0|0:0,0:0:0:0:
141,302,165882,2,0,P|159:275|170:241,1,48.9999985046387,2|2,0:0|0:0,0:0:0:0:
161,384,166182,1,2,1:2:0:0:
161,384,166257,1,0,1:2:0:0:
161,384,166332,1,2,1:2:0:0:
237,291,166482,6,0,P|243:259|238:224,1,48.9999985046387,2|2,0:0|0:0,0:0:0:0:
209,139,166782,1,2,1:2:0:0:
310,193,166932,1,2,1:2:0:0:
310,193,167007,1,0,1:2:0:0:
310,193,167082,2,0,P|342:198|376:194,1,48.9999985046387,2|2,1:2|1:2,0:0:0:0:
450,150,167382,2,0,L|458:84,1,48.9999985046387,2|0,1:2|1:2,0:0:0:0:
452,229,167682,2,0,L|460:295,1,48.9999985046387,2|0,0:0|1:2,0:0:0:0:
337,380,167982,6,0,P|309:367|275:362,1,59.5000011348725,6|2,3:2|0:0,0:0:0:0:
191,367,168282,2,0,P|208:308|200:238,1,119.000002269745,2|2,0:0|0:0,0:0:0:0:
76,374,168732,2,0,P|105:358|125:321,1,59.5000011348725,2|0,0:0|0:0,0:0:0:0:
42,245,169032,1,2,0:0:0:0:
42,245,169182,2,0,L|56:310,1,59.5000011348725,2|2,0:0|0:0,0:0:0:0:
75,41,169632,2,0,L|89:106,1,59.5000011348725,2|0,0:0|0:0,0:0:0:0:
168,202,169932,1,2,0:0:0:0:
168,202,170082,2,0,L|182:137,1,59.5000011348725,2|2,0:0|0:0,0:0:0:0:
252,34,170382,6,0,P|283:52|323:55,1,59.5000011348725,2|2,0:0|0:0,0:0:0:0:
430,16,170682,2,0,P|398:33|376:66,1,59.5000011348725,2|0,0:0|0:0,0:0:0:0:
284,288,171132,2,0,P|284:252|266:216,1,59.5000011348725,2|0,0:0|0:0,0:0:0:0:
180,143,171432,1,2,0:0:0:0:
180,143,171582,2,0,P|211:161|250:164,1,59.5000011348725,2|2,0:0|0:0,0:0:0:0:
486,83,172082,2,0,L|490:29,1,39.6666674232483,2|0,0:0|0:0,0:0:0:0:
412,137,172332,1,0,0:0:0:0:
412,137,172482,2,0,L|420:206,1,59.5000011348725,2|2,0:0|0:0,0:0:0:0:
310,322,172932,5,2,0:0:0:0:
310,322,173082,2,0,P|275:307|242:306,1,59.5000011348725,2|0,0:0|0:0,0:0:0:0:
126,257,173382,1,0,0:0:0:0:
126,257,173532,2,0,P|163:253|192:240,1,59.5000011348725,2|0,0:0|0:0,0:0:0:0:
267,187,173832,1,2,0:0:0:0:
267,187,173982,2,0,L|252:314,1,119.000002269745,2|0,0:0|0:0,0:0:0:0:
244,381,174432,1,2,0:0:0:0:
371,217,174732,1,2,0:0:0:0:
371,217,174882,2,0,L|378:280,1,59.5000011348725,2|2,0:0|0:0,0:0:0:0:
159,318,175332,5,2,0:0:0:0:
159,318,175482,2,0,L|172:199,1,119.000002269745,2|2,0:0|0:0,0:0:0:0:
248,289,175932,2,0,L|261:170,1,119.000002269745,2|2,0:0|0:0,0:0:0:0:
337,260,176382,6,0,L|345:190,1,59.5000011348725,2|0,0:0|0:0,0:0:0:0:
422,27,176832,2,0,L|408:145,1,119.000002269745,2|2,0:0|0:0,0:0:0:0:
337,260,177282,2,0,L|345:190,2,59.5000011348725,2|0|2,0:0|0:0|0:0,0:0:0:0:
213,359,177732,5,2,0:0:0:0:
213,359,177882,2,0,P|200:335|109:291,1,119.000002269745,2|0,0:0|0:0,0:0:0:0:
6,347,178332,2,0,P|38:342|66:328,1,59.5000011348725,2|0,0:0|0:0,0:0:0:0:
125,207,178632,1,2,0:0:0:0:
125,207,178782,2,0,L|116:131,2,59.5000011348725,2|2|2,0:0|0:0|0:0,0:0:0:0:
219,299,179232,2,0,L|225:239,1,59.5000011348725,2|0,0:0|0:0,0:0:0:0:
315,125,179532,1,2,0:0:0:0:
315,125,179682,2,0,L|322:185,1,59.5000011348725,2|2,0:0|0:0,0:0:0:0:
382,314,179982,6,0,P|394:281|419:247,1,59.5000011348725,2|0,0:0|0:0,0:0:0:0:
493,201,180282,2,0,P|436:187|386:140,1,119.000002269745,2|2,0:0|0:0,0:0:0:0:
331,30,180732,1,2,0:0:0:0:
331,30,181032,5,2,0:0:0:0:
226,108,181182,2,0,P|193:112|154:103,1,59.5000011348725,2|0,0:0|0:0,0:0:0:0:
57,34,181482,2,0,L|54:3,4,29.7500005674362,2|2|2|2|2,0:0|0:0|0:0|0:0|0:0,0:0:0:0:
30,162,181932,1,0,0:0:0:0:
30,162,182082,2,0,L|35:221,1,59.5000011348725,2|2,0:0|0:0,0:0:0:0:
97,322,182382,6,0,L|102:262,1,59.5000011348725,0|2,0:0|0:0,0:0:0:0:
191,165,182682,2,0,P|243:196|313:207,1,119.000002269745,2|2,0:0|0:0,0:0:0:0:
209,70,183132,2,0,P|245:111|319:136,1,119.000002269745,2|0,0:0|0:0,0:0:0:0:
266,5,183582,5,2,0:0:0:0:
266,5,183732,2,0,P|277:34|310:62,1,59.5000011348725,2|0,0:0|0:0,0:0:0:0:
427,87,184032,2,0,P|396:82|355:96,1,59.5000011348725,2|0,0:0|0:0,0:0:0:0:
299,194,184332,2,0,L|302:134,2,59.5000011348725,2|2|2,0:0|0:0|0:0,0:0:0:0:
332,280,184782,6,0,L|338:322,1,41.9999987182618,2|2,3:2|0:0,0:0:0:0:
212,186,185242,2,0,L|206:228,1,41.9999987182618,2|2,0:0|0:0,0:0:0:0:
332,92,185692,2,0,L|345:186,1,83.9999974365235,2|0,0:0|0:0,0:0:0:0:
402,277,186142,2,0,L|408:235,1,41.9999987182618,2|2,0:0|0:0,0:0:0:0:
195,311,186592,5,2,0:0:0:0:
195,311,187182,6,0,L|186:220,1,70,6|0,3:1|0:0,0:0:0:0:
166,73,187482,1,8,0:0:0:0:
302,157,187632,2,0,P|266:168|233:169,1,70,2|2,0:0|0:0,0:0:0:0:
64,220,187932,1,0,3:2:0:0:
64,220,188082,2,0,P|98:222|132:232,1,70,10|0,0:0|0:0,0:0:0:0:
203,354,188382,6,0,P|205:320|215:282,1,70,0|0,3:2|0:0,0:0:0:0:
301,158,188682,2,0,P|324:217|336:304,1,140,10|2,0:0|0:0,0:0:0:0:
456,382,189132,1,0,3:2:0:0:
456,382,189282,2,0,P|462:337|478:295,1,70,10|0,0:0|0:0,0:0:0:0:
512,179,189582,6,0,P|470:195|425:202,1,70,2|0,3:2|0:0,0:0:0:0:
306,128,189882,1,10,0:0:0:0:
306,128,190032,2,0,L|328:297,1,140,2|0,0:0|3:2,0:0:0:0:
435,376,190482,2,0,L|442:306,1,70,10|0,0:0|0:0,0:0:0:0:
256,320,190782,6,0,P|287:347|327:355,1,70,0|0,3:2|0:0,0:0:0:0:
233,214,191082,2,0,P|194:227|167:257,1,70,8|0,0:0|0:0,0:0:0:0:
123,361,191382,1,2,0:0:0:0:
123,361,191457,1,0,0:0:0:0:
123,361,191532,1,0,3:2:0:0:
101,199,191682,2,0,L|94:119,1,70,10|0,0:0|0:0,0:0:0:0:
173,246,191982,6,0,P|106:282|25:246,1,140,2|8,3:2|0:0,0:0:0:0:
204,142,192432,2,0,L|214:293,1,140,2|0,0:0|3:2,0:0:0:0:
307,358,192882,2,0,L|318:281,1,70,10|0,0:0|0:0,0:0:0:0:
144,345,193182,6,0,P|175:368|220:377,1,70,0|0,3:2|0:0,0:0:0:0:
118,248,193482,2,0,P|82:263|52:297,1,70,8|0,0:0|0:0,0:0:0:0:
213,281,193782,2,0,P|217:242|206:197,1,70,2|0,0:0|3:2,0:0:0:0:
129,86,194082,2,0,P|124:124|139:167,1,70,10|0,0:0|0:0,0:0:0:0:
271,109,194382,5,2,3:2:0:0:
345,261,194532,2,0,L|351:183,1,70,2|8,3:2|0:0,0:0:0:0:
378,47,194832,1,2,3:2:0:0:
509,201,194982,2,0,L|494:124,1,70,2|0,3:2|0:0,0:0:0:0:
478,60,195207,1,0,3:2:0:0:
478,60,195282,1,10,0:0:0:0:
431,224,195432,1,2,3:2:0:0:
241,136,195732,5,2,3:2:0:0:
241,136,195882,2,0,P|203:135|153:156,1,70,10|0,0:0|3:2,0:0:0:0:
321,222,196182,2,0,L|336:77,1,140,2|10,3:2|0:0,0:0:0:0:
235,305,196782,6,0,L|245:383,1,70,2|0,3:2|0:0,0:0:0:0:
338,248,197082,1,8,0:0:0:0:
338,248,197232,2,0,L|348:170,1,70,2|2,0:0|0:0,0:0:0:0:
208,119,197532,1,0,3:2:0:0:
208,119,197682,2,0,L|218:197,1,70,10|0,0:0|0:0,0:0:0:0:
317,41,197982,5,0,3:2:0:0:
86,154,198282,2,0,P|52:155|13:141,1,70,10|0,0:0|0:0,0:0:0:0:
183,37,198582,2,0,L|174:115,1,70,2|0,0:0|3:2,0:0:0:0:
269,206,198882,2,0,L|260:128,1,70,10|2,0:0|0:0,0:0:0:0:
303,13,199182,6,0,P|368:56|436:61,1,140,2|10,3:2|0:0,0:0:0:0:
505,156,199632,2,0,P|469:165|438:182,1,70,2|0,0:0|0:0,0:0:0:0:
512,330,199932,1,0,3:2:0:0:
512,330,200082,2,0,L|506:248,1,70,10|0,0:0|0:0,0:0:0:0:
505,156,200382,5,0,3:2:0:0:
340,359,200682,1,8,0:0:0:0:
212,135,200982,2,0,P|223:174|223:226,1,70,2|0,0:0|3:2,0:0:0:0:
143,298,201282,2,0,P|132:264|130:229,1,70,10|0,0:0|0:0,0:0:0:0:
232,125,201582,6,0,P|249:181|257:267,1,140,2|8,3:2|0:0,0:0:0:0:
366,348,202032,1,2,0:0:0:0:
366,348,202182,2,0,P|368:310|379:273,1,70,0|0,0:0|3:2,0:0:0:0:
480,184,202482,2,0,P|448:198|419:218,1,70,10|0,0:0|0:0,0:0:0:0:
366,348,202782,5,0,3:2:0:0:
276,87,203082,1,8,0:0:0:0:
76,279,203382,2,0,P|111:288|147:284,1,70,2|0,0:0|3:2,0:0:0:0:
155,156,203682,2,0,P|129:181|115:214,1,70,10|0,0:0|0:0,0:0:0:0:
250,246,203982,5,0,3:2:0:0:
250,246,204132,1,0,3:2:0:0:
42,169,204432,5,0,3:2:0:0:
42,169,204582,1,0,3:2:0:0:
225,343,204882,5,0,3:2:0:0:
225,343,205032,1,0,3:2:0:0:
139,142,205332,5,0,3:2:0:0:
139,142,205482,1,0,3:2:0:0:
67,359,205782,6,0,L|50:228,1,119.000002269745,0|0,3:2|0:0,0:0:0:0:
260,112,206382,6,0,L|240:262,1,140,6|8,3:1|0:0,0:0:0:0:
145,362,206832,1,2,0:0:0:0:
145,362,206982,2,0,L|135:292,1,70,2|0,0:0|3:2,0:0:0:0:
263,182,207282,2,0,L|253:251,1,70,10|0,0:0|0:0,0:0:0:0:
332,384,207582,2,0,P|349:350|380:325,1,70,0|0,3:2|0:0,0:0:0:0:
470,261,207882,2,0,P|404:258|330:201,1,140,10|2,0:0|0:0,0:0:0:0:
261,98,208332,1,0,3:2:0:0:
261,98,208482,2,0,L|252:182,1,70,10|0,0:0|0:0,0:0:0:0:
184,279,208782,6,0,P|154:225|61:185,1,140,2|10,3:2|0:0,0:0:0:0:
1,114,209232,2,0,P|62:115|143:54,1,140,2|0,0:0|3:2,0:0:0:0:
267,0,209682,2,0,P|256:31|257:76,1,70,10|0,0:0|0:0,0:0:0:0:
289,211,209982,5,0,3:2:0:0:
512,119,210282,1,8,0:0:0:0:
247,0,210582,2,0,L|256:80,1,70,2|0,0:0|3:2,0:0:0:0:
127,211,210882,2,0,L|136:131,1,70,10|0,0:0|0:0,0:0:0:0:
237,3,211182,6,0,L|252:144,1,140,2|10,3:2|0:0,0:0:0:0:
243,270,211632,2,0,P|307:221|384:221,1,140,2|0,0:0|3:2,0:0:0:0:
489,179,212082,2,0,P|450:168|419:149,1,70,10|0,0:0|0:0,0:0:0:0:
343,31,212382,5,0,3:2:0:0:
271,153,212532,1,0,0:0:0:0:
108,48,212682,2,0,P|149:58|186:80,1,70,8|0,0:0|0:0,0:0:0:0:
110,217,212982,2,0,L|104:133,1,70,2|0,0:0|3:0,0:0:0:0:
213,277,213282,2,0,L|207:361,1,70,10|0,0:0|0:0,0:0:0:0:
333,384,213582,5,2,3:2:0:0:
333,384,213732,2,0,P|364:350|409:337,1,70,2|8,0:0|0:0,0:0:0:0:
504,273,214032,1,2,0:0:0:0:
504,273,214182,2,0,P|459:263|425:230,1,70,2|0,0:0|3:2,0:0:0:0:
327,178,214482,2,0,L|334:248,1,70,10|2,0:0|0:0,0:0:0:0:
221,321,214782,6,0,L|229:248,1,70,0|0,3:2|0:0,0:0:0:0:
149,125,215082,2,0,L|157:198,1,70,10|2,0:0|0:0,0:0:0:0:
235,334,215382,2,0,L|243:261,1,70,2|0,0:0|3:2,0:0:0:0:
163,112,215682,2,0,L|171:185,1,70,10|0,0:0|0:0,0:0:0:0:
332,247,215982,6,0,P|411:251|471:205,1,140,2|8,3:2|0:0,0:0:0:0:
395,88,216432,1,2,0:0:0:0:
395,88,216582,2,0,P|379:121|377:157,1,70,2|0,0:0|3:2,0:0:0:0:
484,229,216882,2,0,P|499:195|501:159,1,70,10|0,0:0|0:0,0:0:0:0:
322,258,217182,6,0,P|355:273|391:275,1,70,0|0,3:2|0:0,0:0:0:0:
263,121,217482,2,0,L|252:206,1,70,10|0,0:0|0:0,0:0:0:0:
243,332,217782,1,2,0:0:0:0:
243,332,217857,1,0,0:0:0:0:
243,332,217932,1,0,3:2:0:0:
126,246,218082,2,0,P|168:213|204:205,1,70,10|0,0:0|0:0,0:0:0:0:
263,121,218382,6,0,P|187:97|144:42,1,140,2|8,3:2|0:0,0:0:0:0:
364,26,218832,2,0,L|355:168,1,140,2|0,0:0|3:2,0:0:0:0:
449,261,219282,2,0,L|441:172,1,70,10|0,0:0|0:0,0:0:0:0:
310,322,219582,6,0,P|344:338|395:334,1,70,0|0,3:2|0:0,0:0:0:0:
258,210,219882,1,8,0:0:0:0:
210,356,220032,1,0,0:0:0:0:
211,356,220107,1,0,0:0:0:0:
210,356,220182,1,2,0:0:0:0:
148,272,220332,1,0,3:2:0:0:
310,322,220482,2,0,P|349:323|383:315,1,70,10|0,0:0|0:0,0:0:0:0:
469,213,220782,6,0,L|456:371,1,140,2|8,3:2|0:0,0:0:0:0:
336,234,221232,2,0,L|323:76,1,140,2|0,0:0|3:2,0:0:0:0:
462,68,221682,2,0,L|455:147,1,70,10|0,0:0|0:0,0:0:0:0:
351,251,221982,6,0,L|345:181,1,70,0|0,3:2|0:0,0:0:0:0:
255,113,222282,2,0,P|222:133|178:138,1,70,10|0,0:0|0:0,0:0:0:0:
162,134,222507,1,0,0:0:0:0:
162,134,222582,1,2,0:0:0:0:
268,13,222732,1,0,3:2:0:0:
356,180,222882,2,0,L|361:110,1,70,10|0,0:0|0:0,0:0:0:0:
438,26,223182,5,0,3:2:0:0:
438,26,223332,1,0,3:2:0:0:
428,259,223632,5,0,3:2:0:0:
428,259,223782,1,0,3:2:0:0:
255,113,224082,5,0,3:2:0:0:
255,113,224232,1,0,3:2:0:0:
438,26,224532,5,0,3:2:0:0:
438,26,224682,1,0,3:2:0:0:
283,250,224982,5,2,3:2:0:0:
283,250,225582,6,0,P|259:242|229:239,1,56,0|0,3:2|0:0,0:0:0:0:
136,311,225882,2,0,L|129:355,4,28,10|0|0|0|0,0:0|0:0|0:0|0:0|0:0,0:0:0:0:
91,208,226332,1,2,3:2:0:0:
91,208,226482,2,0,L|78:131,1,56,10|0,0:0|0:0,0:0:0:0:
46,45,226782,6,0,P|106:77|171:73,1,112,2|8,3:2|0:0,0:0:0:0:
233,18,227232,2,0,L|223:138,1,112,2|0,0:0|3:2,0:0:0:0:
296,232,227682,2,0,L|290:169,1,56,10|2,0:0|0:0,0:0:0:0:
330,83,227982,6,0,P|354:91|384:94,1,56,0|0,3:2|0:0,0:0:0:0:
478,69,228282,2,0,L|482:41,4,28,10|0|0|0|0,0:0|0:0|0:0|0:0|0:0,0:0:0:0:
464,174,228732,1,2,3:2:0:0:
464,174,228882,2,0,L|472:249,1,56,10|0,0:0|0:0,0:0:0:0:
501,344,229182,6,0,P|453:315|398:310,1,112,2|8,3:2|0:0,0:0:0:0:
303,259,229632,2,0,P|258:287|187:280,1,112,2|0,0:0|3:2,0:0:0:0:
100,230,230082,1,10,0:0:0:0:
149,340,230232,1,2,0:0:0:0:
234,211,230382,6,0,P|238:181|238:148,1,56,0|0,3:2|0:0,0:0:0:0:
200,49,230682,2,0,L|179:17,4,28,10|0|0|0|0,0:0|0:0|0:0|0:0|0:0,0:0:0:0:
300,101,231132,1,2,3:2:0:0:
300,101,231282,2,0,P|327:102|361:94,1,56,10|0,0:0|0:0,0:0:0:0:
455,49,231582,6,0,L|445:170,1,112,2|8,3:2|0:0,0:0:0:0:
405,269,232032,2,0,P|387:220|347:166,1,112,2|0,0:0|3:2,0:0:0:0:
276,251,232482,2,0,P|269:281|270:318,1,56,10|2,0:0|0:0,0:0:0:0:
159,384,232782,6,0,P|158:356|151:328,1,56,0|0,3:2|0:0,0:0:0:0:
68,244,233082,2,0,P|52:241|33:236,4,28,10|0|0|0|0,0:0|0:0|0:0|0:0|0:0,0:0:0:0:
174,208,233532,1,2,3:2:0:0:
174,208,233682,2,0,P|183:181|187:153,1,56,10|0,0:0|0:0,0:0:0:0:
239,42,233982,6,0,P|244:92|273:153,1,112,2|8,3:2|0:0,0:0:0:0:
365,235,234432,2,0,P|396:188|411:135,1,112,2|0,0:0|3:2,0:0:0:0:
436,21,234882,1,10,0:0:0:0:
489,126,235032,1,2,0:0:0:0:
368,57,235182,6,0,P|337:53|307:57,1,56,0|0,3:2|0:0,0:0:0:0:
221,143,235482,2,0,P|218:160|220:184,4,28,10|0|0|0|0,0:0|0:0|0:0|0:0|0:0,0:0:0:0:
140,44,235932,1,2,3:2:0:0:
140,44,236082,2,0,P|110:54|80:59,1,56,10|0,0:0|0:0,0:0:0:0:
5,157,236382,6,0,P|54:186|85:233,1,112,2|10,3:2|0:0,0:0:0:0:
100,340,236832,2,0,P|129:302|190:268,1,112,2|0,0:0|3:2,0:0:0:0:
294,327,237282,2,0,P|304:354|312:385,1,56,10|2,0:0|0:0,0:0:0:0:
363,253,237582,6,0,P|369:225|380:199,1,56,0|0,3:2|0:0,0:0:0:0:
456,108,237882,2,0,L|486:93,4,28,8|0|0|0|2,0:0|0:0|0:0|0:0|0:0,0:0:0:0:
356,127,238332,1,2,3:2:0:0:
356,127,238482,2,0,P|329:122|302:109,1,56,8|0,0:0|0:0,0:0:0:0:
239,31,238782,6,0,P|205:79|151:107,1,112,2|8,3:2|0:0,0:0:0:0:
58,114,239232,2,0,P|82:167|80:227,1,112,2|0,0:0|3:2,0:0:0:0:
40,320,239682,1,10,0:0:0:0:
9,187,239832,1,2,0:0:0:0:
159,224,239982,6,0,L|222:216,1,56,0|0,3:2|0:0,0:0:0:0:
310,170,240282,2,0,L|342:173,4,28,10|0|0|0|0,0:0|0:0|0:0|0:0|0:0,0:0:0:0:
222,106,240732,1,2,3:2:0:0:
222,106,240882,2,0,P|211:74|209:29,1,56,8|0,0:0|0:0,0:0:0:0:
318,58,241182,6,0,L|308:185,1,112,2|8,3:2|0:0,0:0:0:0:
302,275,241632,2,0,P|339:240|399:222,1,112,2|0,0:0|3:2,0:0:0:0:
494,288,242082,2,0,L|489:345,1,56,10|2,0:0|0:0,0:0:0:0:
376,380,242382,6,0,P|371:352|371:324,1,56,0|0,3:2|0:0,0:0:0:0:
397,223,242682,2,0,L|408:196,4,28,10|0|0|0|0,0:0|0:0|0:0|0:0|0:0,0:0:0:0:
301,275,243132,1,2,3:2:0:0:
301,275,243282,2,0,P|266:280|227:272,1,56,8|0,0:0|0:0,0:0:0:0:
144,217,243582,6,0,L|156:349,1,132.999996448517,2|8,3:2|0:0,0:0:0:0:
46,274,244032,2,0,L|58:141,1,132.999996448517,2|0,0:0|3:2,0:0:0:0:
125,31,244482,1,10,0:0:0:0:
147,138,244632,1,0,0:0:0:0:
252,52,244782,6,0,B|277:47|300:59|300:59|311:44|311:44|334:58|364:50,1,115.50000352478,4|0,3:1|0:0,0:0:0:0:
256,192,245082,12,0,249582,0:0:0:0:
