osu file format v14

[General]
AudioFilename: audio.mp3
AudioLeadIn: 0
PreviewTime: 184782
Countdown: 0
SampleSet: Soft
StackLeniency: 0.7
Mode: 0
LetterboxInBreaks: 0
EpilepsyWarning: 1
WidescreenStoryboard: 1

[Editor]
Bookmarks: 190940,191165,191390,191615,191765,191990,195882,228287
DistanceSpacing: 1.7
BeatDivisor: 12
GridSize: 4
TimelineZoom: 2.5

[Metadata]
Title:Fortuna Redux
TitleUnicode:Fortuna Redux
Artist:Fractal Dreamers
ArtistUnicode:Fractal Dreamers
Creator:DTM9 Nowa
Version:Hard
Source:osu!
Tags:Helblinde Kingdom of Silence EP artcore dnb Featured Artist mappers' guild Mapping With Rewards 2017 mwr Instrumental Electronic
BeatmapID:1506913
BeatmapSetID:712974

[Difficulty]
HPDrainRate:5
CircleSize:3.5
OverallDifficulty:6
ApproachRate:7.8
SliderMultiplier:1.25
SliderTickRate:1

[Events]
//Background and Video events
0,0,"Fractal.jpg",0,0
//Break Periods
//Storyboard Layer 0 (Background)
//Storyboard Layer 1 (Fail)
//Storyboard Layer 2 (Pass)
//Storyboard Layer 3 (Foreground)
Sprite,Foreground,Centre,"sb/hl.png",200,99 S,2,114882,115632,0.7,0.14 F,2,114882,115632,1,0 P,0,114882,115632,A C,0,114882,,36,74,255
Sprite,Foreground,Centre,"sb/hl.png",0,0 S,2,115182,116382,0.7,0.14 F,2,115182,116382,1,0 P,0,115182,116382,A C,0,115182,,223,223,223 M,0,115182,115219,391,147,399.0257,138.509 M,0,115219,115257,399.0257,138.509,408.0519,131.1126 M,0,115257,115294,408.0519,131.1126,417.8097,124.7077 M,0,115294,115332,417.8097,124.7077,428.5446,120.1163 M,0,115332,115369,428.5446,120.1163,439.7659,116.9254 M,0,115369,115407,439.7659,116.9254,451.275,115.0974 M,0,115407,115444,451.275,115.0974,439.7659,116.9254 M,0,115444,115482,439.7659,116.9254,428.5446,120.1163 M,0,115482,115519,428.5446,120.1163,417.8097,124.7076 M,0,115519,115557,417.8097,124.7076,408.0519,131.1126 M,0,115557,115594,408.0519,131.1126,399.0257,138.509 M,0,115594,115632,399.0257,138.509,391,147
Sprite,Foreground,Centre,"sb/hl.png",0,0 S,2,115782,116982,0.7,0.14 F,2,115782,116982,1,0 P,0,115782,116982,A C,0,115782,,223,223,223 M,0,115782,115819,416,222,419.1291,233.2578 M,0,115819,115857,419.1291,233.2578,420.8244,244.8051 M,0,115857,115894,420.8244,244.8051,421.288,256.4669 M,0,115894,115932,421.288,256.4669,419.7403,268.04 M,0,115932,115969,419.7403,268.04,417.1164,279.4366 M,0,115969,116007,417.1164,279.4366,412.4416,290.1435 M,0,116007,116044,412.4416,290.1435,417.1164,279.4366 M,0,116044,116082,417.1164,279.4366,419.7403,268.04 M,0,116082,116119,419.7403,268.04,421.288,256.4669 M,0,116119,116157,421.288,256.4669,420.8244,244.8051 M,0,116157,116194,420.8244,244.8051,419.1291,233.2578 M,0,116194,116232,419.1291,233.2578,416,222
Sprite,Foreground,Centre,"sb/hl.png",0,0 S,2,116382,117582,0.7,0.14 F,2,116382,117582,1,0 P,0,116382,117582,A C,0,116382,,223,223,223 M,0,116382,116419,338,207,326.6288,204.3146 M,0,116419,116457,326.6288,204.3146,315.7114,200.1969 M,0,116457,116494,315.7114,200.1969,305.4213,194.7148 M,0,116494,116532,305.4213,194.7148,295.7752,188.1629 M,0,116532,116569,295.7752,188.1629,287.4084,180.0254 M,0,116569,116607,287.4084,180.0254,279.836,171.1094 M,0,116607,116644,279.836,171.1094,287.4084,180.0254 M,0,116644,116682,287.4084,180.0254,295.7752,188.1629 M,0,116682,116719,295.7752,188.1629,305.4213,194.7148 M,0,116719,116757,305.4213,194.7148,315.7114,200.1969 M,0,116757,116794,315.7114,200.1969,326.6288,204.3146 M,0,116794,116832,326.6288,204.3146,338,207
Sprite,Foreground,Centre,"sb/hl.png",421,214 S,2,116982,117732,0.7,0.14 F,2,116982,117732,1,0 P,0,116982,117732,A C,0,116982,,223,223,223
Sprite,Foreground,Centre,"sb/hl.png",0,0 S,2,136782,137982,0.7,0.14 F,2,136782,137982,1,0 P,0,136782,137982,A C,0,136782,,223,223,223 M,0,136782,136819,354,359,365.5665,360.8829 M,0,136819,136857,365.5665,360.8829,377.133,362.7658 M,0,136857,136894,377.133,362.7658,388.6995,364.6487 M,0,136894,136932,388.6995,364.6487,400.266,366.5317 M,0,136932,136969,400.266,366.5317,411.8325,368.4146 M,0,136969,137007,411.8325,368.4146,423.399,370.2975 M,0,137007,137044,423.399,370.2975,411.8325,368.4146 M,0,137044,137082,411.8325,368.4146,400.266,366.5317 M,0,137082,137119,400.266,366.5317,388.6995,364.6487 M,0,137119,137157,388.6995,364.6487,377.133,362.7658 M,0,137157,137194,377.133,362.7658,365.5665,360.8829 M,0,137194,137232,365.5665,360.8829,354,359
Sprite,Foreground,Centre,"sb/hl.png",0,0 S,2,137382,138582,0.7,0.14 F,2,137382,138582,1,0 P,0,137382,138582,A C,0,137382,,223,223,223 M,0,137382,137419,292,308,280.4335,309.8829 M,0,137419,137457,280.4335,309.8829,268.867,311.7658 M,0,137457,137494,268.867,311.7658,257.3005,313.6487 M,0,137494,137532,257.3005,313.6487,245.734,315.5317 M,0,137532,137569,245.734,315.5317,234.1675,317.4146 M,0,137569,137607,234.1675,317.4146,222.601,319.2975 M,0,137607,137644,222.601,319.2975,234.1675,317.4146 M,0,137644,137682,234.1675,317.4146,245.734,315.5317 M,0,137682,137719,245.734,315.5317,257.3005,313.6487 M,0,137719,137757,257.3005,313.6487,268.867,311.7658 M,0,137757,137794,268.867,311.7658,280.4335,309.8829 M,0,137794,137832,280.4335,309.8829,292,308
Sprite,Foreground,Centre,"sb/hl.png",0,0 S,2,137982,139182,0.7,0.14 F,2,137982,139182,1,0 P,0,137982,139182,A C,0,137982,,223,223,223 M,0,137982,138019,346,249,357.5665,250.8829 M,0,138019,138057,357.5665,250.8829,369.133,252.7658 M,0,138057,138094,369.133,252.7658,380.6995,254.6488 M,0,138094,138132,380.6995,254.6488,392.266,256.5317 M,0,138132,138169,392.266,256.5317,403.8325,258.4146 M,0,138169,138207,403.8325,258.4146,415.399,260.2975 M,0,138207,138244,415.399,260.2975,403.8325,258.4146 M,0,138244,138282,403.8325,258.4146,392.266,256.5317 M,0,138282,138319,392.266,256.5317,380.6995,254.6488 M,0,138319,138357,380.6995,254.6488,369.133,252.7658 M,0,138357,138394,369.133,252.7658,357.5665,250.8829 M,0,138394,138432,357.5665,250.8829,346,249
Sprite,Foreground,Centre,"sb/hl.png",0,0 S,2,138582,139482,0.7,0.14 F,2,138582,139482,1,0 P,0,138582,139482,A C,0,138582,,223,223,223 M,0,138582,138619,272,218,264.3256,209.1894 M,0,138619,138657,264.3256,209.1894,257.8203,199.4984 M,0,138657,138694,257.8203,199.4984,252.5022,189.1219 M,0,138694,138732,252.5022,189.1219,248.937,178.0063
Sprite,Foreground,Centre,"sb/hl.png",0,0 S,2,138882,139857,0.7,0.14 F,2,138882,139857,1,0 P,0,138882,139857,A C,0,138882,,223,223,223 M,0,138882,138919,188,125,176.3191,124.987 M,0,138919,138957,176.3191,124.987,164.6946,123.6877 M,0,138957,138994,164.6946,123.6877,176.3191,124.987 M,0,138994,139032,176.3191,124.987,188,125 M,0,139032,139069,188,125,176.3191,124.987 M,0,139069,139107,176.3191,124.987,164.6946,123.6877
Sprite,Foreground,Centre,"sb/hl.png",0,0 S,2,139182,140531,0.7,0.14 F,2,139182,140531,1,0 P,0,139182,140531,A C,0,139182,,149,255,218 M,0,139182,139219,127,108,127.9744,118.1094 M,0,139219,139257,127.9744,118.1094,128.9488,128.2188 M,0,139257,139294,128.9488,128.2188,129.9232,138.3282 M,0,139294,139332,129.9232,138.3282,130.8976,148.4376 M,0,139332,139369,130.8976,148.4376,131.872,158.547 M,0,139369,139407,131.872,158.547,132.8464,168.6564 M,0,139407,139444,132.8464,168.6564,133.8208,178.7658 M,0,139444,139482,133.8208,178.7658,134.7952,188.8752 M,0,139482,139519,134.7952,188.8752,135.7696,198.9846 M,0,139519,139557,135.7696,198.9846,136.744,209.094 M,0,139557,139594,136.744,209.094,137.7184,219.2034 M,0,139594,139632,137.7184,219.2034,138.6928,229.3128 M,0,139632,139669,138.6928,229.3128,139.6672,239.4222 M,0,139669,139707,139.6672,239.4222,140.6416,249.5316 M,0,139707,139744,140.6416,249.5316,141.616,259.641 M,0,139744,139781,141.616,259.641,142.5904,269.7504
Sprite,Foreground,Centre,"sb/hl.png",0,0 S,2,140082,141431,0.7,0.14 F,2,140082,141431,1,0 P,0,140082,141431,A C,0,140082,,149,255,218 M,0,140082,140119,204,402,208.0909,392.7159 M,0,140119,140157,208.0909,392.7159,212.9106,383.7946 M,0,140157,140194,212.9106,383.7946,218.4284,375.292 M,0,140194,140232,218.4284,375.292,224.6091,367.2614 M,0,140232,140269,224.6091,367.2614,231.2527,359.5995 M,0,140269,140307,231.2527,359.5995,238.7294,352.7461 M,0,140307,140344,238.7294,352.7461,246.7282,346.5173 M,0,140344,140382,246.7282,346.5173,255.1982,340.952 M,0,140382,140419,255.1982,340.952,264.0861,336.085 M,0,140419,140457,264.0861,336.085,273.2698,331.7983 M,0,140457,140494,273.2698,331.7983,282.8691,328.5307 M,0,140494,140532,282.8691,328.5307,292.6957,326.0447 M,0,140532,140569,292.6957,326.0447,302.6877,324.3554 M,0,140569,140607,302.6877,324.3554,312.7684,323.2466 M,0,140607,140644,312.7684,323.2466,322.9111,323.3017 M,0,140644,140681,322.9111,323.3017,333.012,324.1699
Sprite,Foreground,Centre,"sb/hl.png",0,0 S,2,140982,142031,0.7,0.14 F,2,140982,142031,1,0 P,0,140982,142031,A C,0,140982,,149,255,218 M,0,140982,141019,434,431,443.7857,433.6896 M,0,141019,141057,443.7857,433.6896,453.7241,435.7267 M,0,141057,141094,453.7241,435.7267,463.7728,437.1028 M,0,141094,141132,463.7728,437.1028,473.8809,438.0303 M,0,141132,141169,473.8809,438.0303,484.0291,437.9583 M,0,141169,141207,484.0291,437.9583,494.1468,437.2167 M,0,141207,141244,494.1468,437.2167,504.1911,435.8092 M,0,141244,141281,504.1911,435.8092,514,434
Sprite,Foreground,Centre,"sb/hl.png",563,374 S,2,141432,142182,0.7,0.14 F,2,141432,142182,1,0 P,0,141432,142182,A C,0,141432,,149,255,218
Sprite,Foreground,Centre,"sb/hl.png",0,0 S,2,141582,142931,0.7,0.14 F,2,141582,142931,1,0 P,0,141582,142931,A C,0,141582,,36,74,255 M,0,141582,141619,563,374,561.5026,363.9547 M,0,141619,141657,561.5026,363.9547,560.0051,353.9095 M,0,141657,141694,560.0051,353.9095,558.5077,343.8642 M,0,141694,141732,558.5077,343.8642,557.0103,333.819 M,0,141732,141769,557.0103,333.819,555.5128,323.7737 M,0,141769,141807,555.5128,323.7737,554.0154,313.7285 M,0,141807,141844,554.0154,313.7285,552.518,303.6832 M,0,141844,141882,552.518,303.6832,551.0206,293.638 M,0,141882,141919,551.0206,293.638,549.5231,283.5927 M,0,141919,141957,549.5231,283.5927,548.0257,273.5475 M,0,141957,141994,548.0257,273.5475,546.5283,263.5022 M,0,141994,142032,546.5283,263.5022,545.0309,253.457 M,0,142032,142069,545.0309,253.457,543.5334,243.4117 M,0,142069,142107,543.5334,243.4117,542.036,233.3665 M,0,142107,142144,542.036,233.3665,540.5386,223.3212 M,0,142144,142181,540.5386,223.3212,539.0411,213.276
Sprite,Foreground,Centre,"sb/hl.png",0,0 S,2,142482,143831,0.7,0.14 F,2,142482,143831,1,0 P,0,142482,143831,A C,0,142482,,36,74,255 M,0,142482,142519,490,84,482.8383,91.19029 M,0,142519,142557,482.8383,91.19029,475.2039,97.8707 M,0,142557,142594,475.2039,97.8707,467.1323,104.0108 M,0,142594,142632,467.1323,104.0108,458.6606,109.5828 M,0,142632,142669,458.6606,109.5828,449.9263,114.7472 M,0,142669,142707,449.9263,114.7472,440.7219,119.0182 M,0,142707,142744,440.7219,119.0182,431.25,122.6477 M,0,142744,142782,431.25,122.6477,421.5542,125.6191 M,0,142782,142819,421.5542,125.6191,411.679,127.9193 M,0,142819,142857,411.679,127.9193,401.6953,129.7132 M,0,142857,142894,401.6953,129.7132,391.5832,130.5393 M,0,142894,142932,391.5832,130.5393,381.4415,130.671 M,0,142932,142969,381.4415,130.671,371.3167,130.108 M,0,142969,143007,371.3167,130.108,361.2555,128.8529 M,0,143007,143044,361.2555,128.8529,351.2756,127.0532 M,0,143044,143081,351.2756,127.0532,341.5023,124.3335
Sprite,Foreground,Centre,"sb/hl.png",0,0 S,2,143382,144281,0.7,0.14 F,2,143382,144281,1,0 P,0,143382,144281,A C,0,143382,,36,74,255 M,0,143382,143419,214,70,209.9203,79.29279 M,0,143419,143457,209.9203,79.29279,206.5125,88.84836 M,0,143457,143494,206.5125,88.84836,203.793,98.61885 M,0,143494,143531,203.793,98.61885,201.7753,108.5554
Sprite,Foreground,Centre,"sb/hl.png",0,0 S,2,143682,144581,0.7,0.14 F,2,143682,144581,1,0 P,0,143682,144581,A C,0,143682,,36,74,255 M,0,143682,143719,125,129,128.6311,138.4748 M,0,143719,143757,128.6311,138.4748,132.9941,147.6303 M,0,143757,143794,132.9941,147.6303,138.0617,156.4109 M,0,143794,143831,138.0617,156.4109,143.8026,164.7631
Sprite,Foreground,Centre,"sb/hl.png",0,0 S,2,143982,144882,0.7,0.14 F,2,143982,144882,1,0 P,0,143982,144882,A C,0,143982,,223,223,223 M,0,143982,144019,135,255,137.392,268.0641 M,0,144019,144057,137.392,268.0641,139.784,281.1281 M,0,144057,144094,139.784,281.1281,142.176,294.1922 M,0,144094,144132,142.176,294.1922,144.5681,307.2563
Sprite,Foreground,Centre,"sb/hl.png",0,0 S,2,144432,145332,0.7,0.14 F,2,144432,145332,1,0 P,0,144432,145332,A C,0,144432,,223,223,223 M,0,144432,144469,294,408,296.392,394.9359 M,0,144469,144507,296.392,394.9359,298.784,381.8719 M,0,144507,144544,298.784,381.8719,301.176,368.8078 M,0,144544,144582,301.176,368.8078,303.5681,355.7437
Sprite,Foreground,Centre,"sb/hl.png",0,0 S,2,144882,145782,0.7,0.14 F,2,144882,145782,1,0 P,0,144882,145782,A C,0,144882,,149,255,218 M,0,144882,144919,217,196,219.392,209.0641 M,0,144919,144957,219.392,209.0641,221.784,222.1281 M,0,144957,144994,221.784,222.1281,224.176,235.1922 M,0,144994,145032,224.176,235.1922,226.5681,248.2563
Sprite,Foreground,Centre,"sb/hl.png",0,0 S,2,145332,146232,0.7,0.14 F,2,145332,146232,1,0 P,0,145332,146232,A C,0,145332,,149,255,218 M,0,145332,145369,386,372,388.392,358.9359 M,0,145369,145407,388.392,358.9359,390.784,345.8719 M,0,145407,145444,390.784,345.8719,393.176,332.8078 M,0,145444,145482,393.176,332.8078,395.5681,319.7437
Sprite,Foreground,Centre,"sb/hl.png",430,164 S,2,145782,146532,0.7,0.14 F,2,145782,146532,1,0 P,0,145782,146532,A C,0,145782,,149,255,218
Sprite,Foreground,Centre,"sb/hl.png",0,0 S,2,146382,147282,0.7,0.14 F,2,146382,147282,1,0 P,0,146382,147282,A C,0,146382,,36,74,255 M,0,146382,146419,125,202,127.392,215.0641 M,0,146419,146457,127.392,215.0641,129.784,228.1281 M,0,146457,146494,129.784,228.1281,132.176,241.1922 M,0,146494,146532,132.176,241.1922,134.5681,254.2563
Sprite,Foreground,Centre,"sb/hl.png",0,0 S,2,146832,147732,0.7,0.14 F,2,146832,147732,1,0 P,0,146832,147732,A C,0,146832,,36,74,255 M,0,146832,146869,284,355,286.392,341.9359 M,0,146869,146907,286.392,341.9359,288.784,328.8719 M,0,146907,146944,288.784,328.8719,291.176,315.8078 M,0,146944,146982,291.176,315.8078,293.5681,302.7437
Sprite,Foreground,Centre,"sb/hl.png",0,0 S,2,147282,148182,0.7,0.14 F,2,147282,148182,1,0 P,0,147282,148182,A C,0,147282,,223,223,223 M,0,147282,147319,207,143,209.392,156.0641 M,0,147319,147357,209.392,156.0641,211.784,169.1281 M,0,147357,147394,211.784,169.1281,214.176,182.1922 M,0,147394,147432,214.176,182.1922,216.5681,195.2563
Sprite,Foreground,Centre,"sb/hl.png",0,0 S,2,147732,148632,0.7,0.14 F,2,147732,148632,1,0 P,0,147732,148632,A C,0,147732,,223,223,223 M,0,147732,147769,376,319,378.392,305.9359 M,0,147769,147807,378.392,305.9359,380.784,292.8719 M,0,147807,147844,380.784,292.8719,383.176,279.8078 M,0,147844,147882,383.176,279.8078,385.5681,266.7437
Sprite,Foreground,Centre,"sb/hl.png",420,111 S,2,148182,148932,0.7,0.14 F,2,148182,148932,1,0 P,0,148182,148932,A C,0,148182,,223,223,223
Sprite,Foreground,Centre,"sb/hl.png",0,0 S,2,148782,150131,0.7,0.14 F,2,148782,150131,1,0 P,0,148782,150131,A C,0,148782,,149,255,218 M,0,148782,148819,127,273,137.1285,273.7502 M,0,148819,148857,137.1285,273.7502,147.257,274.5005 M,0,148857,148894,147.257,274.5005,157.3855,275.2508 M,0,148894,148932,157.3855,275.2508,167.514,276.001 M,0,148932,148969,167.514,276.001,177.6425,276.7513 M,0,148969,149007,177.6425,276.7513,187.771,277.5016 M,0,149007,149044,187.771,277.5016,197.8995,278.2518 M,0,149044,149082,197.8995,278.2518,208.028,279.0021 M,0,149082,149119,208.028,279.0021,218.1565,279.7523 M,0,149119,149157,218.1565,279.7523,228.285,280.5026 M,0,149157,149194,228.285,280.5026,238.4135,281.2529 M,0,149194,149232,238.4135,281.2529,248.542,282.0031 M,0,149232,149269,248.542,282.0031,258.6705,282.7534 M,0,149269,149307,258.6705,282.7534,268.799,283.5036 M,0,149307,149344,268.799,283.5036,278.9275,284.2539 M,0,149344,149381,278.9275,284.2539,289,285
Sprite,Foreground,Centre,"sb/hl.png",0,0 S,2,149682,151031,0.7,0.14 F,2,149682,151031,1,0 P,0,149682,151031,A C,0,149682,,149,255,218 M,0,149682,149719,415,339,408.6069,331.1366 M,0,149719,149757,408.6069,331.1366,403.1324,322.6205 M,0,149757,149794,403.1324,322.6205,398.641,313.5548 M,0,149794,149832,398.641,313.5548,394.8851,304.1437 M,0,149832,149869,394.8851,304.1437,392.6942,294.2523 M,0,149869,149907,392.6942,294.2523,391.6167,284.188 M,0,149907,149944,391.6167,284.188,391.6641,274.072 M,0,149944,149982,391.6641,274.072,392.5752,263.9883 M,0,149982,150019,392.5752,263.9883,395.0485,254.1666 M,0,150019,150057,395.0485,254.1666,398.5946,244.6884 M,0,150057,150094,398.5946,244.6884,403.1699,235.6669 M,0,150094,150132,403.1699,235.6669,408.5439,227.0943 M,0,150132,150169,408.5439,227.0943,415.1546,219.4243 M,0,150169,150207,415.1546,219.4243,422.571,212.5412 M,0,150207,150244,422.571,212.5412,430.5082,206.2319 M,0,150244,150281,430.5082,206.2319,439.3715,201.3196
Sprite,Foreground,Centre,"sb/hl.png",0,0 S,2,150582,151631,0.7,0.14 F,2,150582,151631,1,0 P,0,150582,151631,A C,0,150582,,149,255,218 M,0,150582,150619,558,285,547.8715,284.2498 M,0,150619,150657,547.8715,284.2498,537.743,283.4995 M,0,150657,150694,537.743,283.4995,527.6145,282.7492 M,0,150694,150732,527.6145,282.7492,517.486,281.999 M,0,150732,150769,517.486,281.999,507.3575,281.2487 M,0,150769,150807,507.3575,281.2487,497.229,280.4984 M,0,150807,150844,497.229,280.4984,487.1005,279.7482 M,0,150844,150881,487.1005,279.7482,477,279
Sprite,Foreground,Centre,"sb/hl.png",0,0 S,2,151182,152531,0.7,0.14 F,2,151182,152531,1,0 P,0,151182,152531,A C,0,151182,,36,74,255 M,0,151182,151219,341,384,337.3543,374.5436 M,0,151219,151257,337.3543,374.5436,332.6938,365.5555 M,0,151257,151294,332.6938,365.5555,327.0752,357.1411 M,0,151294,151332,327.0752,357.1411,320.8042,349.1793 M,0,151332,151369,320.8042,349.1793,313.337,342.3306 M,0,151369,151407,313.337,342.3306,305.1686,336.3517 M,0,151407,151444,305.1686,336.3517,296.3961,331.3123 M,0,151444,151482,296.3961,331.3123,287.228,327.0079 M,0,151482,151519,287.228,327.0079,277.4971,324.1927 M,0,151519,151557,277.4971,324.1927,267.5239,322.4681 M,0,151557,151594,267.5239,322.4681,257.4264,321.8533 M,0,151594,151632,257.4264,321.8533,247.3073,322.114 M,0,151632,151669,247.3073,322.114,237.3414,323.9171 M,0,151669,151707,237.3414,323.9171,227.6424,326.805 M,0,151707,151744,227.6424,326.805,218.3245,330.7423 M,0,151744,151781,218.3245,330.7423,209.4001,335.508
Sprite,Foreground,Centre,"sb/hl.png",108,431 S,2,152082,152832,0.7,0.14 F,2,152082,152832,1,0 P,0,152082,152832,A C,0,152082,,36,74,255
Sprite,Foreground,Centre,"sb/hl.png",0,0 S,2,152382,153431,0.7,0.14 F,2,152382,153431,1,0 P,0,152382,153431,A C,0,152382,,36,74,255 M,0,152382,152419,86,286,84.19255,276.0059 M,0,152419,152457,84.19255,276.0059,82.3851,266.0117 M,0,152457,152494,82.3851,266.0117,80.57765,256.0176 M,0,152494,152532,80.57765,256.0176,78.7702,246.0235 M,0,152532,152569,78.7702,246.0235,76.96276,236.0294 M,0,152569,152607,76.96276,236.0294,75.15531,226.0352 M,0,152607,152644,75.15531,226.0352,73.34786,216.0411 M,0,152644,152681,73.34786,216.0411,71.54041,206.047
Sprite,Foreground,Centre,"sb/hl.png",0,0 S,2,152982,154031,0.7,0.14 F,2,152982,154031,1,0 P,0,152982,154031,A C,0,152982,,36,74,255 M,0,152982,153019,160,90,161.8074,99.99413 M,0,153019,153057,161.8074,99.99413,163.6149,109.9883 M,0,153057,153094,163.6149,109.9883,165.4223,119.9824 M,0,153094,153132,165.4223,119.9824,167.2298,129.9765 M,0,153132,153169,167.2298,129.9765,169.0372,139.9706 M,0,153169,153207,169.0372,139.9706,170.8447,149.9648 M,0,153207,153244,170.8447,149.9648,172.6521,159.9589 M,0,153244,153281,172.6521,159.9589,174.4596,169.953
Sprite,Foreground,Centre,"sb/hl.png",0,0 S,2,153582,154482,0.7,0.14 F,2,153582,154482,1,0 P,0,153582,154482,A C,0,153582,,223,223,223 M,0,153582,153619,277,272,278.9823,258.8675 M,0,153619,153657,278.9823,258.8675,280.9645,245.735 M,0,153657,153694,280.9645,245.735,282.9468,232.6025 M,0,153694,153732,282.9468,232.6025,284.929,219.47
Sprite,Foreground,Centre,"sb/hl.png",0,0 S,2,154032,154932,0.7,0.14 F,2,154032,154932,1,0 P,0,154032,154932,A C,0,154032,,223,223,223 M,0,154032,154069,439,104,441.0195,117.1268 M,0,154069,154107,441.0195,117.1268,443.039,130.2536 M,0,154107,154144,443.039,130.2536,445.0585,143.3804 M,0,154144,154182,445.0585,143.3804,447,156
Sprite,Foreground,Centre,"sb/hl.png",0,0 S,2,154482,155382,0.7,0.14 F,2,154482,155382,1,0 P,0,154482,155382,A C,0,154482,,149,255,218 M,0,154482,154519,354,323,355.9823,309.8675 M,0,154519,154557,355.9823,309.8675,357.9645,296.735 M,0,154557,154594,357.9645,296.735,359.9468,283.6025 M,0,154594,154632,359.9468,283.6025,361.929,270.47
Sprite,Foreground,Centre,"sb/hl.png",0,0 S,2,154932,155832,0.7,0.14 F,2,154932,155832,1,0 P,0,154932,155832,A C,0,154932,,149,255,218 M,0,154932,154969,523,132,524.9896,145.1314 M,0,154969,155007,524.9896,145.1314,526.9792,158.2628 M,0,155007,155044,526.9792,158.2628,528.9688,171.3941 M,0,155044,155082,528.9688,171.3941,530.9584,184.5255
Sprite,Foreground,Centre,"sb/hl.png",0,0 S,2,155232,156132,0.7,0.14 F,2,155232,156132,1,0 P,0,155232,156132,A C,0,155232,,149,255,218 M,0,155232,155269,544,263,545.9896,276.1314 M,0,155269,155307,545.9896,276.1314,547.9792,289.2628 M,0,155307,155344,547.9792,289.2628,549.9688,302.3941 M,0,155344,155382,549.9688,302.3941,551.9584,315.5255
Sprite,Foreground,Centre,"sb/hl.png",0,0 S,2,155982,156882,0.7,0.14 F,2,155982,156882,1,0 P,0,155982,156882,A C,0,155982,,36,74,255 M,0,155982,156019,269,324,270.9823,310.8675 M,0,156019,156057,270.9823,310.8675,272.9645,297.735 M,0,156057,156094,272.9645,297.735,274.9468,284.6025 M,0,156094,156132,274.9468,284.6025,276.929,271.47
Sprite,Foreground,Centre,"sb/hl.png",0,0 S,2,156432,157332,0.7,0.14 F,2,156432,157332,1,0 P,0,156432,157332,A C,0,156432,,36,74,255 M,0,156432,156469,431,156,433.0195,169.1268 M,0,156469,156507,433.0195,169.1268,435.039,182.2536 M,0,156507,156544,435.039,182.2536,437.0585,195.3804 M,0,156544,156582,437.0585,195.3804,439,208
Sprite,Foreground,Centre,"sb/hl.png",0,0 S,2,156882,157782,0.7,0.14 F,2,156882,157782,1,0 P,0,156882,157782,A C,0,156882,,223,223,223 M,0,156882,156919,346,375,347.9823,361.8675 M,0,156919,156957,347.9823,361.8675,349.9645,348.735 M,0,156957,156994,349.9645,348.735,351.9468,335.6025 M,0,156994,157032,351.9468,335.6025,353.929,322.47
Sprite,Foreground,Centre,"sb/hl.png",0,0 S,2,157332,158232,0.7,0.14 F,2,157332,158232,1,0 P,0,157332,158232,A C,0,157332,,223,223,223 M,0,157332,157369,515,184,516.9896,197.1314 M,0,157369,157407,516.9896,197.1314,518.9792,210.2628 M,0,157407,157444,518.9792,210.2628,520.9688,223.3941 M,0,157444,157482,520.9688,223.3941,522.9584,236.5255
Sprite,Foreground,Centre,"sb/hl.png",0,0 S,2,157632,158532,0.7,0.14 F,2,157632,158532,1,0 P,0,157632,158532,A C,0,157632,,223,223,223 M,0,157632,157669,536,315,537.9896,328.1314 M,0,157669,157707,537.9896,328.1314,539.9792,341.2628 M,0,157707,157744,539.9792,341.2628,541.9688,354.3941 M,0,157744,157782,541.9688,354.3941,543.9584,367.5255
Sprite,Foreground,Centre,"sb/hl.png",0,0 S,2,158382,159431,0.7,0.14 F,2,158382,159431,1,0 P,0,158382,159431,A C,0,158382,,149,255,218 M,0,158382,158419,201,395,202.0992,384.1179 M,0,158419,158457,202.0992,384.1179,203.1984,373.2357 M,0,158457,158494,203.1984,373.2357,204.2976,362.3536 M,0,158494,158532,204.2976,362.3536,205.3968,351.4715 M,0,158532,158569,205.3968,351.4715,206.496,340.5894 M,0,158569,158607,206.496,340.5894,207.5952,329.7072 M,0,158607,158644,207.5952,329.7072,208.6944,318.8251 M,0,158644,158681,208.6944,318.8251,209.7936,307.943
Sprite,Foreground,Centre,"sb/hl.png",288,192 S,2,158982,159732,0.7,0.14 F,2,158982,159732,1,0 P,0,158982,159732,A C,0,158982,,149,255,218
Sprite,Foreground,Centre,"sb/hl.png",0,0 S,2,159132,160031,0.7,0.14 F,2,159132,160031,1,0 P,0,159132,160031,A C,0,159132,,149,255,218 M,0,159132,159169,288,192,289.2078,202.8706 M,0,159169,159207,289.2078,202.8706,290.4157,213.7412 M,0,159207,159244,290.4157,213.7412,291.6235,224.6118 M,0,159244,159281,291.6235,224.6118,292.8314,235.4824
Sprite,Foreground,Centre,"sb/hl.png",0,0 S,2,159432,160481,0.7,0.14 F,2,159432,160481,1,0 P,0,159432,160481,A C,0,159432,,36,74,255 M,0,159432,159469,359,292,368.0935,285.9402 M,0,159469,159507,368.0935,285.9402,377.595,280.5521 M,0,159507,159544,377.595,280.5521,387.4565,275.862 M,0,159544,159582,387.4565,275.862,397.5578,271.6978 M,0,159582,159619,397.5578,271.6978,408.0356,268.6011 M,0,159619,159657,408.0356,268.6011,418.7049,266.2664 M,0,159657,159694,418.7049,266.2664,429.512,264.705 M,0,159694,159731,429.512,264.705,440.393,263.7632
Sprite,Foreground,Centre,"sb/hl.png",0,0 S,2,159882,160781,0.7,0.14 F,2,159882,160781,1,0 P,0,159882,160781,A C,0,159882,,36,74,255 M,0,159882,159919,510,211,499.7396,207.2435 M,0,159919,159957,499.7396,207.2435,489.8112,202.6943 M,0,159957,159994,489.8112,202.6943,480.2748,197.3807 M,0,159994,160031,480.2748,197.3807,471.188,191.3353
Sprite,Foreground,Centre,"sb/hl.png",393,150 S,2,160182,160932,0.7,0.14 F,2,160182,160932,1,0 P,0,160182,160932,A C,0,160182,,36,74,255
Sprite,Foreground,Centre,"sb/hl.png",0,0 S,2,160332,161381,0.7,0.14 F,2,160332,161381,1,0 P,0,160332,161381,A C,0,160332,,36,74,255 M,0,160332,160369,393,150,394.4406,160.8316 M,0,160369,160407,394.4406,160.8316,395.0699,171.7353 M,0,160407,160444,395.0699,171.7353,394.8851,182.6524 M,0,160444,160482,394.8851,182.6524,394.1192,193.5522 M,0,160482,160519,394.1192,193.5522,394.8851,182.6524 M,0,160519,160557,394.8851,182.6524,395.0699,171.7353 M,0,160557,160594,395.0699,171.7353,394.4406,160.8316 M,0,160594,160631,394.4406,160.8316,393,150
Sprite,Foreground,Centre,"sb/hl.png",0,0 S,2,160782,161831,0.7,0.14 F,2,160782,161831,1,0 P,0,160782,161831,A C,0,160782,,223,223,223 M,0,160782,160819,339,80,328.1028,80.9374 M,0,160819,160857,328.1028,80.9374,317.2055,81.87479 M,0,160857,160894,317.2055,81.87479,306.3082,82.81219 M,0,160894,160932,306.3082,82.81219,295.411,83.7496 M,0,160932,160969,295.411,83.7496,284.5137,84.687 M,0,160969,161007,284.5137,84.687,273.6165,85.62439 M,0,161007,161044,273.6165,85.62439,262.7192,86.56179 M,0,161044,161081,262.7192,86.56179,251.822,87.49919
Sprite,Foreground,Centre,"sb/hl.png",129,194 S,2,161382,162132,0.7,0.14 F,2,161382,162132,1,0 P,0,161382,162132,A C,0,161382,,223,223,223
Sprite,Foreground,Centre,"sb/hl.png",0,0 S,2,161532,162581,0.7,0.14 F,2,161532,162581,1,0 P,0,161532,162581,A C,0,161532,,223,223,223 M,0,161532,161569,129,194,118.1127,192.9531 M,0,161569,161607,118.1127,192.9531,107.2254,191.9063 M,0,161607,161644,107.2254,191.9063,96.33814,190.8594 M,0,161644,161682,96.33814,190.8594,85.45085,189.8126 M,0,161682,161719,85.45085,189.8126,96.33814,190.8594 M,0,161719,161757,96.33814,190.8594,107.2254,191.9063 M,0,161757,161794,107.2254,191.9063,118.1127,192.9531 M,0,161794,161831,118.1127,192.9531,129,194
Sprite,Foreground,Centre,"sb/hl.png",0,0 S,2,161982,163031,0.7,0.14 F,2,161982,163031,1,0 P,0,161982,163031,A C,0,161982,,149,255,218 M,0,161982,162019,210,226,215.7207,235.3131 M,0,162019,162057,215.7207,235.3131,220.849,244.9613 M,0,162057,162094,220.849,244.9613,225.3658,254.9085 M,0,162094,162132,225.3658,254.9085,229.318,265.0912 M,0,162132,162169,229.318,265.0912,232.434,275.5639 M,0,162169,162207,232.434,275.5639,234.8915,286.2086 M,0,162207,162244,234.8915,286.2086,236.7494,296.9723 M,0,162244,162281,236.7494,296.9723,237.7297,307.8546
Sprite,Foreground,Centre,"sb/hl.png",319,355 S,2,162432,163182,0.7,0.14 F,2,162432,163182,1,0 P,0,162432,163182,A C,0,162432,,149,255,218
Sprite,Foreground,Centre,"sb/hl.png",0,0 S,2,162582,163631,0.7,0.14 F,2,162582,163631,1,0 P,0,162582,163631,A C,0,162582,,149,255,218 M,0,162582,162619,319,355,319.1791,344.0721 M,0,162619,162657,319.1791,344.0721,320.0553,333.1815 M,0,162657,162694,320.0553,333.1815,321.4451,322.3396 M,0,162694,162732,321.4451,322.3396,323.8433,311.6773 M,0,162732,162769,323.8433,311.6773,326.9164,301.193 M,0,162769,162807,326.9164,301.193,330.5034,290.8698 M,0,162807,162844,330.5034,290.8698,335.02,280.9189 M,0,162844,162881,335.02,280.9189,340.1614,271.2791
Sprite,Foreground,Centre,"sb/hl.png",0,0 S,2,163182,164231,0.7,0.14 F,2,163182,164231,1,0 P,0,163182,164231,A C,0,163182,,36,74,255 M,0,163182,163219,490,369,491.4321,358.1567 M,0,163219,163257,491.4321,358.1567,492.8643,347.3133 M,0,163257,163294,492.8643,347.3133,494.2964,336.47 M,0,163294,163332,494.2964,336.47,495.7285,325.6267 M,0,163332,163369,495.7285,325.6267,497.1607,314.7833 M,0,163369,163407,497.1607,314.7833,498.5928,303.94 M,0,163407,163444,498.5928,303.94,500.025,293.0967 M,0,163444,163481,500.025,293.0967,501.4571,282.2533
Sprite,Foreground,Centre,"sb/hl.png",0,0 S,2,163782,164681,0.7,0.14 F,2,163782,164681,1,0 P,0,163782,164681,A C,0,163782,,36,74,255 M,0,163782,163819,536,110,546.3558,106.5001 M,0,163819,163857,546.3558,106.5001,556.8892,103.5879 M,0,163857,163894,556.8892,103.5879,546.3558,106.5001 M,0,163894,163931,546.3558,106.5001,536,110
Sprite,Foreground,Centre,"sb/hl.png",0,0 S,2,164082,164981,0.7,0.14 F,2,164082,164981,1,0 P,0,164082,164981,A C,0,164082,,36,74,255 M,0,164082,164119,462,139,451.1302,139.9966 M,0,164119,164157,451.1302,139.9966,440.2276,139.795 M,0,164157,164194,440.2276,139.795,429.4206,138.3994 M,0,164194,164231,429.4206,138.3994,418.725,136.1877
Sprite,Foreground,Centre,"sb/hl.png",0,0 S,2,164382,165431,0.7,0.14 F,2,164382,165431,1,0 P,0,164382,165431,A C,0,164382,,223,223,223 M,0,164382,164419,334,96,333.3967,106.9144 M,0,164419,164457,333.3967,106.9144,332.175,117.7741 M,0,164457,164494,332.175,117.7741,330.4975,128.5767 M,0,164494,164532,330.4975,128.5767,327.9273,139.2007 M,0,164532,164569,327.9273,139.2007,324.7588,149.6592 M,0,164569,164607,324.7588,149.6592,321.1333,159.9708 M,0,164607,164644,321.1333,159.9708,316.6815,169.9531 M,0,164644,164681,316.6815,169.9531,311.6711,179.6644
Sprite,Foreground,Centre,"sb/hl.png",0,0 S,2,164982,165881,0.7,0.14 F,2,164982,165881,1,0 P,0,164982,165881,A C,0,164982,,223,223,223 M,0,164982,165019,167,278,156.1059,278.174 M,0,165019,165057,156.1059,278.174,145.332,276.6978 M,0,165057,165094,145.332,276.6978,156.1059,278.174 M,0,165094,165131,156.1059,278.174,167,278
Sprite,Foreground,Centre,"sb/hl.png",0,0 S,2,165282,166181,0.7,0.14 F,2,165282,166181,1,0 P,0,165282,166181,A C,0,165282,,223,223,223 M,0,165282,165319,244,262,254.4579,265.1677 M,0,165319,165357,254.4579,265.1677,264.6544,269.0833 M,0,165357,165394,264.6544,269.0833,274.5381,273.7265 M,0,165394,165431,274.5381,273.7265,284.1443,278.9301
Sprite,Foreground,Centre,"sb/hl.png",0,0 S,2,165582,166631,0.7,0.14 F,2,165582,166631,1,0 P,0,165582,166631,A C,0,165582,,149,255,218 M,0,165582,165619,352,334,353.9759,323.2425 M,0,165619,165657,353.9759,323.2425,355.9518,312.4849 M,0,165657,165694,355.9518,312.4849,357.9276,301.7274 M,0,165694,165732,357.9276,301.7274,359.9035,290.9698 M,0,165732,165769,359.9035,290.9698,361.8794,280.2123 M,0,165769,165807,361.8794,280.2123,363.8553,269.4547 M,0,165807,165844,363.8553,269.4547,365.8311,258.6972 M,0,165844,165881,365.8311,258.6972,367.807,247.9396
Sprite,Foreground,Centre,"sb/hl.png",0,0 S,2,166182,167081,0.7,0.14 F,2,166182,167081,1,0 P,0,166182,167081,A C,0,166182,,149,255,218 M,0,166182,166219,452,94,453.145,83.1226 M,0,166219,166257,453.145,83.1226,454.29,72.24519 M,0,166257,166294,454.29,72.24519,453.145,83.1226 M,0,166294,166331,453.145,83.1226,452,94
Sprite,Foreground,Centre,"sb/hl.png",0,0 S,2,166482,167381,0.7,0.14 F,2,166482,167381,1,0 P,0,166482,167381,A C,0,166482,,149,255,218 M,0,166482,166519,501,154,499.8181,164.8734 M,0,166519,166557,499.8181,164.8734,498.6362,175.7469 M,0,166557,166594,498.6362,175.7469,497.4543,186.6204 M,0,166594,166631,497.4543,186.6204,496.2724,197.4938
Sprite,Foreground,Centre,"sb/hl.png",0,0 S,2,166782,167831,0.7,0.14 F,2,166782,167831,1,0 P,0,166782,167831,A C,0,166782,,36,74,255 M,0,166782,166819,549,255,547.7367,265.8643 M,0,166819,166857,547.7367,265.8643,546.4734,276.7286 M,0,166857,166894,546.4734,276.7286,545.2101,287.5929 M,0,166894,166932,545.2101,287.5929,543.9468,298.4572 M,0,166932,166969,543.9468,298.4572,542.6835,309.3215 M,0,166969,167007,542.6835,309.3215,541.4203,320.1858 M,0,167007,167044,541.4203,320.1858,540.157,331.0501 M,0,167044,167081,540.157,331.0501,539,341
Sprite,Foreground,Centre,"sb/hl.png",392,437 S,2,167382,168132,0.7,0.14 F,2,167382,168132,1,0 P,0,167382,168132,A C,0,167382,,36,74,255
Sprite,Foreground,Centre,"sb/hl.png",322,276 S,2,167682,168432,0.7,0.14 F,2,167682,168432,1,0 P,0,167682,168432,A C,0,167682,,36,74,255
Sprite,Foreground,Centre,"sb/hl.png",0,0 S,2,167982,168882,0.7,0.14 F,2,167982,168882,1,0 P,0,167982,168882,A C,0,167982,,223,223,223 M,0,167982,168019,150,380,148.492,366.8047 M,0,168019,168057,148.492,366.8047,146.9839,353.6093 M,0,168057,168094,146.9839,353.6093,145.4759,340.4139 M,0,168094,168132,145.4759,340.4139,143.9678,327.2186
Sprite,Foreground,Centre,"sb/hl.png",0,0 S,2,168282,169182,0.7,0.14 F,2,168282,169182,1,0 P,0,168282,169182,A C,0,168282,,223,223,223 M,0,168282,168319,74,269,75.494,255.803 M,0,168319,168357,75.494,255.803,76.98799,242.6061 M,0,168357,168394,76.98799,242.6061,78.48199,229.4091 M,0,168394,168432,78.48199,229.4091,79.97598,216.2122
Sprite,Foreground,Centre,"sb/hl.png",0,0 S,2,168732,169632,0.7,0.14 F,2,168732,169632,1,0 P,0,168732,169632,A C,0,168732,,223,223,223 M,0,168732,168769,216,97,217.508,110.1954 M,0,168769,168807,217.508,110.1954,219.0161,123.3907 M,0,168807,168844,219.0161,123.3907,220.5241,136.5861 M,0,168844,168882,220.5241,136.5861,222.0322,149.7814
Sprite,Foreground,Centre,"sb/hl.png",292,208 S,2,169032,169782,0.7,0.14 F,2,169032,169782,1,0 P,0,169032,169782,A C,0,169032,,223,223,223
Sprite,Foreground,Centre,"sb/hl.png",0,0 S,2,169182,170082,0.7,0.14 F,2,169182,170082,1,0 P,0,169182,170082,A C,0,169182,,149,255,218 M,0,169182,169219,292,208,290.2281,221.1625 M,0,169219,169257,290.2281,221.1625,288.4562,234.325 M,0,169257,169294,288.4562,234.325,286.6844,247.4876 M,0,169294,169332,286.6844,247.4876,285,260
Sprite,Foreground,Centre,"sb/hl.png",0,0 S,2,169632,170532,0.7,0.14 F,2,169632,170532,1,0 P,0,169632,170532,A C,0,169632,,149,255,218 M,0,169632,169669,401,400,399.261,386.8331 M,0,169669,169707,399.261,386.8331,397.5219,373.6662 M,0,169707,169744,397.5219,373.6662,395.7829,360.4993 M,0,169744,169782,395.7829,360.4993,394.0439,347.3324
Sprite,Foreground,Centre,"sb/hl.png",0,0 S,2,169932,170982,0.7,0.14 F,2,169932,170982,1,0 P,0,169932,170982,A C,0,169932,,149,255,218 M,0,169932,169969,445,273,446.739,259.8331 M,0,169969,170007,446.739,259.8331,448.4781,246.6662 M,0,170007,170044,448.4781,246.6662,450.2171,233.4993 M,0,170044,170082,450.2171,233.4993,451.9561,220.3324 M,0,170082,170119,451.9561,220.3324,450.2171,233.4993 M,0,170119,170157,450.2171,233.4993,448.4781,246.6662 M,0,170157,170194,448.4781,246.6662,446.739,259.8331 M,0,170194,170232,446.739,259.8331,445,273
Sprite,Foreground,Centre,"sb/hl.png",394,347 S,2,170382,171132,0.7,0.14 F,2,170382,171132,1,0 P,0,170382,171132,A C,0,170382,,36,74,255
Sprite,Foreground,Centre,"sb/hl.png",0,0 S,2,170682,171582,0.7,0.14 F,2,170682,171582,1,0 P,0,170682,171582,A C,0,170682,,36,74,255 M,0,170682,170719,234,261,221.022,258.2654 M,0,170719,170757,221.022,258.2654,207.8836,256.4182 M,0,170757,170794,207.8836,256.4182,194.6231,256.2349 M,0,170794,170832,194.6231,256.2349,181.3746,256.9532
Sprite,Foreground,Centre,"sb/hl.png",0,0 S,2,171132,172032,0.7,0.14 F,2,171132,172032,1,0 P,0,171132,172032,A C,0,171132,,36,74,255 M,0,171132,171169,71,112,84.25729,112.3997 M,0,171169,171207,84.25729,112.3997,97.5192,111.9322 M,0,171207,171244,97.5192,111.9322,110.61,109.8034 M,0,171244,171282,110.61,109.8034,123,107
Sprite,Foreground,Centre,"sb/hl.png",208,137 S,2,171432,172182,0.7,0.14 F,2,171432,172182,1,0 P,0,171432,172182,A C,0,171432,,36,74,255
Sprite,Foreground,Centre,"sb/hl.png",0,0 S,2,171582,172482,0.7,0.14 F,2,171582,172482,1,0 P,0,171582,172482,A C,0,171582,,36,74,255 M,0,171582,171619,208,137,220.9382,134.0815 M,0,171619,171657,220.9382,134.0815,234.0462,132.0135 M,0,171657,171694,234.0462,132.0135,247.3028,131.6088 M,0,171694,171732,247.3028,131.6088,260,132
Sprite,Foreground,Centre,"sb/hl.png",390,257 S,2,172032,172782,0.7,0.14 F,2,172032,172782,1,0 P,0,172032,172782,A C,0,172032,,36,74,255
Sprite,Foreground,Centre,"sb/hl.png",500,106 S,2,172332,173082,0.7,0.14 F,2,172332,173082,1,0 P,0,172332,173082,A C,0,172332,,36,74,255
Sprite,Foreground,Centre,"sb/hl.png",0,0 S,2,172482,173382,0.7,0.14 F,2,172482,173382,1,0 P,0,172482,173382,A C,0,172482,,36,74,255 M,0,172482,172519,500,106,498.2281,119.1625 M,0,172519,172557,498.2281,119.1625,496.4562,132.325 M,0,172557,172594,496.4562,132.325,494.6844,145.4876 M,0,172594,172632,494.6844,145.4876,493,158
Sprite,Foreground,Centre,"sb/hl.png",542,320 S,2,172932,173682,0.7,0.14 F,2,172932,173682,1,0 P,0,172932,173682,A C,0,172932,,223,223,223
Sprite,Foreground,Centre,"sb/hl.png",0,0 S,2,173082,173982,0.7,0.14 F,2,173082,173982,1,0 P,0,173082,173982,A C,0,173082,,223,223,223 M,0,173082,173119,542,320,540.2281,333.1625 M,0,173119,173157,540.2281,333.1625,538.4562,346.325 M,0,173157,173194,538.4562,346.325,536.6843,359.4876 M,0,173194,173232,536.6843,359.4876,535,372
Sprite,Foreground,Centre,"sb/hl.png",0,0 S,2,173532,174432,0.7,0.14 F,2,173532,174432,1,0 P,0,173532,174432,A C,0,173532,,223,223,223 M,0,173532,173569,361,439,359.261,425.8331 M,0,173569,173607,359.261,425.8331,357.5219,412.6662 M,0,173607,173644,357.5219,412.6662,355.7829,399.4993 M,0,173644,173682,355.7829,399.4993,354.0439,386.3324
Sprite,Foreground,Centre,"sb/hl.png",309,313 S,2,173832,174582,0.7,0.14 F,2,173832,174582,1,0 P,0,173832,174582,A C,0,173832,,223,223,223
Sprite,Foreground,Centre,"sb/hl.png",0,0 S,2,173982,175032,0.7,0.14 F,2,173982,175032,1,0 P,0,173982,175032,A C,0,173982,,223,223,223 M,0,173982,174019,309,313,297.3323,319.306 M,0,174019,174057,297.3323,319.306,285.2299,324.7278 M,0,174057,174094,285.2299,324.7278,272.5576,328.6326 M,0,174094,174132,272.5576,328.6326,259.6153,331.487 M,0,174132,174169,259.6153,331.487,246.426,332.8413 M,0,174169,174207,246.426,332.8413,233.1789,333.0128 M,0,174207,174244,233.1789,333.0128,219.9599,331.9383 M,0,174244,174282,219.9599,331.9383,206.9243,329.4413
Sprite,Foreground,Centre,"sb/hl.png",127,286 S,2,174432,175182,0.7,0.14 F,2,174432,175182,1,0 P,0,174432,175182,A C,0,174432,,223,223,223
Sprite,Foreground,Centre,"sb/hl.png",183,114 S,2,174732,175482,0.7,0.14 F,2,174732,175482,1,0 P,0,174732,175482,A C,0,174732,,223,223,223
Sprite,Foreground,Centre,"sb/hl.png",0,0 S,2,174882,175782,0.7,0.14 F,2,174882,175782,1,0 P,0,174882,175782,A C,0,174882,,223,223,223 M,0,174882,174919,183,114,188.7798,125.9391 M,0,174919,174957,188.7798,125.9391,193.7184,138.2498 M,0,174957,174994,193.7184,138.2498,197.189,151.0503 M,0,174994,175032,197.189,151.0503,199.6818,164.0714
Sprite,Foreground,Centre,"sb/hl.png",309,313 S,2,175332,176082,0.7,0.14 F,2,175332,176082,1,0 P,0,175332,176082,A C,0,175332,,149,255,218
Sprite,Foreground,Centre,"sb/hl.png",0,0 S,2,175482,176532,0.7,0.14 F,2,175482,176532,1,0 P,0,175482,176532,A C,0,175482,,149,255,218 M,0,175482,175519,309,313,311.2081,299.9072 M,0,175519,175557,311.2081,299.9072,313.8509,286.8958 M,0,175557,175594,313.8509,286.8958,317.1771,274.0419 M,0,175594,175632,317.1771,274.0419,320.9793,261.3226 M,0,175632,175669,320.9793,261.3226,325.3106,248.7702 M,0,175669,175707,325.3106,248.7702,330.3298,236.4779 M,0,175707,175744,330.3298,236.4779,335.7719,224.3681 M,0,175744,175782,335.7719,224.3681,341.7375,212.5039
Sprite,Foreground,Centre,"sb/hl.png",0,0 S,2,175932,176982,0.7,0.14 F,2,175932,176982,1,0 P,0,175932,176982,A C,0,175932,,149,255,218 M,0,175932,175969,412,154,422.186,162.5166 M,0,175969,176007,422.186,162.5166,432.0571,171.3948 M,0,176007,176044,432.0571,171.3948,441.4219,180.8059 M,0,176044,176082,441.4219,180.8059,450.3924,190.5907 M,0,176082,176119,450.3924,190.5907,458.916,200.7708 M,0,176119,176157,458.916,200.7708,466.8458,211.4194 M,0,176157,176194,466.8458,211.4194,474.3497,222.3699 M,0,176194,176232,474.3497,222.3699,481,233
Sprite,Foreground,Centre,"sb/hl.png",0,0 S,2,176382,177282,0.7,0.14 F,2,176382,177282,1,0 P,0,176382,177282,A C,0,176382,,149,255,218 M,0,176382,176419,516,316,503.2286,319.6373 M,0,176419,176457,503.2286,319.6373,490.369,322.9476 M,0,176457,176494,490.369,322.9476,477.3911,325.7592 M,0,176494,176532,477.3911,325.7592,464.338,328.1923
Sprite,Foreground,Centre,"sb/hl.png",0,0 S,2,176832,177882,0.7,0.14 F,2,176832,177882,1,0 P,0,176832,177882,A C,0,176832,,149,255,218 M,0,176832,176869,309,313,296.1757,309.5654 M,0,176869,176907,296.1757,309.5654,283.227,306.6376 M,0,176907,176944,283.227,306.6376,270.1198,304.53 M,0,176944,176982,270.1198,304.53,256.9352,302.9984 M,0,176982,177019,256.9352,302.9984,243.6863,302.12 M,0,177019,177057,243.6863,302.12,230.4103,302.1213 M,0,177057,177094,230.4103,302.1213,217.1463,302.659 M,0,177094,177132,217.1463,302.659,203.9252,303.8971
Sprite,Foreground,Centre,"sb/hl.png",0,0 S,2,177282,178182,0.7,0.14 F,2,177282,178182,1,0 P,0,177282,178182,A C,0,177282,,149,255,218 M,0,177282,177319,125,350,120.562,362.4985 M,0,177319,177357,120.562,362.4985,116.9803,375.2735 M,0,177357,177394,116.9803,375.2735,115.0224,388.3902 M,0,177394,177432,115.0224,388.3902,113.9579,401.6152
Sprite,Foreground,Centre,"sb/hl.png",74,235 S,2,177732,178482,0.7,0.14 F,2,177732,178482,1,0 P,0,177732,178482,A C,0,177732,,36,74,255
Sprite,Foreground,Centre,"sb/hl.png",0,0 S,2,177882,178782,0.7,0.14 F,2,177882,178782,1,0 P,0,177882,178782,A C,0,177882,,36,74,255 M,0,177882,177919,74,235,78.43806,222.5015 M,0,177919,177957,78.43806,222.5015,82.01974,209.7265 M,0,177957,177994,82.01974,209.7265,83.97763,196.6099 M,0,177994,178032,83.97763,196.6099,85.0421,183.3848
Sprite,Foreground,Centre,"sb/hl.png",0,0 S,2,178332,179232,0.7,0.14 F,2,178332,179232,1,0 P,0,178332,179232,A C,0,178332,,36,74,255 M,0,178332,178369,229,74,230.1033,87.21641 M,0,178369,178407,230.1033,87.21641,232.093,100.3357 M,0,178407,178444,232.093,100.3357,235.7532,113.0824 M,0,178444,178482,235.7532,113.0824,240,125
Sprite,Foreground,Centre,"sb/hl.png",296,193 S,2,178632,179382,0.7,0.14 F,2,178632,179382,1,0 P,0,178632,179382,A C,0,178632,,36,74,255
Sprite,Foreground,Centre,"sb/hl.png",0,0 S,2,178782,179832,0.7,0.14 F,2,178782,179832,1,0 P,0,178782,179832,A C,0,178782,,36,74,255 M,0,178782,178819,386,207,399.1624,205.3209 M,0,178819,178857,399.1624,205.3209,412.2198,202.9344 M,0,178857,178894,412.2198,202.9344,424.9534,199.2044 M,0,178894,178932,424.9534,199.2044,437,195 M,0,178932,178969,437,195,424.9534,199.2044 M,0,178969,179007,424.9534,199.2044,412.2198,202.9344 M,0,179007,179044,412.2198,202.9344,399.1624,205.3209 M,0,179044,179082,399.1624,205.3209,386,207
Sprite,Foreground,Centre,"sb/hl.png",292,201 S,2,179232,179982,0.7,0.14 F,2,179232,179982,1,0 P,0,179232,179982,A C,0,179232,,36,74,255
Sprite,Foreground,Centre,"sb/hl.png",207,350 S,2,179532,180282,0.7,0.14 F,2,179532,180282,1,0 P,0,179532,180282,A C,0,179532,,36,74,255
Sprite,Foreground,Centre,"sb/hl.png",0,0 S,2,179682,180732,0.7,0.14 F,2,179682,180732,1,0 P,0,179682,180732,A C,0,179682,,36,74,255 M,0,179682,179719,117,334,103.755,334.3886 M,0,179719,179757,103.755,334.3886,90.58029,335.9083 M,0,179757,179794,90.58029,335.9083,77.84315,339.558 M,0,179794,179832,77.84315,339.558,66,344 M,0,179832,179869,66,344,77.84315,339.558 M,0,179869,179907,77.84315,339.558,90.58029,335.9083 M,0,179907,179944,90.58029,335.9083,103.755,334.3886 M,0,179944,179982,103.755,334.3886,117,334
Sprite,Foreground,Centre,"sb/hl.png",0,0 S,2,180282,181332,0.7,0.14 F,2,180282,181332,1,0 P,0,180282,181332,A C,0,180282,,223,223,223 M,0,180282,180319,286,395,299.2151,396.2137 M,0,180319,180357,299.2151,396.2137,312.4769,396.7 M,0,180357,180394,312.4769,396.7,325.7254,395.9536 M,0,180394,180432,325.7254,395.9536,338.9026,394.4175 M,0,180432,180469,338.9026,394.4175,351.8957,391.7276 M,0,180469,180507,351.8957,391.7276,364.6829,388.2056 M,0,180507,180544,364.6829,388.2056,377.2023,383.7939 M,0,180544,180582,377.2023,383.7939,389.2976,378.3196
Sprite,Foreground,Centre,"sb/hl.png",0,0 S,2,180732,181782,0.7,0.14 F,2,180732,181782,1,0 P,0,180732,181782,A C,0,180732,,223,223,223 M,0,180732,180769,456,317,450.4105,304.9637 M,0,180769,180807,450.4105,304.9637,444.1771,293.2475 M,0,180807,180844,444.1771,293.2475,436.887,282.1597 M,0,180844,180882,436.887,282.1597,428.9609,271.5205 M,0,180882,180919,428.9609,271.5205,420.1273,261.6195 M,0,180919,180957,420.1273,261.6195,410.6898,252.2991 M,0,180957,180994,410.6898,252.2991,400.6213,243.6467 M,0,180994,181032,400.6213,243.6467,389.8338,235.9076
Sprite,Foreground,Centre,"sb/hl.png",307,198 S,2,181182,181932,0.7,0.14 F,2,181182,181932,1,0 P,0,181182,181932,A C,0,181182,,223,223,223
Sprite,Foreground,Centre,"sb/hl.png",149,418 S,2,181632,182382,0.7,0.14 F,2,181632,182382,1,0 P,0,181632,182382,A C,0,181632,,223,223,223
Sprite,Foreground,Centre,"sb/hl.png",93,251 S,2,181932,182682,0.7,0.14 F,2,181932,182682,1,0 P,0,181932,182682,A C,0,181932,,223,223,223
Sprite,Foreground,Centre,"sb/hl.png",0,0 S,2,182082,182982,0.7,0.14 F,2,182082,182982,1,0 P,0,182082,182982,A C,0,182082,,223,223,223 M,0,182082,182119,93,251,91.75259,237.7775 M,0,182119,182157,91.75259,237.7775,90.50518,224.5549 M,0,182157,182194,90.50518,224.5549,89.25777,211.3324 M,0,182194,182232,89.25777,211.3324,88.01036,198.1098
Sprite,Foreground,Centre,"sb/hl.png",285,89 S,2,182532,183282,0.7,0.14 F,2,182532,183282,1,0 P,0,182532,183282,A C,0,182532,,149,255,218
Sprite,Foreground,Centre,"sb/hl.png",0,0 S,2,182682,183732,0.7,0.14 F,2,182682,183732,1,0 P,0,182682,183732,A C,0,182682,,149,255,218 M,0,182682,182719,285,89,283.8716,102.2332 M,0,182719,182757,283.8716,102.2332,282.7432,115.4665 M,0,182757,182794,282.7432,115.4665,281.6147,128.6997 M,0,182794,182832,281.6147,128.6997,280.4863,141.9329 M,0,182832,182869,280.4863,141.9329,279.3579,155.1661 M,0,182869,182907,279.3579,155.1661,278.2295,168.3994 M,0,182907,182944,278.2295,168.3994,277.1011,181.6326 M,0,182944,182982,277.1011,181.6326,275.9727,194.8658
Sprite,Foreground,Centre,"sb/hl.png",0,0 S,2,183132,184182,0.7,0.14 F,2,183132,184182,1,0 P,0,183132,184182,A C,0,183132,,149,255,218 M,0,183132,183169,347,250,348.1284,236.7668 M,0,183169,183207,348.1284,236.7668,349.2568,223.5335 M,0,183207,183244,349.2568,223.5335,350.3853,210.3003 M,0,183244,183282,350.3853,210.3003,351.5137,197.0671 M,0,183282,183319,351.5137,197.0671,352.6421,183.8339 M,0,183319,183357,352.6421,183.8339,353.7705,170.6006 M,0,183357,183394,353.7705,170.6006,354.8989,157.3674 M,0,183394,183432,354.8989,157.3674,356.0273,144.1342
Sprite,Foreground,Centre,"sb/hl.png",0,0 S,2,183582,184482,0.7,0.14 F,2,183582,184482,1,0 P,0,183582,184482,A C,0,183582,,36,74,255 M,0,183582,183619,435,96,436.6418,109.1525 M,0,183619,183657,436.6418,109.1525,439.3951,122.1209 M,0,183657,183694,439.3951,122.1209,444.0484,134.5292 M,0,183694,183732,444.0484,134.5292,449.8065,146.4609
Sprite,Foreground,Centre,"sb/hl.png",517,315 S,2,184032,184782,0.7,0.14 F,2,184032,184782,1,0 P,0,184032,184782,A C,0,184032,,36,74,255
Sprite,Foreground,Centre,"sb/hl.png",0,0 S,2,184332,185382,0.7,0.14 F,2,184332,185382,1,0 P,0,184332,185382,A C,0,184332,,36,74,255 M,0,184332,184369,347,250,334.6758,245.1011 M,0,184369,184407,334.6758,245.1011,321.9769,241.3002 M,0,184407,184444,321.9769,241.3002,309.0105,238.5851 M,0,184444,184482,309.0105,238.5851,295.8261,237.0659 M,0,184482,184519,295.8261,237.0659,309.0105,238.5851 M,0,184519,184557,309.0105,238.5851,321.9769,241.3002 M,0,184557,184594,321.9769,241.3002,334.6758,245.1011 M,0,184594,184632,334.6758,245.1011,347,250
Sprite,Foreground,Centre,"sb/hl.png",0,0 S,2,184782,185691,0.7,0.14 F,2,184782,185691,1,0 P,0,184782,185691,A C,0,184782,,223,223,223 M,0,184782,184821,388,326,389.1628,335.3026 M,0,184821,184861,389.1628,335.3026,390.3257,344.6052 M,0,184861,184901,390.3257,344.6052,391.4885,353.9078 M,0,184901,184941,391.4885,353.9078,392.6513,363.2104
Sprite,Foreground,Centre,"sb/hl.png",0,0 S,2,185242,186141,0.7,0.14 F,2,185242,186141,1,0 P,0,185242,186141,A C,0,185242,,223,223,223 M,0,185242,185279,282,427,283.1628,417.6974 M,0,185279,185317,283.1628,417.6974,284.3257,408.3948 M,0,185317,185354,284.3257,408.3948,285.4885,399.0922 M,0,185354,185391,285.4885,399.0922,286.6513,389.7896
Sprite,Foreground,Centre,"sb/hl.png",0,0 S,2,185692,186741,0.7,0.14 F,2,185692,186741,1,0 P,0,185692,186741,A C,0,185692,,223,223,223 M,0,185692,185729,187,311,188.1082,320.3093 M,0,185729,185767,188.1082,320.3093,189.2165,329.6185 M,0,185767,185804,189.2165,329.6185,190.3247,338.9278 M,0,185804,185842,190.3247,338.9278,191.433,348.2371 M,0,185842,185879,191.433,348.2371,192.5412,357.5463 M,0,185879,185917,192.5412,357.5463,193.6495,366.8556 M,0,185917,185954,193.6495,366.8556,194.7577,376.1649 M,0,185954,185991,194.7577,376.1649,195.866,385.4741
Sprite,Foreground,Centre,"sb/hl.png",0,0 S,2,186142,187041,0.7,0.14 F,2,186142,187041,1,0 P,0,186142,187041,A C,0,186142,,223,223,223 M,0,186142,186179,282,427,283.1628,417.6974 M,0,186179,186217,283.1628,417.6974,284.3257,408.3948 M,0,186217,186254,284.3257,408.3948,285.4885,399.0922 M,0,186254,186291,285.4885,399.0922,286.6513,389.7896
Sprite,Foreground,Centre,"sb/hl.png",308,264 S,2,186592,187342,0.7,0.14 F,2,186592,187342,1,0 P,0,186592,187342,A C,0,186592,,223,223,223
Sprite,Foreground,Centre,"sb/hl.png",0,0 S,2,9582,10631,0.7,0.14 F,2,9582,10631,1,0 P,0,9582,10631,A C,0,9582,,149,255,218 M,0,9582,9619,169,305,170.3907,295.7287 M,0,9619,9657,170.3907,295.7287,171.7814,286.4575 M,0,9657,9694,171.7814,286.4575,173.1721,277.1862 M,0,9694,9732,173.1721,277.1862,174.5628,267.9149 M,0,9732,9769,174.5628,267.9149,175.9535,258.6436 M,0,9769,9807,175.9535,258.6436,177.3441,249.3723 M,0,9807,9844,177.3441,249.3723,178.7348,240.1011 M,0,9844,9881,178.7348,240.1011,180.1255,230.8298
Sprite,Foreground,Centre,"sb/hl.png",309,259 S,2,10182,10932,0.7,0.14 F,2,10182,10932,1,0 P,0,10182,10932,A C,0,10182,,149,255,218
Sprite,Foreground,Centre,"sb/hl.png",0,0 S,2,10332,11381,0.7,0.14 F,2,10332,11381,1,0 P,0,10332,11381,A C,0,10332,,149,255,218 M,0,10332,10369,309,259,307.3043,268.2204 M,0,10369,10407,307.3043,268.2204,305.6086,277.4407 M,0,10407,10444,305.6086,277.4407,303.9129,286.6611 M,0,10444,10482,303.9129,286.6611,302.2172,295.8815 M,0,10482,10519,302.2172,295.8815,300.5215,305.1019 M,0,10519,10557,300.5215,305.1019,298.8258,314.3222 M,0,10557,10594,298.8258,314.3222,297.1301,323.5426 M,0,10594,10631,297.1301,323.5426,295.4344,332.7629
Sprite,Foreground,Centre,"sb/hl.png",281,409 S,2,10782,11532,0.7,0.14 F,2,10782,11532,1,0 P,0,10782,11532,A C,0,10782,,149,255,218
Sprite,Foreground,Centre,"sb/hl.png",0,0 S,2,11232,12281,0.7,0.14 F,2,11232,12281,1,0 P,0,11232,12281,A C,0,11232,,149,255,218 M,0,11232,11269,433,293,442.2536,291.4963 M,0,11269,11307,442.2536,291.4963,451.5072,289.9926 M,0,11307,11344,451.5072,289.9926,460.7609,288.4889 M,0,11344,11382,460.7609,288.4889,470.0145,286.9852 M,0,11382,11419,470.0145,286.9852,479.2681,285.4814 M,0,11419,11457,479.2681,285.4814,488.5217,283.9777 M,0,11457,11494,488.5217,283.9777,497.7753,282.474 M,0,11494,11531,497.7753,282.474,507.0289,280.9703
Sprite,Foreground,Centre,"sb/hl.png",0,0 S,2,11682,12581,0.7,0.14 F,2,11682,12581,1,0 P,0,11682,12581,A C,0,11682,,149,255,218 M,0,11682,11719,570,329,567.7739,338.1069 M,0,11719,11757,567.7739,338.1069,565.5477,347.2137 M,0,11757,11794,565.5477,347.2137,563.3217,356.3206 M,0,11794,11831,563.3217,356.3206,561.0955,365.4275
Sprite,Foreground,Centre,"sb/hl.png",0,0 S,2,12132,13181,0.7,0.14 F,2,12132,13181,1,0 P,0,12132,13181,A C,0,12132,,36,74,255 M,0,12132,12169,437,440,434.7739,430.8931 M,0,12169,12207,434.7739,430.8931,432.5478,421.7863 M,0,12207,12244,432.5478,421.7863,430.3216,412.6794 M,0,12244,12282,430.3216,412.6794,428.0955,403.5725 M,0,12282,12319,428.0955,403.5725,425.8694,394.4657 M,0,12319,12357,425.8694,394.4657,423.6432,385.3588 M,0,12357,12394,423.6432,385.3588,421.4171,376.252 M,0,12394,12431,421.4171,376.252,419.191,367.1451
Sprite,Foreground,Centre,"sb/hl.png",0,0 S,2,12732,13781,0.7,0.14 F,2,12732,13781,1,0 P,0,12732,13781,A C,0,12732,,36,74,255 M,0,12732,12769,332,273,329.7262,282.0951 M,0,12769,12807,329.7262,282.0951,327.4525,291.1902 M,0,12807,12844,327.4525,291.1902,325.1787,300.2852 M,0,12844,12882,325.1787,300.2852,322.9049,309.3803 M,0,12882,12919,322.9049,309.3803,320.6311,318.4754 M,0,12919,12957,320.6311,318.4754,318.3574,327.5705 M,0,12957,12994,318.3574,327.5705,316.0836,336.6656 M,0,12994,13031,316.0836,336.6656,314,345
Sprite,Foreground,Centre,"sb/hl.png",0,0 S,2,13182,14831,0.7,0.14 F,2,13182,14831,1,0 P,0,13182,14831,A C,0,13182,,36,74,255 M,0,13182,13219,245,395,236.7001,399.326 M,0,13219,13257,236.7001,399.326,227.9951,402.7432 M,0,13257,13294,227.9951,402.7432,218.9828,405.2145 M,0,13294,13332,218.9828,405.2145,209.764,406.7135 M,0,13332,13369,209.764,406.7135,200.4418,407.2243 M,0,13369,13407,200.4418,407.2243,191.1207,406.7417 M,0,13407,13444,191.1207,406.7417,181.8336,405.615 M,0,13444,13482,181.8336,405.615,172.8326,403.0579 M,0,13482,13519,172.8326,403.0579,164.1612,399.562 M,0,13519,13557,164.1612,399.562,155.9157,395.1676 M,0,13557,13594,155.9157,395.1676,148.1877,389.9247 M,0,13594,13632,148.1877,389.9247,141.0631,383.8925 M,0,13632,13669,141.0631,383.8925,148.1877,389.9247 M,0,13669,13707,148.1877,389.9247,155.9157,395.1676 M,0,13707,13744,155.9157,395.1676,164.1612,399.562 M,0,13744,13782,164.1612,399.562,172.8326,403.0579 M,0,13782,13819,172.8326,403.0579,181.8336,405.615 M,0,13819,13857,181.8336,405.615,191.1207,406.7417 M,0,13857,13894,191.1207,406.7417,200.4419,407.2243 M,0,13894,13932,200.4419,407.2243,209.764,406.7135 M,0,13932,13969,209.764,406.7135,218.9828,405.2145 M,0,13969,14007,218.9828,405.2145,227.9951,402.7432 M,0,14007,14044,227.9951,402.7432,236.7001,399.326 M,0,14044,14081,236.7001,399.326,245,395
Sprite,Foreground,Centre,"sb/hl.png",313,345 S,2,14232,14982,0.7,0.14 F,2,14232,14982,1,0 P,0,14232,14982,A C,0,14232,,223,223,223
Sprite,Foreground,Centre,"sb/hl.png",245,166 S,2,14682,15432,0.7,0.14 F,2,14682,15432,1,0 P,0,14682,15432,A C,0,14682,,223,223,223
Sprite,Foreground,Centre,"sb/hl.png",0,0 S,2,15132,16181,0.7,0.14 F,2,15132,16181,1,0 P,0,15132,16181,A C,0,15132,,223,223,223 M,0,15132,15169,416,251,425.1131,253.1507 M,0,15169,15207,425.1131,253.1507,434.3781,254.4626 M,0,15207,15244,434.3781,254.4626,443.7191,254.9257 M,0,15244,15282,443.7191,254.9257,453.0598,254.537 M,0,15282,15319,453.0598,254.537,462.3239,253.3002 M,0,15319,15357,462.3239,253.3002,471.4356,251.2256 M,0,15357,15394,471.4356,251.2256,480.4006,248.5582 M,0,15394,15431,480.4006,248.5582,488.9566,244.7664
Sprite,Foreground,Centre,"sb/hl.png",534,181 S,2,15582,16332,0.7,0.14 F,2,15582,16332,1,0 P,0,15582,16332,A C,0,15582,,223,223,223
Sprite,Foreground,Centre,"sb/hl.png",0,0 S,2,16032,17081,0.7,0.14 F,2,16032,17081,1,0 P,0,16032,17081,A C,0,16032,,223,223,223 M,0,16032,16069,348,118,345.8493,127.1131 M,0,16069,16107,345.8493,127.1131,344.5374,136.3781 M,0,16107,16144,344.5374,136.3781,344.0743,145.7191 M,0,16144,16182,344.0743,145.7191,344.463,155.0599 M,0,16182,16219,344.463,155.0599,345.6998,164.3239 M,0,16219,16257,345.6998,164.3239,347.7743,173.4356 M,0,16257,16294,347.7743,173.4356,350.4418,182.4006 M,0,16294,16331,350.4418,182.4006,354.2336,190.9566
Sprite,Foreground,Centre,"sb/hl.png",0,0 S,2,16482,17381,0.7,0.14 F,2,16482,17381,1,0 P,0,16482,17381,A C,0,16482,,223,223,223 M,0,16482,16519,416,251,416.9562,260.3138 M,0,16519,16557,416.9562,260.3138,416.7257,269.6689 M,0,16557,16594,416.7257,269.6689,415.3135,278.9149 M,0,16594,16631,415.3135,278.9149,412.8216,287.9404
Sprite,Foreground,Centre,"sb/hl.png",329,385 S,2,16932,17682,0.7,0.14 F,2,16932,17682,1,0 P,0,16932,17682,A C,0,16932,,149,255,218
Sprite,Foreground,Centre,"sb/hl.png",0,0 S,2,17082,17981,0.7,0.14 F,2,17082,17981,1,0 P,0,17082,17981,A C,0,17082,,149,255,218 M,0,17082,17119,329,385,326.5788,375.9595 M,0,17119,17157,326.5788,375.9595,324.6154,366.8454 M,0,17157,17194,324.6154,366.8454,323.5741,357.5805 M,0,17194,17231,323.5741,357.5805,323.0023,348.2389
Sprite,Foreground,Centre,"sb/hl.png",0,0 S,2,17532,18581,0.7,0.14 F,2,17532,18581,1,0 P,0,17532,18581,A C,0,17532,,149,255,218 M,0,17532,17569,244,248,234.652,247.4802 M,0,17569,17607,234.652,247.4802,225.306,247.913 M,0,17607,17644,225.306,247.913,216.0579,249.2928 M,0,17644,17682,216.0579,249.2928,207.0028,251.6045 M,0,17682,17719,207.0028,251.6045,198.2334,254.8235 M,0,17719,17757,198.2334,254.8235,189.8396,258.9162 M,0,17757,17794,189.8396,258.9162,181.9076,263.84 M,0,17794,17831,181.9076,263.84,174.5186,269.5438
Sprite,Foreground,Centre,"sb/hl.png",0,0 S,2,17982,19631,0.7,0.14 F,2,17982,19631,1,0 P,0,17982,19631,A C,0,17982,,149,255,218 M,0,17982,18019,118,323,119.6031,332.2369 M,0,18019,18057,119.6031,332.2369,121.2062,341.4738 M,0,18057,18094,121.2062,341.4738,122.8093,350.7108 M,0,18094,18132,122.8093,350.7108,124.4124,359.9477 M,0,18132,18169,124.4124,359.9477,126.0155,369.1846 M,0,18169,18207,126.0155,369.1846,127.6186,378.4215 M,0,18207,18244,127.6186,378.4215,129.2217,387.6584 M,0,18244,18282,129.2217,387.6584,130.8248,396.8954 M,0,18282,18319,130.8248,396.8954,132.4279,406.1323 M,0,18319,18357,132.4279,406.1323,134.031,415.3692 M,0,18357,18394,134.031,415.3692,135.6341,424.6061 M,0,18394,18432,135.6341,424.6061,137.2372,433.843 M,0,18432,18469,137.2372,433.843,135.6341,424.6061 M,0,18469,18507,135.6341,424.6061,134.031,415.3692 M,0,18507,18544,134.031,415.3692,132.4279,406.1323 M,0,18544,18582,132.4279,406.1323,130.8248,396.8954 M,0,18582,18619,130.8248,396.8954,129.2217,387.6584 M,0,18619,18657,129.2217,387.6584,127.6186,378.4215 M,0,18657,18694,127.6186,378.4215,126.0155,369.1846 M,0,18694,18732,126.0155,369.1846,124.4124,359.9477 M,0,18732,18769,124.4124,359.9477,122.8093,350.7108 M,0,18769,18807,122.8093,350.7108,121.2062,341.4738 M,0,18807,18844,121.2062,341.4738,119.6031,332.2369 M,0,18844,18881,119.6031,332.2369,118,323
Sprite,Foreground,Centre,"sb/hl.png",95,226 S,2,19032,19782,0.7,0.14 F,2,19032,19782,1,0 P,0,19032,19782,A C,0,19032,,149,255,218
Sprite,Foreground,Centre,"sb/hl.png",505,167 S,2,20637,21387,0.7,0.14 F,2,20637,21387,1,0 P,0,20637,21387,A C,0,20637,,36,74,255
Sprite,Foreground,Centre,"sb/hl.png",470,274 S,2,20956,21706,0.7,0.14 F,2,20956,21706,1,0 P,0,20956,21706,A C,0,20956,,36,74,255
Sprite,Foreground,Centre,"sb/hl.png",0,0 S,2,21271,22176,0.7,0.14 F,2,21271,22176,1,0 P,0,21271,22176,A C,0,21271,,36,74,255 M,0,21271,21309,353,318,343.6996,319.0939 M,0,21309,21348,343.6996,319.0939,334.3397,319.1369 M,0,21348,21387,334.3397,319.1369,325.0384,318.1295 M,0,21387,21426,325.0384,318.1295,315.8802,316.172
Sprite,Foreground,Centre,"sb/hl.png",0,0 S,2,21582,22482,0.7,0.14 F,2,21582,22482,1,0 P,0,21582,22482,A C,0,21582,,223,223,223 M,0,21582,21619,239,292,236.883,303.5259 M,0,21619,21657,236.883,303.5259,234.766,315.0519 M,0,21657,21694,234.766,315.0519,232.649,326.5778 M,0,21694,21732,232.649,326.5778,230.532,338.1038
Sprite,Foreground,Centre,"sb/hl.png",155,382 S,2,21882,22632,0.7,0.14 F,2,21882,22632,1,0 P,0,21882,22632,A C,0,21882,,223,223,223
Sprite,Foreground,Centre,"sb/hl.png",0,0 S,2,22032,22932,0.7,0.14 F,2,22032,22932,1,0 P,0,22032,22932,A C,0,22032,,223,223,223 M,0,22032,22069,155,382,152.883,370.4741 M,0,22069,22107,152.883,370.4741,150.766,358.9481 M,0,22107,22144,150.766,358.9481,148.649,347.4222 M,0,22144,22182,148.649,347.4222,146.532,335.8962
Sprite,Foreground,Centre,"sb/hl.png",117,170 S,2,22482,23232,0.7,0.14 F,2,22482,23232,1,0 P,0,22482,23232,A C,0,22482,,223,223,223
Sprite,Foreground,Centre,"sb/hl.png",0,0 S,2,22782,23832,0.7,0.14 F,2,22782,23832,1,0 P,0,22782,23832,A C,0,22782,,223,223,223 M,0,22782,22819,271,208,282.6625,209.0702 M,0,22819,22857,282.6625,209.0702,294.3646,209.467 M,0,22857,22894,294.3646,209.467,306.0686,209.232 M,0,22894,22932,306.0686,209.232,317.7248,208.1199 M,0,22932,22969,317.7248,208.1199,329.3068,206.4089 M,0,22969,23007,329.3068,206.4089,340.7234,203.8065 M,0,23007,23044,340.7234,203.8065,351.9983,200.6465 M,0,23044,23082,351.9983,200.6465,362.9857,196.5967
Sprite,Foreground,Centre,"sb/hl.png",0,0 S,2,23382,24432,0.7,0.14 F,2,23382,24432,1,0 P,0,23382,24432,A C,0,23382,,223,223,223 M,0,23382,23419,504,123,492.373,121.6032 M,0,23419,23457,492.373,121.6032,480.6855,120.9187 M,0,23457,23494,480.6855,120.9187,468.9802,120.8871 M,0,23494,23532,468.9802,120.8871,457.3077,121.7995 M,0,23532,23569,457.3077,121.7995,445.6993,123.3209 M,0,23569,23607,445.6993,123.3209,434.2589,125.8134 M,0,23607,23644,434.2589,125.8134,422.952,128.8617 M,0,23644,23682,422.952,128.8617,411.9565,132.8881
Sprite,Foreground,Centre,"sb/hl.png",363,197 S,2,23832,24582,0.7,0.14 F,2,23832,24582,1,0 P,0,23832,24582,A C,0,23832,,223,223,223
Sprite,Foreground,Centre,"sb/hl.png",363,197 S,2,23907,24657,0.7,0.14 F,2,23907,24657,1,0 P,0,23907,24657,A C,0,23907,,223,223,223
Sprite,Foreground,Centre,"sb/hl.png",0,0 S,2,23982,25182,0.7,0.14 F,2,23982,25182,1,0 P,0,23982,25182,A C,0,23982,,149,255,218 M,0,23982,24019,363,197,361.8044,208.6576 M,0,24019,24057,361.8044,208.6576,360.6087,220.3152 M,0,24057,24094,360.6087,220.3152,359.4131,231.9728 M,0,24094,24132,359.4131,231.9728,358.2174,243.6304 M,0,24132,24169,358.2174,243.6304,357.0218,255.288 M,0,24169,24207,357.0218,255.288,355.8261,266.9456 M,0,24207,24244,355.8261,266.9456,354.6304,278.6031 M,0,24244,24282,354.6304,278.6031,353.4348,290.2608 M,0,24282,24319,353.4348,290.2608,352.2391,301.9184 M,0,24319,24357,352.2391,301.9184,351.0435,313.576 M,0,24357,24394,351.0435,313.576,349.8478,325.2336 M,0,24394,24432,349.8478,325.2336,348.6522,336.8912
Sprite,Foreground,Centre,"sb/hl.png",311,408 S,2,24582,25332,0.7,0.14 F,2,24582,25332,1,0 P,0,24582,25332,A C,0,24582,,149,255,218
Sprite,Foreground,Centre,"sb/hl.png",228,271 S,2,24882,25632,0.7,0.14 F,2,24882,25632,1,0 P,0,24882,25632,A C,0,24882,,149,255,218
Sprite,Foreground,Centre,"sb/hl.png",0,0 S,2,25182,26232,0.7,0.14 F,2,25182,26232,1,0 P,0,25182,26232,A C,0,25182,,149,255,218 M,0,25182,25219,94,357,88.89741,346.4606 M,0,25219,25257,88.89741,346.4606,84.49373,335.6148 M,0,25257,25294,84.49373,335.6148,80.62759,324.5612 M,0,25294,25332,80.62759,324.5612,77.82549,313.1929 M,0,25332,25369,77.82549,313.1929,75.77058,301.6696 M,0,25369,25407,75.77058,301.6696,74.31954,290.0526 M,0,25407,25444,74.31954,290.0526,73.93971,278.3512 M,0,25444,25482,73.93971,278.3512,74.32297,266.6527
Sprite,Foreground,Centre,"sb/hl.png",0,0 S,2,25782,26832,0.7,0.14 F,2,25782,26832,1,0 P,0,25782,26832,A C,0,25782,,149,255,218 M,0,25782,25819,208,180,213.1026,190.5394 M,0,25819,25857,213.1026,190.5394,217.5063,201.3852 M,0,25857,25894,217.5063,201.3852,221.3724,212.4387 M,0,25894,25932,221.3724,212.4387,224.1745,223.8071 M,0,25932,25969,224.1745,223.8071,226.2294,235.3304 M,0,25969,26007,226.2294,235.3304,227.6805,246.9474 M,0,26007,26044,227.6805,246.9474,228.0603,258.6488 M,0,26044,26082,228.0603,258.6488,227.677,270.3473
Sprite,Foreground,Centre,"sb/hl.png",302,375 S,2,26382,27132,0.7,0.14 F,2,26382,27132,1,0 P,0,26382,27132,A C,0,26382,,36,74,255
Sprite,Foreground,Centre,"sb/hl.png",0,0 S,2,26532,27582,0.7,0.14 F,2,26532,27582,1,0 P,0,26532,27582,A C,0,26532,,36,74,255 M,0,26532,26569,302,375,301.6208,363.2967 M,0,26569,26607,301.6208,363.2967,302.0115,351.5977 M,0,26607,26644,302.0115,351.5977,302.9955,339.9301 M,0,26644,26682,302.9955,339.9301,305.0782,328.4087 M,0,26682,26719,305.0782,328.4087,307.9128,317.0523 M,0,26719,26757,307.9128,317.0523,311.3641,305.8672 M,0,26757,26794,311.3641,305.8672,315.8157,295.0397 M,0,26794,26832,315.8157,295.0397,320.7834,284.4318
Sprite,Foreground,Centre,"sb/hl.png",363,215 S,2,26982,27732,0.7,0.14 F,2,26982,27732,1,0 P,0,26982,27732,A C,0,26982,,36,74,255
Sprite,Foreground,Centre,"sb/hl.png",227,270 S,2,27282,28032,0.7,0.14 F,2,27282,28032,1,0 P,0,27282,28032,A C,0,27282,,36,74,255
Sprite,Foreground,Centre,"sb/hl.png",0,0 S,2,27582,28632,0.7,0.14 F,2,27582,28632,1,0 P,0,27582,28632,A C,0,27582,,36,74,255 M,0,27582,27619,384,340,395.469,342.3482 M,0,27619,27657,395.469,342.3482,407.0751,343.847 M,0,27657,27694,407.0751,343.847,418.7522,344.5833 M,0,27694,27732,418.7522,344.5833,430.4482,344.1662 M,0,27732,27769,430.4482,344.1662,442.0997,343.0472 M,0,27769,27807,442.0997,343.0472,453.572,340.7251 M,0,27807,27844,453.572,340.7251,464.9061,337.777 M,0,27844,27882,464.9061,337.777,475.8897,333.7077
Sprite,Foreground,Centre,"sb/hl.png",0,0 S,2,28182,29232,0.7,0.14 F,2,28182,29232,1,0 P,0,28182,29232,A C,0,28182,,36,74,255 M,0,28182,28219,565,202,565.8926,190.3251 M,0,28219,28257,565.8926,190.3251,566.0023,178.6204 M,0,28257,28294,566.0023,178.6204,565.4356,166.9297 M,0,28294,28332,565.4356,166.9297,563.8054,155.3375 M,0,28332,28369,563.8054,155.3375,561.5771,143.8414 M,0,28369,28407,561.5771,143.8414,558.2427,132.6183 M,0,28407,28444,558.2427,132.6183,554.1661,121.6464 M,0,28444,28482,554.1661,121.6464,549.4935,110.9111
Sprite,Foreground,Centre,"sb/hl.png",475,82 S,2,28632,29382,0.7,0.14 F,2,28632,29382,1,0 P,0,28632,29382,A C,0,28632,,36,74,255
Sprite,Foreground,Centre,"sb/hl.png",475,82 S,2,28707,29457,0.7,0.14 F,2,28707,29457,1,0 P,0,28707,29457,A C,0,28707,,36,74,255
Sprite,Foreground,Centre,"sb/hl.png",0,0 S,2,28782,29982,0.7,0.14 F,2,28782,29982,1,0 P,0,28782,29982,A C,0,28782,,223,223,223 M,0,28782,28819,475,82,463.3047,82.74021 M,0,28819,28857,463.3047,82.74021,451.6093,83.48042 M,0,28857,28894,451.6093,83.48042,439.9139,84.22063 M,0,28894,28932,439.9139,84.22063,428.2186,84.96085 M,0,28932,28969,428.2186,84.96085,416.5233,85.70106 M,0,28969,29007,416.5233,85.70106,404.8279,86.44127 M,0,29007,29044,404.8279,86.44127,393.1326,87.18149 M,0,29044,29082,393.1326,87.18149,381.4372,87.92169 M,0,29082,29119,381.4372,87.92169,369.7419,88.66191 M,0,29119,29157,369.7419,88.66191,358.0465,89.40211 M,0,29157,29194,358.0465,89.40211,346.3512,90.14233 M,0,29194,29232,346.3512,90.14233,334.6558,90.88255
Sprite,Foreground,Centre,"sb/hl.png",254,97 S,2,29382,30132,0.7,0.14 F,2,29382,30132,1,0 P,0,29382,30132,A C,0,29382,,223,223,223
Sprite,Foreground,Centre,"sb/hl.png",0,0 S,2,29682,30882,0.7,0.14 F,2,29682,30882,1,0 P,0,29682,30882,A C,0,29682,,223,223,223 M,0,29682,29719,121,185,132.6953,185.7402 M,0,29719,29757,132.6953,185.7402,144.3907,186.4804 M,0,29757,29794,144.3907,186.4804,156.086,187.2206 M,0,29794,29832,156.086,187.2206,167.7814,187.9608 M,0,29832,29869,167.7814,187.9608,179.4767,188.7011 M,0,29869,29907,179.4767,188.7011,191.1721,189.4413 M,0,29907,29944,191.1721,189.4413,202.8674,190.1815 M,0,29944,29982,202.8674,190.1815,214.5628,190.9217 M,0,29982,30019,214.5628,190.9217,226.2581,191.6619 M,0,30019,30057,226.2581,191.6619,237.9535,192.4021 M,0,30057,30094,237.9535,192.4021,249.6488,193.1423 M,0,30094,30132,249.6488,193.1423,261.3442,193.8825
Sprite,Foreground,Centre,"sb/hl.png",0,0 S,2,30282,31632,0.7,0.14 F,2,30282,31632,1,0 P,0,30282,31632,A C,0,30282,,223,223,223 M,0,30282,30319,324,242,316.1863,250.7189 M,0,30319,30357,316.1863,250.7189,309.0137,259.9668 M,0,30357,30394,309.0137,259.9668,302.3959,269.6205 M,0,30394,30432,302.3959,269.6205,296.764,279.882 M,0,30432,30469,296.764,279.882,291.8758,290.5145 M,0,30469,30507,291.8758,290.5145,287.7037,301.4438 M,0,30507,30544,287.7037,301.4438,284.546,312.7133 M,0,30544,30582,284.546,312.7133,282.0075,324.1437 M,0,30582,30619,282.0075,324.1437,284.546,312.7133 M,0,30619,30657,284.546,312.7133,287.7037,301.4438 M,0,30657,30694,287.7037,301.4438,291.8758,290.5145 M,0,30694,30732,291.8758,290.5145,296.764,279.882 M,0,30732,30769,296.764,279.882,302.3959,269.6205 M,0,30769,30807,302.3959,269.6205,309.0137,259.9668 M,0,30807,30844,309.0137,259.9668,316.1863,250.7189 M,0,30844,30882,316.1863,250.7189,324,242
Sprite,Foreground,Centre,"sb/hl.png",455,150 S,2,31182,31932,0.7,0.14 F,2,31182,31932,1,0 P,0,31182,31932,A C,0,31182,,149,255,218
Sprite,Foreground,Centre,"sb/hl.png",0,0 S,2,31332,32382,0.7,0.14 F,2,31332,32382,1,0 P,0,31332,32382,A C,0,31332,,149,255,218 M,0,31332,31369,455,150,462.6081,158.9001 M,0,31369,31407,462.6081,158.9001,469.5941,168.2915 M,0,31407,31444,469.5941,168.2915,476.0328,178.0664 M,0,31444,31482,476.0328,178.0664,481.5313,188.401 M,0,31482,31519,481.5313,188.401,486.5085,199.003 M,0,31519,31557,486.5085,199.003,490.3949,210.0476 M,0,31557,31594,490.3949,210.0476,493.5239,221.3262 M,0,31594,31632,493.5239,221.3262,496.0453,232.7604
Sprite,Foreground,Centre,"sb/hl.png",502,312 S,2,31782,32532,0.7,0.14 F,2,31782,32532,1,0 P,0,31782,32532,A C,0,31782,,149,255,218
Sprite,Foreground,Centre,"sb/hl.png",0,0 S,2,32082,33132,0.7,0.14 F,2,32082,33132,1,0 P,0,32082,33132,A C,0,32082,,36,74,255 M,0,32082,32119,369,401,357.3284,399.9496 M,0,32119,32157,357.3284,399.9496,345.6569,398.8991 M,0,32157,32194,345.6569,398.8991,333.9853,397.8487 M,0,32194,32232,333.9853,397.8487,322.3137,396.7982 M,0,32232,32269,322.3137,396.7982,310.6421,395.7478 M,0,32269,32307,310.6421,395.7478,298.9706,394.6974 M,0,32307,32344,298.9706,394.6974,287.299,393.6469 M,0,32344,32382,287.299,393.6469,275.6274,392.5965
Sprite,Foreground,Centre,"sb/hl.png",0,0 S,2,32682,33732,0.7,0.14 F,2,32682,33732,1,0 P,0,32682,33732,A C,0,32682,,36,74,255 M,0,32682,32719,123,344,134.6643,342.8712 M,0,32719,32757,134.6643,342.8712,146.3285,341.7424 M,0,32757,32794,146.3285,341.7424,157.9928,340.6136 M,0,32794,32832,157.9928,340.6136,169.657,339.4848 M,0,32832,32869,169.657,339.4848,181.3213,338.356 M,0,32869,32907,181.3213,338.356,192.9855,337.2272 M,0,32907,32944,192.9855,337.2272,204.6498,336.0984 M,0,32944,32982,204.6498,336.0984,216,335
Sprite,Foreground,Centre,"sb/hl.png",371,295 S,2,33282,34032,0.7,0.14 F,2,33282,34032,1,0 P,0,33282,34032,A C,0,33282,,36,74,255
Sprite,Foreground,Centre,"sb/hl.png",299,260 S,2,33432,34182,0.7,0.14 F,2,33432,34182,1,0 P,0,33432,34182,A C,0,33432,,36,74,255
Sprite,Foreground,Centre,"sb/hl.png",299,260 S,2,33507,34257,0.7,0.14 F,2,33507,34257,1,0 P,0,33507,34257,A C,0,33507,,36,74,255
Sprite,Foreground,Centre,"sb/hl.png",0,0 S,2,33582,34782,0.7,0.14 F,2,33582,34782,1,0 P,0,33582,34782,A C,0,33582,,223,223,223 M,0,33582,33619,299,260,290.4081,252.0548 M,0,33619,33657,290.4081,252.0548,282.5361,243.4037 M,0,33657,33694,282.5361,243.4037,275.3801,234.1579 M,0,33694,33732,275.3801,234.1579,269.3116,224.1578 M,0,33732,33769,269.3116,224.1578,264.0129,213.7314 M,0,33769,33807,264.0129,213.7314,259.9731,202.7526 M,0,33807,33844,259.9731,202.7526,256.7206,191.5135 M,0,33844,33882,256.7206,191.5135,254.8596,179.9627 M,0,33882,33919,254.8596,179.9627,253.7701,168.3076 M,0,33919,33957,253.7701,168.3076,254.1574,156.6127 M,0,33957,33994,254.1574,156.6127,255.5496,144.9998 M,0,33994,34032,255.5496,144.9998,257.787,133.5153
Sprite,Foreground,Centre,"sb/hl.png",308,71 S,2,34182,34932,0.7,0.14 F,2,34182,34932,1,0 P,0,34182,34932,A C,0,34182,,223,223,223
Sprite,Foreground,Centre,"sb/hl.png",0,0 S,2,34482,35532,0.7,0.14 F,2,34482,35532,1,0 P,0,34482,35532,A C,0,34482,,223,223,223 M,0,34482,34519,466,94,470.1221,104.9499 M,0,34519,34557,470.1221,104.9499,473.2061,116.2281 M,0,34557,34594,473.2061,116.2281,475.4847,127.7045 M,0,34594,34632,475.4847,127.7045,476.1994,139.3804 M,0,34632,34669,476.1994,139.3804,475.8255,151.0654 M,0,34669,34707,475.8255,151.0654,474.5687,162.6915 M,0,34707,34744,474.5687,162.6915,471.814,174.0582 M,0,34744,34782,471.814,174.0582,468.2809,185.2206
Sprite,Foreground,Centre,"sb/hl.png",0,0 S,2,35082,36432,0.7,0.14 F,2,35082,36432,1,0 P,0,35082,36432,A C,0,35082,,223,223,223 M,0,35082,35119,386,322,382.4334,333.1423 M,0,35119,35157,382.4334,333.1423,379.9426,344.565 M,0,35157,35194,379.9426,344.565,378.3132,356.1478 M,0,35194,35232,378.3132,356.1478,378.2649,367.8435 M,0,35232,35269,378.2649,367.8435,379.3268,379.4847 M,0,35269,35307,379.3268,379.4847,381.3375,390.9984 M,0,35307,35344,381.3375,390.9984,384.8102,402.164 M,0,35344,35382,384.8102,402.164,389,413 M,0,35382,35419,389,413,384.8102,402.164 M,0,35419,35457,384.8102,402.164,381.3375,390.9984 M,0,35457,35494,381.3375,390.9984,379.3268,379.4847 M,0,35494,35532,379.3268,379.4847,378.2649,367.8435 M,0,35532,35569,378.2649,367.8435,378.3132,356.1478 M,0,35569,35607,378.3132,356.1478,379.9426,344.565 M,0,35607,35644,379.9426,344.565,382.4334,333.1423 M,0,35644,35682,382.4334,333.1423,386,322
Sprite,Foreground,Centre,"sb/hl.png",287,196 S,2,35982,36732,0.7,0.14 F,2,35982,36732,1,0 P,0,35982,36732,A C,0,35982,,149,255,218
Sprite,Foreground,Centre,"sb/hl.png",0,0 S,2,36132,37182,0.7,0.14 F,2,36132,37182,1,0 P,0,36132,37182,A C,0,36132,,149,255,218 M,0,36132,36169,287,196,275.7511,199.2237 M,0,36169,36207,275.7511,199.2237,264.2674,201.4345 M,0,36207,36244,264.2674,201.4345,252.6528,202.859 M,0,36244,36282,252.6528,202.859,240.9536,202.7844 M,0,36282,36319,240.9536,202.7844,229.3133,201.6719 M,0,36319,36357,229.3133,201.6719,217.7834,199.7121 M,0,36357,36394,217.7834,199.7121,206.5806,196.3465 M,0,36394,36432,206.5806,196.3465,195.61,192.2537
Sprite,Foreground,Centre,"sb/hl.png",143,132 S,2,36582,37332,0.7,0.14 F,2,36582,37332,1,0 P,0,36582,37332,A C,0,36582,,149,255,218
Sprite,Foreground,Centre,"sb/hl.png",0,0 S,2,36882,37932,0.7,0.14 F,2,36882,37932,1,0 P,0,36882,37932,A C,0,36882,,149,255,218 M,0,36882,36919,133,291,132.4262,302.7047 M,0,36919,36957,132.4262,302.7047,131.8525,314.4094 M,0,36957,36994,131.8525,314.4094,131.2787,326.1141 M,0,36994,37032,131.2787,326.1141,130.705,337.8188 M,0,37032,37069,130.705,337.8188,130.1312,349.5235 M,0,37069,37107,130.1312,349.5235,129.5574,361.2282 M,0,37107,37144,129.5574,361.2282,128.9837,372.9329 M,0,37144,37182,128.9837,372.9329,128.4099,384.6376
Sprite,Foreground,Centre,"sb/hl.png",0,0 S,2,37482,38832,0.7,0.14 F,2,37482,38832,1,0 P,0,37482,38832,A C,0,37482,,149,255,218 M,0,37482,37519,280,337,280.5036,348.7079 M,0,37519,37557,280.5036,348.7079,281.0071,360.4159 M,0,37557,37594,281.0071,360.4159,281.5107,372.1238 M,0,37594,37632,281.5107,372.1238,282.0143,383.8317 M,0,37632,37669,282.0143,383.8317,282.5178,395.5396 M,0,37669,37707,282.5178,395.5396,283.0214,407.2476 M,0,37707,37744,283.0214,407.2476,283.525,418.9555 M,0,37744,37782,283.525,418.9555,284,430 M,0,37782,37819,284,430,283.525,418.9555 M,0,37819,37857,283.525,418.9555,283.0214,407.2476 M,0,37857,37894,283.0214,407.2476,282.5178,395.5396 M,0,37894,37932,282.5178,395.5396,282.0143,383.8317 M,0,37932,37969,282.0143,383.8317,281.5107,372.1238 M,0,37969,38007,281.5107,372.1238,281.0071,360.4159 M,0,38007,38044,281.0071,360.4159,280.5036,348.7079 M,0,38044,38082,280.5036,348.7079,280,337
Sprite,Foreground,Centre,"sb/hl.png",325,271 S,2,38232,38982,0.7,0.14 F,2,38232,38982,1,0 P,0,38232,38982,A C,0,38232,,149,255,218
Sprite,Foreground,Centre,"sb/hl.png",325,271 S,2,38307,39057,0.7,0.14 F,2,38307,39057,1,0 P,0,38307,39057,A C,0,38307,,149,255,218
Sprite,Foreground,Centre,"sb/hl.png",0,0 S,2,38382,39582,0.7,0.14 F,2,38382,39582,1,0 P,0,38382,39582,A C,0,38382,,36,74,255 M,0,38382,38419,325,271,334.8643,264.7199 M,0,38419,38457,334.8643,264.7199,345.3347,259.5345 M,0,38457,38494,345.3347,259.5345,356.2438,255.3605 M,0,38494,38532,356.2438,255.3605,367.6462,252.7987 M,0,38532,38569,367.6462,252.7987,379.2317,251.225 M,0,38569,38607,379.2317,251.225,390.9197,251.4334 M,0,38607,38644,390.9197,251.4334,402.5113,252.8892 M,0,38644,38682,402.5113,252.8892,413.8841,255.5178 M,0,38682,38719,413.8841,255.5178,424.8038,259.675 M,0,38719,38757,424.8038,259.675,435.2835,264.835 M,0,38757,38794,435.2835,264.835,444.9119,271.4588 M,0,38794,38832,444.9119,271.4588,453.9763,278.8553
Sprite,Foreground,Centre,"sb/hl.png",502,342 S,2,38982,39732,0.7,0.14 F,2,38982,39732,1,0 P,0,38982,39732,A C,0,38982,,36,74,255
Sprite,Foreground,Centre,"sb/hl.png",0,0 S,2,39282,40332,0.7,0.14 F,2,39282,40332,1,0 P,0,39282,40332,A C,0,39282,,36,74,255 M,0,39282,39319,524,184,525.3621,172.3607 M,0,39319,39357,525.3621,172.3607,526.7241,160.7213 M,0,39357,39394,526.7241,160.7213,528.0862,149.082 M,0,39394,39432,528.0862,149.082,529.4482,137.4427 M,0,39432,39469,529.4482,137.4427,530.8102,125.8034 M,0,39469,39507,530.8102,125.8034,532.1723,114.164 M,0,39507,39544,532.1723,114.164,533.5343,102.5247 M,0,39544,39582,533.5343,102.5247,534.8964,90.88538
Sprite,Foreground,Centre,"sb/hl.png",0,0 S,2,39882,41232,0.7,0.14 F,2,39882,41232,1,0 P,0,39882,41232,A C,0,39882,,36,74,255 M,0,39882,39919,390,158,391.3765,169.6376 M,0,39919,39957,391.3765,169.6376,392.753,181.2753 M,0,39957,39994,392.753,181.2753,394.1295,192.9129 M,0,39994,40032,394.1295,192.9129,395.506,204.5505 M,0,40032,40069,395.506,204.5505,396.8825,216.1881 M,0,40069,40107,396.8825,216.1881,398.259,227.8258 M,0,40107,40144,398.259,227.8258,399.6355,239.4634 M,0,40144,40182,399.6355,239.4634,401,251 M,0,40182,40219,401,251,399.6355,239.4634 M,0,40219,40257,399.6355,239.4634,398.259,227.8258 M,0,40257,40294,398.259,227.8258,396.8825,216.1881 M,0,40294,40332,396.8825,216.1881,395.506,204.5505 M,0,40332,40369,395.506,204.5505,394.1295,192.9129 M,0,40369,40407,394.1295,192.9129,392.753,181.2753 M,0,40407,40444,392.753,181.2753,391.3765,169.6376 M,0,40444,40482,391.3765,169.6376,390,158
Sprite,Foreground,Centre,"sb/ring.png",239,292 S,19,21582,22332,0.125,0.55 F,6,21582,22332,0.7,0
Sprite,Foreground,Centre,"sb/ring.png",106,116 S,19,187182,187682,0.125,0.55 F,6,187182,187682,0.7,0
Sprite,Foreground,Centre,"sb/ring.png",256,69 S,19,40782,41532,0.125,0.55 F,6,40782,41532,0.7,0
Sprite,Foreground,Centre,"sb/ring.png",77,377 S,19,59982,60732,0.125,0.55 F,6,59982,60732,0.7,0
Sprite,Foreground,Centre,"sb/hl.png",0,0 S,2,57582,58782,0.7,0.14 F,2,57582,58782,1,0 P,0,57582,58782,A C,0,57582,,149,255,218 M,0,57582,57619,408,157,419.2664,160.0671 M,0,57619,57657,419.2664,160.0671,430.8335,161.5206 M,0,57657,57694,430.8335,161.5206,442.5166,161.7835 M,0,57694,57732,442.5166,161.7835,453.9905,159.632 M,0,57732,57769,453.9905,159.632,465.0326,155.8972 M,0,57769,57807,465.0326,155.8972,475.6387,151.0091 M,0,57807,57844,475.6387,151.0091,465.0326,155.8972 M,0,57844,57882,465.0326,155.8972,453.9905,159.632 M,0,57882,57919,453.9905,159.632,442.5166,161.7835 M,0,57919,57957,442.5166,161.7835,430.8335,161.5206 M,0,57957,57994,430.8335,161.5206,419.2664,160.0671 M,0,57994,58032,419.2664,160.0671,408,157
Sprite,Foreground,Centre,"sb/hl.png",0,0 S,2,58182,59382,0.7,0.14 F,2,58182,59382,1,0 P,0,58182,59382,A C,0,58182,,149,255,218 M,0,58182,58219,340,114,337.1121,102.6885 M,0,58219,58257,337.1121,102.6885,332.6337,91.92835 M,0,58257,58294,332.6337,91.92835,327.0628,81.6507 M,0,58294,58332,327.0628,81.6507,319.433,72.81563 M,0,58332,58369,319.433,72.81563,310.6253,65.18337 M,0,58369,58407,310.6253,65.18337,301.0508,58.47977 M,0,58407,58444,301.0508,58.47977,310.6253,65.18336 M,0,58444,58482,310.6253,65.18336,319.433,72.81563 M,0,58482,58519,319.433,72.81563,327.0628,81.6507 M,0,58519,58557,327.0628,81.6507,332.6337,91.92834 M,0,58557,58594,332.6337,91.92834,337.1121,102.6884 M,0,58594,58632,337.1121,102.6884,340,114
Sprite,Foreground,Centre,"sb/hl.png",0,0 S,2,58782,59982,0.7,0.14 F,2,58782,59982,1,0 P,0,58782,59982,A C,0,58782,,149,255,218 M,0,58782,58819,337,194,328.4964,201.9963 M,0,58819,58857,328.4964,201.9963,321.2674,211.1357 M,0,58857,58894,321.2674,211.1357,315.0177,221.0116 M,0,58894,58932,315.0177,221.0116,311.0631,231.9926 M,0,58932,58969,311.0631,231.9926,308.7626,243.4151 M,0,58969,59007,308.7626,243.4151,307.6889,255.0484 M,0,59007,59044,307.6889,255.0484,308.7626,243.4151 M,0,59044,59082,308.7626,243.4151,311.0631,231.9926 M,0,59082,59119,311.0631,231.9926,315.0177,221.0116 M,0,59119,59157,315.0177,221.0116,321.2674,211.1357 M,0,59157,59194,321.2674,211.1357,328.4963,201.9964 M,0,59194,59232,328.4963,201.9964,337,194
Sprite,Foreground,Centre,"sb/hl.png",409,160 S,2,59382,60132,0.7,0.14 F,2,59382,60132,1,0 P,0,59382,60132,A C,0,59382,,149,255,218
Sprite,Foreground,Centre,"sb/hl.png",0,0 S,2,76782,77982,0.7,0.14 F,2,76782,77982,1,0 P,0,76782,77982,A C,0,76782,,223,223,223 M,0,76782,76819,232,136,229.5534,124.5395 M,0,76819,76857,229.5534,124.5395,227.1068,113.079 M,0,76857,76894,227.1068,113.079,224.6601,101.6185 M,0,76894,76932,224.6601,101.6185,222.2135,90.15799 M,0,76932,76969,222.2135,90.15799,219.7669,78.69749 M,0,76969,77007,219.7669,78.69749,217.3203,67.23698 M,0,77007,77044,217.3203,67.23698,219.7669,78.69748 M,0,77044,77082,219.7669,78.69748,222.2135,90.15798 M,0,77082,77119,222.2135,90.15798,224.6601,101.6185 M,0,77119,77157,224.6601,101.6185,227.1068,113.079 M,0,77157,77194,227.1068,113.079,229.5534,124.5395 M,0,77194,77232,229.5534,124.5395,232,136
Sprite,Foreground,Centre,"sb/hl.png",0,0 S,2,77382,78582,0.7,0.14 F,2,77382,78582,1,0 P,0,77382,78582,A C,0,77382,,223,223,223 M,0,77382,77419,298,180,301.5902,168.8448 M,0,77419,77457,301.5902,168.8448,305.1804,157.6895 M,0,77457,77494,305.1804,157.6895,308.7706,146.5342 M,0,77494,77532,308.7706,146.5342,312.3608,135.379 M,0,77532,77569,312.3608,135.379,315.951,124.2238 M,0,77569,77607,315.951,124.2238,319.5412,113.0685 M,0,77607,77644,319.5412,113.0685,315.951,124.2237 M,0,77644,77682,315.951,124.2237,312.3608,135.379 M,0,77682,77719,312.3608,135.379,308.7706,146.5342 M,0,77719,77757,308.7706,146.5342,305.1804,157.6895 M,0,77757,77794,305.1804,157.6895,301.5902,168.8447 M,0,77794,77832,301.5902,168.8447,298,180
Sprite,Foreground,Centre,"sb/hl.png",0,0 S,2,77982,79182,0.7,0.14 F,2,77982,79182,1,0 P,0,77982,79182,A C,0,77982,,223,223,223 M,0,77982,78019,333,251,341.6653,243.1107 M,0,78019,78057,341.6653,243.1107,350.3306,235.2214 M,0,78057,78094,350.3306,235.2214,358.9959,227.332 M,0,78094,78132,358.9959,227.332,367.6613,219.4427 M,0,78132,78169,367.6613,219.4427,376.3266,211.5534 M,0,78169,78207,376.3266,211.5534,384.9919,203.6641 M,0,78207,78244,384.9919,203.6641,376.3266,211.5534 M,0,78244,78282,376.3266,211.5534,367.6613,219.4427 M,0,78282,78319,367.6613,219.4427,358.996,227.332 M,0,78319,78357,358.996,227.332,350.3306,235.2214 M,0,78357,78394,350.3306,235.2214,341.6653,243.1107 M,0,78394,78432,341.6653,243.1107,333,251
Sprite,Foreground,Centre,"sb/ring.png",346,330 S,19,78582,79332,0.125,0.55 F,6,78582,79332,0.7,0
Sprite,Foreground,Centre,"sb/ring.png",202,400 S,19,78882,79632,0.125,0.55 F,6,78882,79632,0.7,0
Sprite,Foreground,Centre,"sb/ring.png",88,350 S,19,79182,79932,0.125,0.55 F,6,79182,79932,0.7,0
Sprite,Foreground,Centre,"sb/ring.png",471,388 S,19,98382,99132,0.125,0.55 F,6,98382,99132,0.7,0
Sprite,Foreground,Centre,"sb/ring.png",192,365 S,19,117582,118332,0.125,0.55 F,6,117582,118332,0.7,0
Sprite,Foreground,Centre,"sb/ring.png",228,100 S,19,128982,129732,0.125,0.55 F,6,128982,129732,0.7,0
Sprite,Foreground,Centre,"sb/ring.png",370,153 S,19,129282,130032,0.125,0.55 F,6,129282,130032,0.7,0
Sprite,Foreground,Centre,"sb/ring.png",458,147 S,19,129507,130257,0.125,0.55 F,6,129507,130257,0.7,0
Sprite,Foreground,Centre,"sb/ring.png",482,162 S,19,129582,130332,0.125,0.55 F,6,129582,130332,0.7,0
Sprite,Foreground,Centre,"sb/ring.png",127,108 S,19,139182,140682,0.125,0.55 F,6,139182,140682,0.7,0
Sprite,Foreground,Centre,"sb/ring.png",236,74 S,19,131382,132882,0.125,0.55 F,6,131382,132882,0.7,0
Sprite,Foreground,Centre,"sb/ring.png",386,143 S,19,131682,133182,0.125,0.55 F,6,131682,133182,0.7,0
Sprite,Foreground,Centre,"sb/ring.png",475,128 S,19,131907,133407,0.125,0.55 F,6,131907,133407,0.7,0
Sprite,Foreground,Centre,"sb/ring.png",496,130 S,19,131982,133482,0.125,0.55 F,6,131982,133482,0.7,0
Sprite,Foreground,Centre,"sb/ring.png",135,255 S,19,143982,144482,0.125,0.55 F,6,143982,144482,0.7,0
Sprite,Foreground,Centre,"sb/ring.png",294,408 S,19,144432,144932,0.125,0.55 F,6,144432,144932,0.7,0
Sprite,Foreground,Centre,"sb/ring.png",217,196 S,19,144882,145382,0.125,0.55 F,6,144882,145382,0.7,0
Sprite,Foreground,Centre,"sb/ring.png",386,372 S,19,145332,145832,0.125,0.55 F,6,145332,145832,0.7,0
Sprite,Foreground,Centre,"sb/ring.png",430,164 S,19,145782,146282,0.125,0.55 F,6,145782,146282,0.7,0
Sprite,Foreground,Centre,"sb/ring.png",125,202 S,19,146382,146882,0.125,0.55 F,6,146382,146882,0.7,0
Sprite,Foreground,Centre,"sb/ring.png",284,355 S,19,146832,147332,0.125,0.55 F,6,146832,147332,0.7,0
Sprite,Foreground,Centre,"sb/ring.png",207,143 S,19,147282,147782,0.125,0.55 F,6,147282,147782,0.7,0
Sprite,Foreground,Centre,"sb/ring.png",376,319 S,19,147732,148232,0.125,0.55 F,6,147732,148232,0.7,0
Sprite,Foreground,Centre,"sb/ring.png",420,111 S,19,148182,148682,0.125,0.55 F,6,148182,148682,0.7,0
Sprite,Foreground,Centre,"sb/ring.png",277,272 S,19,153582,154082,0.125,0.55 F,6,153582,154082,0.7,0
Sprite,Foreground,Centre,"sb/ring.png",439,104 S,19,154032,154532,0.125,0.55 F,6,154032,154532,0.7,0
Sprite,Foreground,Centre,"sb/ring.png",354,323 S,19,154482,154982,0.125,0.55 F,6,154482,154982,0.7,0
Sprite,Foreground,Centre,"sb/ring.png",523,132 S,19,154932,155432,0.125,0.55 F,6,154932,155432,0.7,0
Sprite,Foreground,Centre,"sb/ring.png",544,263 S,19,155232,155732,0.125,0.55 F,6,155232,155732,0.7,0
Sprite,Foreground,Centre,"sb/ring.png",269,324 S,19,155982,156482,0.125,0.55 F,6,155982,156482,0.7,0
Sprite,Foreground,Centre,"sb/ring.png",431,156 S,19,156432,156932,0.125,0.55 F,6,156432,156932,0.7,0
Sprite,Foreground,Centre,"sb/ring.png",346,375 S,19,156882,157382,0.125,0.55 F,6,156882,157382,0.7,0
Sprite,Foreground,Centre,"sb/ring.png",515,184 S,19,157332,157832,0.125,0.55 F,6,157332,157832,0.7,0
Sprite,Foreground,Centre,"sb/ring.png",536,315 S,19,157632,158132,0.125,0.55 F,6,157632,158132,0.7,0
Sprite,Foreground,Centre,"sb/ring.png",403,184 S,19,194382,194882,0.125,0.55 F,6,194382,194882,0.7,0
Sprite,Foreground,Centre,"sb/ring.png",403,184 S,19,194532,195032,0.125,0.55 F,6,194532,195032,0.7,0
Sprite,Foreground,Centre,"sb/ring.png",504,290 S,19,194832,195332,0.125,0.55 F,6,194832,195332,0.7,0
Sprite,Foreground,Centre,"sb/ring.png",522,191 S,19,194982,195482,0.125,0.55 F,6,194982,195482,0.7,0
Sprite,Foreground,Centre,"sb/ring.png",391,342 S,19,195282,195782,0.125,0.55 F,6,195282,195782,0.7,0
Sprite,Foreground,Centre,"sb/ring.png",214,209 S,19,195732,196232,0.125,0.55 F,6,195732,196232,0.7,0
Sprite,Foreground,Centre,"sb/ring.png",214,209 S,19,195882,196382,0.125,0.55 F,6,195882,196382,0.7,0
Sprite,Foreground,Centre,"sb/ring.png",335,288 S,19,196182,196682,0.125,0.55 F,6,196182,196682,0.7,0
Sprite,Foreground,Centre,"sb/ring.png",360,270 S,19,203982,204482,0.125,0.55 F,6,203982,204482,0.7,0
Sprite,Foreground,Centre,"sb/ring.png",168,147 S,19,204432,204932,0.125,0.55 F,6,204432,204932,0.7,0
Sprite,Foreground,Centre,"sb/ring.png",368,292 S,19,204882,205382,0.125,0.55 F,6,204882,205382,0.7,0
Sprite,Foreground,Centre,"sb/ring.png",176,169 S,19,205332,205832,0.125,0.55 F,6,205332,205832,0.7,0
Sprite,Foreground,Centre,"sb/ring.png",132,337 S,19,205782,206282,0.125,0.55 F,6,205782,206282,0.7,0
Sprite,Foreground,Centre,"sb/ring.png",342,170 S,19,206382,206882,0.125,0.55 F,6,206382,206882,0.7,0
Sprite,Foreground,Centre,"sb/ring.png",254,384 S,19,223182,223682,0.125,0.55 F,6,223182,223682,0.7,0
Sprite,Foreground,Centre,"sb/ring.png",254,384 S,19,223332,223832,0.125,0.55 F,6,223332,223832,0.7,0
Sprite,Foreground,Centre,"sb/ring.png",112,182 S,19,223632,224132,0.125,0.55 F,6,223632,224132,0.7,0
Sprite,Foreground,Centre,"sb/ring.png",112,182 S,19,223782,224282,0.125,0.55 F,6,223782,224282,0.7,0
Sprite,Foreground,Centre,"sb/ring.png",269,378 S,19,224082,224582,0.125,0.55 F,6,224082,224582,0.7,0
Sprite,Foreground,Centre,"sb/ring.png",269,378 S,19,224232,224732,0.125,0.55 F,6,224232,224732,0.7,0
Sprite,Foreground,Centre,"sb/ring.png",96,200 S,19,224532,225032,0.125,0.55 F,6,224532,225032,0.7,0
Sprite,Foreground,Centre,"sb/ring.png",96,200 S,19,224682,225182,0.125,0.55 F,6,224682,225182,0.7,0
Sprite,Foreground,Centre,"sb/ring.png",290,367 S,19,224982,225482,0.125,0.55 F,6,224982,225482,0.7,0
Sprite,Foreground,Centre,"sb/ring.png",439,56 S,19,225582,226082,0.125,0.55 F,6,225582,226082,0.7,0
Sprite,Foreground,Centre,"sb/ring.png",435,208 S,19,244782,246282,0.125,0.55 F,6,244782,246282,0.7,0
Sprite,Foreground,Centre,"sb/d.png",0,0 M,4,187182,187782,106,116,173,211 F,0,187182,187782,1,0 S,0,187182,187782,0.7,0.28 P,0,187182,187782,A
Sprite,Foreground,Centre,"sb/d.png",0,0 M,4,187182,187782,106,116,186,133 F,0,187182,187782,1,0 S,0,187182,187782,0.7,0.28 P,0,187182,187782,A
Sprite,Foreground,Centre,"sb/d.png",0,0 M,4,187182,187782,106,116,17,133 F,0,187182,187782,1,0 S,0,187182,187782,0.7,0.28 P,0,187182,187782,A
Sprite,Foreground,Centre,"sb/d.png",0,0 M,4,187182,187782,106,116,227,98 F,0,187182,187782,1,0 S,0,187182,187782,0.7,0.28 P,0,187182,187782,A
Sprite,Foreground,Centre,"sb/d.png",0,0 M,4,187182,187782,106,116,249,48 F,0,187182,187782,1,0 S,0,187182,187782,0.7,0.28 P,0,187182,187782,A
Sprite,Foreground,Centre,"sb/d.png",0,0 M,4,187182,187782,106,116,43,106 F,0,187182,187782,1,0 S,0,187182,187782,0.7,0.28 P,0,187182,187782,A
Sprite,Foreground,Centre,"sb/d.png",0,0 M,4,187182,187782,106,116,145,106 F,0,187182,187782,1,0 S,0,187182,187782,0.7,0.28 P,0,187182,187782,A
Sprite,Foreground,Centre,"sb/d.png",0,0 M,4,187632,188232,201,298,345,157 F,0,187632,188232,1,0 S,0,187632,188232,0.7,0.28 P,0,187632,188232,A
Sprite,Foreground,Centre,"sb/d.png",0,0 M,4,187632,188232,201,298,309,446 F,0,187632,188232,1,0 S,0,187632,188232,0.7,0.28 P,0,187632,188232,A
Sprite,Foreground,Centre,"sb/d.png",0,0 M,4,187632,188232,201,298,254,242 F,0,187632,188232,1,0 S,0,187632,188232,0.7,0.28 P,0,187632,188232,A
Sprite,Foreground,Centre,"sb/d.png",0,0 M,4,187632,188232,201,298,296,402 F,0,187632,188232,1,0 S,0,187632,188232,0.7,0.28 P,0,187632,188232,A
Sprite,Foreground,Centre,"sb/d.png",0,0 M,4,187632,188232,201,298,348,157 F,0,187632,188232,1,0 S,0,187632,188232,0.7,0.28 P,0,187632,188232,A
Sprite,Foreground,Centre,"sb/d.png",0,0 M,4,187632,188232,201,298,260,305 F,0,187632,188232,1,0 S,0,187632,188232,0.7,0.28 P,0,187632,188232,A
Sprite,Foreground,Centre,"sb/d.png",0,0 M,4,187632,188232,201,298,331,354 F,0,187632,188232,1,0 S,0,187632,188232,0.7,0.28 P,0,187632,188232,A
Sprite,Foreground,Centre,"sb/d.png",0,0 M,4,187782,188382,201,298,215,172 F,0,187782,188382,1,0 S,0,187782,188382,0.7,0.28 P,0,187782,188382,A
Sprite,Foreground,Centre,"sb/d.png",0,0 M,4,187782,188382,201,298,107,283 F,0,187782,188382,1,0 S,0,187782,188382,0.7,0.28 P,0,187782,188382,A
Sprite,Foreground,Centre,"sb/d.png",0,0 M,4,187782,188382,201,298,140,444 F,0,187782,188382,1,0 S,0,187782,188382,0.7,0.28 P,0,187782,188382,A
Sprite,Foreground,Centre,"sb/d.png",0,0 M,4,187782,188382,201,298,243,376 F,0,187782,188382,1,0 S,0,187782,188382,0.7,0.28 P,0,187782,188382,A
Sprite,Foreground,Centre,"sb/d.png",0,0 M,4,187782,188382,201,298,60,262 F,0,187782,188382,1,0 S,0,187782,188382,0.7,0.28 P,0,187782,188382,A
Sprite,Foreground,Centre,"sb/d.png",0,0 M,4,187782,188382,201,298,153,435 F,0,187782,188382,1,0 S,0,187782,188382,0.7,0.28 P,0,187782,188382,A
Sprite,Foreground,Centre,"sb/d.png",0,0 M,4,187782,188382,201,298,202,362 F,0,187782,188382,1,0 S,0,187782,188382,0.7,0.28 P,0,187782,188382,A
Sprite,Foreground,Centre,"sb/d.png",0,0 M,4,188082,188682,258,149,143,81 F,0,188082,188682,1,0 S,0,188082,188682,0.7,0.28 P,0,188082,188682,A
Sprite,Foreground,Centre,"sb/d.png",0,0 M,4,188082,188682,258,149,380,237 F,0,188082,188682,1,0 S,0,188082,188682,0.7,0.28 P,0,188082,188682,A
Sprite,Foreground,Centre,"sb/d.png",0,0 M,4,188082,188682,258,149,209,136 F,0,188082,188682,1,0 S,0,188082,188682,0.7,0.28 P,0,188082,188682,A
Sprite,Foreground,Centre,"sb/d.png",0,0 M,4,188082,188682,258,149,152,65 F,0,188082,188682,1,0 S,0,188082,188682,0.7,0.28 P,0,188082,188682,A
Sprite,Foreground,Centre,"sb/d.png",0,0 M,4,188082,188682,258,149,231,214 F,0,188082,188682,1,0 S,0,188082,188682,0.7,0.28 P,0,188082,188682,A
Sprite,Foreground,Centre,"sb/d.png",0,0 M,4,188082,188682,258,149,293,145 F,0,188082,188682,1,0 S,0,188082,188682,0.7,0.28 P,0,188082,188682,A
Sprite,Foreground,Centre,"sb/d.png",0,0 M,4,188082,188682,258,149,166,262 F,0,188082,188682,1,0 S,0,188082,188682,0.7,0.28 P,0,188082,188682,A
Sprite,Foreground,Centre,"sb/d.png",0,0 M,4,188382,188982,405,278,502,348 F,0,188382,188982,1,0 S,0,188382,188982,0.7,0.28 P,0,188382,188982,A
Sprite,Foreground,Centre,"sb/d.png",0,0 M,4,188382,188982,405,278,512,331 F,0,188382,188982,1,0 S,0,188382,188982,0.7,0.28 P,0,188382,188982,A
Sprite,Foreground,Centre,"sb/d.png",0,0 M,4,188382,188982,405,278,442,193 F,0,188382,188982,1,0 S,0,188382,188982,0.7,0.28 P,0,188382,188982,A
Sprite,Foreground,Centre,"sb/d.png",0,0 M,4,188382,188982,405,278,523,396 F,0,188382,188982,1,0 S,0,188382,188982,0.7,0.28 P,0,188382,188982,A
Sprite,Foreground,Centre,"sb/d.png",0,0 M,4,188382,188982,405,278,280,379 F,0,188382,188982,1,0 S,0,188382,188982,0.7,0.28 P,0,188382,188982,A
Sprite,Foreground,Centre,"sb/d.png",0,0 M,4,188382,188982,405,278,306,321 F,0,188382,188982,1,0 S,0,188382,188982,0.7,0.28 P,0,188382,188982,A
Sprite,Foreground,Centre,"sb/d.png",0,0 M,4,188382,188982,405,278,503,193 F,0,188382,188982,1,0 S,0,188382,188982,0.7,0.28 P,0,188382,188982,A
Sprite,Foreground,Centre,"sb/d.png",0,0 M,4,188682,189282,567,238,716,232 F,0,188682,189282,1,0 S,0,188682,189282,0.7,0.28 P,0,188682,189282,A
Sprite,Foreground,Centre,"sb/d.png",0,0 M,4,188682,189282,567,238,612,303 F,0,188682,189282,1,0 S,0,188682,189282,0.7,0.28 P,0,188682,189282,A
Sprite,Foreground,Centre,"sb/d.png",0,0 M,4,188682,189282,567,238,659,118 F,0,188682,189282,1,0 S,0,188682,189282,0.7,0.28 P,0,188682,189282,A
Sprite,Foreground,Centre,"sb/d.png",0,0 M,4,188682,189282,567,238,635,303 F,0,188682,189282,1,0 S,0,188682,189282,0.7,0.28 P,0,188682,189282,A
Sprite,Foreground,Centre,"sb/d.png",0,0 M,4,188682,189282,567,238,454,359 F,0,188682,189282,1,0 S,0,188682,189282,0.7,0.28 P,0,188682,189282,A
Sprite,Foreground,Centre,"sb/d.png",0,0 M,4,188682,189282,567,238,473,231 F,0,188682,189282,1,0 S,0,188682,189282,0.7,0.28 P,0,188682,189282,A
Sprite,Foreground,Centre,"sb/d.png",0,0 M,4,188682,189282,567,238,579,185 F,0,188682,189282,1,0 S,0,188682,189282,0.7,0.28 P,0,188682,189282,A
Sprite,Foreground,Centre,"sb/d.png",0,0 M,4,188982,189582,503,387,554,377 F,0,188982,189582,1,0 S,0,188982,189582,0.7,0.28 P,0,188982,189582,A
Sprite,Foreground,Centre,"sb/d.png",0,0 M,4,188982,189582,503,387,603,479 F,0,188982,189582,1,0 S,0,188982,189582,0.7,0.28 P,0,188982,189582,A
Sprite,Foreground,Centre,"sb/d.png",0,0 M,4,188982,189582,503,387,591,466 F,0,188982,189582,1,0 S,0,188982,189582,0.7,0.28 P,0,188982,189582,A
Sprite,Foreground,Centre,"sb/d.png",0,0 M,4,188982,189582,503,387,634,325 F,0,188982,189582,1,0 S,0,188982,189582,0.7,0.28 P,0,188982,189582,A
Sprite,Foreground,Centre,"sb/d.png",0,0 M,4,188982,189582,503,387,509,436 F,0,188982,189582,1,0 S,0,188982,189582,0.7,0.28 P,0,188982,189582,A
Sprite,Foreground,Centre,"sb/d.png",0,0 M,4,188982,189582,503,387,452,323 F,0,188982,189582,1,0 S,0,188982,189582,0.7,0.28 P,0,188982,189582,A
Sprite,Foreground,Centre,"sb/d.png",0,0 M,4,188982,189582,503,387,599,303 F,0,188982,189582,1,0 S,0,188982,189582,0.7,0.28 P,0,188982,189582,A
Sprite,Foreground,Centre,"sb/d.png",0,0 M,4,189132,189732,503,387,409,257 F,0,189132,189732,1,0 S,0,189132,189732,0.7,0.28 P,0,189132,189732,A
Sprite,Foreground,Centre,"sb/d.png",0,0 M,4,189132,189732,503,387,540,444 F,0,189132,189732,1,0 S,0,189132,189732,0.7,0.28 P,0,189132,189732,A
Sprite,Foreground,Centre,"sb/d.png",0,0 M,4,189132,189732,503,387,542,515 F,0,189132,189732,1,0 S,0,189132,189732,0.7,0.28 P,0,189132,189732,A
Sprite,Foreground,Centre,"sb/d.png",0,0 M,4,189132,189732,503,387,419,515 F,0,189132,189732,1,0 S,0,189132,189732,0.7,0.28 P,0,189132,189732,A
Sprite,Foreground,Centre,"sb/d.png",0,0 M,4,189132,189732,503,387,372,507 F,0,189132,189732,1,0 S,0,189132,189732,0.7,0.28 P,0,189132,189732,A
Sprite,Foreground,Centre,"sb/d.png",0,0 M,4,189132,189732,503,387,556,265 F,0,189132,189732,1,0 S,0,189132,189732,0.7,0.28 P,0,189132,189732,A
Sprite,Foreground,Centre,"sb/d.png",0,0 M,4,189132,189732,503,387,397,269 F,0,189132,189732,1,0 S,0,189132,189732,0.7,0.28 P,0,189132,189732,A
Sprite,Foreground,Centre,"sb/d.png",0,0 M,4,189282,189882,466,273,498,408 F,0,189282,189882,1,0 S,0,189282,189882,0.7,0.28 P,0,189282,189882,A
Sprite,Foreground,Centre,"sb/d.png",0,0 M,4,189282,189882,466,273,463,167 F,0,189282,189882,1,0 S,0,189282,189882,0.7,0.28 P,0,189282,189882,A
Sprite,Foreground,Centre,"sb/d.png",0,0 M,4,189282,189882,466,273,519,293 F,0,189282,189882,1,0 S,0,189282,189882,0.7,0.28 P,0,189282,189882,A
Sprite,Foreground,Centre,"sb/d.png",0,0 M,4,189282,189882,466,273,383,308 F,0,189282,189882,1,0 S,0,189282,189882,0.7,0.28 P,0,189282,189882,A
Sprite,Foreground,Centre,"sb/d.png",0,0 M,4,189282,189882,466,273,317,231 F,0,189282,189882,1,0 S,0,189282,189882,0.7,0.28 P,0,189282,189882,A
Sprite,Foreground,Centre,"sb/d.png",0,0 M,4,189282,189882,466,273,571,141 F,0,189282,189882,1,0 S,0,189282,189882,0.7,0.28 P,0,189282,189882,A
Sprite,Foreground,Centre,"sb/d.png",0,0 M,4,189282,189882,466,273,400,334 F,0,189282,189882,1,0 S,0,189282,189882,0.7,0.28 P,0,189282,189882,A
Sprite,Foreground,Centre,"sb/d.png",0,0 M,4,189582,190182,338,427,475,573 F,0,189582,190182,1,0 S,0,189582,190182,0.7,0.28 P,0,189582,190182,A
Sprite,Foreground,Centre,"sb/d.png",0,0 M,4,189582,190182,338,427,304,433 F,0,189582,190182,1,0 S,0,189582,190182,0.7,0.28 P,0,189582,190182,A
Sprite,Foreground,Centre,"sb/d.png",0,0 M,4,189582,190182,338,427,272,428 F,0,189582,190182,1,0 S,0,189582,190182,0.7,0.28 P,0,189582,190182,A
Sprite,Foreground,Centre,"sb/d.png",0,0 M,4,189582,190182,338,427,347,294 F,0,189582,190182,1,0 S,0,189582,190182,0.7,0.28 P,0,189582,190182,A
Sprite,Foreground,Centre,"sb/d.png",0,0 M,4,189582,190182,338,427,272,425 F,0,189582,190182,1,0 S,0,189582,190182,0.7,0.28 P,0,189582,190182,A
Sprite,Foreground,Centre,"sb/d.png",0,0 M,4,189582,190182,338,427,441,460 F,0,189582,190182,1,0 S,0,189582,190182,0.7,0.28 P,0,189582,190182,A
Sprite,Foreground,Centre,"sb/d.png",0,0 M,4,189582,190182,338,427,219,499 F,0,189582,190182,1,0 S,0,189582,190182,0.7,0.28 P,0,189582,190182,A
Sprite,Foreground,Centre,"sb/d.png",0,0 M,4,189882,190482,259,242,229,372 F,0,189882,190482,1,0 S,0,189882,190482,0.7,0.28 P,0,189882,190482,A
Sprite,Foreground,Centre,"sb/d.png",0,0 M,4,189882,190482,259,242,148,301 F,0,189882,190482,1,0 S,0,189882,190482,0.7,0.28 P,0,189882,190482,A
Sprite,Foreground,Centre,"sb/d.png",0,0 M,4,189882,190482,259,242,293,341 F,0,189882,190482,1,0 S,0,189882,190482,0.7,0.28 P,0,189882,190482,A
Sprite,Foreground,Centre,"sb/d.png",0,0 M,4,189882,190482,259,242,314,262 F,0,189882,190482,1,0 S,0,189882,190482,0.7,0.28 P,0,189882,190482,A
Sprite,Foreground,Centre,"sb/d.png",0,0 M,4,189882,190482,259,242,160,147 F,0,189882,190482,1,0 S,0,189882,190482,0.7,0.28 P,0,189882,190482,A
Sprite,Foreground,Centre,"sb/d.png",0,0 M,4,189882,190482,259,242,291,167 F,0,189882,190482,1,0 S,0,189882,190482,0.7,0.28 P,0,189882,190482,A
Sprite,Foreground,Centre,"sb/d.png",0,0 M,4,189882,190482,259,242,408,262 F,0,189882,190482,1,0 S,0,189882,190482,0.7,0.28 P,0,189882,190482,A
Sprite,Foreground,Centre,"sb/d.png",0,0 M,4,190032,190632,259,242,128,171 F,0,190032,190632,1,0 S,0,190032,190632,0.7,0.28 P,0,190032,190632,A
Sprite,Foreground,Centre,"sb/d.png",0,0 M,4,190032,190632,259,242,361,262 F,0,190032,190632,1,0 S,0,190032,190632,0.7,0.28 P,0,190032,190632,A
Sprite,Foreground,Centre,"sb/d.png",0,0 M,4,190032,190632,259,242,302,246 F,0,190032,190632,1,0 S,0,190032,190632,0.7,0.28 P,0,190032,190632,A
Sprite,Foreground,Centre,"sb/d.png",0,0 M,4,190032,190632,259,242,400,115 F,0,190032,190632,1,0 S,0,190032,190632,0.7,0.28 P,0,190032,190632,A
Sprite,Foreground,Centre,"sb/d.png",0,0 M,4,190032,190632,259,242,262,138 F,0,190032,190632,1,0 S,0,190032,190632,0.7,0.28 P,0,190032,190632,A
Sprite,Foreground,Centre,"sb/d.png",0,0 M,4,190032,190632,259,242,353,284 F,0,190032,190632,1,0 S,0,190032,190632,0.7,0.28 P,0,190032,190632,A
Sprite,Foreground,Centre,"sb/d.png",0,0 M,4,190032,190632,259,242,281,257 F,0,190032,190632,1,0 S,0,190032,190632,0.7,0.28 P,0,190032,190632,A
Sprite,Foreground,Centre,"sb/d.png",0,0 M,4,190482,191082,76,313,127,461 F,0,190482,191082,1,0 S,0,190482,191082,0.7,0.28 P,0,190482,191082,A
Sprite,Foreground,Centre,"sb/d.png",0,0 M,4,190482,191082,76,313,16,182 F,0,190482,191082,1,0 S,0,190482,191082,0.7,0.28 P,0,190482,191082,A
Sprite,Foreground,Centre,"sb/d.png",0,0 M,4,190482,191082,76,313,65,307 F,0,190482,191082,1,0 S,0,190482,191082,0.7,0.28 P,0,190482,191082,A
Sprite,Foreground,Centre,"sb/d.png",0,0 M,4,190482,191082,76,313,-10,184 F,0,190482,191082,1,0 S,0,190482,191082,0.7,0.28 P,0,190482,191082,A
Sprite,Foreground,Centre,"sb/d.png",0,0 M,4,190482,191082,76,313,-5,208 F,0,190482,191082,1,0 S,0,190482,191082,0.7,0.28 P,0,190482,191082,A
Sprite,Foreground,Centre,"sb/d.png",0,0 M,4,190482,191082,76,313,60,298 F,0,190482,191082,1,0 S,0,190482,191082,0.7,0.28 P,0,190482,191082,A
Sprite,Foreground,Centre,"sb/d.png",0,0 M,4,190482,191082,76,313,-69,279 F,0,190482,191082,1,0 S,0,190482,191082,0.7,0.28 P,0,190482,191082,A
Sprite,Foreground,Centre,"sb/d.png",0,0 M,4,190782,191382,188,378,282,288 F,0,190782,191382,1,0 S,0,190782,191382,0.7,0.28 P,0,190782,191382,A
Sprite,Foreground,Centre,"sb/d.png",0,0 M,4,190782,191382,188,378,312,236 F,0,190782,191382,1,0 S,0,190782,191382,0.7,0.28 P,0,190782,191382,A
Sprite,Foreground,Centre,"sb/d.png",0,0 M,4,190782,191382,188,378,190,516 F,0,190782,191382,1,0 S,0,190782,191382,0.7,0.28 P,0,190782,191382,A
Sprite,Foreground,Centre,"sb/d.png",0,0 M,4,190782,191382,188,378,336,233 F,0,190782,191382,1,0 S,0,190782,191382,0.7,0.28 P,0,190782,191382,A
Sprite,Foreground,Centre,"sb/d.png",0,0 M,4,190782,191382,188,378,234,311 F,0,190782,191382,1,0 S,0,190782,191382,0.7,0.28 P,0,190782,191382,A
Sprite,Foreground,Centre,"sb/d.png",0,0 M,4,190782,191382,188,378,328,404 F,0,190782,191382,1,0 S,0,190782,191382,0.7,0.28 P,0,190782,191382,A
Sprite,Foreground,Centre,"sb/d.png",0,0 M,4,190782,191382,188,378,269,325 F,0,190782,191382,1,0 S,0,190782,191382,0.7,0.28 P,0,190782,191382,A
Sprite,Foreground,Centre,"sb/d.png",0,0 M,4,191082,191682,140,235,116,377 F,0,191082,191682,1,0 S,0,191082,191682,0.7,0.28 P,0,191082,191682,A
Sprite,Foreground,Centre,"sb/d.png",0,0 M,4,191082,191682,140,235,255,376 F,0,191082,191682,1,0 S,0,191082,191682,0.7,0.28 P,0,191082,191682,A
Sprite,Foreground,Centre,"sb/d.png",0,0 M,4,191082,191682,140,235,66,124 F,0,191082,191682,1,0 S,0,191082,191682,0.7,0.28 P,0,191082,191682,A
Sprite,Foreground,Centre,"sb/d.png",0,0 M,4,191082,191682,140,235,259,138 F,0,191082,191682,1,0 S,0,191082,191682,0.7,0.28 P,0,191082,191682,A
Sprite,Foreground,Centre,"sb/d.png",0,0 M,4,191082,191682,140,235,254,248 F,0,191082,191682,1,0 S,0,191082,191682,0.7,0.28 P,0,191082,191682,A
Sprite,Foreground,Centre,"sb/d.png",0,0 M,4,191082,191682,140,235,225,239 F,0,191082,191682,1,0 S,0,191082,191682,0.7,0.28 P,0,191082,191682,A
Sprite,Foreground,Centre,"sb/d.png",0,0 M,4,191082,191682,140,235,95,382 F,0,191082,191682,1,0 S,0,191082,191682,0.7,0.28 P,0,191082,191682,A
Sprite,Foreground,Centre,"sb/d.png",0,0 M,4,191382,191982,305,120,165,177 F,0,191382,191982,1,0 S,0,191382,191982,0.7,0.28 P,0,191382,191982,A
Sprite,Foreground,Centre,"sb/d.png",0,0 M,4,191382,191982,305,120,191,28 F,0,191382,191982,1,0 S,0,191382,191982,0.7,0.28 P,0,191382,191982,A
Sprite,Foreground,Centre,"sb/d.png",0,0 M,4,191382,191982,305,120,303,144 F,0,191382,191982,1,0 S,0,191382,191982,0.7,0.28 P,0,191382,191982,A
Sprite,Foreground,Centre,"sb/d.png",0,0 M,4,191382,191982,305,120,233,63 F,0,191382,191982,1,0 S,0,191382,191982,0.7,0.28 P,0,191382,191982,A
Sprite,Foreground,Centre,"sb/d.png",0,0 M,4,191382,191982,305,120,227,205 F,0,191382,191982,1,0 S,0,191382,191982,0.7,0.28 P,0,191382,191982,A
Sprite,Foreground,Centre,"sb/d.png",0,0 M,4,191382,191982,305,120,194,153 F,0,191382,191982,1,0 S,0,191382,191982,0.7,0.28 P,0,191382,191982,A
Sprite,Foreground,Centre,"sb/d.png",0,0 M,4,191382,191982,305,120,322,166 F,0,191382,191982,1,0 S,0,191382,191982,0.7,0.28 P,0,191382,191982,A
Sprite,Foreground,Centre,"sb/d.png",0,0 M,4,191682,192282,464,146,416,2 F,0,191682,192282,1,0 S,0,191682,192282,0.7,0.28 P,0,191682,192282,A
Sprite,Foreground,Centre,"sb/d.png",0,0 M,4,191682,192282,464,146,343,259 F,0,191682,192282,1,0 S,0,191682,192282,0.7,0.28 P,0,191682,192282,A
Sprite,Foreground,Centre,"sb/d.png",0,0 M,4,191682,192282,464,146,527,263 F,0,191682,192282,1,0 S,0,191682,192282,0.7,0.28 P,0,191682,192282,A
Sprite,Foreground,Centre,"sb/d.png",0,0 M,4,191682,192282,464,146,509,72 F,0,191682,192282,1,0 S,0,191682,192282,0.7,0.28 P,0,191682,192282,A
Sprite,Foreground,Centre,"sb/d.png",0,0 M,4,191682,192282,464,146,393,138 F,0,191682,192282,1,0 S,0,191682,192282,0.7,0.28 P,0,191682,192282,A
Sprite,Foreground,Centre,"sb/d.png",0,0 M,4,191682,192282,464,146,372,262 F,0,191682,192282,1,0 S,0,191682,192282,0.7,0.28 P,0,191682,192282,A
Sprite,Foreground,Centre,"sb/d.png",0,0 M,4,191682,192282,464,146,461,187 F,0,191682,192282,1,0 S,0,191682,192282,0.7,0.28 P,0,191682,192282,A
Sprite,Foreground,Centre,"sb/d.png",0,0 M,4,191982,192582,537,290,482,250 F,0,191982,192582,1,0 S,0,191982,192582,0.7,0.28 P,0,191982,192582,A
Sprite,Foreground,Centre,"sb/d.png",0,0 M,4,191982,192582,537,290,460,438 F,0,191982,192582,1,0 S,0,191982,192582,0.7,0.28 P,0,191982,192582,A
Sprite,Foreground,Centre,"sb/d.png",0,0 M,4,191982,192582,537,290,570,140 F,0,191982,192582,1,0 S,0,191982,192582,0.7,0.28 P,0,191982,192582,A
Sprite,Foreground,Centre,"sb/d.png",0,0 M,4,191982,192582,537,290,682,428 F,0,191982,192582,1,0 S,0,191982,192582,0.7,0.28 P,0,191982,192582,A
Sprite,Foreground,Centre,"sb/d.png",0,0 M,4,191982,192582,537,290,434,371 F,0,191982,192582,1,0 S,0,191982,192582,0.7,0.28 P,0,191982,192582,A
Sprite,Foreground,Centre,"sb/d.png",0,0 M,4,191982,192582,537,290,414,197 F,0,191982,192582,1,0 S,0,191982,192582,0.7,0.28 P,0,191982,192582,A
Sprite,Foreground,Centre,"sb/d.png",0,0 M,4,191982,192582,537,290,405,173 F,0,191982,192582,1,0 S,0,191982,192582,0.7,0.28 P,0,191982,192582,A
Sprite,Foreground,Centre,"sb/d.png",0,0 M,4,192432,193032,436,362,505,242 F,0,192432,193032,1,0 S,0,192432,193032,0.7,0.28 P,0,192432,193032,A
Sprite,Foreground,Centre,"sb/d.png",0,0 M,4,192432,193032,436,362,537,404 F,0,192432,193032,1,0 S,0,192432,193032,0.7,0.28 P,0,192432,193032,A
Sprite,Foreground,Centre,"sb/d.png",0,0 M,4,192432,193032,436,362,457,284 F,0,192432,193032,1,0 S,0,192432,193032,0.7,0.28 P,0,192432,193032,A
Sprite,Foreground,Centre,"sb/d.png",0,0 M,4,192432,193032,436,362,537,469 F,0,192432,193032,1,0 S,0,192432,193032,0.7,0.28 P,0,192432,193032,A
Sprite,Foreground,Centre,"sb/d.png",0,0 M,4,192432,193032,436,362,420,484 F,0,192432,193032,1,0 S,0,192432,193032,0.7,0.28 P,0,192432,193032,A
Sprite,Foreground,Centre,"sb/d.png",0,0 M,4,192432,193032,436,362,526,350 F,0,192432,193032,1,0 S,0,192432,193032,0.7,0.28 P,0,192432,193032,A
Sprite,Foreground,Centre,"sb/d.png",0,0 M,4,192432,193032,436,362,388,445 F,0,192432,193032,1,0 S,0,192432,193032,0.7,0.28 P,0,192432,193032,A
Sprite,Foreground,Centre,"sb/d.png",0,0 M,4,192882,193482,335,290,313,334 F,0,192882,193482,1,0 S,0,192882,193482,0.7,0.28 P,0,192882,193482,A
Sprite,Foreground,Centre,"sb/d.png",0,0 M,4,192882,193482,335,290,484,322 F,0,192882,193482,1,0 S,0,192882,193482,0.7,0.28 P,0,192882,193482,A
Sprite,Foreground,Centre,"sb/d.png",0,0 M,4,192882,193482,335,290,211,327 F,0,192882,193482,1,0 S,0,192882,193482,0.7,0.28 P,0,192882,193482,A
Sprite,Foreground,Centre,"sb/d.png",0,0 M,4,192882,193482,335,290,482,401 F,0,192882,193482,1,0 S,0,192882,193482,0.7,0.28 P,0,192882,193482,A
Sprite,Foreground,Centre,"sb/d.png",0,0 M,4,192882,193482,335,290,346,181 F,0,192882,193482,1,0 S,0,192882,193482,0.7,0.28 P,0,192882,193482,A
Sprite,Foreground,Centre,"sb/d.png",0,0 M,4,192882,193482,335,290,185,307 F,0,192882,193482,1,0 S,0,192882,193482,0.7,0.28 P,0,192882,193482,A
Sprite,Foreground,Centre,"sb/d.png",0,0 M,4,192882,193482,335,290,386,253 F,0,192882,193482,1,0 S,0,192882,193482,0.7,0.28 P,0,192882,193482,A
Sprite,Foreground,Centre,"sb/d.png",0,0 M,4,193182,193782,191,150,300,97 F,0,193182,193782,1,0 S,0,193182,193782,0.7,0.28 P,0,193182,193782,A
Sprite,Foreground,Centre,"sb/d.png",0,0 M,4,193182,193782,191,150,276,155 F,0,193182,193782,1,0 S,0,193182,193782,0.7,0.28 P,0,193182,193782,A
Sprite,Foreground,Centre,"sb/d.png",0,0 M,4,193182,193782,191,150,289,162 F,0,193182,193782,1,0 S,0,193182,193782,0.7,0.28 P,0,193182,193782,A
Sprite,Foreground,Centre,"sb/d.png",0,0 M,4,193182,193782,191,150,197,48 F,0,193182,193782,1,0 S,0,193182,193782,0.7,0.28 P,0,193182,193782,A
Sprite,Foreground,Centre,"sb/d.png",0,0 M,4,193182,193782,191,150,231,165 F,0,193182,193782,1,0 S,0,193182,193782,0.7,0.28 P,0,193182,193782,A
Sprite,Foreground,Centre,"sb/d.png",0,0 M,4,193182,193782,191,150,135,74 F,0,193182,193782,1,0 S,0,193182,193782,0.7,0.28 P,0,193182,193782,A
Sprite,Foreground,Centre,"sb/d.png",0,0 M,4,193182,193782,191,150,281,138 F,0,193182,193782,1,0 S,0,193182,193782,0.7,0.28 P,0,193182,193782,A
Sprite,Foreground,Centre,"sb/d.png",0,0 M,4,193782,194382,117,337,243,288 F,0,193782,194382,1,0 S,0,193782,194382,0.7,0.28 P,0,193782,194382,A
Sprite,Foreground,Centre,"sb/d.png",0,0 M,4,193782,194382,117,337,24,232 F,0,193782,194382,1,0 S,0,193782,194382,0.7,0.28 P,0,193782,194382,A
Sprite,Foreground,Centre,"sb/d.png",0,0 M,4,193782,194382,117,337,165,248 F,0,193782,194382,1,0 S,0,193782,194382,0.7,0.28 P,0,193782,194382,A
Sprite,Foreground,Centre,"sb/d.png",0,0 M,4,193782,194382,117,337,127,339 F,0,193782,194382,1,0 S,0,193782,194382,0.7,0.28 P,0,193782,194382,A
Sprite,Foreground,Centre,"sb/d.png",0,0 M,4,193782,194382,117,337,198,331 F,0,193782,194382,1,0 S,0,193782,194382,0.7,0.28 P,0,193782,194382,A
Sprite,Foreground,Centre,"sb/d.png",0,0 M,4,193782,194382,117,337,-3,318 F,0,193782,194382,1,0 S,0,193782,194382,0.7,0.28 P,0,193782,194382,A
Sprite,Foreground,Centre,"sb/d.png",0,0 M,4,193782,194382,117,337,2,444 F,0,193782,194382,1,0 S,0,193782,194382,0.7,0.28 P,0,193782,194382,A
Sprite,Foreground,Centre,"sb/d.png",0,0 M,4,194082,194682,266,330,284,390 F,0,194082,194682,1,0 S,0,194082,194682,0.7,0.28 P,0,194082,194682,A
Sprite,Foreground,Centre,"sb/d.png",0,0 M,4,194082,194682,266,330,308,184 F,0,194082,194682,1,0 S,0,194082,194682,0.7,0.28 P,0,194082,194682,A
Sprite,Foreground,Centre,"sb/d.png",0,0 M,4,194082,194682,266,330,286,317 F,0,194082,194682,1,0 S,0,194082,194682,0.7,0.28 P,0,194082,194682,A
Sprite,Foreground,Centre,"sb/d.png",0,0 M,4,194082,194682,266,330,414,216 F,0,194082,194682,1,0 S,0,194082,194682,0.7,0.28 P,0,194082,194682,A
Sprite,Foreground,Centre,"sb/d.png",0,0 M,4,194082,194682,266,330,152,264 F,0,194082,194682,1,0 S,0,194082,194682,0.7,0.28 P,0,194082,194682,A
Sprite,Foreground,Centre,"sb/d.png",0,0 M,4,194082,194682,266,330,305,419 F,0,194082,194682,1,0 S,0,194082,194682,0.7,0.28 P,0,194082,194682,A
Sprite,Foreground,Centre,"sb/d.png",0,0 M,4,194082,194682,266,330,192,259 F,0,194082,194682,1,0 S,0,194082,194682,0.7,0.28 P,0,194082,194682,A
Sprite,Foreground,Centre,"sb/d.png",0,0 M,4,194382,194982,403,184,256,167 F,0,194382,194982,1,0 S,0,194382,194982,0.7,0.28 P,0,194382,194982,A
Sprite,Foreground,Centre,"sb/d.png",0,0 M,4,194382,194982,403,184,341,285 F,0,194382,194982,1,0 S,0,194382,194982,0.7,0.28 P,0,194382,194982,A
Sprite,Foreground,Centre,"sb/d.png",0,0 M,4,194382,194982,403,184,499,193 F,0,194382,194982,1,0 S,0,194382,194982,0.7,0.28 P,0,194382,194982,A
Sprite,Foreground,Centre,"sb/d.png",0,0 M,4,194382,194982,403,184,538,94 F,0,194382,194982,1,0 S,0,194382,194982,0.7,0.28 P,0,194382,194982,A
Sprite,Foreground,Centre,"sb/d.png",0,0 M,4,194382,194982,403,184,536,289 F,0,194382,194982,1,0 S,0,194382,194982,0.7,0.28 P,0,194382,194982,A
Sprite,Foreground,Centre,"sb/d.png",0,0 M,4,194382,194982,403,184,521,174 F,0,194382,194982,1,0 S,0,194382,194982,0.7,0.28 P,0,194382,194982,A
Sprite,Foreground,Centre,"sb/d.png",0,0 M,4,194382,194982,403,184,506,140 F,0,194382,194982,1,0 S,0,194382,194982,0.7,0.28 P,0,194382,194982,A
Sprite,Foreground,Centre,"sb/d.png",0,0 M,4,194532,195132,403,184,418,125 F,0,194532,195132,1,0 S,0,194532,195132,0.7,0.28 P,0,194532,195132,A
Sprite,Foreground,Centre,"sb/d.png",0,0 M,4,194532,195132,403,184,378,151 F,0,194532,195132,1,0 S,0,194532,195132,0.7,0.28 P,0,194532,195132,A
Sprite,Foreground,Centre,"sb/d.png",0,0 M,4,194532,195132,403,184,379,232 F,0,194532,195132,1,0 S,0,194532,195132,0.7,0.28 P,0,194532,195132,A
Sprite,Foreground,Centre,"sb/d.png",0,0 M,4,194532,195132,403,184,433,313 F,0,194532,195132,1,0 S,0,194532,195132,0.7,0.28 P,0,194532,195132,A
Sprite,Foreground,Centre,"sb/d.png",0,0 M,4,194532,195132,403,184,526,123 F,0,194532,195132,1,0 S,0,194532,195132,0.7,0.28 P,0,194532,195132,A
Sprite,Foreground,Centre,"sb/d.png",0,0 M,4,194532,195132,403,184,457,136 F,0,194532,195132,1,0 S,0,194532,195132,0.7,0.28 P,0,194532,195132,A
Sprite,Foreground,Centre,"sb/d.png",0,0 M,4,194532,195132,403,184,393,273 F,0,194532,195132,1,0 S,0,194532,195132,0.7,0.28 P,0,194532,195132,A
Sprite,Foreground,Centre,"sb/d.png",0,0 M,4,194832,195432,504,290,419,412 F,0,194832,195432,1,0 S,0,194832,195432,0.7,0.28 P,0,194832,195432,A
Sprite,Foreground,Centre,"sb/d.png",0,0 M,4,194832,195432,504,290,509,398 F,0,194832,195432,1,0 S,0,194832,195432,0.7,0.28 P,0,194832,195432,A
Sprite,Foreground,Centre,"sb/d.png",0,0 M,4,194832,195432,504,290,638,221 F,0,194832,195432,1,0 S,0,194832,195432,0.7,0.28 P,0,194832,195432,A
Sprite,Foreground,Centre,"sb/d.png",0,0 M,4,194832,195432,504,290,503,238 F,0,194832,195432,1,0 S,0,194832,195432,0.7,0.28 P,0,194832,195432,A
Sprite,Foreground,Centre,"sb/d.png",0,0 M,4,194832,195432,504,290,410,218 F,0,194832,195432,1,0 S,0,194832,195432,0.7,0.28 P,0,194832,195432,A
Sprite,Foreground,Centre,"sb/d.png",0,0 M,4,194832,195432,504,290,538,316 F,0,194832,195432,1,0 S,0,194832,195432,0.7,0.28 P,0,194832,195432,A
Sprite,Foreground,Centre,"sb/d.png",0,0 M,4,194832,195432,504,290,626,248 F,0,194832,195432,1,0 S,0,194832,195432,0.7,0.28 P,0,194832,195432,A
Sprite,Foreground,Centre,"sb/d.png",0,0 M,4,194982,195582,522,191,599,277 F,0,194982,195582,1,0 S,0,194982,195582,0.7,0.28 P,0,194982,195582,A
Sprite,Foreground,Centre,"sb/d.png",0,0 M,4,194982,195582,522,191,407,71 F,0,194982,195582,1,0 S,0,194982,195582,0.7,0.28 P,0,194982,195582,A
Sprite,Foreground,Centre,"sb/d.png",0,0 M,4,194982,195582,522,191,556,232 F,0,194982,195582,1,0 S,0,194982,195582,0.7,0.28 P,0,194982,195582,A
Sprite,Foreground,Centre,"sb/d.png",0,0 M,4,194982,195582,522,191,543,285 F,0,194982,195582,1,0 S,0,194982,195582,0.7,0.28 P,0,194982,195582,A
Sprite,Foreground,Centre,"sb/d.png",0,0 M,4,194982,195582,522,191,631,112 F,0,194982,195582,1,0 S,0,194982,195582,0.7,0.28 P,0,194982,195582,A
Sprite,Foreground,Centre,"sb/d.png",0,0 M,4,194982,195582,522,191,485,218 F,0,194982,195582,1,0 S,0,194982,195582,0.7,0.28 P,0,194982,195582,A
Sprite,Foreground,Centre,"sb/d.png",0,0 M,4,194982,195582,522,191,571,65 F,0,194982,195582,1,0 S,0,194982,195582,0.7,0.28 P,0,194982,195582,A
Sprite,Foreground,Centre,"sb/d.png",0,0 M,4,195282,195882,391,342,400,490 F,0,195282,195882,1,0 S,0,195282,195882,0.7,0.28 P,0,195282,195882,A
Sprite,Foreground,Centre,"sb/d.png",0,0 M,4,195282,195882,391,342,288,336 F,0,195282,195882,1,0 S,0,195282,195882,0.7,0.28 P,0,195282,195882,A
Sprite,Foreground,Centre,"sb/d.png",0,0 M,4,195282,195882,391,342,260,237 F,0,195282,195882,1,0 S,0,195282,195882,0.7,0.28 P,0,195282,195882,A
Sprite,Foreground,Centre,"sb/d.png",0,0 M,4,195282,195882,391,342,536,202 F,0,195282,195882,1,0 S,0,195282,195882,0.7,0.28 P,0,195282,195882,A
Sprite,Foreground,Centre,"sb/d.png",0,0 M,4,195282,195882,391,342,340,202 F,0,195282,195882,1,0 S,0,195282,195882,0.7,0.28 P,0,195282,195882,A
Sprite,Foreground,Centre,"sb/d.png",0,0 M,4,195282,195882,391,342,396,364 F,0,195282,195882,1,0 S,0,195282,195882,0.7,0.28 P,0,195282,195882,A
Sprite,Foreground,Centre,"sb/d.png",0,0 M,4,195282,195882,391,342,498,259 F,0,195282,195882,1,0 S,0,195282,195882,0.7,0.28 P,0,195282,195882,A
Sprite,Foreground,Centre,"sb/d.png",0,0 M,4,195732,196332,214,209,98,106 F,0,195732,196332,1,0 S,0,195732,196332,0.7,0.28 P,0,195732,196332,A
Sprite,Foreground,Centre,"sb/d.png",0,0 M,4,195732,196332,214,209,296,308 F,0,195732,196332,1,0 S,0,195732,196332,0.7,0.28 P,0,195732,196332,A
Sprite,Foreground,Centre,"sb/d.png",0,0 M,4,195732,196332,214,209,290,131 F,0,195732,196332,1,0 S,0,195732,196332,0.7,0.28 P,0,195732,196332,A
Sprite,Foreground,Centre,"sb/d.png",0,0 M,4,195732,196332,214,209,116,96 F,0,195732,196332,1,0 S,0,195732,196332,0.7,0.28 P,0,195732,196332,A
Sprite,Foreground,Centre,"sb/d.png",0,0 M,4,195732,196332,214,209,117,232 F,0,195732,196332,1,0 S,0,195732,196332,0.7,0.28 P,0,195732,196332,A
Sprite,Foreground,Centre,"sb/d.png",0,0 M,4,195732,196332,214,209,282,307 F,0,195732,196332,1,0 S,0,195732,196332,0.7,0.28 P,0,195732,196332,A
Sprite,Foreground,Centre,"sb/d.png",0,0 M,4,195732,196332,214,209,132,179 F,0,195732,196332,1,0 S,0,195732,196332,0.7,0.28 P,0,195732,196332,A
Sprite,Foreground,Centre,"sb/d.png",0,0 M,4,195882,196482,214,209,77,143 F,0,195882,196482,1,0 S,0,195882,196482,0.7,0.28 P,0,195882,196482,A
Sprite,Foreground,Centre,"sb/d.png",0,0 M,4,195882,196482,214,209,209,166 F,0,195882,196482,1,0 S,0,195882,196482,0.7,0.28 P,0,195882,196482,A
Sprite,Foreground,Centre,"sb/d.png",0,0 M,4,195882,196482,214,209,246,183 F,0,195882,196482,1,0 S,0,195882,196482,0.7,0.28 P,0,195882,196482,A
Sprite,Foreground,Centre,"sb/d.png",0,0 M,4,195882,196482,214,209,302,116 F,0,195882,196482,1,0 S,0,195882,196482,0.7,0.28 P,0,195882,196482,A
Sprite,Foreground,Centre,"sb/d.png",0,0 M,4,195882,196482,214,209,94,99 F,0,195882,196482,1,0 S,0,195882,196482,0.7,0.28 P,0,195882,196482,A
Sprite,Foreground,Centre,"sb/d.png",0,0 M,4,195882,196482,214,209,221,285 F,0,195882,196482,1,0 S,0,195882,196482,0.7,0.28 P,0,195882,196482,A
Sprite,Foreground,Centre,"sb/d.png",0,0 M,4,195882,196482,214,209,176,275 F,0,195882,196482,1,0 S,0,195882,196482,0.7,0.28 P,0,195882,196482,A
Sprite,Foreground,Centre,"sb/d.png",0,0 M,4,196182,196782,335,288,322,163 F,0,196182,196782,1,0 S,0,196182,196782,0.7,0.28 P,0,196182,196782,A
Sprite,Foreground,Centre,"sb/d.png",0,0 M,4,196182,196782,335,288,360,150 F,0,196182,196782,1,0 S,0,196182,196782,0.7,0.28 P,0,196182,196782,A
Sprite,Foreground,Centre,"sb/d.png",0,0 M,4,196182,196782,335,288,418,241 F,0,196182,196782,1,0 S,0,196182,196782,0.7,0.28 P,0,196182,196782,A
Sprite,Foreground,Centre,"sb/d.png",0,0 M,4,196182,196782,335,288,394,350 F,0,196182,196782,1,0 S,0,196182,196782,0.7,0.28 P,0,196182,196782,A
Sprite,Foreground,Centre,"sb/d.png",0,0 M,4,196182,196782,335,288,324,301 F,0,196182,196782,1,0 S,0,196182,196782,0.7,0.28 P,0,196182,196782,A
Sprite,Foreground,Centre,"sb/d.png",0,0 M,4,196182,196782,335,288,436,264 F,0,196182,196782,1,0 S,0,196182,196782,0.7,0.28 P,0,196182,196782,A
Sprite,Foreground,Centre,"sb/d.png",0,0 M,4,196182,196782,335,288,456,260 F,0,196182,196782,1,0 S,0,196182,196782,0.7,0.28 P,0,196182,196782,A
Sprite,Foreground,Centre,"sb/d.png",0,0 M,4,196782,197382,75,439,169,463 F,0,196782,197382,1,0 S,0,196782,197382,0.7,0.28 P,0,196782,197382,A
Sprite,Foreground,Centre,"sb/d.png",0,0 M,4,196782,197382,75,439,150,359 F,0,196782,197382,1,0 S,0,196782,197382,0.7,0.28 P,0,196782,197382,A
Sprite,Foreground,Centre,"sb/d.png",0,0 M,4,196782,197382,75,439,202,464 F,0,196782,197382,1,0 S,0,196782,197382,0.7,0.28 P,0,196782,197382,A
Sprite,Foreground,Centre,"sb/d.png",0,0 M,4,196782,197382,75,439,222,304 F,0,196782,197382,1,0 S,0,196782,197382,0.7,0.28 P,0,196782,197382,A
Sprite,Foreground,Centre,"sb/d.png",0,0 M,4,196782,197382,75,439,89,337 F,0,196782,197382,1,0 S,0,196782,197382,0.7,0.28 P,0,196782,197382,A
Sprite,Foreground,Centre,"sb/d.png",0,0 M,4,196782,197382,75,439,214,421 F,0,196782,197382,1,0 S,0,196782,197382,0.7,0.28 P,0,196782,197382,A
Sprite,Foreground,Centre,"sb/d.png",0,0 M,4,196782,197382,75,439,54,566 F,0,196782,197382,1,0 S,0,196782,197382,0.7,0.28 P,0,196782,197382,A
Sprite,Foreground,Centre,"sb/d.png",0,0 M,4,197082,197682,141,297,7,339 F,0,197082,197682,1,0 S,0,197082,197682,0.7,0.28 P,0,197082,197682,A
Sprite,Foreground,Centre,"sb/d.png",0,0 M,4,197082,197682,141,297,83,446 F,0,197082,197682,1,0 S,0,197082,197682,0.7,0.28 P,0,197082,197682,A
Sprite,Foreground,Centre,"sb/d.png",0,0 M,4,197082,197682,141,297,250,283 F,0,197082,197682,1,0 S,0,197082,197682,0.7,0.28 P,0,197082,197682,A
Sprite,Foreground,Centre,"sb/d.png",0,0 M,4,197082,197682,141,297,191,175 F,0,197082,197682,1,0 S,0,197082,197682,0.7,0.28 P,0,197082,197682,A
Sprite,Foreground,Centre,"sb/d.png",0,0 M,4,197082,197682,141,297,288,353 F,0,197082,197682,1,0 S,0,197082,197682,0.7,0.28 P,0,197082,197682,A
Sprite,Foreground,Centre,"sb/d.png",0,0 M,4,197082,197682,141,297,6,411 F,0,197082,197682,1,0 S,0,197082,197682,0.7,0.28 P,0,197082,197682,A
Sprite,Foreground,Centre,"sb/d.png",0,0 M,4,197082,197682,141,297,201,248 F,0,197082,197682,1,0 S,0,197082,197682,0.7,0.28 P,0,197082,197682,A
Sprite,Foreground,Centre,"sb/d.png",0,0 M,4,197232,197832,141,297,235,428 F,0,197232,197832,1,0 S,0,197232,197832,0.7,0.28 P,0,197232,197832,A
Sprite,Foreground,Centre,"sb/d.png",0,0 M,4,197232,197832,141,297,146,202 F,0,197232,197832,1,0 S,0,197232,197832,0.7,0.28 P,0,197232,197832,A
Sprite,Foreground,Centre,"sb/d.png",0,0 M,4,197232,197832,141,297,144,262 F,0,197232,197832,1,0 S,0,197232,197832,0.7,0.28 P,0,197232,197832,A
Sprite,Foreground,Centre,"sb/d.png",0,0 M,4,197232,197832,141,297,104,303 F,0,197232,197832,1,0 S,0,197232,197832,0.7,0.28 P,0,197232,197832,A
Sprite,Foreground,Centre,"sb/d.png",0,0 M,4,197232,197832,141,297,106,234 F,0,197232,197832,1,0 S,0,197232,197832,0.7,0.28 P,0,197232,197832,A
Sprite,Foreground,Centre,"sb/d.png",0,0 M,4,197232,197832,141,297,240,384 F,0,197232,197832,1,0 S,0,197232,197832,0.7,0.28 P,0,197232,197832,A
Sprite,Foreground,Centre,"sb/d.png",0,0 M,4,197232,197832,141,297,209,268 F,0,197232,197832,1,0 S,0,197232,197832,0.7,0.28 P,0,197232,197832,A
Sprite,Foreground,Centre,"sb/d.png",0,0 M,4,197682,198282,283,102,293,79 F,0,197682,198282,1,0 S,0,197682,198282,0.7,0.28 P,0,197682,198282,A
Sprite,Foreground,Centre,"sb/d.png",0,0 M,4,197682,198282,283,102,155,52 F,0,197682,198282,1,0 S,0,197682,198282,0.7,0.28 P,0,197682,198282,A
Sprite,Foreground,Centre,"sb/d.png",0,0 M,4,197682,198282,283,102,407,184 F,0,197682,198282,1,0 S,0,197682,198282,0.7,0.28 P,0,197682,198282,A
Sprite,Foreground,Centre,"sb/d.png",0,0 M,4,197682,198282,283,102,328,199 F,0,197682,198282,1,0 S,0,197682,198282,0.7,0.28 P,0,197682,198282,A
Sprite,Foreground,Centre,"sb/d.png",0,0 M,4,197682,198282,283,102,204,203 F,0,197682,198282,1,0 S,0,197682,198282,0.7,0.28 P,0,197682,198282,A
Sprite,Foreground,Centre,"sb/d.png",0,0 M,4,197682,198282,283,102,300,87 F,0,197682,198282,1,0 S,0,197682,198282,0.7,0.28 P,0,197682,198282,A
Sprite,Foreground,Centre,"sb/d.png",0,0 M,4,197682,198282,283,102,355,168 F,0,197682,198282,1,0 S,0,197682,198282,0.7,0.28 P,0,197682,198282,A
Sprite,Foreground,Centre,"sb/d.png",0,0 M,4,197982,198582,358,236,384,104 F,0,197982,198582,1,0 S,0,197982,198582,0.7,0.28 P,0,197982,198582,A
Sprite,Foreground,Centre,"sb/d.png",0,0 M,4,197982,198582,358,236,262,98 F,0,197982,198582,1,0 S,0,197982,198582,0.7,0.28 P,0,197982,198582,A
Sprite,Foreground,Centre,"sb/d.png",0,0 M,4,197982,198582,358,236,473,282 F,0,197982,198582,1,0 S,0,197982,198582,0.7,0.28 P,0,197982,198582,A
Sprite,Foreground,Centre,"sb/d.png",0,0 M,4,197982,198582,358,236,278,268 F,0,197982,198582,1,0 S,0,197982,198582,0.7,0.28 P,0,197982,198582,A
Sprite,Foreground,Centre,"sb/d.png",0,0 M,4,197982,198582,358,236,400,320 F,0,197982,198582,1,0 S,0,197982,198582,0.7,0.28 P,0,197982,198582,A
Sprite,Foreground,Centre,"sb/d.png",0,0 M,4,197982,198582,358,236,487,99 F,0,197982,198582,1,0 S,0,197982,198582,0.7,0.28 P,0,197982,198582,A
Sprite,Foreground,Centre,"sb/d.png",0,0 M,4,197982,198582,358,236,371,246 F,0,197982,198582,1,0 S,0,197982,198582,0.7,0.28 P,0,197982,198582,A
Sprite,Foreground,Centre,"sb/d.png",0,0 M,4,198282,198882,517,93,444,-52 F,0,198282,198882,1,0 S,0,198282,198882,0.7,0.28 P,0,198282,198882,A
Sprite,Foreground,Centre,"sb/d.png",0,0 M,4,198282,198882,517,93,417,-35 F,0,198282,198882,1,0 S,0,198282,198882,0.7,0.28 P,0,198282,198882,A
Sprite,Foreground,Centre,"sb/d.png",0,0 M,4,198282,198882,517,93,584,21 F,0,198282,198882,1,0 S,0,198282,198882,0.7,0.28 P,0,198282,198882,A
Sprite,Foreground,Centre,"sb/d.png",0,0 M,4,198282,198882,517,93,534,113 F,0,198282,198882,1,0 S,0,198282,198882,0.7,0.28 P,0,198282,198882,A
Sprite,Foreground,Centre,"sb/d.png",0,0 M,4,198282,198882,517,93,551,158 F,0,198282,198882,1,0 S,0,198282,198882,0.7,0.28 P,0,198282,198882,A
Sprite,Foreground,Centre,"sb/d.png",0,0 M,4,198282,198882,517,93,656,220 F,0,198282,198882,1,0 S,0,198282,198882,0.7,0.28 P,0,198282,198882,A
Sprite,Foreground,Centre,"sb/d.png",0,0 M,4,198282,198882,517,93,572,240 F,0,198282,198882,1,0 S,0,198282,198882,0.7,0.28 P,0,198282,198882,A
Sprite,Foreground,Centre,"sb/d.png",0,0 M,4,198582,199182,565,244,625,298 F,0,198582,199182,1,0 S,0,198582,199182,0.7,0.28 P,0,198582,199182,A
Sprite,Foreground,Centre,"sb/d.png",0,0 M,4,198582,199182,565,244,602,111 F,0,198582,199182,1,0 S,0,198582,199182,0.7,0.28 P,0,198582,199182,A
Sprite,Foreground,Centre,"sb/d.png",0,0 M,4,198582,199182,565,244,607,290 F,0,198582,199182,1,0 S,0,198582,199182,0.7,0.28 P,0,198582,199182,A
Sprite,Foreground,Centre,"sb/d.png",0,0 M,4,198582,199182,565,244,694,190 F,0,198582,199182,1,0 S,0,198582,199182,0.7,0.28 P,0,198582,199182,A
Sprite,Foreground,Centre,"sb/d.png",0,0 M,4,198582,199182,565,244,447,331 F,0,198582,199182,1,0 S,0,198582,199182,0.7,0.28 P,0,198582,199182,A
Sprite,Foreground,Centre,"sb/d.png",0,0 M,4,198582,199182,565,244,686,116 F,0,198582,199182,1,0 S,0,198582,199182,0.7,0.28 P,0,198582,199182,A
Sprite,Foreground,Centre,"sb/d.png",0,0 M,4,198582,199182,565,244,465,371 F,0,198582,199182,1,0 S,0,198582,199182,0.7,0.28 P,0,198582,199182,A
Sprite,Foreground,Centre,"sb/d.png",0,0 M,4,198732,199332,565,244,650,181 F,0,198732,199332,1,0 S,0,198732,199332,0.7,0.28 P,0,198732,199332,A
Sprite,Foreground,Centre,"sb/d.png",0,0 M,4,198732,199332,565,244,535,355 F,0,198732,199332,1,0 S,0,198732,199332,0.7,0.28 P,0,198732,199332,A
Sprite,Foreground,Centre,"sb/d.png",0,0 M,4,198732,199332,565,244,484,129 F,0,198732,199332,1,0 S,0,198732,199332,0.7,0.28 P,0,198732,199332,A
Sprite,Foreground,Centre,"sb/d.png",0,0 M,4,198732,199332,565,244,584,159 F,0,198732,199332,1,0 S,0,198732,199332,0.7,0.28 P,0,198732,199332,A
Sprite,Foreground,Centre,"sb/d.png",0,0 M,4,198732,199332,565,244,616,238 F,0,198732,199332,1,0 S,0,198732,199332,0.7,0.28 P,0,198732,199332,A
Sprite,Foreground,Centre,"sb/d.png",0,0 M,4,198732,199332,565,244,632,238 F,0,198732,199332,1,0 S,0,198732,199332,0.7,0.28 P,0,198732,199332,A
Sprite,Foreground,Centre,"sb/d.png",0,0 M,4,198732,199332,565,244,463,100 F,0,198732,199332,1,0 S,0,198732,199332,0.7,0.28 P,0,198732,199332,A
Sprite,Foreground,Centre,"sb/d.png",0,0 M,4,199182,199782,509,154,493,143 F,0,199182,199782,1,0 S,0,199182,199782,0.7,0.28 P,0,199182,199782,A
Sprite,Foreground,Centre,"sb/d.png",0,0 M,4,199182,199782,509,154,381,291 F,0,199182,199782,1,0 S,0,199182,199782,0.7,0.28 P,0,199182,199782,A
Sprite,Foreground,Centre,"sb/d.png",0,0 M,4,199182,199782,509,154,649,77 F,0,199182,199782,1,0 S,0,199182,199782,0.7,0.28 P,0,199182,199782,A
Sprite,Foreground,Centre,"sb/d.png",0,0 M,4,199182,199782,509,154,630,292 F,0,199182,199782,1,0 S,0,199182,199782,0.7,0.28 P,0,199182,199782,A
Sprite,Foreground,Centre,"sb/d.png",0,0 M,4,199182,199782,509,154,405,266 F,0,199182,199782,1,0 S,0,199182,199782,0.7,0.28 P,0,199182,199782,A
Sprite,Foreground,Centre,"sb/d.png",0,0 M,4,199182,199782,509,154,480,270 F,0,199182,199782,1,0 S,0,199182,199782,0.7,0.28 P,0,199182,199782,A
Sprite,Foreground,Centre,"sb/d.png",0,0 M,4,199182,199782,509,154,539,284 F,0,199182,199782,1,0 S,0,199182,199782,0.7,0.28 P,0,199182,199782,A
Sprite,Foreground,Centre,"sb/d.png",0,0 M,4,199632,200232,299,85,421,47 F,0,199632,200232,1,0 S,0,199632,200232,0.7,0.28 P,0,199632,200232,A
Sprite,Foreground,Centre,"sb/d.png",0,0 M,4,199632,200232,299,85,199,130 F,0,199632,200232,1,0 S,0,199632,200232,0.7,0.28 P,0,199632,200232,A
Sprite,Foreground,Centre,"sb/d.png",0,0 M,4,199632,200232,299,85,176,124 F,0,199632,200232,1,0 S,0,199632,200232,0.7,0.28 P,0,199632,200232,A
Sprite,Foreground,Centre,"sb/d.png",0,0 M,4,199632,200232,299,85,384,31 F,0,199632,200232,1,0 S,0,199632,200232,0.7,0.28 P,0,199632,200232,A
Sprite,Foreground,Centre,"sb/d.png",0,0 M,4,199632,200232,299,85,243,-37 F,0,199632,200232,1,0 S,0,199632,200232,0.7,0.28 P,0,199632,200232,A
Sprite,Foreground,Centre,"sb/d.png",0,0 M,4,199632,200232,299,85,357,105 F,0,199632,200232,1,0 S,0,199632,200232,0.7,0.28 P,0,199632,200232,A
Sprite,Foreground,Centre,"sb/d.png",0,0 M,4,199632,200232,299,85,276,80 F,0,199632,200232,1,0 S,0,199632,200232,0.7,0.28 P,0,199632,200232,A
Sprite,Foreground,Centre,"sb/d.png",0,0 M,4,200082,200682,133,229,-15,122 F,0,200082,200682,1,0 S,0,200082,200682,0.7,0.28 P,0,200082,200682,A
Sprite,Foreground,Centre,"sb/d.png",0,0 M,4,200082,200682,133,229,83,127 F,0,200082,200682,1,0 S,0,200082,200682,0.7,0.28 P,0,200082,200682,A
Sprite,Foreground,Centre,"sb/d.png",0,0 M,4,200082,200682,133,229,131,352 F,0,200082,200682,1,0 S,0,200082,200682,0.7,0.28 P,0,200082,200682,A
Sprite,Foreground,Centre,"sb/d.png",0,0 M,4,200082,200682,133,229,244,271 F,0,200082,200682,1,0 S,0,200082,200682,0.7,0.28 P,0,200082,200682,A
Sprite,Foreground,Centre,"sb/d.png",0,0 M,4,200082,200682,133,229,197,363 F,0,200082,200682,1,0 S,0,200082,200682,0.7,0.28 P,0,200082,200682,A
Sprite,Foreground,Centre,"sb/d.png",0,0 M,4,200082,200682,133,229,14,356 F,0,200082,200682,1,0 S,0,200082,200682,0.7,0.28 P,0,200082,200682,A
Sprite,Foreground,Centre,"sb/d.png",0,0 M,4,200082,200682,133,229,-11,325 F,0,200082,200682,1,0 S,0,200082,200682,0.7,0.28 P,0,200082,200682,A
Sprite,Foreground,Centre,"sb/d.png",0,0 M,4,200382,200982,210,367,101,375 F,0,200382,200982,1,0 S,0,200382,200982,0.7,0.28 P,0,200382,200982,A
Sprite,Foreground,Centre,"sb/d.png",0,0 M,4,200382,200982,210,367,200,319 F,0,200382,200982,1,0 S,0,200382,200982,0.7,0.28 P,0,200382,200982,A
Sprite,Foreground,Centre,"sb/d.png",0,0 M,4,200382,200982,210,367,214,405 F,0,200382,200982,1,0 S,0,200382,200982,0.7,0.28 P,0,200382,200982,A
Sprite,Foreground,Centre,"sb/d.png",0,0 M,4,200382,200982,210,367,153,305 F,0,200382,200982,1,0 S,0,200382,200982,0.7,0.28 P,0,200382,200982,A
Sprite,Foreground,Centre,"sb/d.png",0,0 M,4,200382,200982,210,367,154,239 F,0,200382,200982,1,0 S,0,200382,200982,0.7,0.28 P,0,200382,200982,A
Sprite,Foreground,Centre,"sb/d.png",0,0 M,4,200382,200982,210,367,176,376 F,0,200382,200982,1,0 S,0,200382,200982,0.7,0.28 P,0,200382,200982,A
Sprite,Foreground,Centre,"sb/d.png",0,0 M,4,200382,200982,210,367,131,254 F,0,200382,200982,1,0 S,0,200382,200982,0.7,0.28 P,0,200382,200982,A
Sprite,Foreground,Centre,"sb/d.png",0,0 M,4,200682,201282,309,209,204,352 F,0,200682,201282,1,0 S,0,200682,201282,0.7,0.28 P,0,200682,201282,A
Sprite,Foreground,Centre,"sb/d.png",0,0 M,4,200682,201282,309,209,238,179 F,0,200682,201282,1,0 S,0,200682,201282,0.7,0.28 P,0,200682,201282,A
Sprite,Foreground,Centre,"sb/d.png",0,0 M,4,200682,201282,309,209,404,185 F,0,200682,201282,1,0 S,0,200682,201282,0.7,0.28 P,0,200682,201282,A
Sprite,Foreground,Centre,"sb/d.png",0,0 M,4,200682,201282,309,209,444,62 F,0,200682,201282,1,0 S,0,200682,201282,0.7,0.28 P,0,200682,201282,A
Sprite,Foreground,Centre,"sb/d.png",0,0 M,4,200682,201282,309,209,320,131 F,0,200682,201282,1,0 S,0,200682,201282,0.7,0.28 P,0,200682,201282,A
Sprite,Foreground,Centre,"sb/d.png",0,0 M,4,200682,201282,309,209,277,266 F,0,200682,201282,1,0 S,0,200682,201282,0.7,0.28 P,0,200682,201282,A
Sprite,Foreground,Centre,"sb/d.png",0,0 M,4,200682,201282,309,209,178,139 F,0,200682,201282,1,0 S,0,200682,201282,0.7,0.28 P,0,200682,201282,A
Sprite,Foreground,Centre,"sb/d.png",0,0 M,4,200982,201582,396,373,443,289 F,0,200982,201582,1,0 S,0,200982,201582,0.7,0.28 P,0,200982,201582,A
Sprite,Foreground,Centre,"sb/d.png",0,0 M,4,200982,201582,396,373,409,273 F,0,200982,201582,1,0 S,0,200982,201582,0.7,0.28 P,0,200982,201582,A
Sprite,Foreground,Centre,"sb/d.png",0,0 M,4,200982,201582,396,373,429,511 F,0,200982,201582,1,0 S,0,200982,201582,0.7,0.28 P,0,200982,201582,A
Sprite,Foreground,Centre,"sb/d.png",0,0 M,4,200982,201582,396,373,301,459 F,0,200982,201582,1,0 S,0,200982,201582,0.7,0.28 P,0,200982,201582,A
Sprite,Foreground,Centre,"sb/d.png",0,0 M,4,200982,201582,396,373,434,329 F,0,200982,201582,1,0 S,0,200982,201582,0.7,0.28 P,0,200982,201582,A
Sprite,Foreground,Centre,"sb/d.png",0,0 M,4,200982,201582,396,373,261,461 F,0,200982,201582,1,0 S,0,200982,201582,0.7,0.28 P,0,200982,201582,A
Sprite,Foreground,Centre,"sb/d.png",0,0 M,4,200982,201582,396,373,297,436 F,0,200982,201582,1,0 S,0,200982,201582,0.7,0.28 P,0,200982,201582,A
Sprite,Foreground,Centre,"sb/d.png",0,0 M,4,201282,201882,546,294,644,222 F,0,201282,201882,1,0 S,0,201282,201882,0.7,0.28 P,0,201282,201882,A
Sprite,Foreground,Centre,"sb/d.png",0,0 M,4,201282,201882,546,294,628,432 F,0,201282,201882,1,0 S,0,201282,201882,0.7,0.28 P,0,201282,201882,A
Sprite,Foreground,Centre,"sb/d.png",0,0 M,4,201282,201882,546,294,598,368 F,0,201282,201882,1,0 S,0,201282,201882,0.7,0.28 P,0,201282,201882,A
Sprite,Foreground,Centre,"sb/d.png",0,0 M,4,201282,201882,546,294,543,364 F,0,201282,201882,1,0 S,0,201282,201882,0.7,0.28 P,0,201282,201882,A
Sprite,Foreground,Centre,"sb/d.png",0,0 M,4,201282,201882,546,294,600,355 F,0,201282,201882,1,0 S,0,201282,201882,0.7,0.28 P,0,201282,201882,A
Sprite,Foreground,Centre,"sb/d.png",0,0 M,4,201282,201882,546,294,428,323 F,0,201282,201882,1,0 S,0,201282,201882,0.7,0.28 P,0,201282,201882,A
Sprite,Foreground,Centre,"sb/d.png",0,0 M,4,201282,201882,546,294,656,181 F,0,201282,201882,1,0 S,0,201282,201882,0.7,0.28 P,0,201282,201882,A
Sprite,Foreground,Centre,"sb/d.png",0,0 M,4,201582,202182,382,242,528,159 F,0,201582,202182,1,0 S,0,201582,202182,0.7,0.28 P,0,201582,202182,A
Sprite,Foreground,Centre,"sb/d.png",0,0 M,4,201582,202182,382,242,515,339 F,0,201582,202182,1,0 S,0,201582,202182,0.7,0.28 P,0,201582,202182,A
Sprite,Foreground,Centre,"sb/d.png",0,0 M,4,201582,202182,382,242,401,105 F,0,201582,202182,1,0 S,0,201582,202182,0.7,0.28 P,0,201582,202182,A
Sprite,Foreground,Centre,"sb/d.png",0,0 M,4,201582,202182,382,242,422,120 F,0,201582,202182,1,0 S,0,201582,202182,0.7,0.28 P,0,201582,202182,A
Sprite,Foreground,Centre,"sb/d.png",0,0 M,4,201582,202182,382,242,390,157 F,0,201582,202182,1,0 S,0,201582,202182,0.7,0.28 P,0,201582,202182,A
Sprite,Foreground,Centre,"sb/d.png",0,0 M,4,201582,202182,382,242,507,174 F,0,201582,202182,1,0 S,0,201582,202182,0.7,0.28 P,0,201582,202182,A
Sprite,Foreground,Centre,"sb/d.png",0,0 M,4,201582,202182,382,242,514,201 F,0,201582,202182,1,0 S,0,201582,202182,0.7,0.28 P,0,201582,202182,A
Sprite,Foreground,Centre,"sb/d.png",0,0 M,4,202032,202632,312,74,267,197 F,0,202032,202632,1,0 S,0,202032,202632,0.7,0.28 P,0,202032,202632,A
Sprite,Foreground,Centre,"sb/d.png",0,0 M,4,202032,202632,312,74,267,-70 F,0,202032,202632,1,0 S,0,202032,202632,0.7,0.28 P,0,202032,202632,A
Sprite,Foreground,Centre,"sb/d.png",0,0 M,4,202032,202632,312,74,237,-4 F,0,202032,202632,1,0 S,0,202032,202632,0.7,0.28 P,0,202032,202632,A
Sprite,Foreground,Centre,"sb/d.png",0,0 M,4,202032,202632,312,74,216,7 F,0,202032,202632,1,0 S,0,202032,202632,0.7,0.28 P,0,202032,202632,A
Sprite,Foreground,Centre,"sb/d.png",0,0 M,4,202032,202632,312,74,302,53 F,0,202032,202632,1,0 S,0,202032,202632,0.7,0.28 P,0,202032,202632,A
Sprite,Foreground,Centre,"sb/d.png",0,0 M,4,202032,202632,312,74,166,18 F,0,202032,202632,1,0 S,0,202032,202632,0.7,0.28 P,0,202032,202632,A
Sprite,Foreground,Centre,"sb/d.png",0,0 M,4,202032,202632,312,74,394,201 F,0,202032,202632,1,0 S,0,202032,202632,0.7,0.28 P,0,202032,202632,A
Sprite,Foreground,Centre,"sb/d.png",0,0 M,4,202182,202782,312,74,323,176 F,0,202182,202782,1,0 S,0,202182,202782,0.7,0.28 P,0,202182,202782,A
Sprite,Foreground,Centre,"sb/d.png",0,0 M,4,202182,202782,312,74,180,-72 F,0,202182,202782,1,0 S,0,202182,202782,0.7,0.28 P,0,202182,202782,A
Sprite,Foreground,Centre,"sb/d.png",0,0 M,4,202182,202782,312,74,189,-59 F,0,202182,202782,1,0 S,0,202182,202782,0.7,0.28 P,0,202182,202782,A
Sprite,Foreground,Centre,"sb/d.png",0,0 M,4,202182,202782,312,74,401,44 F,0,202182,202782,1,0 S,0,202182,202782,0.7,0.28 P,0,202182,202782,A
Sprite,Foreground,Centre,"sb/d.png",0,0 M,4,202182,202782,312,74,284,-9 F,0,202182,202782,1,0 S,0,202182,202782,0.7,0.28 P,0,202182,202782,A
Sprite,Foreground,Centre,"sb/d.png",0,0 M,4,202182,202782,312,74,230,-38 F,0,202182,202782,1,0 S,0,202182,202782,0.7,0.28 P,0,202182,202782,A
Sprite,Foreground,Centre,"sb/d.png",0,0 M,4,202182,202782,312,74,184,144 F,0,202182,202782,1,0 S,0,202182,202782,0.7,0.28 P,0,202182,202782,A
Sprite,Foreground,Centre,"sb/d.png",0,0 M,4,202482,203082,197,168,267,184 F,0,202482,203082,1,0 S,0,202482,203082,0.7,0.28 P,0,202482,203082,A
Sprite,Foreground,Centre,"sb/d.png",0,0 M,4,202482,203082,197,168,60,137 F,0,202482,203082,1,0 S,0,202482,203082,0.7,0.28 P,0,202482,203082,A
Sprite,Foreground,Centre,"sb/d.png",0,0 M,4,202482,203082,197,168,288,56 F,0,202482,203082,1,0 S,0,202482,203082,0.7,0.28 P,0,202482,203082,A
Sprite,Foreground,Centre,"sb/d.png",0,0 M,4,202482,203082,197,168,162,248 F,0,202482,203082,1,0 S,0,202482,203082,0.7,0.28 P,0,202482,203082,A
Sprite,Foreground,Centre,"sb/d.png",0,0 M,4,202482,203082,197,168,153,43 F,0,202482,203082,1,0 S,0,202482,203082,0.7,0.28 P,0,202482,203082,A
Sprite,Foreground,Centre,"sb/d.png",0,0 M,4,202482,203082,197,168,151,206 F,0,202482,203082,1,0 S,0,202482,203082,0.7,0.28 P,0,202482,203082,A
Sprite,Foreground,Centre,"sb/d.png",0,0 M,4,202482,203082,197,168,329,230 F,0,202482,203082,1,0 S,0,202482,203082,0.7,0.28 P,0,202482,203082,A
Sprite,Foreground,Centre,"sb/d.png",0,0 M,4,202782,203382,299,281,375,284 F,0,202782,203382,1,0 S,0,202782,203382,0.7,0.28 P,0,202782,203382,A
Sprite,Foreground,Centre,"sb/d.png",0,0 M,4,202782,203382,299,281,391,205 F,0,202782,203382,1,0 S,0,202782,203382,0.7,0.28 P,0,202782,203382,A
Sprite,Foreground,Centre,"sb/d.png",0,0 M,4,202782,203382,299,281,229,344 F,0,202782,203382,1,0 S,0,202782,203382,0.7,0.28 P,0,202782,203382,A
Sprite,Foreground,Centre,"sb/d.png",0,0 M,4,202782,203382,299,281,315,336 F,0,202782,203382,1,0 S,0,202782,203382,0.7,0.28 P,0,202782,203382,A
Sprite,Foreground,Centre,"sb/d.png",0,0 M,4,202782,203382,299,281,196,401 F,0,202782,203382,1,0 S,0,202782,203382,0.7,0.28 P,0,202782,203382,A
Sprite,Foreground,Centre,"sb/d.png",0,0 M,4,202782,203382,299,281,203,395 F,0,202782,203382,1,0 S,0,202782,203382,0.7,0.28 P,0,202782,203382,A
Sprite,Foreground,Centre,"sb/d.png",0,0 M,4,202782,203382,299,281,318,415 F,0,202782,203382,1,0 S,0,202782,203382,0.7,0.28 P,0,202782,203382,A
Sprite,Foreground,Centre,"sb/d.png",0,0 M,4,203082,203682,408,113,408,0 F,0,203082,203682,1,0 S,0,203082,203682,0.7,0.28 P,0,203082,203682,A
Sprite,Foreground,Centre,"sb/d.png",0,0 M,4,203082,203682,408,113,495,-1 F,0,203082,203682,1,0 S,0,203082,203682,0.7,0.28 P,0,203082,203682,A
Sprite,Foreground,Centre,"sb/d.png",0,0 M,4,203082,203682,408,113,307,97 F,0,203082,203682,1,0 S,0,203082,203682,0.7,0.28 P,0,203082,203682,A
Sprite,Foreground,Centre,"sb/d.png",0,0 M,4,203082,203682,408,113,421,237 F,0,203082,203682,1,0 S,0,203082,203682,0.7,0.28 P,0,203082,203682,A
Sprite,Foreground,Centre,"sb/d.png",0,0 M,4,203082,203682,408,113,374,148 F,0,203082,203682,1,0 S,0,203082,203682,0.7,0.28 P,0,203082,203682,A
Sprite,Foreground,Centre,"sb/d.png",0,0 M,4,203082,203682,408,113,411,157 F,0,203082,203682,1,0 S,0,203082,203682,0.7,0.28 P,0,203082,203682,A
Sprite,Foreground,Centre,"sb/d.png",0,0 M,4,203082,203682,408,113,419,193 F,0,203082,203682,1,0 S,0,203082,203682,0.7,0.28 P,0,203082,203682,A
Sprite,Foreground,Centre,"sb/d.png",0,0 M,4,203382,203982,527,276,523,418 F,0,203382,203982,1,0 S,0,203382,203982,0.7,0.28 P,0,203382,203982,A
Sprite,Foreground,Centre,"sb/d.png",0,0 M,4,203382,203982,527,276,577,265 F,0,203382,203982,1,0 S,0,203382,203982,0.7,0.28 P,0,203382,203982,A
Sprite,Foreground,Centre,"sb/d.png",0,0 M,4,203382,203982,527,276,411,152 F,0,203382,203982,1,0 S,0,203382,203982,0.7,0.28 P,0,203382,203982,A
Sprite,Foreground,Centre,"sb/d.png",0,0 M,4,203382,203982,527,276,571,395 F,0,203382,203982,1,0 S,0,203382,203982,0.7,0.28 P,0,203382,203982,A
Sprite,Foreground,Centre,"sb/d.png",0,0 M,4,203382,203982,527,276,501,419 F,0,203382,203982,1,0 S,0,203382,203982,0.7,0.28 P,0,203382,203982,A
Sprite,Foreground,Centre,"sb/d.png",0,0 M,4,203382,203982,527,276,635,234 F,0,203382,203982,1,0 S,0,203382,203982,0.7,0.28 P,0,203382,203982,A
Sprite,Foreground,Centre,"sb/d.png",0,0 M,4,203382,203982,527,276,431,140 F,0,203382,203982,1,0 S,0,203382,203982,0.7,0.28 P,0,203382,203982,A
Sprite,Foreground,Centre,"sb/d.png",0,0 M,4,203682,204282,446,392,414,284 F,0,203682,204282,1,0 S,0,203682,204282,0.7,0.28 P,0,203682,204282,A
Sprite,Foreground,Centre,"sb/d.png",0,0 M,4,203682,204282,446,392,360,519 F,0,203682,204282,1,0 S,0,203682,204282,0.7,0.28 P,0,203682,204282,A
Sprite,Foreground,Centre,"sb/d.png",0,0 M,4,203682,204282,446,392,464,372 F,0,203682,204282,1,0 S,0,203682,204282,0.7,0.28 P,0,203682,204282,A
Sprite,Foreground,Centre,"sb/d.png",0,0 M,4,203682,204282,446,392,376,310 F,0,203682,204282,1,0 S,0,203682,204282,0.7,0.28 P,0,203682,204282,A
Sprite,Foreground,Centre,"sb/d.png",0,0 M,4,203682,204282,446,392,384,309 F,0,203682,204282,1,0 S,0,203682,204282,0.7,0.28 P,0,203682,204282,A
Sprite,Foreground,Centre,"sb/d.png",0,0 M,4,203682,204282,446,392,434,390 F,0,203682,204282,1,0 S,0,203682,204282,0.7,0.28 P,0,203682,204282,A
Sprite,Foreground,Centre,"sb/d.png",0,0 M,4,203682,204282,446,392,345,494 F,0,203682,204282,1,0 S,0,203682,204282,0.7,0.28 P,0,203682,204282,A
Sprite,Foreground,Centre,"sb/d.png",0,0 M,4,203982,204582,360,270,246,177 F,0,203982,204582,1,0 S,0,203982,204582,0.7,0.28 P,0,203982,204582,A
Sprite,Foreground,Centre,"sb/d.png",0,0 M,4,203982,204582,360,270,431,305 F,0,203982,204582,1,0 S,0,203982,204582,0.7,0.28 P,0,203982,204582,A
Sprite,Foreground,Centre,"sb/d.png",0,0 M,4,203982,204582,360,270,262,355 F,0,203982,204582,1,0 S,0,203982,204582,0.7,0.28 P,0,203982,204582,A
Sprite,Foreground,Centre,"sb/d.png",0,0 M,4,203982,204582,360,270,268,174 F,0,203982,204582,1,0 S,0,203982,204582,0.7,0.28 P,0,203982,204582,A
Sprite,Foreground,Centre,"sb/d.png",0,0 M,4,203982,204582,360,270,280,335 F,0,203982,204582,1,0 S,0,203982,204582,0.7,0.28 P,0,203982,204582,A
Sprite,Foreground,Centre,"sb/d.png",0,0 M,4,203982,204582,360,270,439,262 F,0,203982,204582,1,0 S,0,203982,204582,0.7,0.28 P,0,203982,204582,A
Sprite,Foreground,Centre,"sb/d.png",0,0 M,4,203982,204582,360,270,300,300 F,0,203982,204582,1,0 S,0,203982,204582,0.7,0.28 P,0,203982,204582,A
Sprite,Foreground,Centre,"sb/d.png",0,0 M,4,204432,205032,168,147,230,240 F,0,204432,205032,1,0 S,0,204432,205032,0.7,0.28 P,0,204432,205032,A
Sprite,Foreground,Centre,"sb/d.png",0,0 M,4,204432,205032,168,147,95,237 F,0,204432,205032,1,0 S,0,204432,205032,0.7,0.28 P,0,204432,205032,A
Sprite,Foreground,Centre,"sb/d.png",0,0 M,4,204432,205032,168,147,97,145 F,0,204432,205032,1,0 S,0,204432,205032,0.7,0.28 P,0,204432,205032,A
Sprite,Foreground,Centre,"sb/d.png",0,0 M,4,204432,205032,168,147,173,70 F,0,204432,205032,1,0 S,0,204432,205032,0.7,0.28 P,0,204432,205032,A
Sprite,Foreground,Centre,"sb/d.png",0,0 M,4,204432,205032,168,147,138,172 F,0,204432,205032,1,0 S,0,204432,205032,0.7,0.28 P,0,204432,205032,A
Sprite,Foreground,Centre,"sb/d.png",0,0 M,4,204432,205032,168,147,44,28 F,0,204432,205032,1,0 S,0,204432,205032,0.7,0.28 P,0,204432,205032,A
Sprite,Foreground,Centre,"sb/d.png",0,0 M,4,204432,205032,168,147,168,74 F,0,204432,205032,1,0 S,0,204432,205032,0.7,0.28 P,0,204432,205032,A
Sprite,Foreground,Centre,"sb/d.png",0,0 M,4,204882,205482,368,292,422,274 F,0,204882,205482,1,0 S,0,204882,205482,0.7,0.28 P,0,204882,205482,A
Sprite,Foreground,Centre,"sb/d.png",0,0 M,4,204882,205482,368,292,218,328 F,0,204882,205482,1,0 S,0,204882,205482,0.7,0.28 P,0,204882,205482,A
Sprite,Foreground,Centre,"sb/d.png",0,0 M,4,204882,205482,368,292,495,383 F,0,204882,205482,1,0 S,0,204882,205482,0.7,0.28 P,0,204882,205482,A
Sprite,Foreground,Centre,"sb/d.png",0,0 M,4,204882,205482,368,292,450,209 F,0,204882,205482,1,0 S,0,204882,205482,0.7,0.28 P,0,204882,205482,A
Sprite,Foreground,Centre,"sb/d.png",0,0 M,4,204882,205482,368,292,290,215 F,0,204882,205482,1,0 S,0,204882,205482,0.7,0.28 P,0,204882,205482,A
Sprite,Foreground,Centre,"sb/d.png",0,0 M,4,204882,205482,368,292,274,261 F,0,204882,205482,1,0 S,0,204882,205482,0.7,0.28 P,0,204882,205482,A
Sprite,Foreground,Centre,"sb/d.png",0,0 M,4,204882,205482,368,292,473,206 F,0,204882,205482,1,0 S,0,204882,205482,0.7,0.28 P,0,204882,205482,A
Sprite,Foreground,Centre,"sb/d.png",0,0 M,4,205332,205932,176,169,298,168 F,0,205332,205932,1,0 S,0,205332,205932,0.7,0.28 P,0,205332,205932,A
Sprite,Foreground,Centre,"sb/d.png",0,0 M,4,205332,205932,176,169,73,45 F,0,205332,205932,1,0 S,0,205332,205932,0.7,0.28 P,0,205332,205932,A
Sprite,Foreground,Centre,"sb/d.png",0,0 M,4,205332,205932,176,169,66,218 F,0,205332,205932,1,0 S,0,205332,205932,0.7,0.28 P,0,205332,205932,A
Sprite,Foreground,Centre,"sb/d.png",0,0 M,4,205332,205932,176,169,182,163 F,0,205332,205932,1,0 S,0,205332,205932,0.7,0.28 P,0,205332,205932,A
Sprite,Foreground,Centre,"sb/d.png",0,0 M,4,205332,205932,176,169,315,217 F,0,205332,205932,1,0 S,0,205332,205932,0.7,0.28 P,0,205332,205932,A
Sprite,Foreground,Centre,"sb/d.png",0,0 M,4,205332,205932,176,169,94,219 F,0,205332,205932,1,0 S,0,205332,205932,0.7,0.28 P,0,205332,205932,A
Sprite,Foreground,Centre,"sb/d.png",0,0 M,4,205332,205932,176,169,123,282 F,0,205332,205932,1,0 S,0,205332,205932,0.7,0.28 P,0,205332,205932,A
Sprite,Foreground,Centre,"sb/d.png",0,0 M,4,205782,206382,132,337,219,232 F,0,205782,206382,1,0 S,0,205782,206382,0.7,0.28 P,0,205782,206382,A
Sprite,Foreground,Centre,"sb/d.png",0,0 M,4,205782,206382,132,337,141,207 F,0,205782,206382,1,0 S,0,205782,206382,0.7,0.28 P,0,205782,206382,A
Sprite,Foreground,Centre,"sb/d.png",0,0 M,4,205782,206382,132,337,66,468 F,0,205782,206382,1,0 S,0,205782,206382,0.7,0.28 P,0,205782,206382,A
Sprite,Foreground,Centre,"sb/d.png",0,0 M,4,205782,206382,132,337,132,424 F,0,205782,206382,1,0 S,0,205782,206382,0.7,0.28 P,0,205782,206382,A
Sprite,Foreground,Centre,"sb/d.png",0,0 M,4,205782,206382,132,337,197,230 F,0,205782,206382,1,0 S,0,205782,206382,0.7,0.28 P,0,205782,206382,A
Sprite,Foreground,Centre,"sb/d.png",0,0 M,4,205782,206382,132,337,146,335 F,0,205782,206382,1,0 S,0,205782,206382,0.7,0.28 P,0,205782,206382,A
Sprite,Foreground,Centre,"sb/d.png",0,0 M,4,205782,206382,132,337,230,332 F,0,205782,206382,1,0 S,0,205782,206382,0.7,0.28 P,0,205782,206382,A
Sprite,Foreground,Centre,"sb/d.png",0,0 M,4,206382,206982,342,170,363,24 F,0,206382,206982,1,0 S,0,206382,206982,0.7,0.28 P,0,206382,206982,A
Sprite,Foreground,Centre,"sb/d.png",0,0 M,4,206382,206982,342,170,375,280 F,0,206382,206982,1,0 S,0,206382,206982,0.7,0.28 P,0,206382,206982,A
Sprite,Foreground,Centre,"sb/d.png",0,0 M,4,206382,206982,342,170,385,111 F,0,206382,206982,1,0 S,0,206382,206982,0.7,0.28 P,0,206382,206982,A
Sprite,Foreground,Centre,"sb/d.png",0,0 M,4,206382,206982,342,170,293,290 F,0,206382,206982,1,0 S,0,206382,206982,0.7,0.28 P,0,206382,206982,A
Sprite,Foreground,Centre,"sb/d.png",0,0 M,4,206382,206982,342,170,320,20 F,0,206382,206982,1,0 S,0,206382,206982,0.7,0.28 P,0,206382,206982,A
Sprite,Foreground,Centre,"sb/d.png",0,0 M,4,206382,206982,342,170,482,271 F,0,206382,206982,1,0 S,0,206382,206982,0.7,0.28 P,0,206382,206982,A
Sprite,Foreground,Centre,"sb/d.png",0,0 M,4,206382,206982,342,170,413,79 F,0,206382,206982,1,0 S,0,206382,206982,0.7,0.28 P,0,206382,206982,A
Sprite,Foreground,Centre,"sb/d.png",0,0 M,4,206832,207432,310,388,302,340 F,0,206832,207432,1,0 S,0,206832,207432,0.7,0.28 P,0,206832,207432,A
Sprite,Foreground,Centre,"sb/d.png",0,0 M,4,206832,207432,310,388,277,315 F,0,206832,207432,1,0 S,0,206832,207432,0.7,0.28 P,0,206832,207432,A
Sprite,Foreground,Centre,"sb/d.png",0,0 M,4,206832,207432,310,388,304,507 F,0,206832,207432,1,0 S,0,206832,207432,0.7,0.28 P,0,206832,207432,A
Sprite,Foreground,Centre,"sb/d.png",0,0 M,4,206832,207432,310,388,289,264 F,0,206832,207432,1,0 S,0,206832,207432,0.7,0.28 P,0,206832,207432,A
Sprite,Foreground,Centre,"sb/d.png",0,0 M,4,206832,207432,310,388,373,273 F,0,206832,207432,1,0 S,0,206832,207432,0.7,0.28 P,0,206832,207432,A
Sprite,Foreground,Centre,"sb/d.png",0,0 M,4,206832,207432,310,388,194,512 F,0,206832,207432,1,0 S,0,206832,207432,0.7,0.28 P,0,206832,207432,A
Sprite,Foreground,Centre,"sb/d.png",0,0 M,4,206832,207432,310,388,373,272 F,0,206832,207432,1,0 S,0,206832,207432,0.7,0.28 P,0,206832,207432,A
Sprite,Foreground,Centre,"sb/d.png",0,0 M,4,206982,207582,407,365,491,219 F,0,206982,207582,1,0 S,0,206982,207582,0.7,0.28 P,0,206982,207582,A
Sprite,Foreground,Centre,"sb/d.png",0,0 M,4,206982,207582,407,365,418,406 F,0,206982,207582,1,0 S,0,206982,207582,0.7,0.28 P,0,206982,207582,A
Sprite,Foreground,Centre,"sb/d.png",0,0 M,4,206982,207582,407,365,508,226 F,0,206982,207582,1,0 S,0,206982,207582,0.7,0.28 P,0,206982,207582,A
Sprite,Foreground,Centre,"sb/d.png",0,0 M,4,206982,207582,407,365,529,499 F,0,206982,207582,1,0 S,0,206982,207582,0.7,0.28 P,0,206982,207582,A
Sprite,Foreground,Centre,"sb/d.png",0,0 M,4,206982,207582,407,365,271,323 F,0,206982,207582,1,0 S,0,206982,207582,0.7,0.28 P,0,206982,207582,A
Sprite,Foreground,Centre,"sb/d.png",0,0 M,4,206982,207582,407,365,263,220 F,0,206982,207582,1,0 S,0,206982,207582,0.7,0.28 P,0,206982,207582,A
Sprite,Foreground,Centre,"sb/d.png",0,0 M,4,206982,207582,407,365,418,481 F,0,206982,207582,1,0 S,0,206982,207582,0.7,0.28 P,0,206982,207582,A
Sprite,Foreground,Centre,"sb/d.png",0,0 M,4,207282,207882,555,423,622,432 F,0,207282,207882,1,0 S,0,207282,207882,0.7,0.28 P,0,207282,207882,A
Sprite,Foreground,Centre,"sb/d.png",0,0 M,4,207282,207882,555,423,435,406 F,0,207282,207882,1,0 S,0,207282,207882,0.7,0.28 P,0,207282,207882,A
Sprite,Foreground,Centre,"sb/d.png",0,0 M,4,207282,207882,555,423,464,363 F,0,207282,207882,1,0 S,0,207282,207882,0.7,0.28 P,0,207282,207882,A
Sprite,Foreground,Centre,"sb/d.png",0,0 M,4,207282,207882,555,423,499,385 F,0,207282,207882,1,0 S,0,207282,207882,0.7,0.28 P,0,207282,207882,A
Sprite,Foreground,Centre,"sb/d.png",0,0 M,4,207282,207882,555,423,630,359 F,0,207282,207882,1,0 S,0,207282,207882,0.7,0.28 P,0,207282,207882,A
Sprite,Foreground,Centre,"sb/d.png",0,0 M,4,207282,207882,555,423,409,551 F,0,207282,207882,1,0 S,0,207282,207882,0.7,0.28 P,0,207282,207882,A
Sprite,Foreground,Centre,"sb/d.png",0,0 M,4,207282,207882,555,423,420,418 F,0,207282,207882,1,0 S,0,207282,207882,0.7,0.28 P,0,207282,207882,A
Sprite,Foreground,Centre,"sb/d.png",0,0 M,4,207882,208482,520,99,461,96 F,0,207882,208482,1,0 S,0,207882,208482,0.7,0.28 P,0,207882,208482,A
Sprite,Foreground,Centre,"sb/d.png",0,0 M,4,207882,208482,520,99,595,167 F,0,207882,208482,1,0 S,0,207882,208482,0.7,0.28 P,0,207882,208482,A
Sprite,Foreground,Centre,"sb/d.png",0,0 M,4,207882,208482,520,99,547,16 F,0,207882,208482,1,0 S,0,207882,208482,0.7,0.28 P,0,207882,208482,A
Sprite,Foreground,Centre,"sb/d.png",0,0 M,4,207882,208482,520,99,406,72 F,0,207882,208482,1,0 S,0,207882,208482,0.7,0.28 P,0,207882,208482,A
Sprite,Foreground,Centre,"sb/d.png",0,0 M,4,207882,208482,520,99,508,48 F,0,207882,208482,1,0 S,0,207882,208482,0.7,0.28 P,0,207882,208482,A
Sprite,Foreground,Centre,"sb/d.png",0,0 M,4,207882,208482,520,99,370,159 F,0,207882,208482,1,0 S,0,207882,208482,0.7,0.28 P,0,207882,208482,A
Sprite,Foreground,Centre,"sb/d.png",0,0 M,4,207882,208482,520,99,457,106 F,0,207882,208482,1,0 S,0,207882,208482,0.7,0.28 P,0,207882,208482,A
Sprite,Foreground,Centre,"sb/d.png",0,0 M,4,208332,208932,358,198,295,57 F,0,208332,208932,1,0 S,0,208332,208932,0.7,0.28 P,0,208332,208932,A
Sprite,Foreground,Centre,"sb/d.png",0,0 M,4,208332,208932,358,198,278,186 F,0,208332,208932,1,0 S,0,208332,208932,0.7,0.28 P,0,208332,208932,A
Sprite,Foreground,Centre,"sb/d.png",0,0 M,4,208332,208932,358,198,316,210 F,0,208332,208932,1,0 S,0,208332,208932,0.7,0.28 P,0,208332,208932,A
Sprite,Foreground,Centre,"sb/d.png",0,0 M,4,208332,208932,358,198,316,102 F,0,208332,208932,1,0 S,0,208332,208932,0.7,0.28 P,0,208332,208932,A
Sprite,Foreground,Centre,"sb/d.png",0,0 M,4,208332,208932,358,198,213,249 F,0,208332,208932,1,0 S,0,208332,208932,0.7,0.28 P,0,208332,208932,A
Sprite,Foreground,Centre,"sb/d.png",0,0 M,4,208332,208932,358,198,422,171 F,0,208332,208932,1,0 S,0,208332,208932,0.7,0.28 P,0,208332,208932,A
Sprite,Foreground,Centre,"sb/d.png",0,0 M,4,208332,208932,358,198,447,169 F,0,208332,208932,1,0 S,0,208332,208932,0.7,0.28 P,0,208332,208932,A
Sprite,Foreground,Centre,"sb/d.png",0,0 M,4,208482,209082,290,124,219,48 F,0,208482,209082,1,0 S,0,208482,209082,0.7,0.28 P,0,208482,209082,A
Sprite,Foreground,Centre,"sb/d.png",0,0 M,4,208482,209082,290,124,327,246 F,0,208482,209082,1,0 S,0,208482,209082,0.7,0.28 P,0,208482,209082,A
Sprite,Foreground,Centre,"sb/d.png",0,0 M,4,208482,209082,290,124,435,101 F,0,208482,209082,1,0 S,0,208482,209082,0.7,0.28 P,0,208482,209082,A
Sprite,Foreground,Centre,"sb/d.png",0,0 M,4,208482,209082,290,124,333,140 F,0,208482,209082,1,0 S,0,208482,209082,0.7,0.28 P,0,208482,209082,A
Sprite,Foreground,Centre,"sb/d.png",0,0 M,4,208482,209082,290,124,322,62 F,0,208482,209082,1,0 S,0,208482,209082,0.7,0.28 P,0,208482,209082,A
Sprite,Foreground,Centre,"sb/d.png",0,0 M,4,208482,209082,290,124,268,68 F,0,208482,209082,1,0 S,0,208482,209082,0.7,0.28 P,0,208482,209082,A
Sprite,Foreground,Centre,"sb/d.png",0,0 M,4,208482,209082,290,124,369,67 F,0,208482,209082,1,0 S,0,208482,209082,0.7,0.28 P,0,208482,209082,A
Sprite,Foreground,Centre,"sb/d.png",0,0 M,4,208782,209382,131,245,1,325 F,0,208782,209382,1,0 S,0,208782,209382,0.7,0.28 P,0,208782,209382,A
Sprite,Foreground,Centre,"sb/d.png",0,0 M,4,208782,209382,131,245,114,244 F,0,208782,209382,1,0 S,0,208782,209382,0.7,0.28 P,0,208782,209382,A
Sprite,Foreground,Centre,"sb/d.png",0,0 M,4,208782,209382,131,245,-16,332 F,0,208782,209382,1,0 S,0,208782,209382,0.7,0.28 P,0,208782,209382,A
Sprite,Foreground,Centre,"sb/d.png",0,0 M,4,208782,209382,131,245,6,310 F,0,208782,209382,1,0 S,0,208782,209382,0.7,0.28 P,0,208782,209382,A
Sprite,Foreground,Centre,"sb/d.png",0,0 M,4,208782,209382,131,245,-3,260 F,0,208782,209382,1,0 S,0,208782,209382,0.7,0.28 P,0,208782,209382,A
Sprite,Foreground,Centre,"sb/d.png",0,0 M,4,208782,209382,131,245,151,247 F,0,208782,209382,1,0 S,0,208782,209382,0.7,0.28 P,0,208782,209382,A
Sprite,Foreground,Centre,"sb/d.png",0,0 M,4,208782,209382,131,245,17,131 F,0,208782,209382,1,0 S,0,208782,209382,0.7,0.28 P,0,208782,209382,A
Sprite,Foreground,Centre,"sb/d.png",0,0 M,4,209232,209832,239,387,230,261 F,0,209232,209832,1,0 S,0,209232,209832,0.7,0.28 P,0,209232,209832,A
Sprite,Foreground,Centre,"sb/d.png",0,0 M,4,209232,209832,239,387,93,290 F,0,209232,209832,1,0 S,0,209232,209832,0.7,0.28 P,0,209232,209832,A
Sprite,Foreground,Centre,"sb/d.png",0,0 M,4,209232,209832,239,387,216,452 F,0,209232,209832,1,0 S,0,209232,209832,0.7,0.28 P,0,209232,209832,A
Sprite,Foreground,Centre,"sb/d.png",0,0 M,4,209232,209832,239,387,133,301 F,0,209232,209832,1,0 S,0,209232,209832,0.7,0.28 P,0,209232,209832,A
Sprite,Foreground,Centre,"sb/d.png",0,0 M,4,209232,209832,239,387,301,264 F,0,209232,209832,1,0 S,0,209232,209832,0.7,0.28 P,0,209232,209832,A
Sprite,Foreground,Centre,"sb/d.png",0,0 M,4,209232,209832,239,387,303,496 F,0,209232,209832,1,0 S,0,209232,209832,0.7,0.28 P,0,209232,209832,A
Sprite,Foreground,Centre,"sb/d.png",0,0 M,4,209232,209832,239,387,352,457 F,0,209232,209832,1,0 S,0,209232,209832,0.7,0.28 P,0,209232,209832,A
Sprite,Foreground,Centre,"sb/d.png",0,0 M,4,209682,210282,442,359,419,491 F,0,209682,210282,1,0 S,0,209682,210282,0.7,0.28 P,0,209682,210282,A
Sprite,Foreground,Centre,"sb/d.png",0,0 M,4,209682,210282,442,359,302,222 F,0,209682,210282,1,0 S,0,209682,210282,0.7,0.28 P,0,209682,210282,A
Sprite,Foreground,Centre,"sb/d.png",0,0 M,4,209682,210282,442,359,525,223 F,0,209682,210282,1,0 S,0,209682,210282,0.7,0.28 P,0,209682,210282,A
Sprite,Foreground,Centre,"sb/d.png",0,0 M,4,209682,210282,442,359,326,284 F,0,209682,210282,1,0 S,0,209682,210282,0.7,0.28 P,0,209682,210282,A
Sprite,Foreground,Centre,"sb/d.png",0,0 M,4,209682,210282,442,359,360,273 F,0,209682,210282,1,0 S,0,209682,210282,0.7,0.28 P,0,209682,210282,A
Sprite,Foreground,Centre,"sb/d.png",0,0 M,4,209682,210282,442,359,412,211 F,0,209682,210282,1,0 S,0,209682,210282,0.7,0.28 P,0,209682,210282,A
Sprite,Foreground,Centre,"sb/d.png",0,0 M,4,209682,210282,442,359,388,372 F,0,209682,210282,1,0 S,0,209682,210282,0.7,0.28 P,0,209682,210282,A
Sprite,Foreground,Centre,"sb/d.png",0,0 M,4,209982,210582,511,218,419,89 F,0,209982,210582,1,0 S,0,209982,210582,0.7,0.28 P,0,209982,210582,A
Sprite,Foreground,Centre,"sb/d.png",0,0 M,4,209982,210582,511,218,463,210 F,0,209982,210582,1,0 S,0,209982,210582,0.7,0.28 P,0,209982,210582,A
Sprite,Foreground,Centre,"sb/d.png",0,0 M,4,209982,210582,511,218,451,225 F,0,209982,210582,1,0 S,0,209982,210582,0.7,0.28 P,0,209982,210582,A
Sprite,Foreground,Centre,"sb/d.png",0,0 M,4,209982,210582,511,218,386,226 F,0,209982,210582,1,0 S,0,209982,210582,0.7,0.28 P,0,209982,210582,A
Sprite,Foreground,Centre,"sb/d.png",0,0 M,4,209982,210582,511,218,444,142 F,0,209982,210582,1,0 S,0,209982,210582,0.7,0.28 P,0,209982,210582,A
Sprite,Foreground,Centre,"sb/d.png",0,0 M,4,209982,210582,511,218,627,82 F,0,209982,210582,1,0 S,0,209982,210582,0.7,0.28 P,0,209982,210582,A
Sprite,Foreground,Centre,"sb/d.png",0,0 M,4,209982,210582,511,218,410,324 F,0,209982,210582,1,0 S,0,209982,210582,0.7,0.28 P,0,209982,210582,A
Sprite,Foreground,Centre,"sb/d.png",0,0 M,4,210282,210882,527,417,395,372 F,0,210282,210882,1,0 S,0,210282,210882,0.7,0.28 P,0,210282,210882,A
Sprite,Foreground,Centre,"sb/d.png",0,0 M,4,210282,210882,527,417,612,310 F,0,210282,210882,1,0 S,0,210282,210882,0.7,0.28 P,0,210282,210882,A
Sprite,Foreground,Centre,"sb/d.png",0,0 M,4,210282,210882,527,417,650,371 F,0,210282,210882,1,0 S,0,210282,210882,0.7,0.28 P,0,210282,210882,A
Sprite,Foreground,Centre,"sb/d.png",0,0 M,4,210282,210882,527,417,465,300 F,0,210282,210882,1,0 S,0,210282,210882,0.7,0.28 P,0,210282,210882,A
Sprite,Foreground,Centre,"sb/d.png",0,0 M,4,210282,210882,527,417,531,423 F,0,210282,210882,1,0 S,0,210282,210882,0.7,0.28 P,0,210282,210882,A
Sprite,Foreground,Centre,"sb/d.png",0,0 M,4,210282,210882,527,417,596,289 F,0,210282,210882,1,0 S,0,210282,210882,0.7,0.28 P,0,210282,210882,A
Sprite,Foreground,Centre,"sb/d.png",0,0 M,4,210282,210882,527,417,379,333 F,0,210282,210882,1,0 S,0,210282,210882,0.7,0.28 P,0,210282,210882,A
Sprite,Foreground,Centre,"sb/d.png",0,0 M,4,210582,211182,378,282,483,371 F,0,210582,211182,1,0 S,0,210582,211182,0.7,0.28 P,0,210582,211182,A
Sprite,Foreground,Centre,"sb/d.png",0,0 M,4,210582,211182,378,282,461,257 F,0,210582,211182,1,0 S,0,210582,211182,0.7,0.28 P,0,210582,211182,A
Sprite,Foreground,Centre,"sb/d.png",0,0 M,4,210582,211182,378,282,347,313 F,0,210582,211182,1,0 S,0,210582,211182,0.7,0.28 P,0,210582,211182,A
Sprite,Foreground,Centre,"sb/d.png",0,0 M,4,210582,211182,378,282,233,322 F,0,210582,211182,1,0 S,0,210582,211182,0.7,0.28 P,0,210582,211182,A
Sprite,Foreground,Centre,"sb/d.png",0,0 M,4,210582,211182,378,282,452,204 F,0,210582,211182,1,0 S,0,210582,211182,0.7,0.28 P,0,210582,211182,A
Sprite,Foreground,Centre,"sb/d.png",0,0 M,4,210582,211182,378,282,396,238 F,0,210582,211182,1,0 S,0,210582,211182,0.7,0.28 P,0,210582,211182,A
Sprite,Foreground,Centre,"sb/d.png",0,0 M,4,210582,211182,378,282,423,401 F,0,210582,211182,1,0 S,0,210582,211182,0.7,0.28 P,0,210582,211182,A
Sprite,Foreground,Centre,"sb/d.png",0,0 M,4,210882,211482,235,334,283,419 F,0,210882,211482,1,0 S,0,210882,211482,0.7,0.28 P,0,210882,211482,A
Sprite,Foreground,Centre,"sb/d.png",0,0 M,4,210882,211482,235,334,132,403 F,0,210882,211482,1,0 S,0,210882,211482,0.7,0.28 P,0,210882,211482,A
Sprite,Foreground,Centre,"sb/d.png",0,0 M,4,210882,211482,235,334,350,261 F,0,210882,211482,1,0 S,0,210882,211482,0.7,0.28 P,0,210882,211482,A
Sprite,Foreground,Centre,"sb/d.png",0,0 M,4,210882,211482,235,334,141,446 F,0,210882,211482,1,0 S,0,210882,211482,0.7,0.28 P,0,210882,211482,A
Sprite,Foreground,Centre,"sb/d.png",0,0 M,4,210882,211482,235,334,214,260 F,0,210882,211482,1,0 S,0,210882,211482,0.7,0.28 P,0,210882,211482,A
Sprite,Foreground,Centre,"sb/d.png",0,0 M,4,210882,211482,235,334,114,475 F,0,210882,211482,1,0 S,0,210882,211482,0.7,0.28 P,0,210882,211482,A
Sprite,Foreground,Centre,"sb/d.png",0,0 M,4,210882,211482,235,334,160,209 F,0,210882,211482,1,0 S,0,210882,211482,0.7,0.28 P,0,210882,211482,A
Sprite,Foreground,Centre,"sb/d.png",0,0 M,4,211182,211782,85,294,101,389 F,0,211182,211782,1,0 S,0,211182,211782,0.7,0.28 P,0,211182,211782,A
Sprite,Foreground,Centre,"sb/d.png",0,0 M,4,211182,211782,85,294,157,212 F,0,211182,211782,1,0 S,0,211182,211782,0.7,0.28 P,0,211182,211782,A
Sprite,Foreground,Centre,"sb/d.png",0,0 M,4,211182,211782,85,294,90,402 F,0,211182,211782,1,0 S,0,211182,211782,0.7,0.28 P,0,211182,211782,A
Sprite,Foreground,Centre,"sb/d.png",0,0 M,4,211182,211782,85,294,137,288 F,0,211182,211782,1,0 S,0,211182,211782,0.7,0.28 P,0,211182,211782,A
Sprite,Foreground,Centre,"sb/d.png",0,0 M,4,211182,211782,85,294,76,284 F,0,211182,211782,1,0 S,0,211182,211782,0.7,0.28 P,0,211182,211782,A
Sprite,Foreground,Centre,"sb/d.png",0,0 M,4,211182,211782,85,294,129,311 F,0,211182,211782,1,0 S,0,211182,211782,0.7,0.28 P,0,211182,211782,A
Sprite,Foreground,Centre,"sb/d.png",0,0 M,4,211182,211782,85,294,185,271 F,0,211182,211782,1,0 S,0,211182,211782,0.7,0.28 P,0,211182,211782,A
Sprite,Foreground,Centre,"sb/d.png",0,0 M,4,211632,212232,119,81,149,93 F,0,211632,212232,1,0 S,0,211632,212232,0.7,0.28 P,0,211632,212232,A
Sprite,Foreground,Centre,"sb/d.png",0,0 M,4,211632,212232,119,81,144,97 F,0,211632,212232,1,0 S,0,211632,212232,0.7,0.28 P,0,211632,212232,A
Sprite,Foreground,Centre,"sb/d.png",0,0 M,4,211632,212232,119,81,177,50 F,0,211632,212232,1,0 S,0,211632,212232,0.7,0.28 P,0,211632,212232,A
Sprite,Foreground,Centre,"sb/d.png",0,0 M,4,211632,212232,119,81,103,150 F,0,211632,212232,1,0 S,0,211632,212232,0.7,0.28 P,0,211632,212232,A
Sprite,Foreground,Centre,"sb/d.png",0,0 M,4,211632,212232,119,81,78,-69 F,0,211632,212232,1,0 S,0,211632,212232,0.7,0.28 P,0,211632,212232,A
Sprite,Foreground,Centre,"sb/d.png",0,0 M,4,211632,212232,119,81,25,155 F,0,211632,212232,1,0 S,0,211632,212232,0.7,0.28 P,0,211632,212232,A
Sprite,Foreground,Centre,"sb/d.png",0,0 M,4,211632,212232,119,81,-22,223 F,0,211632,212232,1,0 S,0,211632,212232,0.7,0.28 P,0,211632,212232,A
Sprite,Foreground,Centre,"sb/d.png",0,0 M,4,212082,212682,311,188,271,194 F,0,212082,212682,1,0 S,0,212082,212682,0.7,0.28 P,0,212082,212682,A
Sprite,Foreground,Centre,"sb/d.png",0,0 M,4,212082,212682,311,188,257,165 F,0,212082,212682,1,0 S,0,212082,212682,0.7,0.28 P,0,212082,212682,A
Sprite,Foreground,Centre,"sb/d.png",0,0 M,4,212082,212682,311,188,267,318 F,0,212082,212682,1,0 S,0,212082,212682,0.7,0.28 P,0,212082,212682,A
Sprite,Foreground,Centre,"sb/d.png",0,0 M,4,212082,212682,311,188,184,317 F,0,212082,212682,1,0 S,0,212082,212682,0.7,0.28 P,0,212082,212682,A
Sprite,Foreground,Centre,"sb/d.png",0,0 M,4,212082,212682,311,188,310,137 F,0,212082,212682,1,0 S,0,212082,212682,0.7,0.28 P,0,212082,212682,A
Sprite,Foreground,Centre,"sb/d.png",0,0 M,4,212082,212682,311,188,412,275 F,0,212082,212682,1,0 S,0,212082,212682,0.7,0.28 P,0,212082,212682,A
Sprite,Foreground,Centre,"sb/d.png",0,0 M,4,212082,212682,311,188,227,92 F,0,212082,212682,1,0 S,0,212082,212682,0.7,0.28 P,0,212082,212682,A
Sprite,Foreground,Centre,"sb/d.png",0,0 M,4,212682,213282,572,264,515,320 F,0,212682,213282,1,0 S,0,212682,213282,0.7,0.28 P,0,212682,213282,A
Sprite,Foreground,Centre,"sb/d.png",0,0 M,4,212682,213282,572,264,446,211 F,0,212682,213282,1,0 S,0,212682,213282,0.7,0.28 P,0,212682,213282,A
Sprite,Foreground,Centre,"sb/d.png",0,0 M,4,212682,213282,572,264,548,343 F,0,212682,213282,1,0 S,0,212682,213282,0.7,0.28 P,0,212682,213282,A
Sprite,Foreground,Centre,"sb/d.png",0,0 M,4,212682,213282,572,264,503,380 F,0,212682,213282,1,0 S,0,212682,213282,0.7,0.28 P,0,212682,213282,A
Sprite,Foreground,Centre,"sb/d.png",0,0 M,4,212682,213282,572,264,623,276 F,0,212682,213282,1,0 S,0,212682,213282,0.7,0.28 P,0,212682,213282,A
Sprite,Foreground,Centre,"sb/d.png",0,0 M,4,212682,213282,572,264,504,369 F,0,212682,213282,1,0 S,0,212682,213282,0.7,0.28 P,0,212682,213282,A
Sprite,Foreground,Centre,"sb/d.png",0,0 M,4,212682,213282,572,264,612,361 F,0,212682,213282,1,0 S,0,212682,213282,0.7,0.28 P,0,212682,213282,A
Sprite,Foreground,Centre,"sb/d.png",0,0 M,4,212982,213582,387,386,373,458 F,0,212982,213582,1,0 S,0,212982,213582,0.7,0.28 P,0,212982,213582,A
Sprite,Foreground,Centre,"sb/d.png",0,0 M,4,212982,213582,387,386,249,466 F,0,212982,213582,1,0 S,0,212982,213582,0.7,0.28 P,0,212982,213582,A
Sprite,Foreground,Centre,"sb/d.png",0,0 M,4,212982,213582,387,386,485,445 F,0,212982,213582,1,0 S,0,212982,213582,0.7,0.28 P,0,212982,213582,A
Sprite,Foreground,Centre,"sb/d.png",0,0 M,4,212982,213582,387,386,271,520 F,0,212982,213582,1,0 S,0,212982,213582,0.7,0.28 P,0,212982,213582,A
Sprite,Foreground,Centre,"sb/d.png",0,0 M,4,212982,213582,387,386,281,302 F,0,212982,213582,1,0 S,0,212982,213582,0.7,0.28 P,0,212982,213582,A
Sprite,Foreground,Centre,"sb/d.png",0,0 M,4,212982,213582,387,386,298,506 F,0,212982,213582,1,0 S,0,212982,213582,0.7,0.28 P,0,212982,213582,A
Sprite,Foreground,Centre,"sb/d.png",0,0 M,4,212982,213582,387,386,341,437 F,0,212982,213582,1,0 S,0,212982,213582,0.7,0.28 P,0,212982,213582,A
Sprite,Foreground,Centre,"sb/d.png",0,0 M,4,213282,213882,275,258,138,183 F,0,213282,213882,1,0 S,0,213282,213882,0.7,0.28 P,0,213282,213882,A
Sprite,Foreground,Centre,"sb/d.png",0,0 M,4,213282,213882,275,258,340,379 F,0,213282,213882,1,0 S,0,213282,213882,0.7,0.28 P,0,213282,213882,A
Sprite,Foreground,Centre,"sb/d.png",0,0 M,4,213282,213882,275,258,177,188 F,0,213282,213882,1,0 S,0,213282,213882,0.7,0.28 P,0,213282,213882,A
Sprite,Foreground,Centre,"sb/d.png",0,0 M,4,213282,213882,275,258,250,310 F,0,213282,213882,1,0 S,0,213282,213882,0.7,0.28 P,0,213282,213882,A
Sprite,Foreground,Centre,"sb/d.png",0,0 M,4,213282,213882,275,258,400,366 F,0,213282,213882,1,0 S,0,213282,213882,0.7,0.28 P,0,213282,213882,A
Sprite,Foreground,Centre,"sb/d.png",0,0 M,4,213282,213882,275,258,223,188 F,0,213282,213882,1,0 S,0,213282,213882,0.7,0.28 P,0,213282,213882,A
Sprite,Foreground,Centre,"sb/d.png",0,0 M,4,213282,213882,275,258,335,251 F,0,213282,213882,1,0 S,0,213282,213882,0.7,0.28 P,0,213282,213882,A
Sprite,Foreground,Centre,"sb/d.png",0,0 M,4,213582,214182,123,329,228,413 F,0,213582,214182,1,0 S,0,213582,214182,0.7,0.28 P,0,213582,214182,A
Sprite,Foreground,Centre,"sb/d.png",0,0 M,4,213582,214182,123,329,18,329 F,0,213582,214182,1,0 S,0,213582,214182,0.7,0.28 P,0,213582,214182,A
Sprite,Foreground,Centre,"sb/d.png",0,0 M,4,213582,214182,123,329,63,254 F,0,213582,214182,1,0 S,0,213582,214182,0.7,0.28 P,0,213582,214182,A
Sprite,Foreground,Centre,"sb/d.png",0,0 M,4,213582,214182,123,329,115,406 F,0,213582,214182,1,0 S,0,213582,214182,0.7,0.28 P,0,213582,214182,A
Sprite,Foreground,Centre,"sb/d.png",0,0 M,4,213582,214182,123,329,60,200 F,0,213582,214182,1,0 S,0,213582,214182,0.7,0.28 P,0,213582,214182,A
Sprite,Foreground,Centre,"sb/d.png",0,0 M,4,213582,214182,123,329,261,335 F,0,213582,214182,1,0 S,0,213582,214182,0.7,0.28 P,0,213582,214182,A
Sprite,Foreground,Centre,"sb/d.png",0,0 M,4,213582,214182,123,329,-8,287 F,0,213582,214182,1,0 S,0,213582,214182,0.7,0.28 P,0,213582,214182,A
Sprite,Foreground,Centre,"sb/d.png",0,0 M,4,213732,214332,123,329,134,436 F,0,213732,214332,1,0 S,0,213732,214332,0.7,0.28 P,0,213732,214332,A
Sprite,Foreground,Centre,"sb/d.png",0,0 M,4,213732,214332,123,329,8,335 F,0,213732,214332,1,0 S,0,213732,214332,0.7,0.28 P,0,213732,214332,A
Sprite,Foreground,Centre,"sb/d.png",0,0 M,4,213732,214332,123,329,97,359 F,0,213732,214332,1,0 S,0,213732,214332,0.7,0.28 P,0,213732,214332,A
Sprite,Foreground,Centre,"sb/d.png",0,0 M,4,213732,214332,123,329,226,305 F,0,213732,214332,1,0 S,0,213732,214332,0.7,0.28 P,0,213732,214332,A
Sprite,Foreground,Centre,"sb/d.png",0,0 M,4,213732,214332,123,329,220,289 F,0,213732,214332,1,0 S,0,213732,214332,0.7,0.28 P,0,213732,214332,A
Sprite,Foreground,Centre,"sb/d.png",0,0 M,4,213732,214332,123,329,175,288 F,0,213732,214332,1,0 S,0,213732,214332,0.7,0.28 P,0,213732,214332,A
Sprite,Foreground,Centre,"sb/d.png",0,0 M,4,213732,214332,123,329,95,412 F,0,213732,214332,1,0 S,0,213732,214332,0.7,0.28 P,0,213732,214332,A
Sprite,Foreground,Centre,"sb/d.png",0,0 M,4,214032,214632,246,427,342,330 F,0,214032,214632,1,0 S,0,214032,214632,0.7,0.28 P,0,214032,214632,A
Sprite,Foreground,Centre,"sb/d.png",0,0 M,4,214032,214632,246,427,228,445 F,0,214032,214632,1,0 S,0,214032,214632,0.7,0.28 P,0,214032,214632,A
Sprite,Foreground,Centre,"sb/d.png",0,0 M,4,214032,214632,246,427,394,468 F,0,214032,214632,1,0 S,0,214032,214632,0.7,0.28 P,0,214032,214632,A
Sprite,Foreground,Centre,"sb/d.png",0,0 M,4,214032,214632,246,427,125,387 F,0,214032,214632,1,0 S,0,214032,214632,0.7,0.28 P,0,214032,214632,A
Sprite,Foreground,Centre,"sb/d.png",0,0 M,4,214032,214632,246,427,117,488 F,0,214032,214632,1,0 S,0,214032,214632,0.7,0.28 P,0,214032,214632,A
Sprite,Foreground,Centre,"sb/d.png",0,0 M,4,214032,214632,246,427,276,305 F,0,214032,214632,1,0 S,0,214032,214632,0.7,0.28 P,0,214032,214632,A
Sprite,Foreground,Centre,"sb/d.png",0,0 M,4,214032,214632,246,427,155,362 F,0,214032,214632,1,0 S,0,214032,214632,0.7,0.28 P,0,214032,214632,A
Sprite,Foreground,Centre,"sb/d.png",0,0 M,4,214182,214782,246,427,383,471 F,0,214182,214782,1,0 S,0,214182,214782,0.7,0.28 P,0,214182,214782,A
Sprite,Foreground,Centre,"sb/d.png",0,0 M,4,214182,214782,246,427,379,472 F,0,214182,214782,1,0 S,0,214182,214782,0.7,0.28 P,0,214182,214782,A
Sprite,Foreground,Centre,"sb/d.png",0,0 M,4,214182,214782,246,427,156,293 F,0,214182,214782,1,0 S,0,214182,214782,0.7,0.28 P,0,214182,214782,A
Sprite,Foreground,Centre,"sb/d.png",0,0 M,4,214182,214782,246,427,136,294 F,0,214182,214782,1,0 S,0,214182,214782,0.7,0.28 P,0,214182,214782,A
Sprite,Foreground,Centre,"sb/d.png",0,0 M,4,214182,214782,246,427,318,519 F,0,214182,214782,1,0 S,0,214182,214782,0.7,0.28 P,0,214182,214782,A
Sprite,Foreground,Centre,"sb/d.png",0,0 M,4,214182,214782,246,427,351,307 F,0,214182,214782,1,0 S,0,214182,214782,0.7,0.28 P,0,214182,214782,A
Sprite,Foreground,Centre,"sb/d.png",0,0 M,4,214182,214782,246,427,285,405 F,0,214182,214782,1,0 S,0,214182,214782,0.7,0.28 P,0,214182,214782,A
Sprite,Foreground,Centre,"sb/d.png",0,0 M,4,214482,215082,407,440,544,524 F,0,214482,215082,1,0 S,0,214482,215082,0.7,0.28 P,0,214482,215082,A
Sprite,Foreground,Centre,"sb/d.png",0,0 M,4,214482,215082,407,440,504,570 F,0,214482,215082,1,0 S,0,214482,215082,0.7,0.28 P,0,214482,215082,A
Sprite,Foreground,Centre,"sb/d.png",0,0 M,4,214482,215082,407,440,510,498 F,0,214482,215082,1,0 S,0,214482,215082,0.7,0.28 P,0,214482,215082,A
Sprite,Foreground,Centre,"sb/d.png",0,0 M,4,214482,215082,407,440,537,324 F,0,214482,215082,1,0 S,0,214482,215082,0.7,0.28 P,0,214482,215082,A
Sprite,Foreground,Centre,"sb/d.png",0,0 M,4,214482,215082,407,440,446,410 F,0,214482,215082,1,0 S,0,214482,215082,0.7,0.28 P,0,214482,215082,A
Sprite,Foreground,Centre,"sb/d.png",0,0 M,4,214482,215082,407,440,414,418 F,0,214482,215082,1,0 S,0,214482,215082,0.7,0.28 P,0,214482,215082,A
Sprite,Foreground,Centre,"sb/d.png",0,0 M,4,214482,215082,407,440,336,341 F,0,214482,215082,1,0 S,0,214482,215082,0.7,0.28 P,0,214482,215082,A
Sprite,Foreground,Centre,"sb/d.png",0,0 M,4,214782,215382,535,304,621,278 F,0,214782,215382,1,0 S,0,214782,215382,0.7,0.28 P,0,214782,215382,A
Sprite,Foreground,Centre,"sb/d.png",0,0 M,4,214782,215382,535,304,660,250 F,0,214782,215382,1,0 S,0,214782,215382,0.7,0.28 P,0,214782,215382,A
Sprite,Foreground,Centre,"sb/d.png",0,0 M,4,214782,215382,535,304,505,321 F,0,214782,215382,1,0 S,0,214782,215382,0.7,0.28 P,0,214782,215382,A
Sprite,Foreground,Centre,"sb/d.png",0,0 M,4,214782,215382,535,304,523,206 F,0,214782,215382,1,0 S,0,214782,215382,0.7,0.28 P,0,214782,215382,A
Sprite,Foreground,Centre,"sb/d.png",0,0 M,4,214782,215382,535,304,512,160 F,0,214782,215382,1,0 S,0,214782,215382,0.7,0.28 P,0,214782,215382,A
Sprite,Foreground,Centre,"sb/d.png",0,0 M,4,214782,215382,535,304,433,259 F,0,214782,215382,1,0 S,0,214782,215382,0.7,0.28 P,0,214782,215382,A
Sprite,Foreground,Centre,"sb/d.png",0,0 M,4,214782,215382,535,304,577,382 F,0,214782,215382,1,0 S,0,214782,215382,0.7,0.28 P,0,214782,215382,A
Sprite,Foreground,Centre,"sb/d.png",0,0 M,4,215082,215682,465,160,445,199 F,0,215082,215682,1,0 S,0,215082,215682,0.7,0.28 P,0,215082,215682,A
Sprite,Foreground,Centre,"sb/d.png",0,0 M,4,215082,215682,465,160,527,278 F,0,215082,215682,1,0 S,0,215082,215682,0.7,0.28 P,0,215082,215682,A
Sprite,Foreground,Centre,"sb/d.png",0,0 M,4,215082,215682,465,160,316,211 F,0,215082,215682,1,0 S,0,215082,215682,0.7,0.28 P,0,215082,215682,A
Sprite,Foreground,Centre,"sb/d.png",0,0 M,4,215082,215682,465,160,438,96 F,0,215082,215682,1,0 S,0,215082,215682,0.7,0.28 P,0,215082,215682,A
Sprite,Foreground,Centre,"sb/d.png",0,0 M,4,215082,215682,465,160,578,209 F,0,215082,215682,1,0 S,0,215082,215682,0.7,0.28 P,0,215082,215682,A
Sprite,Foreground,Centre,"sb/d.png",0,0 M,4,215082,215682,465,160,389,160 F,0,215082,215682,1,0 S,0,215082,215682,0.7,0.28 P,0,215082,215682,A
Sprite,Foreground,Centre,"sb/d.png",0,0 M,4,215082,215682,465,160,419,263 F,0,215082,215682,1,0 S,0,215082,215682,0.7,0.28 P,0,215082,215682,A
Sprite,Foreground,Centre,"sb/d.png",0,0 M,4,215382,215982,363,291,218,304 F,0,215382,215982,1,0 S,0,215382,215982,0.7,0.28 P,0,215382,215982,A
Sprite,Foreground,Centre,"sb/d.png",0,0 M,4,215382,215982,363,291,251,373 F,0,215382,215982,1,0 S,0,215382,215982,0.7,0.28 P,0,215382,215982,A
Sprite,Foreground,Centre,"sb/d.png",0,0 M,4,215382,215982,363,291,450,430 F,0,215382,215982,1,0 S,0,215382,215982,0.7,0.28 P,0,215382,215982,A
Sprite,Foreground,Centre,"sb/d.png",0,0 M,4,215382,215982,363,291,294,239 F,0,215382,215982,1,0 S,0,215382,215982,0.7,0.28 P,0,215382,215982,A
Sprite,Foreground,Centre,"sb/d.png",0,0 M,4,215382,215982,363,291,479,300 F,0,215382,215982,1,0 S,0,215382,215982,0.7,0.28 P,0,215382,215982,A
Sprite,Foreground,Centre,"sb/d.png",0,0 M,4,215382,215982,363,291,423,162 F,0,215382,215982,1,0 S,0,215382,215982,0.7,0.28 P,0,215382,215982,A
Sprite,Foreground,Centre,"sb/d.png",0,0 M,4,215382,215982,363,291,502,375 F,0,215382,215982,1,0 S,0,215382,215982,0.7,0.28 P,0,215382,215982,A
Sprite,Foreground,Centre,"sb/d.png",0,0 M,4,215682,216282,259,129,216,219 F,0,215682,216282,1,0 S,0,215682,216282,0.7,0.28 P,0,215682,216282,A
Sprite,Foreground,Centre,"sb/d.png",0,0 M,4,215682,216282,259,129,340,127 F,0,215682,216282,1,0 S,0,215682,216282,0.7,0.28 P,0,215682,216282,A
Sprite,Foreground,Centre,"sb/d.png",0,0 M,4,215682,216282,259,129,124,31 F,0,215682,216282,1,0 S,0,215682,216282,0.7,0.28 P,0,215682,216282,A
Sprite,Foreground,Centre,"sb/d.png",0,0 M,4,215682,216282,259,129,312,278 F,0,215682,216282,1,0 S,0,215682,216282,0.7,0.28 P,0,215682,216282,A
Sprite,Foreground,Centre,"sb/d.png",0,0 M,4,215682,216282,259,129,316,168 F,0,215682,216282,1,0 S,0,215682,216282,0.7,0.28 P,0,215682,216282,A
Sprite,Foreground,Centre,"sb/d.png",0,0 M,4,215682,216282,259,129,235,157 F,0,215682,216282,1,0 S,0,215682,216282,0.7,0.28 P,0,215682,216282,A
Sprite,Foreground,Centre,"sb/d.png",0,0 M,4,215682,216282,259,129,337,128 F,0,215682,216282,1,0 S,0,215682,216282,0.7,0.28 P,0,215682,216282,A
Sprite,Foreground,Centre,"sb/d.png",0,0 M,4,215982,216582,202,294,212,220 F,0,215982,216582,1,0 S,0,215982,216582,0.7,0.28 P,0,215982,216582,A
Sprite,Foreground,Centre,"sb/d.png",0,0 M,4,215982,216582,202,294,74,413 F,0,215982,216582,1,0 S,0,215982,216582,0.7,0.28 P,0,215982,216582,A
Sprite,Foreground,Centre,"sb/d.png",0,0 M,4,215982,216582,202,294,114,329 F,0,215982,216582,1,0 S,0,215982,216582,0.7,0.28 P,0,215982,216582,A
Sprite,Foreground,Centre,"sb/d.png",0,0 M,4,215982,216582,202,294,99,408 F,0,215982,216582,1,0 S,0,215982,216582,0.7,0.28 P,0,215982,216582,A
Sprite,Foreground,Centre,"sb/d.png",0,0 M,4,215982,216582,202,294,320,260 F,0,215982,216582,1,0 S,0,215982,216582,0.7,0.28 P,0,215982,216582,A
Sprite,Foreground,Centre,"sb/d.png",0,0 M,4,215982,216582,202,294,220,347 F,0,215982,216582,1,0 S,0,215982,216582,0.7,0.28 P,0,215982,216582,A
Sprite,Foreground,Centre,"sb/d.png",0,0 M,4,215982,216582,202,294,199,176 F,0,215982,216582,1,0 S,0,215982,216582,0.7,0.28 P,0,215982,216582,A
Sprite,Foreground,Centre,"sb/d.png",0,0 M,4,216432,217032,361,431,434,333 F,0,216432,217032,1,0 S,0,216432,217032,0.7,0.28 P,0,216432,217032,A
Sprite,Foreground,Centre,"sb/d.png",0,0 M,4,216432,217032,361,431,268,561 F,0,216432,217032,1,0 S,0,216432,217032,0.7,0.28 P,0,216432,217032,A
Sprite,Foreground,Centre,"sb/d.png",0,0 M,4,216432,217032,361,431,422,470 F,0,216432,217032,1,0 S,0,216432,217032,0.7,0.28 P,0,216432,217032,A
Sprite,Foreground,Centre,"sb/d.png",0,0 M,4,216432,217032,361,431,490,304 F,0,216432,217032,1,0 S,0,216432,217032,0.7,0.28 P,0,216432,217032,A
Sprite,Foreground,Centre,"sb/d.png",0,0 M,4,216432,217032,361,431,478,507 F,0,216432,217032,1,0 S,0,216432,217032,0.7,0.28 P,0,216432,217032,A
Sprite,Foreground,Centre,"sb/d.png",0,0 M,4,216432,217032,361,431,346,333 F,0,216432,217032,1,0 S,0,216432,217032,0.7,0.28 P,0,216432,217032,A
Sprite,Foreground,Centre,"sb/d.png",0,0 M,4,216432,217032,361,431,260,286 F,0,216432,217032,1,0 S,0,216432,217032,0.7,0.28 P,0,216432,217032,A
Sprite,Foreground,Centre,"sb/d.png",0,0 M,4,216582,217182,361,431,466,429 F,0,216582,217182,1,0 S,0,216582,217182,0.7,0.28 P,0,216582,217182,A
Sprite,Foreground,Centre,"sb/d.png",0,0 M,4,216582,217182,361,431,316,340 F,0,216582,217182,1,0 S,0,216582,217182,0.7,0.28 P,0,216582,217182,A
Sprite,Foreground,Centre,"sb/d.png",0,0 M,4,216582,217182,361,431,271,512 F,0,216582,217182,1,0 S,0,216582,217182,0.7,0.28 P,0,216582,217182,A
Sprite,Foreground,Centre,"sb/d.png",0,0 M,4,216582,217182,361,431,448,471 F,0,216582,217182,1,0 S,0,216582,217182,0.7,0.28 P,0,216582,217182,A
Sprite,Foreground,Centre,"sb/d.png",0,0 M,4,216582,217182,361,431,348,521 F,0,216582,217182,1,0 S,0,216582,217182,0.7,0.28 P,0,216582,217182,A
Sprite,Foreground,Centre,"sb/d.png",0,0 M,4,216582,217182,361,431,469,385 F,0,216582,217182,1,0 S,0,216582,217182,0.7,0.28 P,0,216582,217182,A
Sprite,Foreground,Centre,"sb/d.png",0,0 M,4,216582,217182,361,431,397,423 F,0,216582,217182,1,0 S,0,216582,217182,0.7,0.28 P,0,216582,217182,A
Sprite,Foreground,Centre,"sb/d.png",0,0 M,4,216882,217482,469,320,590,285 F,0,216882,217482,1,0 S,0,216882,217482,0.7,0.28 P,0,216882,217482,A
Sprite,Foreground,Centre,"sb/d.png",0,0 M,4,216882,217482,469,320,599,281 F,0,216882,217482,1,0 S,0,216882,217482,0.7,0.28 P,0,216882,217482,A
Sprite,Foreground,Centre,"sb/d.png",0,0 M,4,216882,217482,469,320,524,341 F,0,216882,217482,1,0 S,0,216882,217482,0.7,0.28 P,0,216882,217482,A
Sprite,Foreground,Centre,"sb/d.png",0,0 M,4,216882,217482,469,320,394,325 F,0,216882,217482,1,0 S,0,216882,217482,0.7,0.28 P,0,216882,217482,A
Sprite,Foreground,Centre,"sb/d.png",0,0 M,4,216882,217482,469,320,450,316 F,0,216882,217482,1,0 S,0,216882,217482,0.7,0.28 P,0,216882,217482,A
Sprite,Foreground,Centre,"sb/d.png",0,0 M,4,216882,217482,469,320,586,209 F,0,216882,217482,1,0 S,0,216882,217482,0.7,0.28 P,0,216882,217482,A
Sprite,Foreground,Centre,"sb/d.png",0,0 M,4,216882,217482,469,320,488,307 F,0,216882,217482,1,0 S,0,216882,217482,0.7,0.28 P,0,216882,217482,A
Sprite,Foreground,Centre,"sb/d.png",0,0 M,4,217182,217782,269,390,227,336 F,0,217182,217782,1,0 S,0,217182,217782,0.7,0.28 P,0,217182,217782,A
Sprite,Foreground,Centre,"sb/d.png",0,0 M,4,217182,217782,269,390,253,250 F,0,217182,217782,1,0 S,0,217182,217782,0.7,0.28 P,0,217182,217782,A
Sprite,Foreground,Centre,"sb/d.png",0,0 M,4,217182,217782,269,390,254,281 F,0,217182,217782,1,0 S,0,217182,217782,0.7,0.28 P,0,217182,217782,A
Sprite,Foreground,Centre,"sb/d.png",0,0 M,4,217182,217782,269,390,127,360 F,0,217182,217782,1,0 S,0,217182,217782,0.7,0.28 P,0,217182,217782,A
Sprite,Foreground,Centre,"sb/d.png",0,0 M,4,217182,217782,269,390,129,349 F,0,217182,217782,1,0 S,0,217182,217782,0.7,0.28 P,0,217182,217782,A
Sprite,Foreground,Centre,"sb/d.png",0,0 M,4,217182,217782,269,390,261,455 F,0,217182,217782,1,0 S,0,217182,217782,0.7,0.28 P,0,217182,217782,A
Sprite,Foreground,Centre,"sb/d.png",0,0 M,4,217182,217782,269,390,213,273 F,0,217182,217782,1,0 S,0,217182,217782,0.7,0.28 P,0,217182,217782,A
Sprite,Foreground,Centre,"sb/d.png",0,0 M,4,217482,218082,104,276,169,243 F,0,217482,218082,1,0 S,0,217482,218082,0.7,0.28 P,0,217482,218082,A
Sprite,Foreground,Centre,"sb/d.png",0,0 M,4,217482,218082,104,276,-25,232 F,0,217482,218082,1,0 S,0,217482,218082,0.7,0.28 P,0,217482,218082,A
Sprite,Foreground,Centre,"sb/d.png",0,0 M,4,217482,218082,104,276,-44,262 F,0,217482,218082,1,0 S,0,217482,218082,0.7,0.28 P,0,217482,218082,A
Sprite,Foreground,Centre,"sb/d.png",0,0 M,4,217482,218082,104,276,5,277 F,0,217482,218082,1,0 S,0,217482,218082,0.7,0.28 P,0,217482,218082,A
Sprite,Foreground,Centre,"sb/d.png",0,0 M,4,217482,218082,104,276,199,149 F,0,217482,218082,1,0 S,0,217482,218082,0.7,0.28 P,0,217482,218082,A
Sprite,Foreground,Centre,"sb/d.png",0,0 M,4,217482,218082,104,276,100,304 F,0,217482,218082,1,0 S,0,217482,218082,0.7,0.28 P,0,217482,218082,A
Sprite,Foreground,Centre,"sb/d.png",0,0 M,4,217482,218082,104,276,184,226 F,0,217482,218082,1,0 S,0,217482,218082,0.7,0.28 P,0,217482,218082,A
Sprite,Foreground,Centre,"sb/d.png",0,0 M,4,218382,218982,269,390,135,499 F,0,218382,218982,1,0 S,0,218382,218982,0.7,0.28 P,0,218382,218982,A
Sprite,Foreground,Centre,"sb/d.png",0,0 M,4,218382,218982,269,390,211,261 F,0,218382,218982,1,0 S,0,218382,218982,0.7,0.28 P,0,218382,218982,A
Sprite,Foreground,Centre,"sb/d.png",0,0 M,4,218382,218982,269,390,180,339 F,0,218382,218982,1,0 S,0,218382,218982,0.7,0.28 P,0,218382,218982,A
Sprite,Foreground,Centre,"sb/d.png",0,0 M,4,218382,218982,269,390,200,280 F,0,218382,218982,1,0 S,0,218382,218982,0.7,0.28 P,0,218382,218982,A
Sprite,Foreground,Centre,"sb/d.png",0,0 M,4,218382,218982,269,390,225,487 F,0,218382,218982,1,0 S,0,218382,218982,0.7,0.28 P,0,218382,218982,A
Sprite,Foreground,Centre,"sb/d.png",0,0 M,4,218382,218982,269,390,387,384 F,0,218382,218982,1,0 S,0,218382,218982,0.7,0.28 P,0,218382,218982,A
Sprite,Foreground,Centre,"sb/d.png",0,0 M,4,218382,218982,269,390,253,391 F,0,218382,218982,1,0 S,0,218382,218982,0.7,0.28 P,0,218382,218982,A
Sprite,Foreground,Centre,"sb/d.png",0,0 M,4,218832,219432,482,413,437,433 F,0,218832,219432,1,0 S,0,218832,219432,0.7,0.28 P,0,218832,219432,A
Sprite,Foreground,Centre,"sb/d.png",0,0 M,4,218832,219432,482,413,600,553 F,0,218832,219432,1,0 S,0,218832,219432,0.7,0.28 P,0,218832,219432,A
Sprite,Foreground,Centre,"sb/d.png",0,0 M,4,218832,219432,482,413,408,305 F,0,218832,219432,1,0 S,0,218832,219432,0.7,0.28 P,0,218832,219432,A
Sprite,Foreground,Centre,"sb/d.png",0,0 M,4,218832,219432,482,413,571,277 F,0,218832,219432,1,0 S,0,218832,219432,0.7,0.28 P,0,218832,219432,A
Sprite,Foreground,Centre,"sb/d.png",0,0 M,4,218832,219432,482,413,456,423 F,0,218832,219432,1,0 S,0,218832,219432,0.7,0.28 P,0,218832,219432,A
Sprite,Foreground,Centre,"sb/d.png",0,0 M,4,218832,219432,482,413,368,295 F,0,218832,219432,1,0 S,0,218832,219432,0.7,0.28 P,0,218832,219432,A
Sprite,Foreground,Centre,"sb/d.png",0,0 M,4,218832,219432,482,413,418,519 F,0,218832,219432,1,0 S,0,218832,219432,0.7,0.28 P,0,218832,219432,A
Sprite,Foreground,Centre,"sb/d.png",0,0 M,4,219282,219882,566,219,566,179 F,0,219282,219882,1,0 S,0,219282,219882,0.7,0.28 P,0,219282,219882,A
Sprite,Foreground,Centre,"sb/d.png",0,0 M,4,219282,219882,566,219,579,326 F,0,219282,219882,1,0 S,0,219282,219882,0.7,0.28 P,0,219282,219882,A
Sprite,Foreground,Centre,"sb/d.png",0,0 M,4,219282,219882,566,219,527,277 F,0,219282,219882,1,0 S,0,219282,219882,0.7,0.28 P,0,219282,219882,A
Sprite,Foreground,Centre,"sb/d.png",0,0 M,4,219282,219882,566,219,519,120 F,0,219282,219882,1,0 S,0,219282,219882,0.7,0.28 P,0,219282,219882,A
Sprite,Foreground,Centre,"sb/d.png",0,0 M,4,219282,219882,566,219,433,190 F,0,219282,219882,1,0 S,0,219282,219882,0.7,0.28 P,0,219282,219882,A
Sprite,Foreground,Centre,"sb/d.png",0,0 M,4,219282,219882,566,219,569,363 F,0,219282,219882,1,0 S,0,219282,219882,0.7,0.28 P,0,219282,219882,A
Sprite,Foreground,Centre,"sb/d.png",0,0 M,4,219282,219882,566,219,667,243 F,0,219282,219882,1,0 S,0,219282,219882,0.7,0.28 P,0,219282,219882,A
Sprite,Foreground,Centre,"sb/d.png",0,0 M,4,219732,220332,459,61,320,-16 F,0,219732,220332,1,0 S,0,219732,220332,0.7,0.28 P,0,219732,220332,A
Sprite,Foreground,Centre,"sb/d.png",0,0 M,4,219732,220332,459,61,447,68 F,0,219732,220332,1,0 S,0,219732,220332,0.7,0.28 P,0,219732,220332,A
Sprite,Foreground,Centre,"sb/d.png",0,0 M,4,219732,220332,459,61,311,111 F,0,219732,220332,1,0 S,0,219732,220332,0.7,0.28 P,0,219732,220332,A
Sprite,Foreground,Centre,"sb/d.png",0,0 M,4,219732,220332,459,61,355,-14 F,0,219732,220332,1,0 S,0,219732,220332,0.7,0.28 P,0,219732,220332,A
Sprite,Foreground,Centre,"sb/d.png",0,0 M,4,219732,220332,459,61,363,67 F,0,219732,220332,1,0 S,0,219732,220332,0.7,0.28 P,0,219732,220332,A
Sprite,Foreground,Centre,"sb/d.png",0,0 M,4,219732,220332,459,61,410,98 F,0,219732,220332,1,0 S,0,219732,220332,0.7,0.28 P,0,219732,220332,A
Sprite,Foreground,Centre,"sb/d.png",0,0 M,4,219732,220332,459,61,470,-87 F,0,219732,220332,1,0 S,0,219732,220332,0.7,0.28 P,0,219732,220332,A
Sprite,Foreground,Centre,"sb/d.png",0,0 M,4,220032,220632,390,202,374,283 F,0,220032,220632,1,0 S,0,220032,220632,0.7,0.28 P,0,220032,220632,A
Sprite,Foreground,Centre,"sb/d.png",0,0 M,4,220032,220632,390,202,524,81 F,0,220032,220632,1,0 S,0,220032,220632,0.7,0.28 P,0,220032,220632,A
Sprite,Foreground,Centre,"sb/d.png",0,0 M,4,220032,220632,390,202,253,177 F,0,220032,220632,1,0 S,0,220032,220632,0.7,0.28 P,0,220032,220632,A
Sprite,Foreground,Centre,"sb/d.png",0,0 M,4,220032,220632,390,202,430,347 F,0,220032,220632,1,0 S,0,220032,220632,0.7,0.28 P,0,220032,220632,A
Sprite,Foreground,Centre,"sb/d.png",0,0 M,4,220032,220632,390,202,323,62 F,0,220032,220632,1,0 S,0,220032,220632,0.7,0.28 P,0,220032,220632,A
Sprite,Foreground,Centre,"sb/d.png",0,0 M,4,220032,220632,390,202,273,277 F,0,220032,220632,1,0 S,0,220032,220632,0.7,0.28 P,0,220032,220632,A
Sprite,Foreground,Centre,"sb/d.png",0,0 M,4,220032,220632,390,202,287,106 F,0,220032,220632,1,0 S,0,220032,220632,0.7,0.28 P,0,220032,220632,A
Sprite,Foreground,Centre,"sb/d.png",0,0 M,4,220182,220782,390,202,393,199 F,0,220182,220782,1,0 S,0,220182,220782,0.7,0.28 P,0,220182,220782,A
Sprite,Foreground,Centre,"sb/d.png",0,0 M,4,220182,220782,390,202,376,134 F,0,220182,220782,1,0 S,0,220182,220782,0.7,0.28 P,0,220182,220782,A
Sprite,Foreground,Centre,"sb/d.png",0,0 M,4,220182,220782,390,202,331,116 F,0,220182,220782,1,0 S,0,220182,220782,0.7,0.28 P,0,220182,220782,A
Sprite,Foreground,Centre,"sb/d.png",0,0 M,4,220182,220782,390,202,243,102 F,0,220182,220782,1,0 S,0,220182,220782,0.7,0.28 P,0,220182,220782,A
Sprite,Foreground,Centre,"sb/d.png",0,0 M,4,220182,220782,390,202,261,231 F,0,220182,220782,1,0 S,0,220182,220782,0.7,0.28 P,0,220182,220782,A
Sprite,Foreground,Centre,"sb/d.png",0,0 M,4,220182,220782,390,202,270,237 F,0,220182,220782,1,0 S,0,220182,220782,0.7,0.28 P,0,220182,220782,A
Sprite,Foreground,Centre,"sb/d.png",0,0 M,4,220182,220782,390,202,449,127 F,0,220182,220782,1,0 S,0,220182,220782,0.7,0.28 P,0,220182,220782,A
Sprite,Foreground,Centre,"sb/d.png",0,0 M,4,220482,221082,238,143,143,0 F,0,220482,221082,1,0 S,0,220482,221082,0.7,0.28 P,0,220482,221082,A
Sprite,Foreground,Centre,"sb/d.png",0,0 M,4,220482,221082,238,143,244,217 F,0,220482,221082,1,0 S,0,220482,221082,0.7,0.28 P,0,220482,221082,A
Sprite,Foreground,Centre,"sb/d.png",0,0 M,4,220482,221082,238,143,135,94 F,0,220482,221082,1,0 S,0,220482,221082,0.7,0.28 P,0,220482,221082,A
Sprite,Foreground,Centre,"sb/d.png",0,0 M,4,220482,221082,238,143,304,78 F,0,220482,221082,1,0 S,0,220482,221082,0.7,0.28 P,0,220482,221082,A
Sprite,Foreground,Centre,"sb/d.png",0,0 M,4,220482,221082,238,143,224,117 F,0,220482,221082,1,0 S,0,220482,221082,0.7,0.28 P,0,220482,221082,A
Sprite,Foreground,Centre,"sb/d.png",0,0 M,4,220482,221082,238,143,368,118 F,0,220482,221082,1,0 S,0,220482,221082,0.7,0.28 P,0,220482,221082,A
Sprite,Foreground,Centre,"sb/d.png",0,0 M,4,220482,221082,238,143,372,8 F,0,220482,221082,1,0 S,0,220482,221082,0.7,0.28 P,0,220482,221082,A
Sprite,Foreground,Centre,"sb/d.png",0,0 M,4,220782,221382,79,148,218,125 F,0,220782,221382,1,0 S,0,220782,221382,0.7,0.28 P,0,220782,221382,A
Sprite,Foreground,Centre,"sb/d.png",0,0 M,4,220782,221382,79,148,53,74 F,0,220782,221382,1,0 S,0,220782,221382,0.7,0.28 P,0,220782,221382,A
Sprite,Foreground,Centre,"sb/d.png",0,0 M,4,220782,221382,79,148,81,290 F,0,220782,221382,1,0 S,0,220782,221382,0.7,0.28 P,0,220782,221382,A
Sprite,Foreground,Centre,"sb/d.png",0,0 M,4,220782,221382,79,148,150,205 F,0,220782,221382,1,0 S,0,220782,221382,0.7,0.28 P,0,220782,221382,A
Sprite,Foreground,Centre,"sb/d.png",0,0 M,4,220782,221382,79,148,-52,16 F,0,220782,221382,1,0 S,0,220782,221382,0.7,0.28 P,0,220782,221382,A
Sprite,Foreground,Centre,"sb/d.png",0,0 M,4,220782,221382,79,148,24,94 F,0,220782,221382,1,0 S,0,220782,221382,0.7,0.28 P,0,220782,221382,A
Sprite,Foreground,Centre,"sb/d.png",0,0 M,4,220782,221382,79,148,228,81 F,0,220782,221382,1,0 S,0,220782,221382,0.7,0.28 P,0,220782,221382,A
Sprite,Foreground,Centre,"sb/d.png",0,0 M,4,221232,221832,141,359,201,314 F,0,221232,221832,1,0 S,0,221232,221832,0.7,0.28 P,0,221232,221832,A
Sprite,Foreground,Centre,"sb/d.png",0,0 M,4,221232,221832,141,359,290,336 F,0,221232,221832,1,0 S,0,221232,221832,0.7,0.28 P,0,221232,221832,A
Sprite,Foreground,Centre,"sb/d.png",0,0 M,4,221232,221832,141,359,206,324 F,0,221232,221832,1,0 S,0,221232,221832,0.7,0.28 P,0,221232,221832,A
Sprite,Foreground,Centre,"sb/d.png",0,0 M,4,221232,221832,141,359,230,285 F,0,221232,221832,1,0 S,0,221232,221832,0.7,0.28 P,0,221232,221832,A
Sprite,Foreground,Centre,"sb/d.png",0,0 M,4,221232,221832,141,359,145,318 F,0,221232,221832,1,0 S,0,221232,221832,0.7,0.28 P,0,221232,221832,A
Sprite,Foreground,Centre,"sb/d.png",0,0 M,4,221232,221832,141,359,169,455 F,0,221232,221832,1,0 S,0,221232,221832,0.7,0.28 P,0,221232,221832,A
Sprite,Foreground,Centre,"sb/d.png",0,0 M,4,221232,221832,141,359,128,277 F,0,221232,221832,1,0 S,0,221232,221832,0.7,0.28 P,0,221232,221832,A
Sprite,Foreground,Centre,"sb/d.png",0,0 M,4,221682,222282,343,306,203,168 F,0,221682,222282,1,0 S,0,221682,222282,0.7,0.28 P,0,221682,222282,A
Sprite,Foreground,Centre,"sb/d.png",0,0 M,4,221682,222282,343,306,294,422 F,0,221682,222282,1,0 S,0,221682,222282,0.7,0.28 P,0,221682,222282,A
Sprite,Foreground,Centre,"sb/d.png",0,0 M,4,221682,222282,343,306,273,443 F,0,221682,222282,1,0 S,0,221682,222282,0.7,0.28 P,0,221682,222282,A
Sprite,Foreground,Centre,"sb/d.png",0,0 M,4,221682,222282,343,306,254,349 F,0,221682,222282,1,0 S,0,221682,222282,0.7,0.28 P,0,221682,222282,A
Sprite,Foreground,Centre,"sb/d.png",0,0 M,4,221682,222282,343,306,248,409 F,0,221682,222282,1,0 S,0,221682,222282,0.7,0.28 P,0,221682,222282,A
Sprite,Foreground,Centre,"sb/d.png",0,0 M,4,221682,222282,343,306,226,373 F,0,221682,222282,1,0 S,0,221682,222282,0.7,0.28 P,0,221682,222282,A
Sprite,Foreground,Centre,"sb/d.png",0,0 M,4,221682,222282,343,306,346,304 F,0,221682,222282,1,0 S,0,221682,222282,0.7,0.28 P,0,221682,222282,A
Sprite,Foreground,Centre,"sb/d.png",0,0 M,4,221982,222582,516,405,653,392 F,0,221982,222582,1,0 S,0,221982,222582,0.7,0.28 P,0,221982,222582,A
Sprite,Foreground,Centre,"sb/d.png",0,0 M,4,221982,222582,516,405,494,505 F,0,221982,222582,1,0 S,0,221982,222582,0.7,0.28 P,0,221982,222582,A
Sprite,Foreground,Centre,"sb/d.png",0,0 M,4,221982,222582,516,405,467,387 F,0,221982,222582,1,0 S,0,221982,222582,0.7,0.28 P,0,221982,222582,A
Sprite,Foreground,Centre,"sb/d.png",0,0 M,4,221982,222582,516,405,540,286 F,0,221982,222582,1,0 S,0,221982,222582,0.7,0.28 P,0,221982,222582,A
Sprite,Foreground,Centre,"sb/d.png",0,0 M,4,221982,222582,516,405,491,407 F,0,221982,222582,1,0 S,0,221982,222582,0.7,0.28 P,0,221982,222582,A
Sprite,Foreground,Centre,"sb/d.png",0,0 M,4,221982,222582,516,405,575,423 F,0,221982,222582,1,0 S,0,221982,222582,0.7,0.28 P,0,221982,222582,A
Sprite,Foreground,Centre,"sb/d.png",0,0 M,4,221982,222582,516,405,441,468 F,0,221982,222582,1,0 S,0,221982,222582,0.7,0.28 P,0,221982,222582,A
Sprite,Foreground,Centre,"sb/d.png",0,0 M,4,222582,223182,398,110,521,-26 F,0,222582,223182,1,0 S,0,222582,223182,0.7,0.28 P,0,222582,223182,A
Sprite,Foreground,Centre,"sb/d.png",0,0 M,4,222582,223182,398,110,446,165 F,0,222582,223182,1,0 S,0,222582,223182,0.7,0.28 P,0,222582,223182,A
Sprite,Foreground,Centre,"sb/d.png",0,0 M,4,222582,223182,398,110,402,113 F,0,222582,223182,1,0 S,0,222582,223182,0.7,0.28 P,0,222582,223182,A
Sprite,Foreground,Centre,"sb/d.png",0,0 M,4,222582,223182,398,110,444,-34 F,0,222582,223182,1,0 S,0,222582,223182,0.7,0.28 P,0,222582,223182,A
Sprite,Foreground,Centre,"sb/d.png",0,0 M,4,222582,223182,398,110,465,89 F,0,222582,223182,1,0 S,0,222582,223182,0.7,0.28 P,0,222582,223182,A
Sprite,Foreground,Centre,"sb/d.png",0,0 M,4,222582,223182,398,110,264,-29 F,0,222582,223182,1,0 S,0,222582,223182,0.7,0.28 P,0,222582,223182,A
Sprite,Foreground,Centre,"sb/d.png",0,0 M,4,222582,223182,398,110,270,-24 F,0,222582,223182,1,0 S,0,222582,223182,0.7,0.28 P,0,222582,223182,A
Sprite,Foreground,Centre,"sb/d.png",0,0 M,4,223182,223782,254,384,153,279 F,0,223182,223782,1,0 S,0,223182,223782,0.7,0.28 P,0,223182,223782,A
Sprite,Foreground,Centre,"sb/d.png",0,0 M,4,223182,223782,254,384,198,532 F,0,223182,223782,1,0 S,0,223182,223782,0.7,0.28 P,0,223182,223782,A
Sprite,Foreground,Centre,"sb/d.png",0,0 M,4,223182,223782,254,384,366,325 F,0,223182,223782,1,0 S,0,223182,223782,0.7,0.28 P,0,223182,223782,A
Sprite,Foreground,Centre,"sb/d.png",0,0 M,4,223182,223782,254,384,192,250 F,0,223182,223782,1,0 S,0,223182,223782,0.7,0.28 P,0,223182,223782,A
Sprite,Foreground,Centre,"sb/d.png",0,0 M,4,223182,223782,254,384,385,461 F,0,223182,223782,1,0 S,0,223182,223782,0.7,0.28 P,0,223182,223782,A
Sprite,Foreground,Centre,"sb/d.png",0,0 M,4,223182,223782,254,384,249,239 F,0,223182,223782,1,0 S,0,223182,223782,0.7,0.28 P,0,223182,223782,A
Sprite,Foreground,Centre,"sb/d.png",0,0 M,4,223182,223782,254,384,297,513 F,0,223182,223782,1,0 S,0,223182,223782,0.7,0.28 P,0,223182,223782,A
Sprite,Foreground,Centre,"sb/d.png",0,0 M,4,223332,223932,254,384,291,483 F,0,223332,223932,1,0 S,0,223332,223932,0.7,0.28 P,0,223332,223932,A
Sprite,Foreground,Centre,"sb/d.png",0,0 M,4,223332,223932,254,384,160,446 F,0,223332,223932,1,0 S,0,223332,223932,0.7,0.28 P,0,223332,223932,A
Sprite,Foreground,Centre,"sb/d.png",0,0 M,4,223332,223932,254,384,315,381 F,0,223332,223932,1,0 S,0,223332,223932,0.7,0.28 P,0,223332,223932,A
Sprite,Foreground,Centre,"sb/d.png",0,0 M,4,223332,223932,254,384,324,274 F,0,223332,223932,1,0 S,0,223332,223932,0.7,0.28 P,0,223332,223932,A
Sprite,Foreground,Centre,"sb/d.png",0,0 M,4,223332,223932,254,384,158,362 F,0,223332,223932,1,0 S,0,223332,223932,0.7,0.28 P,0,223332,223932,A
Sprite,Foreground,Centre,"sb/d.png",0,0 M,4,223332,223932,254,384,166,234 F,0,223332,223932,1,0 S,0,223332,223932,0.7,0.28 P,0,223332,223932,A
Sprite,Foreground,Centre,"sb/d.png",0,0 M,4,223332,223932,254,384,355,515 F,0,223332,223932,1,0 S,0,223332,223932,0.7,0.28 P,0,223332,223932,A
Sprite,Foreground,Centre,"sb/d.png",0,0 M,4,223632,224232,112,182,182,331 F,0,223632,224232,1,0 S,0,223632,224232,0.7,0.28 P,0,223632,224232,A
Sprite,Foreground,Centre,"sb/d.png",0,0 M,4,223632,224232,112,182,196,121 F,0,223632,224232,1,0 S,0,223632,224232,0.7,0.28 P,0,223632,224232,A
Sprite,Foreground,Centre,"sb/d.png",0,0 M,4,223632,224232,112,182,71,189 F,0,223632,224232,1,0 S,0,223632,224232,0.7,0.28 P,0,223632,224232,A
Sprite,Foreground,Centre,"sb/d.png",0,0 M,4,223632,224232,112,182,243,111 F,0,223632,224232,1,0 S,0,223632,224232,0.7,0.28 P,0,223632,224232,A
Sprite,Foreground,Centre,"sb/d.png",0,0 M,4,223632,224232,112,182,20,242 F,0,223632,224232,1,0 S,0,223632,224232,0.7,0.28 P,0,223632,224232,A
Sprite,Foreground,Centre,"sb/d.png",0,0 M,4,223632,224232,112,182,167,316 F,0,223632,224232,1,0 S,0,223632,224232,0.7,0.28 P,0,223632,224232,A
Sprite,Foreground,Centre,"sb/d.png",0,0 M,4,223632,224232,112,182,86,288 F,0,223632,224232,1,0 S,0,223632,224232,0.7,0.28 P,0,223632,224232,A
Sprite,Foreground,Centre,"sb/d.png",0,0 M,4,223782,224382,112,182,-5,302 F,0,223782,224382,1,0 S,0,223782,224382,0.7,0.28 P,0,223782,224382,A
Sprite,Foreground,Centre,"sb/d.png",0,0 M,4,223782,224382,112,182,22,180 F,0,223782,224382,1,0 S,0,223782,224382,0.7,0.28 P,0,223782,224382,A
Sprite,Foreground,Centre,"sb/d.png",0,0 M,4,223782,224382,112,182,221,249 F,0,223782,224382,1,0 S,0,223782,224382,0.7,0.28 P,0,223782,224382,A
Sprite,Foreground,Centre,"sb/d.png",0,0 M,4,223782,224382,112,182,80,300 F,0,223782,224382,1,0 S,0,223782,224382,0.7,0.28 P,0,223782,224382,A
Sprite,Foreground,Centre,"sb/d.png",0,0 M,4,223782,224382,112,182,34,136 F,0,223782,224382,1,0 S,0,223782,224382,0.7,0.28 P,0,223782,224382,A
Sprite,Foreground,Centre,"sb/d.png",0,0 M,4,223782,224382,112,182,62,206 F,0,223782,224382,1,0 S,0,223782,224382,0.7,0.28 P,0,223782,224382,A
Sprite,Foreground,Centre,"sb/d.png",0,0 M,4,223782,224382,112,182,58,41 F,0,223782,224382,1,0 S,0,223782,224382,0.7,0.28 P,0,223782,224382,A
Sprite,Foreground,Centre,"sb/d.png",0,0 M,4,224082,224682,269,378,410,494 F,0,224082,224682,1,0 S,0,224082,224682,0.7,0.28 P,0,224082,224682,A
Sprite,Foreground,Centre,"sb/d.png",0,0 M,4,224082,224682,269,378,355,489 F,0,224082,224682,1,0 S,0,224082,224682,0.7,0.28 P,0,224082,224682,A
Sprite,Foreground,Centre,"sb/d.png",0,0 M,4,224082,224682,269,378,258,335 F,0,224082,224682,1,0 S,0,224082,224682,0.7,0.28 P,0,224082,224682,A
Sprite,Foreground,Centre,"sb/d.png",0,0 M,4,224082,224682,269,378,215,509 F,0,224082,224682,1,0 S,0,224082,224682,0.7,0.28 P,0,224082,224682,A
Sprite,Foreground,Centre,"sb/d.png",0,0 M,4,224082,224682,269,378,412,283 F,0,224082,224682,1,0 S,0,224082,224682,0.7,0.28 P,0,224082,224682,A
Sprite,Foreground,Centre,"sb/d.png",0,0 M,4,224082,224682,269,378,315,263 F,0,224082,224682,1,0 S,0,224082,224682,0.7,0.28 P,0,224082,224682,A
Sprite,Foreground,Centre,"sb/d.png",0,0 M,4,224082,224682,269,378,416,336 F,0,224082,224682,1,0 S,0,224082,224682,0.7,0.28 P,0,224082,224682,A
Sprite,Foreground,Centre,"sb/d.png",0,0 M,4,224232,224832,269,378,309,373 F,0,224232,224832,1,0 S,0,224232,224832,0.7,0.28 P,0,224232,224832,A
Sprite,Foreground,Centre,"sb/d.png",0,0 M,4,224232,224832,269,378,125,455 F,0,224232,224832,1,0 S,0,224232,224832,0.7,0.28 P,0,224232,224832,A
Sprite,Foreground,Centre,"sb/d.png",0,0 M,4,224232,224832,269,378,142,491 F,0,224232,224832,1,0 S,0,224232,224832,0.7,0.28 P,0,224232,224832,A
Sprite,Foreground,Centre,"sb/d.png",0,0 M,4,224232,224832,269,378,126,312 F,0,224232,224832,1,0 S,0,224232,224832,0.7,0.28 P,0,224232,224832,A
Sprite,Foreground,Centre,"sb/d.png",0,0 M,4,224232,224832,269,378,186,441 F,0,224232,224832,1,0 S,0,224232,224832,0.7,0.28 P,0,224232,224832,A
Sprite,Foreground,Centre,"sb/d.png",0,0 M,4,224232,224832,269,378,160,262 F,0,224232,224832,1,0 S,0,224232,224832,0.7,0.28 P,0,224232,224832,A
Sprite,Foreground,Centre,"sb/d.png",0,0 M,4,224232,224832,269,378,281,480 F,0,224232,224832,1,0 S,0,224232,224832,0.7,0.28 P,0,224232,224832,A
Sprite,Foreground,Centre,"sb/d.png",0,0 M,4,224532,225132,96,200,172,179 F,0,224532,225132,1,0 S,0,224532,225132,0.7,0.28 P,0,224532,225132,A
Sprite,Foreground,Centre,"sb/d.png",0,0 M,4,224532,225132,96,200,235,284 F,0,224532,225132,1,0 S,0,224532,225132,0.7,0.28 P,0,224532,225132,A
Sprite,Foreground,Centre,"sb/d.png",0,0 M,4,224532,225132,96,200,7,322 F,0,224532,225132,1,0 S,0,224532,225132,0.7,0.28 P,0,224532,225132,A
Sprite,Foreground,Centre,"sb/d.png",0,0 M,4,224532,225132,96,200,33,142 F,0,224532,225132,1,0 S,0,224532,225132,0.7,0.28 P,0,224532,225132,A
Sprite,Foreground,Centre,"sb/d.png",0,0 M,4,224532,225132,96,200,220,294 F,0,224532,225132,1,0 S,0,224532,225132,0.7,0.28 P,0,224532,225132,A
Sprite,Foreground,Centre,"sb/d.png",0,0 M,4,224532,225132,96,200,90,67 F,0,224532,225132,1,0 S,0,224532,225132,0.7,0.28 P,0,224532,225132,A
Sprite,Foreground,Centre,"sb/d.png",0,0 M,4,224532,225132,96,200,105,101 F,0,224532,225132,1,0 S,0,224532,225132,0.7,0.28 P,0,224532,225132,A
Sprite,Foreground,Centre,"sb/d.png",0,0 M,4,224682,225282,96,200,222,54 F,0,224682,225282,1,0 S,0,224682,225282,0.7,0.28 P,0,224682,225282,A
Sprite,Foreground,Centre,"sb/d.png",0,0 M,4,224682,225282,96,200,198,273 F,0,224682,225282,1,0 S,0,224682,225282,0.7,0.28 P,0,224682,225282,A
Sprite,Foreground,Centre,"sb/d.png",0,0 M,4,224682,225282,96,200,165,60 F,0,224682,225282,1,0 S,0,224682,225282,0.7,0.28 P,0,224682,225282,A
Sprite,Foreground,Centre,"sb/d.png",0,0 M,4,224682,225282,96,200,23,276 F,0,224682,225282,1,0 S,0,224682,225282,0.7,0.28 P,0,224682,225282,A
Sprite,Foreground,Centre,"sb/d.png",0,0 M,4,224682,225282,96,200,44,222 F,0,224682,225282,1,0 S,0,224682,225282,0.7,0.28 P,0,224682,225282,A
Sprite,Foreground,Centre,"sb/d.png",0,0 M,4,224682,225282,96,200,97,182 F,0,224682,225282,1,0 S,0,224682,225282,0.7,0.28 P,0,224682,225282,A
Sprite,Foreground,Centre,"sb/d.png",0,0 M,4,224682,225282,96,200,-53,256 F,0,224682,225282,1,0 S,0,224682,225282,0.7,0.28 P,0,224682,225282,A
Sprite,Foreground,Centre,"sb/d.png",0,0 M,4,224982,225582,290,367,338,239 F,0,224982,225582,1,0 S,0,224982,225582,0.7,0.28 P,0,224982,225582,A
Sprite,Foreground,Centre,"sb/d.png",0,0 M,4,224982,225582,290,367,360,322 F,0,224982,225582,1,0 S,0,224982,225582,0.7,0.28 P,0,224982,225582,A
Sprite,Foreground,Centre,"sb/d.png",0,0 M,4,224982,225582,290,367,384,361 F,0,224982,225582,1,0 S,0,224982,225582,0.7,0.28 P,0,224982,225582,A
Sprite,Foreground,Centre,"sb/d.png",0,0 M,4,224982,225582,290,367,195,380 F,0,224982,225582,1,0 S,0,224982,225582,0.7,0.28 P,0,224982,225582,A
Sprite,Foreground,Centre,"sb/d.png",0,0 M,4,224982,225582,290,367,205,478 F,0,224982,225582,1,0 S,0,224982,225582,0.7,0.28 P,0,224982,225582,A
Sprite,Foreground,Centre,"sb/d.png",0,0 M,4,224982,225582,290,367,414,242 F,0,224982,225582,1,0 S,0,224982,225582,0.7,0.28 P,0,224982,225582,A
Sprite,Foreground,Centre,"sb/d.png",0,0 M,4,224982,225582,290,367,160,315 F,0,224982,225582,1,0 S,0,224982,225582,0.7,0.28 P,0,224982,225582,A
//Storyboard Sound Samples

[TimingPoints]
9582,300,4,2,2,60,1,0
9582,-166.666666666667,4,2,2,60,0,0
20637,319.148936170213,4,2,2,60,1,0
20637,-166.666666666667,4,2,2,60,0,0
20956,315.789473684211,4,2,2,60,1,0
21271,310.077519379845,4,2,2,60,1,0
21271,-166.666666666667,4,2,2,60,0,0
21582,300,4,2,2,65,1,0
21582,-133.333333333333,4,2,2,65,0,0
40782,-133.333333333333,4,2,2,55,0,0
44382,-133.333333333333,4,2,2,45,0,0
44982,-133.333333333333,4,2,2,55,0,0
49182,-133.333333333333,4,2,2,45,0,0
49782,-133.333333333333,4,2,2,55,0,0
50382,-133.333333333333,4,2,2,60,0,0
59982,-105.263157894737,4,2,1,85,0,0
76782,-133.333333333333,4,2,1,75,0,0
78582,-133.333333333333,4,2,1,70,0,0
79182,-125,4,2,1,60,0,0
86982,-133.333333333333,4,2,1,70,0,0
87132,-133.333333333333,4,2,1,60,0,0
88782,-125,4,2,1,60,0,0
97182,-125,4,2,1,60,0,0
98382,-105.263157894737,4,2,1,75,0,0
112782,-105.263157894737,4,2,1,65,0,0
112857,-105.263157894737,4,2,2,65,0,0
114882,-133.333333333333,4,2,2,65,0,0
117582,-100,4,2,1,75,0,0
124782,-100,4,2,2,65,0,0
127182,-100,4,2,1,75,0,0
131982,-133.333333333333,4,2,1,65,0,0
139182,-153.846153846153,4,2,2,45,0,0
143982,-117.647058823529,4,2,2,45,0,0
148782,-153.846153846153,4,2,2,45,0,0
153582,-117.647058823529,4,2,2,45,0,0
158382,-142.857142857143,4,2,2,45,0,0
167982,-117.647058823529,4,2,2,55,0,0
184782,318.302387267904,4,2,2,35,1,0
184782,-166.666666666667,4,2,2,35,0,0
184942,300,4,2,2,35,1,0
184942,-166.666666666667,4,2,2,35,0,0
187182,300,4,2,1,80,1,1
187182,-100,4,2,1,80,0,1
203982,-100,4,2,1,80,0,0
205782,-117.647058823529,4,2,1,80,0,0
206382,-100,4,2,1,80,0,1
223182,-100,4,2,1,75,0,0
225582,-125,4,2,1,75,0,0
244332,-125,4,2,1,65,0,0
244782,-100,4,2,1,65,0,0
245007,-100,4,2,1,5,0,0
245082,-100,4,2,1,35,0,0
249582,-100,4,2,1,5,0,0

[Colours]
Combo1 : 223,223,223
Combo2 : 149,255,218
Combo3 : 36,74,255

[HitObjects]
256,192,5982,12,0,9282,0:0:0:0:
105,249,9582,6,0,L|117:169,1,74.9999977111817,6|2,0:2|0:0,0:0:0:0:
245,203,10182,1,2,0:0:0:0:
245,203,10332,2,0,L|229:290,1,74.9999977111817,2|0,0:0|0:0,0:0:0:0:
217,353,10782,1,2,0:0:0:0:
369,237,11232,2,0,L|449:224,1,74.9999977111817,2|0,0:0|0:0,0:0:0:0:
506,273,11682,2,0,L|495:318,1,37.4999988555909,2|2,0:0|0:0,0:0:0:0:
373,384,12132,6,0,L|351:294,1,74.9999977111817,2|0,0:0|0:0,0:0:0:0:
268,217,12732,2,0,L|250:289,1,74.9999977111817,2|2,0:0|0:0,0:0:0:0:
181,339,13182,2,0,P|126:351|70:321,2,112.499996566773,2|2|2,0:2|0:2|0:0,0:0:0:0:
249,289,14232,5,2,0:0:0:0:
181,110,14682,1,2,0:0:0:0:
352,195,15132,2,0,P|396:198|437:182,1,74.9999977111817,2|2,0:0|0:0,0:0:0:0:
470,125,15582,1,2,0:0:0:0:
284,62,16032,2,0,P|281:106|297:147,1,74.9999977111817,2|0,0:0|0:0,0:0:0:0:
352,195,16482,2,0,P|352:220|346:239,1,37.4999988555909,2|2,0:0|0:0,0:0:0:0:
265,329,16932,5,2,0:0:0:0:
265,329,17082,2,0,P|260:310|259:292,1,37.4999988555909,0|0,0:0|0:2,0:0:0:0:
180,192,17532,2,0,P|138:197|98:226,1,74.9999977111817,2|2,0:2|0:0,0:0:0:0:
54,267,17982,2,0,L|75:388,2,112.499996566773,2|2|2,0:2|0:2|0:0,0:0:0:0:
31,170,19032,1,10,0:0:0:0:
441,111,20637,5,2,0:0:0:0:
406,218,20956,1,2,0:0:0:0:
289,262,21271,2,0,P|267:263|245:258,1,37.4999988555909,2|0,0:0|0:0,0:0:0:0:
175,236,21582,6,0,L|166:285,1,46.8750017881394,6|0,1:2|1:2,0:0:0:0:
91,326,21882,1,0,0:0:0:0:
91,326,22032,2,0,L|82:277,1,46.8750017881394,2|0,0:2|1:2,0:0:0:0:
53,114,22482,1,2,0:2:0:0:
207,152,22782,2,0,P|256:152|316:133,1,93.7500035762788,2|2,0:2|0:2,0:0:0:0:
440,67,23382,2,0,P|390:66|330:85,1,93.7500035762788,2|2,0:2|0:2,0:0:0:0:
299,141,23832,1,0,1:2:0:0:
299,141,23907,1,0,1:2:0:0:
299,141,23982,6,0,L|283:297,1,140.625005364418,2|0,1:2|0:0,0:0:0:0:
247,352,24582,1,0,1:0:0:0:
164,215,24882,1,2,0:2:0:0:
30,301,25182,2,0,P|13:254|11:201,1,93.7500035762788,2|2,0:2|0:2,0:0:0:0:
144,124,25782,2,0,P|161:171|163:224,1,93.7500035762788,2|2,0:2|0:2,0:0:0:0:
238,319,26382,5,0,1:2:0:0:
238,319,26532,2,0,P|241:272|257:228,1,93.7500035762788,0|0,1:2|0:0,0:0:0:0:
299,159,26982,1,0,1:2:0:0:
163,214,27282,1,0,0:0:0:0:
320,284,27582,2,0,P|371:288|416:276,1,93.7500035762788,2|2,0:2|0:2,0:0:0:0:
501,146,28182,2,0,P|499:94|483:50,1,93.7500035762788,2|2,0:2|0:2,0:0:0:0:
411,26,28632,1,0,1:2:0:0:
411,26,28707,1,0,1:2:0:0:
411,26,28782,6,0,L|253:36,1,140.625005364418,2|2,1:2|0:2,0:0:0:0:
190,41,29382,1,8,1:2:0:0:
57,129,29682,2,0,L|215:139,1,140.625005364418,2|0,0:2|0:0,0:0:0:0:
260,186,30282,2,0,P|231:227|217:275,2,93.7500035762788,2|2|2,0:2|0:2|0:2,0:0:0:0:
391,94,31182,5,2,1:2:0:0:
391,94,31332,2,0,P|419:135|433:183,1,93.7500035762788,0|0,1:2|0:0,0:0:0:0:
438,256,31782,1,2,1:2:0:0:
305,345,32082,6,0,L|205:336,1,93.7500035762788,2|2,0:2|0:2,0:0:0:0:
59,288,32682,2,0,L|152:279,1,93.7500035762788,2|2,0:2|0:2,0:0:0:0:
307,239,33282,1,2,0:2:0:0:
235,204,33432,1,0,1:2:0:0:
235,204,33507,1,0,1:2:0:0:
235,204,33582,6,0,P|200:158|195:73,1,140.625005364418,2|2,1:2|0:2,0:0:0:0:
244,15,34182,1,0,1:2:0:0:
402,38,34482,2,0,P|412:76|404:130,1,93.7500035762788,2|2,0:2|0:2,0:0:0:0:
322,266,35082,2,0,P|314:311|325:357,2,93.7500035762788,2|2|2,0:2|0:2|0:2,0:0:0:0:
223,140,35982,5,0,1:2:0:0:
223,140,36132,2,0,P|177:147|131:136,1,93.7500035762788,0|0,1:2|1:0,0:0:0:0:
79,76,36582,1,0,1:2:0:0:
69,235,36882,2,0,L|64:337,1,93.7500035762788,2|0,0:2|0:0,0:0:0:0:
216,281,37482,2,0,L|220:374,2,93.7500035762788,2|2|2,0:2|0:2|0:2,0:0:0:0:
261,215,38232,1,0,1:2:0:0:
261,215,38307,1,0,1:2:0:0:
261,215,38382,6,0,P|323:195|395:228,1,140.625005364418,2|2,1:2|0:2,0:0:0:0:
438,286,38982,1,0,1:2:0:0:
460,128,39282,2,0,L|471:34,1,93.7500035762788,2|0,0:2|0:0,0:0:0:0:
326,102,39882,2,0,L|337:195,2,93.7500035762788,2|2|2,0:2|0:2|0:2,0:0:0:0:
192,13,40782,6,0,P|145:11|99:21,1,93.7500035762788,14|0,0:2|0:0,0:0:0:0:
6,150,41382,2,0,L|0:114,2,23.4375008940697,2|0|0,1:2|1:0|1:0,0:0:0:0:
58,210,41682,2,0,L|51:268,1,46.8750017881394
102,319,41982,2,0,P|145:295|188:290,1,93.7500035762788,2|2,0:2|0:2,0:0:0:0:
339,342,42582,2,0,L|343:373,2,23.4375008940697,2|0|0,1:2|1:0|1:0,0:0:0:0:
377,271,42882,2,0,L|382:224,1,46.8750017881394,2|0,0:2|0:0,0:0:0:0:
335,160,43182,5,2,0:2:0:0:
295,5,43482,2,0,P|269:14|235:21,1,46.8750017881394,2|2,0:2|0:0,0:0:0:0:
172,37,43782,2,0,L|140:32,2,23.4375008940697,0|0|0,1:2|1:0|1:0,0:0:0:0:
227,95,44082,2,0,P|231:122|227:148,1,46.8750017881394,2|2,0:2|0:2,0:0:0:0:
173,198,44382,2,0,P|164:243|174:295,1,93.7500035762788,0|0,3:2|3:0,0:0:0:0:
236,347,44832,1,0,3:0:0:0:
236,347,44982,2,0,P|262:349|302:343,1,46.8750017881394,2|2,1:2|1:2,0:0:0:0:
350,305,45282,2,0,P|376:303|416:308,1,46.8750017881394,2|0,0:2|0:0,0:0:0:0:
468,338,45582,6,0,L|481:238,1,93.7500035762788,2|2,1:2|1:2,0:0:0:0:
425,104,46182,2,0,L|429:70,2,23.4375008940697,2|2|2,1:2|1:2|1:2,0:0:0:0:
381,165,46482,2,0,L|394:265,2,93.7500035762788,2|2|2,0:2|1:2|0:2,0:0:0:0:
299,38,47382,2,0,L|296:16,2,23.4375008940697,2|0|0,1:2|1:0|1:0,0:0:0:0:
289,112,47682,2,0,L|284:163,1,46.8750017881394,2|2,0:2|0:2,0:0:0:0:
229,210,47982,6,0,P|181:187|121:193,1,93.7500035762788,2|2,1:2|0:2,0:0:0:0:
29,240,48582,2,0,L|24:269,2,23.4375008940697,2|0|0,1:2|1:0|1:0,0:0:0:0:
16,162,48882,2,0,L|6:104,1,46.8750017881394,2|2,0:2|0:2,0:0:0:0:
40,40,49182,2,0,P|81:70|142:71,1,93.7500035762788,0|2,3:2|3:2,0:0:0:0:
252,101,49782,2,0,L|247:140,2,23.4375008940697,2|0|0,1:2|1:0|1:0,0:0:0:0:
311,46,50082,2,0,P|347:38|367:38,1,46.8750017881394,2|2,0:2|3:2,0:0:0:0:
434,58,50382,5,2,0:2:0:0:
477,170,50682,2,0,L|468:216,1,46.8750017881394,2|2,0:2|0:2,0:0:0:0:
414,269,50982,2,0,L|419:311,2,23.4375008940697,2|2|2,1:2|1:2|1:2,0:0:0:0:
353,217,51282,2,0,L|346:153,2,46.8750017881394,2|2|2,0:2|0:2|0:2,0:0:0:0:
210,289,51882,2,0,L|203:353,2,46.8750017881394,2|2|2,0:2|0:2|1:2,0:0:0:0:
90,182,52482,6,0,P|82:123|108:76,1,93.7500035762788,2|2,0:2|0:2,0:0:0:0:
227,4,53082,2,0,L|237:67,1,46.8750017881394,2|2,0:2|0:2,0:0:0:0:
304,88,53382,2,0,L|311:134,1,46.8750017881394,2|2,1:2|1:2,0:0:0:0:
381,173,53682,2,0,P|405:157|437:153,2,46.8750017881394,2|2|2,0:2|0:2|3:2,0:0:0:0:
280,297,54282,2,0,P|274:319|276:342,2,46.8750017881394,2|2|2,3:2|3:2|1:2,0:0:0:0:
218,149,54882,2,0,P|200:134|164:115,1,46.8750017881394,2|2,0:2|0:2,0:0:0:0:
101,109,55182,5,2,0:2:0:0:
44,258,55482,2,0,L|50:312,1,46.8750017881394,2|2,3:2|0:2,0:0:0:0:
120,341,55782,2,0,P|157:317|207:307,1,93.7500035762788,2|2,3:2|0:2,0:0:0:0:
365,315,56382,2,0,P|409:340|454:343,2,93.7500035762788,2|2|2,0:2|0:2|1:2,0:0:0:0:
272,185,57282,2,0,P|271:160|275:132,1,46.8750017881394,2|2,0:2|0:2,0:0:0:0:
344,101,57582,6,0,P|376:106|425:85,2,70.3125026822091,0|0|0,3:0|1:0|1:0,0:0:0:0:
276,58,58182,2,0,P|264:27|221:-4,2,70.3125026822091,0|0|0,3:0|1:0|1:0,0:0:0:0:
273,138,58782,2,0,P|252:163|246:216,2,70.3125026822091,0|0|0,3:0|1:0|1:0,0:0:0:0:
345,104,59382,1,2,3:2:0:0:
13,321,59982,6,0,L|85:324,1,59.3749984145165,4|0,3:1|0:0,0:0:0:0:
165,364,60282,2,0,P|199:312|263:304,1,118.749996829033,10|0,0:0|0:0,0:0:0:0:
341,349,60732,1,0,3:2:0:0:
425,294,60882,2,0,P|433:262|432:232,1,59.3749984145165,10|2,0:2|0:2,0:0:0:0:
405,137,61182,5,0,3:2:0:0:
222,223,61482,1,10,0:0:0:0:
222,223,61632,2,0,P|162:197|105:206,1,118.749996829033,2|0,0:0|3:2,0:0:0:0:
67,294,62082,1,10,0:0:0:0:
194,115,62382,6,0,P|198:81|195:48,1,59.3749984145165,0|0,3:2|0:0,0:0:0:0:
279,10,62682,2,0,P|326:47|387:64,1,118.749996829033,10|2,0:0|0:2,0:0:0:0:
481,41,63132,1,0,3:2:0:0:
440,133,63282,2,0,P|438:161|445:198,1,59.3749984145165,8|2,0:0|0:0,0:0:0:0:
477,288,63582,5,2,3:2:0:0:
285,350,63882,1,10,0:0:0:0:
285,350,64032,2,0,L|151:325,1,118.749996829033,0|0,3:2|3:2,0:0:0:0:
93,260,64482,2,0,L|166:246,1,59.3749984145165,10|0,0:0|3:2,0:0:0:0:
250,228,64782,5,2,3:2:0:0:
422,123,65082,2,0,P|366:122|295:75,1,118.749996829033,10|0,0:0|0:0,0:0:0:0:
252,11,65532,1,0,3:2:0:0:
199,97,65682,2,0,P|195:122|205:174,2,59.3749984145165,10|2|2,0:2|0:2|3:2,0:0:0:0:
10,24,66282,6,0,P|28:67|29:146,1,118.749996829033,10|0,0:0|0:0,0:0:0:0:
4,236,66732,1,0,3:2:0:0:
100,207,66882,2,0,P|134:210|175:226,1,59.3749984145165,10|0,0:0|0:0,0:0:0:0:
232,286,67182,6,0,P|290:294|353:280,1,118.749996829033,0|10,3:2|0:0,0:0:0:0:
287,200,67632,2,0,P|341:177|388:134,1,118.749996829033,2|0,0:2|0:2,0:0:0:0:
291,98,68082,1,10,0:0:0:0:
232,286,68382,6,0,P|174:294|111:280,1,118.749996829033,2|8,3:2|0:0,0:0:0:0:
177,200,68832,2,0,P|122:177|75:134,1,118.749996829033,2|0,3:2|0:0,0:0:0:0:
173,100,69282,1,8,0:0:0:0:
232,286,69582,6,0,P|239:317|243:346,1,59.3749984145165,0|0,3:2|0:0,0:0:0:0:
339,376,69882,2,0,P|347:317|360:259,1,118.749996829033,10|0,0:0|0:0,0:0:0:0:
429,184,70332,1,0,3:2:0:0:
429,184,70482,2,0,P|423:146|415:109,1,59.3749984145165,10|2,0:0|0:0,0:0:0:0:
364,40,70782,5,2,3:2:0:0:
220,181,71082,2,0,P|158:187|85:161,1,118.749996829033,10|2,0:0|0:0,0:0:0:0:
39,94,71532,1,0,3:2:0:0:
7,189,71682,1,8,0:0:0:0:
170,53,71982,6,0,L|236:45,1,59.3749984145165,0|0,3:2|0:0,0:0:0:0:
325,16,72282,2,0,P|362:60|427:75,1,118.749996829033,10|2,0:0|0:0,0:0:0:0:
511,33,72732,1,0,3:2:0:0:
502,134,72882,1,8,0:0:0:0:
484,336,73182,6,0,L|474:269,1,59.3749984145165,0|0,3:2|0:0,0:0:0:0:
390,222,73482,1,10,0:0:0:0:
390,222,73632,2,0,P|346:265|274:272,1,118.749996829033,2|0,3:2|3:2,0:0:0:0:
193,300,74082,2,0,P|156:284|130:258,1,59.3749984145165,10|2,0:0|0:0,0:0:0:0:
56,217,74382,5,2,3:2:0:0:
143,35,74682,2,0,P|154:91|156:166,1,118.749996829033,10|0,0:0|0:0,0:0:0:0:
239,211,75132,1,0,3:2:0:0:
239,211,75282,2,0,P|270:197|318:193,2,59.3749984145165,10|2|2,0:0|0:0|3:2,0:0:0:0:
124,377,75882,2,0,P|114:313|59:264,1,118.749996829033,10|0,0:0|0:0,0:0:0:0:
0,209,76332,2,0,P|35:205|76:177,1,59.3749984145165,0|10,3:2|0:0,0:0:0:0:
168,80,76782,6,0,L|149:-9,2,70.3125026822091,0|0|0,3:2|1:2|1:2,0:0:0:0:
234,124,77382,2,0,L|262:37,2,70.3125026822091,0|0|2,1:2|1:2|1:2,0:0:0:0:
269,195,77982,2,0,L|336:134,2,70.3125026822091,2|0|2,1:2|1:2|1:2,0:0:0:0:
282,274,78582,1,8,0:0:0:0:
138,344,78882,2,0,P|117:348|91:348,1,46.8750017881394,8|0,0:0|3:0,0:0:0:0:
24,294,79182,5,4,3:1:0:0:
102,142,79482,2,0,P|121:188|128:255,1,100,10|0,0:2|3:2,0:0:0:0:
150,321,79932,1,2,3:2:0:0:
223,278,80082,2,0,P|272:267|325:271,1,100,10|2,0:2|3:2,0:0:0:0:
475,320,80682,6,0,P|495:297|522:281,1,50,10|2,0:2|0:2,0:0:0:0:
508,200,80982,2,0,P|477:193|450:178,1,50,2|0,0:2|3:2,0:0:0:0:
388,231,81282,2,0,P|397:260|397:291,1,50,10|2,0:0|0:0,0:0:0:0:
361,351,81582,6,0,L|302:363,1,50,2|0,3:2|0:0,0:0:0:0:
233,379,81882,2,0,B|201:325|154:325|154:325|88:342,1,150,10|2,0:0|3:2,0:0:0:0:
56,274,82482,2,0,L|116:256,1,50,10|2,0:0|0:0,0:0:0:0:
152,196,82782,6,0,L|104:185,1,50,2|0,3:2|0:0,0:0:0:0:
35,142,83082,1,8,0:0:0:0:
35,142,83232,2,0,P|25:95|41:37,1,100,2|2,3:2|0:0,0:0:0:0:
116,42,83682,2,0,P|138:24|166:13,1,50,10|2,0:0|0:0,0:0:0:0:
236,32,83982,5,2,3:2:0:0:
375,110,84282,2,0,L|273:123,1,100,8|2,0:0|0:0,0:0:0:0:
205,162,84732,1,2,3:2:0:0:
205,162,84882,2,0,P|244:201|292:202,1,100,10|2,0:0|3:2,0:0:0:0:
444,230,85482,5,10,0:0:0:0:
444,230,85632,2,0,L|384:239,1,50,2|2,0:0|0:0,0:0:0:0:
339,295,85932,1,2,3:2:0:0:
339,295,86082,2,0,L|279:286,1,50,10|2,0:0|0:0,0:0:0:0:
209,257,86382,5,2,3:2:0:0:
90,370,86682,1,8,0:0:0:0:
90,370,86832,2,0,L|73:254,1,100,2|2,3:2|0:0,0:0:0:0:
5,232,87282,2,0,L|13:174,1,46.8750017881394,10|2,3:2|0:0,0:0:0:0:
65,125,87582,2,0,L|56:67,1,46.8750017881394,2|0,3:2|0:0,0:0:0:0:
11,14,87882,1,10,0:0:0:0:
11,14,88032,1,2,3:2:0:0:
52,270,88482,2,0,L|61:330,1,46.8750017881394,8|0,3:2|0:0,0:0:0:0:
136,353,88782,6,0,P|148:328|169:308,1,50,2|0,3:2|0:0,0:0:0:0:
245,287,89082,2,0,P|297:286|359:312,1,100,10|2,0:0|0:0,0:0:0:0:
406,357,89532,1,2,3:2:0:0:
454,287,89682,2,0,L|469:231,1,50,10|2,0:0|0:0,0:0:0:0:
403,181,89982,6,0,L|390:132,1,50,2|2,3:2|0:0,0:0:0:0:
324,79,90282,1,10,0:0:0:0:
324,79,90432,2,0,P|275:88|224:68,1,100,2|0,3:2|3:2,0:0:0:0:
144,87,90882,2,0,P|114:76|87:73,1,50,10|2,0:0|0:0,0:0:0:0:
45,142,91182,6,0,P|75:153|102:156,1,50,2|0,3:2|0:0,0:0:0:0:
165,200,91482,2,0,P|239:173|322:179,1,150,10|2,0:0|3:2,0:0:0:0:
394,169,92082,2,0,P|425:200|454:258,1,100,10|2,0:0|3:2,0:0:0:0:
338,376,92682,1,8,0:0:0:0:
338,376,92832,2,0,P|306:344|277:286,1,100,2|2,3:2|3:2,0:0:0:0:
208,250,93282,2,0,P|204:276|194:306,1,50,10|2,0:0|3:2,0:0:0:0:
122,258,93582,5,2,3:2:0:0:
122,258,93732,1,2,3:2:0:0:
122,258,93882,2,0,B|99:94,1,150,10|2,0:0|3:2,0:0:0:0:
166,55,94482,2,0,P|202:81|263:88,1,100,10|0,0:0|3:2,0:0:0:0:
429,120,95082,1,8,0:0:0:0:
429,120,95232,2,0,P|379:126|338:154,1,100,0|2,3:2|3:2,0:0:0:0:
308,234,95682,2,0,L|314:289,1,50,10|2,0:0|0:0,0:0:0:0:
324,367,95982,5,2,3:2:0:0:
193,257,96282,1,10,0:0:0:0:
193,257,96432,2,0,P|149:238|85:231,1,100,0|2,3:2|0:0,0:0:0:0:
30,177,96882,2,0,P|50:163|72:137,1,50,10|2,3:2|0:0,0:0:0:0:
144,106,97182,6,0,P|145:131|157:162,1,50,2|0,3:2|0:0,0:0:0:0:
229,186,97482,2,0,P|256:187|294:180,1,50,10|0,0:0|3:2,0:0:0:0:
496,145,98082,5,10,3:2:0:0:
407,332,98382,6,0,P|369:323|346:323,1,59.3749984145165,4|0,3:1|0:0,0:0:0:0:
262,268,98682,2,0,P|204:279|144:279,1,118.749996829033,10|0,0:0|0:0,0:0:0:0:
50,241,99132,1,0,3:2:0:0:
1,152,99282,2,0,L|5:71,1,59.3749984145165,10|2,0:0|0:0,0:0:0:0:
89,39,99582,6,0,L|93:120,1,59.3749984145165,2|2,3:2|0:0,0:0:0:0:
158,173,99882,1,10,0:0:0:0:
158,173,100032,2,0,P|188:140|270:123,1,118.749996829033,0|0,3:2|3:2,0:0:0:0:
346,170,100482,2,0,P|359:198|364:232,1,59.3749984145165,10|2,0:0|0:0,0:0:0:0:
441,290,100782,6,0,L|449:209,1,59.3749984145165,2|0,3:2|0:0,0:0:0:0:
511,153,101082,2,0,L|497:15,1,118.749996829033,10|2,0:0|0:0,0:0:0:0:
404,1,101532,1,2,3:2:0:0:
314,48,101682,2,0,P|279:52|238:45,1,59.3749984145165,8|0,0:0|0:0,0:0:0:0:
159,16,101982,5,0,3:2:0:0:
90,234,102282,2,0,L|108:344,2,89.0624976217747,8|0|0,0:0|3:2|3:2,0:0:0:0:
11,170,102882,2,0,L|20:111,1,59.3749984145165,10|2,0:0|3:2,0:0:0:0:
38,12,103182,5,2,3:2:0:0:
206,123,103482,2,0,P|264:131|328:118,1,118.749996829033,8|2,0:0|0:0,0:0:0:0:
405,60,103932,1,2,3:2:0:0:
430,157,104082,2,0,L|443:218,1,59.3749984145165,10|2,0:0|0:0,0:0:0:0:
374,290,104382,6,0,L|361:231,2,59.3749984145165,2|2|10,3:2|0:0|0:0,0:0:0:0:
305,364,104832,2,0,P|238:333|187:333,1,118.749996829033,2|0,0:0|3:2,0:0:0:0:
97,364,105282,2,0,L|82:291,1,59.3749984145165,8|0,0:0|0:0,0:0:0:0:
60,207,105582,5,0,3:2:0:0:
172,39,105882,1,8,0:0:0:0:
172,39,106032,2,0,L|197:162,1,118.749996829033,0|2,3:2|0:0,0:0:0:0:
272,221,106482,2,0,P|286:189|308:158,1,59.3749984145165,10|2,0:0|0:0,0:0:0:0:
372,99,106782,5,2,3:2:0:0:
500,255,107082,1,8,0:0:0:0:
500,255,107232,2,0,L|483:381,1,118.749996829033,0|0,3:2|0:0,0:0:0:0:
385,349,107682,2,0,L|375:279,1,59.3749984145165,8|0,0:0|3:2,0:0:0:0:
348,193,107982,6,0,P|327:217|289:235,1,59.3749984145165,0|0,3:2|0:0,0:0:0:0:
214,280,108282,2,0,P|149:261|100:220,1,118.749996829033,8|2,0:0|0:0,0:0:0:0:
65,139,108732,1,2,0:0:0:0:
65,139,108882,2,0,L|73:70,1,59.3749984145165,10|2,0:0|0:0,0:0:0:0:
156,26,109182,6,0,P|167:53|172:82,1,59.3749984145165,2|2,3:2|0:0,0:0:0:0:
269,113,109482,2,0,P|294:89|328:72,2,59.3749984145165,8|0|0,0:0|0:0|0:0,0:0:0:0:
194,180,109932,1,0,3:2:0:0:
194,180,110082,2,0,L|182:251,1,59.3749984145165,8|0,0:0|0:0,0:0:0:0:
167,338,110382,5,2,3:2:0:0:
325,213,110682,2,0,P|387:205|454:227,1,118.749996829033,10|2,0:0|0:0,0:0:0:0:
504,297,111132,1,0,3:2:0:0:
433,367,111282,2,0,P|374:374|317:359,1,118.749996829033,8|2,0:0|3:2,0:0:0:0:
179,212,111882,2,0,P|179:241|172:270,1,59.3749984145165,10|2,0:0|0:0,0:0:0:0:
102,343,112182,1,0,3:2:0:0:
22,280,112332,1,0,3:2:0:0:
22,280,112482,2,0,P|3:226|10:156,1,118.749996829033,10|2,0:0|3:2,0:0:0:0:
136,43,114882,5,0,3:2:0:0:
327,91,115182,6,0,P|359:66|409:60,2,70.3125026822091,0|0|0,3:2|1:2|1:2,0:0:0:0:
352,166,115782,2,0,P|357:206|337:252,2,70.3125026822091,0|0|0,1:2|1:2|1:2,0:0:0:0:
274,151,116382,2,0,P|241:139|215:114,2,70.3125026822091,0|0|0,1:2|1:2|1:2,0:0:0:0:
357,158,116982,1,0,3:0:0:0:
128,309,117582,6,0,P|99:297|61:293,1,62.5,4|0,3:1|0:0,0:0:0:0:
0,211,117882,2,0,P|30:206|59:194,1,62.5,10|0,0:0|0:0,0:0:0:0:
140,126,118182,1,2,0:0:0:0:
140,126,118332,1,0,3:2:0:0:
209,206,118482,2,0,P|216:240|218:286,2,62.5,10|2|0,0:0|0:0|3:2,0:0:0:0:
264,114,118932,5,2,0:0:0:0:
264,114,119082,2,0,P|257:80|255:34,2,62.5,8|0|2,0:0|0:0|0:0,0:0:0:0:
319,197,119532,1,0,3:2:0:0:
388,130,119682,2,0,P|421:123|468:133,1,62.5,10|2,0:0|0:0,0:0:0:0:
476,138,119907,1,0,0:0:0:0:
495,158,119982,6,0,L|485:240,1,62.5,2|0,3:2|0:0,0:0:0:0:
419,301,120282,2,0,L|411:238,1,62.5,10|0,0:0|0:0,0:0:0:0:
319,197,120582,1,2,0:0:0:0:
319,197,120732,1,0,3:2:0:0:
245,274,120882,2,0,L|237:336,2,62.5,10|2|0,0:0|0:0|3:2,0:0:0:0:
216,172,121332,5,2,0:0:0:0:
216,172,121482,2,0,P|197:146|165:124,1,62.5,8|0,0:0|0:0,0:0:0:0:
60,89,121782,2,0,L|24:94,2,31.25,2|0|0,0:0|0:0|3:2,0:0:0:0:
168,40,122082,2,0,L|256:27,1,62.5,10|0,0:0|0:0,0:0:0:0:
257,37,122307,1,0,0:0:0:0:
284,43,122382,6,0,L|372:30,1,62.5,0|0,3:2|0:0,0:0:0:0:
430,105,122682,2,0,L|368:113,1,62.5,10|0,0:0|0:0,0:0:0:0:
295,191,122982,1,2,0:0:0:0:
295,191,123132,1,0,3:2:0:0:
386,244,123282,2,0,P|400:272|407:320,2,62.5,10|0|0,0:0|0:0|3:2,0:0:0:0:
295,191,123732,5,2,0:0:0:0:
295,191,123882,2,0,P|269:188|231:195,1,62.5,8|0,0:0|0:0,0:0:0:0:
157,267,124182,2,0,L|148:306,2,31.25,2|0|0,0:0|0:0|3:2,0:0:0:0:
119,167,124482,2,0,L|132:106,1,62.5,10|2,0:0|0:0,0:0:0:0:
126,90,124707,1,0,0:0:0:0:
120,74,124782,5,2,3:2:0:0:
350,350,127182,6,0,P|340:316|342:270,1,62.5,2|0,3:2|0:0,0:0:0:0:
267,193,127482,2,0,P|265:224|256:253,1,62.5,10|0,0:0|0:0,0:0:0:0:
176,343,127782,1,2,0:0:0:0:
176,343,127932,1,0,3:2:0:0:
69,290,128082,2,0,L|3:281,2,62.5,10|2|0,0:0|0:0|3:2,0:0:0:0:
168,224,128532,5,2,0:0:0:0:
168,224,128682,2,0,P|178:194|180:159,1,62.5,8|2,0:0|0:0,0:0:0:0:
164,44,128982,2,0,P|199:53|243:58,1,62.5,0|0,3:2|3:2,0:0:0:0:
306,97,129282,2,0,P|340:86|385:83,1,62.5,10|0,3:2|3:2,0:0:0:0:
394,91,129507,1,0,0:0:0:0:
418,106,129582,6,0,P|431:138|433:179,1,62.5,0|0,3:2|0:0,0:0:0:0:
381,258,129882,2,0,P|346:262|306:253,1,62.5,10|0,0:0|0:0,0:0:0:0:
239,169,130182,1,2,0:0:0:0:
239,169,130332,1,0,3:2:0:0:
161,258,130482,2,0,L|153:320,2,62.5,10|2|0,0:0|0:0|3:2,0:0:0:0:
103,154,130932,5,2,0:0:0:0:
103,154,131007,1,0,0:0:0:0:
103,154,131082,2,0,L|95:92,1,62.5,10|0,0:0|0:0,0:0:0:0:
172,18,131382,2,0,P|211:29|255:32,1,62.5,0|0,3:2|3:2,0:0:0:0:
322,87,131682,2,0,P|361:76|405:73,1,62.5,8|0,3:2|3:2,0:0:0:0:
411,72,131907,1,0,0:0:0:0:
432,74,131982,1,0,3:2:0:0:
256,192,133632,12,0,136482,0:0:0:0:
290,303,136782,6,0,L|376:317,2,70.3125026822091,10|0|0,3:2|0:0|0:0,0:0:0:0:
228,252,137382,2,0,L|142:266,2,70.3125026822091,2|0|2,0:0|0:0|0:0,0:0:0:0:
282,193,137982,2,0,L|368:207,2,70.3125026822091,2|0|2,0:0|0:0|0:0,0:0:0:0:
208,162,138582,2,0,P|186:127|182:105,1,46.8750017881394,2|0,3:2|3:2,0:0:0:0:
124,69,138882,2,0,P|109:69|97:67,3,23.4375008940697,0|0|0|0,3:2|3:2|3:2|3:2,0:0:0:0:
63,52,139182,6,0,L|79:218,1,162.499992561341,6|0,3:2|0:0,0:0:0:0:
140,346,140082,2,0,P|194:283|281:270,1,162.499992561341,2|0,0:0|0:0,0:0:0:0:
370,375,140982,2,0,P|409:382|450:378,1,81.2499962806703,2|0,0:0|0:0,0:0:0:0:
499,318,141432,1,0,0:0:0:0:
499,318,141582,6,0,L|475:157,1,162.499992561341,2|0,3:2|0:0,0:0:0:0:
426,28,142482,2,0,P|357:70|265:64,1,162.499992561341,2|0,3:2|0:0,0:0:0:0:
150,14,143382,2,0,P|142:34|136:65,1,40.6249981403352,2|0,0:0|0:0,0:0:0:0:
61,73,143682,2,0,P|69:92|87:118,1,40.6249981403352,2|0,0:0|0:0,0:0:0:0:
71,199,143982,6,0,L|84:270,1,53.125001013279,14|10,0:0|0:0,0:0:0:0:
230,352,144432,2,0,L|243:281,1,53.125001013279,10|10,0:0|0:0,0:0:0:0:
153,140,144882,6,0,L|166:211,1,53.125001013279,10|10,0:0|0:0,0:0:0:0:
322,316,145332,2,0,L|335:245,1,53.125001013279,10|10,0:0|0:0,0:0:0:0:
366,108,145782,1,10,0:0:0:0:
61,146,146382,6,0,L|74:217,1,53.125001013279,10|10,0:0|0:0,0:0:0:0:
220,299,146832,2,0,L|233:228,1,53.125001013279,10|10,0:0|0:0,0:0:0:0:
143,87,147282,6,0,L|156:158,1,53.125001013279,10|10,0:0|0:0,0:0:0:0:
312,263,147732,2,0,L|325:192,1,53.125001013279,10|10,0:0|0:0,0:0:0:0:
356,55,148182,1,10,0:0:0:0:
63,217,148782,6,0,L|225:229,1,162.499992561341,6|0,3:2|0:0,0:0:0:0:
351,283,149682,2,0,P|328:211|388:140,1,162.499992561341,2|0,0:0|0:0,0:0:0:0:
494,229,150582,2,0,L|413:223,1,81.2499962806703,2|0,0:0|0:0,0:0:0:0:
277,328,151182,6,0,P|226:272|134:288,1,162.499992561341,2|0,3:2|0:0,0:0:0:0:
44,375,152082,1,2,3:2:0:0:
22,230,152382,2,0,L|5:136,1,81.2499962806703,2|2,0:0|0:0,0:0:0:0:
96,34,152982,2,0,L|113:128,1,81.2499962806703,2|0,0:0|0:0,0:0:0:0:
213,216,153582,6,0,L|221:163,1,53.125001013279,14|10,0:0|0:0,0:0:0:0:
375,48,154032,2,0,L|383:100,1,53.125001013279,10|10,0:0|0:0,0:0:0:0:
290,267,154482,6,0,L|298:214,1,53.125001013279,10|10,0:0|0:0,0:0:0:0:
459,76,154932,2,0,L|469:142,1,53.125001013279,10|10,0:0|0:0,0:0:0:0:
480,207,155232,2,0,L|490:273,1,53.125001013279,10|10,0:0|0:0,0:0:0:0:
205,268,155982,6,0,L|213:215,1,53.125001013279,10|10,0:0|0:0,0:0:0:0:
367,100,156432,2,0,L|375:152,1,53.125001013279,10|10,0:0|0:0,0:0:0:0:
282,319,156882,6,0,L|290:266,1,53.125001013279,10|10,0:0|0:0,0:0:0:0:
451,128,157332,2,0,L|461:194,1,53.125001013279,10|10,0:0|0:0,0:0:0:0:
472,259,157632,2,0,L|482:325,1,53.125001013279,10|10,0:0|0:0,0:0:0:0:
137,339,158382,6,0,L|147:240,1,87.499997329712,6|2,0:0|0:0,0:0:0:0:
224,136,158982,1,2,1:2:0:0:
224,136,159132,2,0,L|230:190,1,43.749998664856,0|2,1:2|0:0,0:0:0:0:
295,236,159432,6,0,P|342:213|392:208,1,87.499997329712,2|2,0:0|0:0,0:0:0:0:
446,155,159882,2,0,P|412:139|392:123,1,43.749998664856,2|2,0:0|0:0,0:0:0:0:
329,94,160182,1,2,1:2:0:0:
329,94,160332,2,0,P|331:129|327:154,2,43.749998664856,2|2|2,1:2|0:0|0:0,0:0:0:0:
275,24,160782,6,0,L|182:32,1,87.499997329712,2|2,0:0|0:0,0:0:0:0:
65,138,161382,1,2,1:2:0:0:
65,138,161532,2,0,L|13:133,2,43.749998664856,2|2|2,1:2|0:0|0:0,0:0:0:0:
146,170,161982,6,0,P|169:221|174:271,1,87.499997329712,2|2,1:2|1:2,0:0:0:0:
255,299,162432,1,2,1:2:0:0:
255,299,162582,2,0,P|256:276|281:207,1,87.499997329712,2|2,1:2|0:0,0:0:0:0:
426,313,163182,6,0,L|440:207,1,87.499997329712,2|2,0:0|0:0,0:0:0:0:
472,54,163782,2,0,P|487:49|504:45,2,21.874999332428,2|0|2,1:2|1:2|0:0,0:0:0:0:
398,83,164082,2,0,P|375:84|354:80,1,43.749998664856,2|2,0:0|0:0,0:0:0:0:
270,40,164382,6,0,P|263:87|243:132,1,87.499997329712,2|2,0:0|0:0,0:0:0:0:
103,222,164982,2,0,P|87:222|68:217,2,21.874999332428,2|0|2,1:2|1:2|1:2,0:0:0:0:
180,206,165282,2,0,P|201:213|225:226,1,43.749998664856,2|2,0:0|0:0,0:0:0:0:
288,278,165582,6,0,L|306:180,1,87.499997329712,2|2,0:0|0:0,0:0:0:0:
388,38,166182,2,0,L|392:0,2,21.874999332428,2|0|2,1:2|1:2|1:2,0:0:0:0:
437,98,166482,2,0,L|432:144,1,43.749998664856,2|2,0:0|0:0,0:0:0:0:
485,199,166782,6,0,L|475:285,1,87.499997329712,2|2,1:2|1:2,0:0:0:0:
328,381,167382,1,2,1:2:0:0:
258,220,167682,1,2,0:0:0:0:
86,324,167982,6,0,L|78:254,1,53.125001013279,6|2,3:2|0:0,0:0:0:0:
10,213,168282,2,0,L|16:160,1,53.125001013279,2|0,0:0|0:0,0:0:0:0:
152,41,168732,2,0,L|160:111,1,53.125001013279,2|0,0:0|0:0,0:0:0:0:
228,152,169032,1,2,0:0:0:0:
228,152,169182,6,0,L|221:204,1,53.125001013279,2|2,0:0|0:0,0:0:0:0:
337,344,169632,2,0,L|330:291,1,53.125001013279,2|0,0:0|0:0,0:0:0:0:
381,217,169932,2,0,L|388:164,2,53.125001013279,2|2|2,0:0|0:0|0:0,0:0:0:0:
330,291,170382,5,2,0:0:0:0:
170,205,170682,2,0,P|136:200|110:202,1,53.125001013279,2|0,0:0|0:0,0:0:0:0:
7,56,171132,2,0,P|33:56|59:51,1,53.125001013279,2|0,0:0|0:0,0:0:0:0:
144,81,171432,1,2,0:0:0:0:
144,81,171582,2,0,P|170:76|196:76,1,53.125001013279,2|2,0:0|0:0,0:0:0:0:
326,201,172032,1,0,0:0:0:0:
436,50,172332,1,0,0:0:0:0:
436,50,172482,2,0,L|429:102,1,53.125001013279,2|2,0:0|0:0,0:0:0:0:
478,264,172932,5,2,0:0:0:0:
478,264,173082,2,0,L|471:316,1,53.125001013279,2|0,0:0|0:0,0:0:0:0:
297,383,173532,2,0,L|290:330,1,53.125001013279,2|0,0:0|0:0,0:0:0:0:
245,257,173832,1,2,0:0:0:0:
245,257,173982,2,0,P|215:271|141:273,1,106.250002026558,2|0,0:0|0:0,0:0:0:0:
63,230,174432,1,2,0:0:0:0:
119,58,174732,1,2,0:0:0:0:
119,58,174882,2,0,P|131:86|137:122,1,53.125001013279,2|2,0:0|0:0,0:0:0:0:
245,257,175332,5,2,0:0:0:0:
245,257,175482,2,0,P|257:205|278:156,1,106.250002026558,2|2,0:0|0:0,0:0:0:0:
348,98,175932,2,0,P|386:134|417:177,1,106.250002026558,2|2,0:0|0:0,0:0:0:0:
452,260,176382,2,0,P|422:268|389:274,1,53.125001013279,2|0,0:0|0:0,0:0:0:0:
245,257,176832,2,0,P|194:247|139:248,1,106.250002026558,2|2,0:0|0:0,0:0:0:0:
61,294,177282,2,0,P|53:319|50:353,1,53.125001013279,2|0,0:0|0:0,0:0:0:0:
10,179,177732,5,2,0:0:0:0:
10,179,177882,2,0,P|18:154|21:120,1,53.125001013279,2|0,0:0|0:0,0:0:0:0:
165,18,178332,2,0,P|168:44|176:69,1,53.125001013279,2|0,0:0|0:0,0:0:0:0:
232,137,178632,1,2,0:0:0:0:
322,151,178782,2,0,P|348:147|373:139,2,53.125001013279,2|2|2,0:0|0:0|0:0,0:0:0:0:
228,145,179232,1,2,0:0:0:0:
143,294,179532,1,2,0:0:0:0:
53,278,179682,2,0,P|26:280|2:288,2,53.125001013279,2|2|2,0:0|0:0|0:0,0:0:0:0:
222,339,180282,6,0,P|278:338|328:321,1,106.250002026558,2|2,0:0|0:0,0:0:0:0:
392,261,180732,2,0,P|363:213|323:178,1,106.250002026558,2|2,0:0|0:0,0:0:0:0:
243,142,181182,1,2,0:0:0:0:
85,362,181632,1,2,0:0:0:0:
29,195,181932,1,0,0:0:0:0:
29,195,182082,2,0,L|24:142,1,53.125001013279,2|2,0:0|0:0,0:0:0:0:
221,33,182532,5,2,0:0:0:0:
221,33,182682,2,0,L|210:162,1,106.250002026558,2|2,0:0|0:0,0:0:0:0:
283,194,183132,2,0,L|294:65,1,106.250002026558,2|0,0:0|0:0,0:0:0:0:
371,40,183582,6,0,P|375:65|394:103,1,53.125001013279,2|2,0:0|0:0,0:0:0:0:
453,259,184032,1,2,0:0:0:0:
283,194,184332,2,0,P|258:185|231:181,2,53.125001013279,2|2|2,0:0|0:0|0:0,0:0:0:0:
324,270,184782,6,0,L|330:318,1,37.4999988555909,2|2,3:2|0:0,0:0:0:0:
218,371,185242,2,0,L|224:323,1,37.4999988555909,2|2,0:0|0:0,0:0:0:0:
123,255,185692,2,0,L|133:339,1,74.9999977111817,2|0,0:0|0:0,0:0:0:0:
218,371,186142,2,0,L|224:323,1,37.4999988555909,2|2,0:0|0:0,0:0:0:0:
244,208,186592,1,2,0:0:0:0:
42,60,187182,6,0,L|56:185,1,125,6|8,3:1|0:0,0:0:0:0:
137,242,187632,1,2,0:0:0:0:
137,242,187782,2,0,L|144:179,1,62.5,2|0,0:0|3:2,0:0:0:0:
194,93,188082,1,10,0:0:0:0:
341,222,188382,6,0,P|382:222|414:213,1,62.5,0|0,3:2|0:0,0:0:0:0:
503,182,188682,2,0,P|482:217|474:249,1,62.5,10|0,0:0|0:0,0:0:0:0:
439,331,188982,1,2,0:0:0:0:
439,331,189132,1,0,3:2:0:0:
402,217,189282,1,10,0:0:0:0:
274,371,189582,5,2,3:2:0:0:
195,186,189882,1,10,0:0:0:0:
195,186,190032,2,0,P|144:167|72:182,1,125,2|0,0:0|3:2,0:0:0:0:
12,257,190482,2,0,P|14:288|24:317,1,62.5,10|0,0:0|0:0,0:0:0:0:
124,322,190782,6,0,P|134:292|136:261,1,62.5,0|0,3:2|0:0,0:0:0:0:
76,179,191082,1,8,0:0:0:0:
241,64,191382,2,0,P|274:62|303:71,1,62.5,2|0,0:0|3:2,0:0:0:0:
400,90,191682,2,0,P|419:116|429:145,1,62.5,10|0,0:0|0:0,0:0:0:0:
473,234,191982,6,0,L|458:361,1,125,2|8,3:2|0:0,0:0:0:0:
372,306,192432,2,0,L|357:179,1,125,2|0,0:0|3:2,0:0:0:0:
271,234,192882,1,10,0:0:0:0:
127,94,193182,6,0,P|79:76|-12:98,1,125,0|8,3:2|0:0,0:0:0:0:
53,281,193782,2,0,P|80:258|117:249,1,62.5,2|0,0:0|3:2,0:0:0:0:
202,274,194082,1,10,0:0:0:0:
339,128,194382,5,2,3:2:0:0:
339,128,194532,2,0,P|343:164|360:201,1,62.5,2|8,3:2|0:0,0:0:0:0:
440,234,194832,1,2,3:2:0:0:
458,135,194982,1,2,3:2:0:0:
327,286,195282,2,0,P|305:303|263:310,1,62.5,10|2,0:0|3:2,0:0:0:0:
150,153,195732,1,2,3:2:0:0:
150,153,195882,2,0,P|181:152|209:165,1,62.5,10|0,0:0|3:2,0:0:0:0:
271,232,196182,2,0,P|210:247|167:302,1,125,2|10,3:2|0:0,0:0:0:0:
11,383,196782,6,0,L|21:305,1,62.5,2|0,3:2|0:0,0:0:0:0:
77,241,197082,1,8,0:0:0:0:
77,241,197232,2,0,L|67:163,1,62.5,2|2,0:0|0:0,0:0:0:0:
219,46,197682,2,0,L|226:107,1,62.5,10|0,0:0|0:0,0:0:0:0:
294,180,197982,5,0,3:2:0:0:
453,37,198282,2,0,L|445:98,1,62.5,10|0,0:0|0:0,0:0:0:0:
501,188,198582,1,2,0:0:0:0:
501,188,198732,2,0,L|508:249,2,62.5,0|10|2,3:2|0:0|0:0,0:0:0:0:
445,98,199182,6,0,P|391:77|312:78,1,125,2|10,3:2|0:0,0:0:0:0:
235,29,199632,2,0,P|190:64|151:134,1,125,2|0,0:0|3:2,0:0:0:0:
69,173,200082,2,0,P|73:203|90:250,1,62.5,10|0,0:0|0:0,0:0:0:0:
146,311,200382,5,0,3:2:0:0:
245,153,200682,1,8,0:0:0:0:
332,317,200982,2,0,L|394:311,1,62.5,2|0,0:0|3:2,0:0:0:0:
482,238,201282,2,0,L|420:232,1,62.5,10|0,0:0|0:0,0:0:0:0:
318,186,201582,6,0,P|345:130|333:68,1,125,2|8,3:2|0:0,0:0:0:0:
248,18,202032,1,2,0:0:0:0:
248,18,202182,2,0,P|213:19|186:28,1,62.5,0|0,0:0|3:2,0:0:0:0:
133,112,202482,2,0,P|139:146|152:171,1,62.5,10|0,0:0|0:0,0:0:0:0:
235,225,202782,5,0,3:2:0:0:
344,57,203082,1,8,0:0:0:0:
463,220,203382,2,0,P|468:253|464:300,1,62.5,2|0,0:0|3:2,0:0:0:0:
382,336,203682,2,0,P|377:303|381:256,1,62.5,10|0,0:0|0:0,0:0:0:0:
296,214,203982,6,0,P|252:224|221:223,1,62.5,0|0,3:2|3:2,0:0:0:0:
104,91,204432,2,0,P|148:81|179:82,1,62.5,0|0,3:2|3:2,0:0:0:0:
304,236,204882,6,0,P|260:246|229:245,1,62.5,0|0,3:2|3:2,0:0:0:0:
112,113,205332,2,0,P|156:103|187:104,1,62.5,0|0,3:2|3:2,0:0:0:0:
68,281,205782,2,0,P|50:241|49:169,1,106.250002026558,0|0,3:2|0:0,0:0:0:0:
278,114,206382,6,0,P|287:182|265:261,1,125,6|8,3:1|0:0,0:0:0:0:
246,332,206832,1,2,0:0:0:0:
343,309,206982,2,0,P|377:311|410:320,1,62.5,2|0,0:0|3:2,0:0:0:0:
491,367,207282,2,0,L|476:221,1,125,10|0,0:0|3:2,0:0:0:0:
456,43,207882,2,0,P|443:97|392:145,1,125,10|2,0:0|0:0,0:0:0:0:
294,142,208332,1,0,3:2:0:0:
226,68,208482,1,10,0:0:0:0:
67,189,208782,6,0,P|62:250|85:328,1,125,2|10,3:2|0:0,0:0:0:0:
175,331,209232,2,0,P|231:354|312:356,1,125,2|0,0:0|3:2,0:0:0:0:
378,303,209682,2,0,P|405:282|431:233,1,62.5,10|0,0:0|0:0,0:0:0:0:
447,162,209982,5,0,3:2:0:0:
463,361,210282,1,8,0:0:0:0:
314,226,210582,2,0,P|285:219|251:218,1,62.5,2|0,0:0|3:2,0:0:0:0:
171,278,210882,2,0,P|140:285|109:285,1,62.5,10|0,0:0|0:0,0:0:0:0:
21,238,211182,6,0,L|8:108,1,125,2|10,3:2|0:0,0:0:0:0:
55,25,211632,2,0,P|106:65|174:78,1,125,2|0,0:0|3:2,0:0:0:0:
247,132,212082,2,0,P|298:92|366:78,1,125,10|0,0:0|3:2,0:0:0:0:
508,208,212682,1,8,0:0:0:0:
323,330,212982,6,0,P|308:299|302:266,1,62.5,2|0,0:0|3:0,0:0:0:0:
211,202,213282,2,0,P|205:232|190:260,1,62.5,10|0,0:0|0:0,0:0:0:0:
59,273,213582,5,2,3:2:0:0:
59,273,213732,2,0,P|90:283|126:313,1,62.5,2|8,0:0|0:0,0:0:0:0:
182,371,214032,1,2,0:0:0:0:
182,371,214182,2,0,P|211:362|242:362,1,62.5,2|0,0:0|3:2,0:0:0:0:
343,384,214482,1,10,0:0:0:0:
471,248,214782,6,0,L|481:174,1,62.5,0|0,3:2|0:0,0:0:0:0:
401,104,215082,2,0,L|391:178,1,62.5,10|2,0:0|0:0,0:0:0:0:
299,235,215382,2,0,L|293:172,1,62.5,2|0,0:0|3:2,0:0:0:0:
195,73,215682,2,0,L|199:135,1,62.5,10|0,0:0|0:0,0:0:0:0:
138,238,215982,6,0,P|189:279|205:338,1,125,2|8,3:2|0:0,0:0:0:0:
297,375,216432,1,2,0:0:0:0:
297,375,216582,2,0,P|303:344|320:318,1,62.5,2|0,0:0|3:2,0:0:0:0:
405,264,216882,1,10,0:0:0:0:
205,334,217182,5,0,3:2:0:0:
40,220,217482,2,0,P|18:156|24:95,2,125,10|2|10,0:0|0:0|0:0,0:0:0:0:
205,334,218382,6,0,P|271:314|343:320,1,125,2|8,3:2|0:0,0:0:0:0:
418,357,218832,2,0,L|431:221,1,125,2|0,0:0|3:2,0:0:0:0:
502,163,219282,2,0,L|490:38,1,125,10|0,0:0|3:2,0:0:0:0:
395,5,219732,6,0,L|389:67,1,62.5,0|8,0:0|0:0,0:0:0:0:
326,146,220032,1,0,0:0:0:0:
326,146,220182,2,0,P|290:131|259:127,1,62.5,2|0,0:0|3:2,0:0:0:0:
174,87,220482,2,0,P|138:101|107:105,1,62.5,10|0,0:0|0:0,0:0:0:0:
15,92,220782,6,0,L|31:241,1,125,2|8,3:2|0:0,0:0:0:0:
77,303,221232,2,0,P|116:262|200:243,1,125,2|0,0:0|3:2,0:0:0:0:
279,250,221682,1,10,0:0:0:0:
452,349,221982,2,0,L|439:206,1,125,0|10,3:2|0:0,0:0:0:0:
334,54,222582,2,0,L|321:197,1,125,2|10,0:0|0:0,0:0:0:0:
190,328,223182,5,0,3:2:0:0:
190,328,223332,1,0,3:2:0:0:
48,126,223632,5,0,3:2:0:0:
48,126,223782,1,0,3:2:0:0:
205,322,224082,5,0,3:2:0:0:
205,322,224232,1,0,3:2:0:0:
32,144,224532,5,0,3:2:0:0:
32,144,224682,1,0,3:2:0:0:
226,311,224982,5,2,3:2:0:0:
375,0,225582,5,0,3:2:0:0:
498,106,225882,2,0,P|505:137|497:225,1,100,10|0,0:0|0:0,0:0:0:0:
453,272,226332,1,2,3:2:0:0:
453,272,226482,1,10,0:0:0:0:
353,376,226782,2,0,P|312:332|273:309,1,100,2|8,3:2|0:0,0:0:0:0:
214,246,227232,2,0,P|272:232|312:210,1,100,2|0,0:0|3:2,0:0:0:0:
349,133,227682,2,0,L|353:69,1,50,10|2,0:0|0:0,0:0:0:0:
358,0,227982,5,0,3:2:0:0:
496,155,228282,2,0,L|489:259,1,100,10|0,0:0|0:0,0:0:0:0:
479,339,228732,1,2,3:2:0:0:
479,339,228882,1,10,0:0:0:0:
340,240,229182,2,0,P|286:232|222:252,1,100,2|8,3:2|0:0,0:0:0:0:
165,290,229632,2,0,P|115:300|66:292,1,100,2|0,0:0|3:2,0:0:0:0:
6,232,230082,2,0,P|2:201|7:167,1,50,10|2,0:0|0:0,0:0:0:0:
42,106,230382,5,0,3:2:0:0:
180,188,230682,2,0,P|222:136|265:121,1,100,10|0,0:0|0:0,0:0:0:0:
321,73,231132,1,2,3:2:0:0:
321,73,231282,1,10,0:0:0:0:
471,152,231582,2,0,L|480:264,1,100,2|8,3:2|0:0,0:0:0:0:
428,326,232032,2,0,P|402:280|349:253,1,100,2|0,0:0|3:2,0:0:0:0:
273,266,232482,2,0,P|250:285|231:317,1,50,10|2,0:0|0:0,0:0:0:0:
198,381,232782,5,0,3:2:0:0:
51,294,233082,2,0,P|86:259|104:191,1,100,10|0,0:0|0:0,0:0:0:0:
94,132,233532,1,2,3:2:0:0:
94,132,233682,1,10,0:0:0:0:
239,43,233982,6,0,L|249:150,1,100,2|8,3:2|0:0,0:0:0:0:
329,180,234432,2,0,P|368:149|435:147,1,100,2|0,0:0|3:2,0:0:0:0:
489,185,234882,2,0,P|496:209|497:244,1,50,10|2,0:0|0:0,0:0:0:0:
480,317,235182,5,0,3:2:0:0:
325,374,235482,2,0,P|275:358|216:358,1,100,10|0,0:0|0:0,0:0:0:0:
147,375,235932,1,2,3:2:0:0:
147,375,236082,1,10,0:0:0:0:
10,273,236382,2,0,P|7:222|35:165,1,100,2|10,3:2|0:0,0:0:0:0:
94,128,236832,2,0,P|107:175|138:227,1,100,2|0,0:0|3:2,0:0:0:0:
210,253,237282,2,0,P|224:232|234:209,1,50,10|2,0:0|0:0,0:0:0:0:
239,123,237582,5,0,3:2:0:0:
405,226,237882,2,0,P|457:217|507:175,1,100,8|2,0:0|0:0,0:0:0:0:
512,109,238332,1,2,3:2:0:0:
512,109,238482,1,8,0:0:0:0:
357,38,238782,6,0,P|334:75|327:138,1,100,2|8,3:2|0:0,0:0:0:0:
251,171,239232,2,0,P|245:121|220:78,1,100,2|0,0:0|3:2,0:0:0:0:
142,43,239682,2,0,P|110:42|77:56,1,50,10|2,0:0|0:0,0:0:0:0:
29,102,239982,5,0,3:2:0:0:
134,235,240282,2,0,L|123:341,1,100,10|0,0:0|0:0,0:0:0:0:
199,384,240732,1,2,3:2:0:0:
199,384,240882,1,8,0:0:0:0:
324,269,241182,2,0,P|372:264|433:277,1,100,2|8,3:2|0:0,0:0:0:0:
508,246,241632,2,0,P|479:206|460:146,1,100,2|0,0:0|3:2,0:0:0:0:
395,98,242082,2,0,P|383:132|369:155,1,50,10|2,0:0|0:0,0:0:0:0:
304,191,242382,5,0,3:2:0:0:
161,97,242682,2,0,P|121:127|98:171,1,100,10|0,0:0|0:0,0:0:0:0:
44,229,243132,1,2,3:2:0:0:
44,229,243282,1,8,0:0:0:0:
122,379,243582,2,0,L|241:373,1,100,2|8,3:2|0:0,0:0:0:0:
288,321,244032,2,0,L|407:327,1,100,2|0,0:0|3:2,0:0:0:0:
468,276,244482,2,0,P|450:251|442:223,1,50,10|0,0:0|0:0,0:0:0:0:
371,152,244782,6,0,P|368:193|347:251,1,93.75,4|0,3:1|0:0,0:0:0:0:
256,192,245082,12,0,249582,0:0:0:0:
