osu file format v14

[General]
AudioFilename: audio.mp3
AudioLeadIn: 0
PreviewTime: 184782
Countdown: 0
SampleSet: Soft
StackLeniency: 0.6
Mode: 0
LetterboxInBreaks: 0
EpilepsyWarning: 1
WidescreenStoryboard: 1

[Editor]
DistanceSpacing: 1.1
BeatDivisor: 4
GridSize: 4
TimelineZoom: 3.499999

[Metadata]
Title:Fortuna Redux
TitleUnicode:Fortuna Redux
Artist:Fractal Dreamers
ArtistUnicode:Fractal Dreamers
Creator:DTM9 Nowa
Version:Extreme
Source:osu!
Tags:Helblinde Kingdom of Silence EP artcore dnb Featured Artist mappers' guild Mapping With Rewards 2017 mwr Instrumental Electronic
BeatmapID:1506912
BeatmapSetID:712974

[Difficulty]
HPDrainRate:6
CircleSize:4
OverallDifficulty:8.3
ApproachRate:9.4
SliderMultiplier:1.7
SliderTickRate:1

[Events]
//Background and Video events
0,0,"Fractal.jpg",0,0
//Break Periods
//Storyboard Layer 0 (Background)
//Storyboard Layer 1 (Fail)
//Storyboard Layer 2 (Pass)
//Storyboard Layer 3 (Foreground)
Sprite,Foreground,Centre,"sb\hl.png",0,0 C,0,114882,,223,223,223 M,0,114882,114919,293,325,307.7589,319.0829 F,2,114882,115782,1,0 S,2,114882,115782,0.7,0.14 P,0,114882,115782,A M,0,114919,114957,307.7589,319.0829,323.095,314.9748 M,0,114957,114994,323.095,314.9748,338.8638,313.0625 M,0,114994,115032,338.8638,313.0625,354.7709,313.2905
Sprite,Foreground,Centre,"sb\hl.png",471,380 C,0,115182,,149,255,218 F,2,115182,115932,1,0 S,2,115182,115932,0.7,0.14 P,0,115182,115932,A
Sprite,Foreground,Centre,"sb\hl.png",332,228 C,0,115407,,149,255,218 F,2,115407,116157,1,0 S,2,115407,116157,0.7,0.14 P,0,115407,116157,A
Sprite,Foreground,Centre,"sb\hl.png",521,309 C,0,115632,,149,255,218 F,2,115632,116382,1,0 S,2,115632,116382,0.7,0.14 P,0,115632,116382,A
Sprite,Foreground,Centre,"sb\hl.png",362,294 C,0,115782,,36,74,255 F,2,115782,116532,1,0 S,2,115782,116532,0.7,0.14 P,0,115782,116532,A
Sprite,Foreground,Centre,"sb\hl.png",563,249 C,0,116007,,36,74,255 F,2,116007,116757,1,0 S,2,116007,116757,0.7,0.14 P,0,116007,116757,A
Sprite,Foreground,Centre,"sb\hl.png",398,372 C,0,116232,,36,74,255 F,2,116232,116982,1,0 S,2,116232,116982,0.7,0.14 P,0,116232,116982,A
Sprite,Foreground,Centre,"sb\hl.png",490,242 C,0,116382,,223,223,223 F,2,116382,117132,1,0 S,2,116382,117132,0.7,0.14 P,0,116382,117132,A
Sprite,Foreground,Centre,"sb\hl.png",428,439 C,0,116607,,223,223,223 F,2,116607,117357,1,0 S,2,116607,117357,0.7,0.14 P,0,116607,117357,A
Sprite,Foreground,Centre,"sb\hl.png",404,235 C,0,116832,,223,223,223 F,2,116832,117582,1,0 S,2,116832,117582,0.7,0.14 P,0,116832,117582,A
Sprite,Foreground,Centre,"sb\hl.png",0,0 C,0,116982,,149,255,218 M,0,116982,117019,507,322,491.1168,321.3416 F,2,116982,117882,1,0 S,2,116982,117882,0.7,0.14 P,0,116982,117882,A M,0,117019,117057,491.1168,321.3416,475.5006,318.529 M,0,117057,117094,475.5006,318.529,460.5197,313.2968 M,0,117094,117132,460.5197,313.2968,446.5461,305.7746
Sprite,Foreground,Centre,"sb\hl.png",0,0 C,0,117282,,149,255,218 M,0,117282,117319,484,341,469.4107,334.6881 F,2,117282,118182,1,0 S,2,117282,118182,0.7,0.14 P,0,117282,118182,A M,0,117319,117357,469.4107,334.6881,455.8363,326.4735 M,0,117357,117394,455.8363,326.4735,443.7159,316.2317 M,0,117394,117432,443.7159,316.2317,433.349,304.2146
Sprite,Foreground,Centre,"sb\hl.png",0,0 C,0,136782,,36,74,255 M,0,136782,136819,384,221,380.8749,204.3573 F,2,136782,137682,1,0 S,2,136782,137682,0.7,0.14 P,0,136782,137682,A M,0,136819,136857,380.8749,204.3573,380.6396,187.4737 M,0,136857,136894,380.6396,187.4737,383.7206,170.8713 M,0,136894,136932,383.7206,170.8713,389.9983,155.1947
Sprite,Foreground,Centre,"sb\hl.png",0,0 C,0,137007,,36,74,255 M,0,137007,137044,481,97,467.9626,107.8143 F,2,137007,137907,1,0 S,2,137007,137907,0.7,0.14 P,0,137007,137907,A M,0,137044,137082,467.9626,107.8143,453.3553,116.3019 M,0,137082,137119,453.3553,116.3019,437.4041,121.8679 M,0,137119,137157,437.4041,121.8679,420.6867,124.3106
Sprite,Foreground,Centre,"sb\hl.png",0,0 C,0,137232,,36,74,255 M,0,137232,137269,315,71,330.1403,78.3222 F,2,137232,138057,1,0 S,2,137232,138057,0.7,0.14 P,0,137232,138057,A M,0,137269,137307,330.1403,78.3222,342.9104,89.09663
Sprite,Foreground,Centre,"sb\hl.png",0,0 C,0,137382,,223,223,223 M,0,137382,137419,241,174,227.9626,184.8143 F,2,137382,138282,1,0 S,2,137382,138282,0.7,0.14 P,0,137382,138282,A M,0,137419,137457,227.9626,184.8143,213.3553,193.3019 M,0,137457,137494,213.3553,193.3019,197.4041,198.8679 M,0,137494,137532,197.4041,198.8679,180.6867,201.3106
Sprite,Foreground,Centre,"sb\hl.png",0,0 C,0,137607,,223,223,223 M,0,137607,137644,82,152,97.87977,157.894 F,2,137607,138507,1,0 S,2,137607,138507,0.7,0.14 P,0,137607,138507,A M,0,137644,137682,97.87977,157.894,112.5224,166.3187 M,0,137682,137719,112.5224,166.3187,125.296,177.3744 M,0,137719,137757,125.296,177.3744,135.7342,190.6581
Sprite,Foreground,Centre,"sb\hl.png",0,0 C,0,137832,,223,223,223 M,0,137832,137869,144,309,141.9615,292.2209 F,2,137832,138657,1,0 S,2,137832,138657,0.7,0.14 P,0,137832,138657,A M,0,137869,137907,141.9615,292.2209,145.0558,275.6387
Sprite,Foreground,Centre,"sb\hl.png",0,0 C,0,137982,,149,255,218 M,0,137982,138019,283,291,298.9054,296.827 F,2,137982,138882,1,0 S,2,137982,138882,0.7,0.14 P,0,137982,138882,A M,0,138019,138057,298.9054,296.827,313.58,305.1989 M,0,138057,138094,313.58,305.1989,326.3925,316.2114 M,0,138094,138132,326.3925,316.2114,336.8742,329.4616
Sprite,Foreground,Centre,"sb\hl.png",0,0 C,0,138207,,149,255,218 M,0,138207,138244,344,440,340.4836,423.4072 F,2,138207,139107,1,0 S,2,138207,139107,0.7,0.14 P,0,138207,139107,A M,0,138244,138282,340.4836,423.4072,340.2367,406.4607 M,0,138282,138319,340.2367,406.4607,343.2642,389.7964 M,0,138319,138357,343.2642,389.7964,349.4486,374.0393
Sprite,Foreground,Centre,"sb\hl.png",0,0 C,0,138432,,149,255,218 M,0,138432,138469,449,307,434.314,315.3151 F,2,138432,139257,1,0 S,2,138432,139257,0.7,0.14 P,0,138432,139257,A M,0,138469,138507,434.314,315.3151,418.3028,320.4043
Sprite,Foreground,Centre,"sb\hl.png",260,374 C,0,138582,,36,74,255 F,2,138582,139332,1,0 S,2,138582,139332,0.7,0.14 P,0,138582,139332,A
Sprite,Foreground,Centre,"sb\hl.png",378,234 C,0,138732,,36,74,255 F,2,138732,139482,1,0 S,2,138732,139482,0.7,0.14 P,0,138732,139482,A
Sprite,Foreground,Centre,"sb\hl.png",428,409 C,0,138882,,36,74,255 F,2,138882,139632,1,0 S,2,138882,139632,0.7,0.14 P,0,138882,139632,A
Sprite,Foreground,Centre,"sb\hl.png",436,407 C,0,138957,,36,74,255 F,2,138957,139707,1,0 S,2,138957,139707,0.7,0.14 P,0,138957,139707,A
Sprite,Foreground,Centre,"sb\hl.png",444,405 C,0,139032,,36,74,255 F,2,139032,139782,1,0 S,2,139032,139782,0.7,0.14 P,0,139032,139782,A
Sprite,Foreground,Centre,"sb\hl.png",453,404 C,0,139107,,36,74,255 F,2,139107,139857,1,0 S,2,139107,139857,0.7,0.14 P,0,139107,139857,A
Sprite,Foreground,Centre,"sb\hl.png",0,0 C,0,139182,,223,223,223 M,0,139182,139219,459,402,460.5694,389.347 F,2,139182,140681,1,0 S,2,139182,140681,0.7,0.14 P,0,139182,140681,A M,0,139219,139257,460.5694,389.347,462.1387,376.6939 M,0,139257,139294,462.1387,376.6939,463.7081,364.0409 M,0,139294,139332,463.7081,364.0409,465.2775,351.3878 M,0,139332,139369,465.2775,351.3878,466.8469,338.7348 M,0,139369,139407,466.8469,338.7348,468.4162,326.0817 M,0,139407,139444,468.4162,326.0817,469.9856,313.4287 M,0,139444,139482,469.9856,313.4287,471.555,300.7756 M,0,139482,139519,471.555,300.7756,473.1243,288.1226 M,0,139519,139557,473.1243,288.1226,474.6937,275.4695 M,0,139557,139594,474.6937,275.4695,476.2631,262.8165 M,0,139594,139632,476.2631,262.8165,477.8324,250.1635 M,0,139632,139669,477.8324,250.1635,479.4018,237.5104 M,0,139669,139707,479.4018,237.5104,480.9712,224.8574 M,0,139707,139744,480.9712,224.8574,482.5406,212.2043 M,0,139744,139782,482.5406,212.2043,484.1099,199.5513 M,0,139782,139819,484.1099,199.5513,485.6793,186.8982 M,0,139819,139857,485.6793,186.8982,487.2487,174.2452 M,0,139857,139894,487.2487,174.2452,488.818,161.5921 M,0,139894,139931,488.818,161.5921,490.3874,148.9391
Sprite,Foreground,Centre,"sb\hl.png",0,0 C,0,140082,,223,223,223 M,0,140082,140119,574,178,568.8212,189.6118 F,2,140082,141581,1,0 S,2,140082,141581,0.7,0.14 P,0,140082,141581,A M,0,140119,140157,568.8212,189.6118,562.4703,200.626 M,0,140157,140194,562.4703,200.626,554.3079,210.3687 M,0,140194,140232,554.3079,210.3687,545.108,219.1229 M,0,140232,140269,545.108,219.1229,534.5888,226.2513 M,0,140269,140307,534.5888,226.2513,523.295,232.0361 M,0,140307,140344,523.295,232.0361,511.3065,236.2975 M,0,140344,140382,511.3065,236.2975,498.7615,238.3524 M,0,140382,140419,498.7615,238.3524,486.0739,239.0429 M,0,140419,140457,486.0739,239.0429,473.4501,237.5784 M,0,140457,140494,473.4501,237.5784,461.0987,234.6496 M,0,140494,140532,461.0987,234.6496,449.3631,229.7796 M,0,140532,140569,449.3631,229.7796,438.3544,223.4758 M,0,140569,140607,438.3544,223.4758,428.2467,215.7624 M,0,140607,140644,428.2467,215.7624,419.6367,206.4126 M,0,140644,140682,419.6367,206.4126,412.1364,196.1641 M,0,140682,140719,412.1364,196.1641,406.4226,184.8141 M,0,140719,140757,406.4226,184.8141,402.1362,172.8705 M,0,140757,140794,402.1362,172.8705,399.4499,160.4332 M,0,140794,140831,399.4499,160.4332,399.0284,147.7278
Sprite,Foreground,Centre,"sb\hl.png",0,0 C,0,140982,,223,223,223 M,0,140982,141019,293,113,291.147,125.6095 F,2,140982,142181,1,0 S,2,140982,142181,0.7,0.14 P,0,140982,142181,A M,0,141019,141057,291.147,125.6095,289.7623,138.28 M,0,141057,141094,289.7623,138.28,289.2352,151.0136 M,0,141094,141132,289.2352,151.0136,289.2042,163.7581 M,0,141132,141169,289.2042,163.7581,290.0087,176.4769 M,0,141169,141207,290.0087,176.4769,291.3315,189.1515 M,0,141207,141244,291.3315,189.1515,293.4587,201.7166 M,0,141244,141282,293.4587,201.7166,296.1203,214.1779 M,0,141282,141319,296.1203,214.1779,299.5469,226.4523 M,0,141319,141357,299.5469,226.4523,303.5168,238.5596 M,0,141357,141394,303.5168,238.5596,308.2055,250.4092 M,0,141394,141431,308.2055,250.4092,313.4388,262.0257
Sprite,Foreground,Centre,"sb\hl.png",401,329 C,0,141507,,223,223,223 F,2,141507,142257,1,0 S,2,141507,142257,0.7,0.14 P,0,141507,142257,A
Sprite,Foreground,Centre,"sb\hl.png",0,0 C,0,141582,,149,255,218 M,0,141582,141619,409,323,419.9277,316.5865 F,2,141582,143081,1,0 S,2,141582,143081,0.7,0.14 P,0,141582,143081,A M,0,141619,141657,419.9277,316.5865,429.8136,308.6358 M,0,141657,141694,429.8136,308.6358,437.2504,298.3843 M,0,141694,141732,437.2504,298.3843,443.0237,287.1124 M,0,141732,141769,443.0237,287.1124,445.7263,274.7445 M,0,141769,141807,445.7263,274.7445,446.3983,262.1169 M,0,141807,141844,446.3983,262.1169,443.9171,249.7072 M,0,141844,141882,443.9171,249.7072,439.3849,237.9189 M,0,141882,141919,439.3849,237.9189,432.139,227.5476 M,0,141919,141957,432.139,227.5476,423.2007,218.6431 M,0,141957,141994,423.2007,218.6431,412.4073,212.048 M,0,141994,142032,412.4073,212.048,400.6229,207.5688 M,0,142032,142069,400.6229,207.5688,388.1229,205.3856 M,0,142069,142107,388.1229,205.3856,375.5131,206.5728 M,0,142107,142144,375.5131,206.5728,363.2313,209.6723 M,0,142144,142182,363.2313,209.6723,352.1595,215.8123 M,0,142182,142219,352.1595,215.8123,342.2254,223.6402 M,0,142219,142257,342.2254,223.6402,334.5464,233.7001 M,0,142257,142294,334.5464,233.7001,328.6775,244.8852 M,0,142294,142331,328.6775,244.8852,325.1864,257.1079
Sprite,Foreground,Centre,"sb\hl.png",316,350 C,0,142407,,149,255,218 F,2,142407,143157,1,0 S,2,142407,143157,0.7,0.14 P,0,142407,143157,A
Sprite,Foreground,Centre,"sb\hl.png",0,0 C,0,142482,,149,255,218 M,0,142482,142519,320,362,327.9229,371.9626 F,2,142482,143831,1,0 S,2,142482,143831,0.7,0.14 P,0,142482,143831,A M,0,142519,142557,327.9229,371.9626,336.5898,381.2886 M,0,142557,142594,336.5898,381.2886,346.4361,389.3525 M,0,142594,142632,346.4361,389.3525,356.9083,396.5804 M,0,142632,142669,356.9083,396.5804,368.2339,402.3827 M,0,142669,142707,368.2339,402.3827,380.0157,407.1737 M,0,142707,142744,380.0157,407.1737,392.3099,410.4534 M,0,142744,142782,392.3099,410.4534,404.8446,412.5831 M,0,142782,142819,404.8446,412.5831,417.5522,413.463 M,0,142819,142857,417.5522,413.463,430.2489,412.5624 M,0,142857,142894,430.2489,412.5624,442.8382,410.6758 M,0,142894,142932,442.8382,410.6758,455.0567,407.1151 M,0,142932,142969,455.0567,407.1151,466.9341,402.554 M,0,142969,143007,466.9341,402.554,478.1239,396.4944 M,0,143007,143044,478.1239,396.4944,488.7299,389.4764 M,0,143044,143081,488.7299,389.4764,498.5681,381.3824
Sprite,Foreground,Centre,"sb\hl.png",0,0 C,0,143382,,149,255,218 M,0,143382,143419,576,250,578.0559,237.4465 F,2,143382,144281,1,0 S,2,143382,144281,0.7,0.14 P,0,143382,144281,A M,0,143419,143457,578.0559,237.4465,578.7112,224.7531 M,0,143457,143494,578.7112,224.7531,578.0389,212.0712 M,0,143494,143531,578.0389,212.0712,575.5566,199.6046
Sprite,Foreground,Centre,"sb\hl.png",0,0 C,0,143682,,149,255,218 M,0,143682,143719,503,169,500.4107,181.4455 F,2,143682,144581,1,0 S,2,143682,144581,0.7,0.14 P,0,143682,144581,A M,0,143719,143757,500.4107,181.4455,499.41,194.1049 M,0,143757,143794,499.41,194.1049,499.9702,206.7745 M,0,143794,143831,499.9702,206.7745,502.55,219.2091
Sprite,Foreground,Centre,"sb\hl.png",432,350 C,0,143982,,36,74,255 F,2,143982,144732,1,0 S,2,143982,144732,0.7,0.14 P,0,143982,144732,A
Sprite,Foreground,Centre,"sb\hl.png",371,164 C,0,144132,,36,74,255 F,2,144132,144882,1,0 S,2,144132,144882,0.7,0.14 P,0,144132,144882,A
Sprite,Foreground,Centre,"sb\hl.png",375,367 C,0,144432,,223,223,223 F,2,144432,145182,1,0 S,2,144432,145182,0.7,0.14 P,0,144432,145182,A
Sprite,Foreground,Centre,"sb\hl.png",429,147 C,0,144582,,223,223,223 F,2,144582,145332,1,0 S,2,144582,145332,0.7,0.14 P,0,144582,145332,A
Sprite,Foreground,Centre,"sb\hl.png",450,373 C,0,144882,,149,255,218 F,2,144882,145632,1,0 S,2,144882,145632,0.7,0.14 P,0,144882,145632,A
Sprite,Foreground,Centre,"sb\hl.png",354,141 C,0,145032,,149,255,218 F,2,145032,145782,1,0 S,2,145032,145782,0.7,0.14 P,0,145032,145782,A
Sprite,Foreground,Centre,"sb\hl.png",366,393 C,0,145332,,36,74,255 F,2,145332,146082,1,0 S,2,145332,146082,0.7,0.14 P,0,145332,146082,A
Sprite,Foreground,Centre,"sb\hl.png",438,121 C,0,145482,,36,74,255 F,2,145482,146232,1,0 S,2,145482,146232,0.7,0.14 P,0,145482,146232,A
Sprite,Foreground,Centre,"sb\hl.png",343,304 C,0,145782,,223,223,223 F,2,145782,146532,1,0 S,2,145782,146532,0.7,0.14 P,0,145782,146532,A
Sprite,Foreground,Centre,"sb\hl.png",173,168 C,0,146382,,149,255,218 F,2,146382,147132,1,0 S,2,146382,147132,0.7,0.14 P,0,146382,147132,A
Sprite,Foreground,Centre,"sb\hl.png",234,354 C,0,146532,,149,255,218 F,2,146532,147282,1,0 S,2,146532,147282,0.7,0.14 P,0,146532,147282,A
Sprite,Foreground,Centre,"sb\hl.png",230,151 C,0,146832,,36,74,255 F,2,146832,147582,1,0 S,2,146832,147582,0.7,0.14 P,0,146832,147582,A
Sprite,Foreground,Centre,"sb\hl.png",176,371 C,0,146982,,36,74,255 F,2,146982,147732,1,0 S,2,146982,147732,0.7,0.14 P,0,146982,147732,A
Sprite,Foreground,Centre,"sb\hl.png",155,145 C,0,147282,,223,223,223 F,2,147282,148032,1,0 S,2,147282,148032,0.7,0.14 P,0,147282,148032,A
Sprite,Foreground,Centre,"sb\hl.png",251,377 C,0,147432,,223,223,223 F,2,147432,148182,1,0 S,2,147432,148182,0.7,0.14 P,0,147432,148182,A
Sprite,Foreground,Centre,"sb\hl.png",239,125 C,0,147732,,149,255,218 F,2,147732,148482,1,0 S,2,147732,148482,0.7,0.14 P,0,147732,148482,A
Sprite,Foreground,Centre,"sb\hl.png",167,397 C,0,147882,,149,255,218 F,2,147882,148632,1,0 S,2,147882,148632,0.7,0.14 P,0,147882,148632,A
Sprite,Foreground,Centre,"sb\hl.png",68,211 C,0,148182,,36,74,255 F,2,148182,148932,1,0 S,2,148182,148932,0.7,0.14 P,0,148182,148932,A
Sprite,Foreground,Centre,"sb\hl.png",0,0 C,0,148782,,223,223,223 M,0,148782,148819,171,277,183.4129,274.195 F,2,148782,150281,1,0 S,2,148782,150281,0.7,0.14 P,0,148782,150281,A M,0,148819,148857,183.4129,274.195,195.5516,270.3677 M,0,148857,148894,195.5516,270.3677,207.0072,264.831 M,0,148894,148932,207.0072,264.831,217.9193,258.2965 M,0,148932,148969,217.9193,258.2965,227.8256,250.3152 M,0,148969,149007,227.8256,250.3152,236.9191,241.432 M,0,149007,149044,236.9191,241.432,244.7644,231.4194 M,0,149044,149082,244.7644,231.4194,251.546,220.6729 M,0,149082,149119,251.546,220.6729,257.1536,209.2434 M,0,149119,149157,257.1536,209.2434,261.0271,197.1231 M,0,149157,149194,261.0271,197.1231,263.8281,184.7136 M,0,149194,149232,263.8281,184.7136,264.8619,172.0336 M,0,149232,149269,264.8619,172.0336,264.7076,159.3202 M,0,149269,149307,264.7076,159.3202,262.8491,146.7362 M,0,149307,149344,262.8491,146.7362,259.7505,134.4109 M,0,149344,149382,259.7505,134.4109,255.3465,122.4622 M,0,149382,149419,255.3465,122.4622,249.2243,111.3068 M,0,149419,149457,249.2243,111.3068,242.174,100.714 M,0,149457,149494,242.174,100.714,233.6906,91.23254 M,0,149494,149531,233.6906,91.23254,224.4354,82.49538
Sprite,Foreground,Centre,"sb\hl.png",0,0 C,0,149682,,223,223,223 M,0,149682,149719,151,167,163.6797,165.6629 F,2,149682,151181,1,0 S,2,149682,151181,0.7,0.14 P,0,149682,151181,A M,0,149719,149757,163.6797,165.6629,176.3594,164.3257 M,0,149757,149794,176.3594,164.3257,189.0391,162.9886 M,0,149794,149832,189.0391,162.9886,201.7188,161.6515 M,0,149832,149869,201.7188,161.6515,214.3985,160.3143 M,0,149869,149907,214.3985,160.3143,227.0782,158.9772 M,0,149907,149944,227.0782,158.9772,239.7578,157.6401 M,0,149944,149982,239.7578,157.6401,252.4375,156.3029 M,0,149982,150019,252.4375,156.3029,265.1172,154.9658 M,0,150019,150057,265.1172,154.9658,277.7969,153.6287 M,0,150057,150094,277.7969,153.6287,290.4766,152.2916 M,0,150094,150132,290.4766,152.2916,303.1563,150.9544 M,0,150132,150169,303.1563,150.9544,315.836,149.6173 M,0,150169,150207,315.836,149.6173,328.5157,148.2802 M,0,150207,150244,328.5157,148.2802,341.1954,146.943 M,0,150244,150282,341.1954,146.943,353.8751,145.6059 M,0,150282,150319,353.8751,145.6059,366.5547,144.2688 M,0,150319,150357,366.5547,144.2688,379.2344,142.9316 M,0,150357,150394,379.2344,142.9316,391.9141,141.5945 M,0,150394,150431,391.9141,141.5945,404.5938,140.2574
Sprite,Foreground,Centre,"sb\hl.png",0,0 C,0,150582,,223,223,223 M,0,150582,150619,556,156,543.3192,154.6729 F,2,150582,151781,1,0 S,2,150582,151781,0.7,0.14 P,0,150582,151781,A M,0,150619,150657,543.3192,154.6729,530.6385,153.3459 M,0,150657,150694,530.6385,153.3459,517.9578,152.0188 M,0,150694,150732,517.9578,152.0188,505.277,150.6918 M,0,150732,150769,505.277,150.6918,492.5963,149.3647 M,0,150769,150807,492.5963,149.3647,479.9155,148.0377 M,0,150807,150844,479.9155,148.0377,467.2347,146.7106 M,0,150844,150882,467.2347,146.7106,454.554,145.3836 M,0,150882,150919,454.554,145.3836,441.8733,144.0565 M,0,150919,150957,441.8733,144.0565,429.1925,142.7294 M,0,150957,150994,429.1925,142.7294,416.5117,141.4024 M,0,150994,151031,416.5117,141.4024,403.831,140.0753
Sprite,Foreground,Centre,"sb\hl.png",354,217 C,0,151107,,223,223,223 F,2,151107,151857,1,0 S,2,151107,151857,0.7,0.14 P,0,151107,151857,A
Sprite,Foreground,Centre,"sb\hl.png",0,0 C,0,151182,,149,255,218 M,0,151182,151219,369,220,381.6464,219.1759 F,2,151182,152681,1,0 S,2,151182,152681,0.7,0.14 P,0,151182,152681,A M,0,151219,151257,381.6464,219.1759,394.2818,220.2317 M,0,151257,151294,394.2818,220.2317,406.2134,224.4805 M,0,151294,151332,406.2134,224.4805,417.3086,230.561 M,0,151332,151369,417.3086,230.561,426.5775,239.1835 M,0,151369,151407,426.5775,239.1835,434.2355,249.2276 M,0,151407,151444,434.2355,249.2276,439.3299,260.8116 M,0,151444,151482,439.3299,260.8116,442.2464,273.0849 M,0,151482,151519,442.2464,273.0849,442.7863,285.7646 M,0,151519,151557,442.7863,285.7646,440.0194,298.127 M,0,151557,151594,440.0194,298.127,435.3774,309.9069 M,0,151594,151632,435.3774,309.9069,427.945,320.1574 M,0,151632,151669,427.945,320.1574,418.9375,329.0219 M,0,151669,151707,418.9375,329.0219,408.0577,335.4882 M,0,151707,151744,408.0577,335.4882,396.2435,339.9256 M,0,151744,151782,396.2435,339.9256,383.7195,342.0555 M,0,151782,151819,383.7195,342.0555,371.1095,340.8124 M,0,151819,151857,371.1095,340.8124,358.8298,337.6841 M,0,151857,151894,358.8298,337.6841,347.7494,331.5525 M,0,151894,151931,347.7494,331.5525,337.8172,323.7249
Sprite,Foreground,Centre,"sb\hl.png",0,0 C,0,152082,,149,255,218 M,0,152082,152119,254,299,252.4186,311.6516 F,2,152082,152981,1,0 S,2,152082,152981,0.7,0.14 P,0,152082,152981,A M,0,152119,152157,252.4186,311.6516,250.8371,324.3031 M,0,152157,152194,250.8371,324.3031,249.2557,336.9546 M,0,152194,152231,249.2557,336.9546,247.6742,349.6062
Sprite,Foreground,Centre,"sb\hl.png",0,0 C,0,152382,,149,255,218 M,0,152382,152419,171,261,172.5815,273.6516 F,2,152382,153281,1,0 S,2,152382,153281,0.7,0.14 P,0,152382,153281,A M,0,152419,152457,172.5815,273.6516,174.1629,286.3031 M,0,152457,152494,174.1629,286.3031,175.7443,298.9546 M,0,152494,152531,175.7443,298.9546,177.3258,311.6062
Sprite,Foreground,Centre,"sb\hl.png",0,0 C,0,152682,,149,255,218 M,0,152682,152719,100,224,98.41856,236.6516 F,2,152682,153581,1,0 S,2,152682,153581,0.7,0.14 P,0,152682,153581,A M,0,152719,152757,98.41856,236.6516,96.83711,249.3031 M,0,152757,152794,96.83711,249.3031,95.25568,261.9546 M,0,152794,152831,95.25568,261.9546,93.67422,274.6062
Sprite,Foreground,Centre,"sb\hl.png",0,0 C,0,152982,,149,255,218 M,0,152982,153019,200,185,198.4186,172.3484 F,2,152982,154031,1,0 S,2,152982,154031,0.7,0.14 P,0,152982,154031,A M,0,153019,153057,198.4186,172.3484,196.8371,159.6969 M,0,153057,153094,196.8371,159.6969,195.2557,147.0454 M,0,153094,153132,195.2557,147.0454,193.6742,134.3938 M,0,153132,153169,193.6742,134.3938,192.0928,121.7423 M,0,153169,153207,192.0928,121.7423,190.5114,109.0907 M,0,153207,153244,190.5114,109.0907,188.9299,96.4392 M,0,153244,153281,188.9299,96.4392,187.3484,83.78766
Sprite,Foreground,Centre,"sb\hl.png",122,301 C,0,153582,,36,74,255 F,2,153582,154332,1,0 S,2,153582,154332,0.7,0.14 P,0,153582,154332,A
Sprite,Foreground,Centre,"sb\hl.png",353,252 C,0,153732,,36,74,255 F,2,153732,154482,1,0 S,2,153732,154482,0.7,0.14 P,0,153732,154482,A
Sprite,Foreground,Centre,"sb\hl.png",118,244 C,0,154032,,223,223,223 F,2,154032,154782,1,0 S,2,154032,154782,0.7,0.14 P,0,154032,154782,A
Sprite,Foreground,Centre,"sb\hl.png",356,311 C,0,154182,,223,223,223 F,2,154182,154932,1,0 S,2,154182,154932,0.7,0.14 P,0,154182,154932,A
Sprite,Foreground,Centre,"sb\hl.png",101,325 C,0,154482,,149,255,218 F,2,154482,155232,1,0 S,2,154482,155232,0.7,0.14 P,0,154482,155232,A
Sprite,Foreground,Centre,"sb\hl.png",373,229 C,0,154632,,149,255,218 F,2,154632,155382,1,0 S,2,154632,155382,0.7,0.14 P,0,154632,155382,A
Sprite,Foreground,Centre,"sb\hl.png",100,224 C,0,154932,,36,74,255 F,2,154932,155682,1,0 S,2,154932,155682,0.7,0.14 P,0,154932,155682,A
Sprite,Foreground,Centre,"sb\hl.png",375,330 C,0,155082,,36,74,255 F,2,155082,155832,1,0 S,2,155082,155832,0.7,0.14 P,0,155082,155832,A
Sprite,Foreground,Centre,"sb\hl.png",112,214 C,0,155232,,36,74,255 F,2,155232,155982,1,0 S,2,155232,155982,0.7,0.14 P,0,155232,155982,A
Sprite,Foreground,Centre,"sb\hl.png",387,322 C,0,155382,,36,74,255 F,2,155382,156132,1,0 S,2,155382,156132,0.7,0.14 P,0,155382,156132,A
Sprite,Foreground,Centre,"sb\hl.png",222,209 C,0,155982,,223,223,223 F,2,155982,156732,1,0 S,2,155982,156732,0.7,0.14 P,0,155982,156732,A
Sprite,Foreground,Centre,"sb\hl.png",453,160 C,0,156132,,223,223,223 F,2,156132,156882,1,0 S,2,156132,156882,0.7,0.14 P,0,156132,156882,A
Sprite,Foreground,Centre,"sb\hl.png",218,152 C,0,156432,,149,255,218 F,2,156432,157182,1,0 S,2,156432,157182,0.7,0.14 P,0,156432,157182,A
Sprite,Foreground,Centre,"sb\hl.png",456,219 C,0,156582,,149,255,218 F,2,156582,157332,1,0 S,2,156582,157332,0.7,0.14 P,0,156582,157332,A
Sprite,Foreground,Centre,"sb\hl.png",201,233 C,0,156882,,36,74,255 F,2,156882,157632,1,0 S,2,156882,157632,0.7,0.14 P,0,156882,157632,A
Sprite,Foreground,Centre,"sb\hl.png",473,137 C,0,157032,,36,74,255 F,2,157032,157782,1,0 S,2,157032,157782,0.7,0.14 P,0,157032,157782,A
Sprite,Foreground,Centre,"sb\hl.png",200,132 C,0,157332,,223,223,223 F,2,157332,158082,1,0 S,2,157332,158082,0.7,0.14 P,0,157332,158082,A
Sprite,Foreground,Centre,"sb\hl.png",475,238 C,0,157482,,223,223,223 F,2,157482,158232,1,0 S,2,157482,158232,0.7,0.14 P,0,157482,158232,A
Sprite,Foreground,Centre,"sb\hl.png",212,122 C,0,157632,,223,223,223 F,2,157632,158382,1,0 S,2,157632,158382,0.7,0.14 P,0,157632,158382,A
Sprite,Foreground,Centre,"sb\hl.png",487,230 C,0,157782,,223,223,223 F,2,157782,158532,1,0 S,2,157782,158532,0.7,0.14 P,0,157782,158532,A
Sprite,Foreground,Centre,"sb\hl.png",0,0 C,0,158382,,149,255,218 M,0,158382,158419,487,230,481.9699,245.1055 F,2,158382,159282,1,0 S,2,158382,159282,0.7,0.14 P,0,158382,159282,A M,0,158419,158457,481.9699,245.1055,478.29,260.583 M,0,158457,158494,478.29,260.583,476.1946,276.3536 M,0,158494,158532,476.1946,276.3536,475.7051,292.2555
Sprite,Foreground,Centre,"sb\hl.png",0,0 C,0,158682,,149,255,218 M,0,158682,158719,394,384,393.0801,368.1028 F,2,158682,159582,1,0 S,2,158682,159582,0.7,0.14 P,0,158682,159582,A M,0,158719,158757,393.0801,368.1028,390.8714,352.343 M,0,158757,158794,390.8714,352.343,387.2023,336.8579 M,0,158794,158832,387.2023,336.8579,382.2654,321.7189
Sprite,Foreground,Centre,"sb\hl.png",305,248 C,0,158982,,149,255,218 F,2,158982,159732,1,0 S,2,158982,159732,0.7,0.14 P,0,158982,159732,A
Sprite,Foreground,Centre,"sb\hl.png",305,248 C,0,159057,,149,255,218 F,2,159057,159807,1,0 S,2,159057,159807,0.7,0.14 P,0,159057,159807,A
Sprite,Foreground,Centre,"sb\hl.png",305,248 C,0,159132,,149,255,218 F,2,159132,159882,1,0 S,2,159132,159882,0.7,0.14 P,0,159132,159882,A
Sprite,Foreground,Centre,"sb\hl.png",0,0 C,0,159282,,149,255,218 M,0,159282,159319,217,304,201.3441,306.6718 F,2,159282,160182,1,0 S,2,159282,160182,0.7,0.14 P,0,159282,160182,A M,0,159319,159357,201.3441,306.6718,185.5026,306.7808 M,0,159357,159394,185.5026,306.7808,169.9147,303.9528 M,0,159394,159432,169.9147,303.9528,155.12,298.2853
Sprite,Foreground,Centre,"sb\hl.png",0,0 C,0,159732,,36,74,255 M,0,159732,159769,64,139,64.19139,123.0872 F,2,159732,160632,1,0 S,2,159732,160632,0.7,0.14 P,0,159732,160632,A M,0,159769,159807,64.19139,123.0872,65.80534,107.2557 M,0,159807,159844,65.80534,107.2557,64.19139,123.0872 M,0,159844,159882,64.19139,123.0872,64,139
Sprite,Foreground,Centre,"sb\hl.png",99,245 C,0,160032,,36,74,255 F,2,160032,160782,1,0 S,2,160032,160782,0.7,0.14 P,0,160032,160782,A
Sprite,Foreground,Centre,"sb\hl.png",169,101 C,0,160182,,36,74,255 F,2,160182,160932,1,0 S,2,160182,160932,0.7,0.14 P,0,160182,160932,A
Sprite,Foreground,Centre,"sb\hl.png",169,101 C,0,160257,,36,74,255 F,2,160257,161007,1,0 S,2,160257,161007,0.7,0.14 P,0,160257,161007,A
Sprite,Foreground,Centre,"sb\hl.png",169,101 C,0,160332,,36,74,255 F,2,160332,161082,1,0 S,2,160332,161082,0.7,0.14 P,0,160332,161082,A
Sprite,Foreground,Centre,"sb\hl.png",0,0 C,0,160482,,36,74,255 M,0,160482,160519,237,166,251.6185,172.3058 F,2,160482,161382,1,0 S,2,160482,161382,0.7,0.14 P,0,160482,161382,A M,0,160519,160557,251.6185,172.3058,266.6823,177.4254 M,0,160557,160594,266.6823,177.4254,282.1662,181.1028 M,0,160594,160632,282.1662,181.1028,297.9348,183.3045
Sprite,Foreground,Centre,"sb\hl.png",0,0 C,0,160782,,223,223,223 M,0,160782,160819,450,90,436.9983,99.19077 F,2,160782,161682,1,0 S,2,160782,161682,0.7,0.14 P,0,160782,161682,A M,0,160819,160857,436.9983,99.19077,424.8542,109.4707 M,0,160857,160894,424.8542,109.4707,413.7934,120.9081 M,0,160894,160932,413.7934,120.9081,403.9258,133.3896
Sprite,Foreground,Centre,"sb\hl.png",397,216 C,0,161082,,223,223,223 F,2,161082,161832,1,0 S,2,161082,161832,0.7,0.14 P,0,161082,161832,A
Sprite,Foreground,Centre,"sb\hl.png",430,291 C,0,161232,,223,223,223 F,2,161232,161982,1,0 S,2,161232,161982,0.7,0.14 P,0,161232,161982,A
Sprite,Foreground,Centre,"sb\hl.png",538,187 C,0,161382,,223,223,223 F,2,161382,162132,1,0 S,2,161382,162132,0.7,0.14 P,0,161382,162132,A
Sprite,Foreground,Centre,"sb\hl.png",538,187 C,0,161457,,223,223,223 F,2,161457,162207,1,0 S,2,161457,162207,0.7,0.14 P,0,161457,162207,A
Sprite,Foreground,Centre,"sb\hl.png",538,187 C,0,161532,,223,223,223 F,2,161532,162282,1,0 S,2,161532,162282,0.7,0.14 P,0,161532,162282,A
Sprite,Foreground,Centre,"sb\hl.png",0,0 C,0,161682,,223,223,223 M,0,161682,161719,397,216,412.8627,217.5422 F,2,161682,162582,1,0 S,2,161682,162582,0.7,0.14 P,0,161682,162582,A M,0,161719,161757,412.8627,217.5422,428.7254,219.0844 M,0,161757,161794,428.7254,219.0844,444.5881,220.6266 M,0,161794,161832,444.5881,220.6266,460.4508,222.1688
Sprite,Foreground,Centre,"sb\hl.png",529,112 C,0,161982,,149,255,218 F,2,161982,162732,1,0 S,2,161982,162732,0.7,0.14 P,0,161982,162732,A
Sprite,Foreground,Centre,"sb\hl.png",0,0 C,0,162132,,149,255,218 M,0,162132,162169,529,112,530.6685,96.15007 F,2,162132,163032,1,0 S,2,162132,163032,0.7,0.14 P,0,162132,163032,A M,0,162169,162207,530.6685,96.15007,532.3368,80.30014 M,0,162207,162244,532.3368,80.30014,530.6685,96.15007 M,0,162244,162282,530.6685,96.15007,529,112
Sprite,Foreground,Centre,"sb\hl.png",400,219 C,0,162432,,149,255,218 F,2,162432,163182,1,0 S,2,162432,163182,0.7,0.14 P,0,162432,163182,A
Sprite,Foreground,Centre,"sb\hl.png",0,0 C,0,162582,,149,255,218 M,0,162582,162619,400,219,401.6684,234.8499 F,2,162582,163482,1,0 S,2,162582,163482,0.7,0.14 P,0,162582,163482,A M,0,162619,162657,401.6684,234.8499,403.3368,250.6999 M,0,162657,162694,403.3368,250.6999,401.6684,234.8499 M,0,162694,162732,401.6684,234.8499,400,219
Sprite,Foreground,Centre,"sb\hl.png",0,0 C,0,162882,,149,255,218 M,0,162882,162919,330,126,315.6385,119.1358 F,2,162882,163782,1,0 S,2,162882,163782,0.7,0.14 P,0,162882,163782,A M,0,162919,162957,315.6385,119.1358,300.7244,113.6133 M,0,162957,162994,300.7244,113.6133,285.3053,109.7083 M,0,162994,163032,285.3053,109.7083,269.5552,107.4653
Sprite,Foreground,Centre,"sb\hl.png",0,0 C,0,163182,,36,74,255 M,0,163182,163219,266,264,281.7532,261.6695 F,2,163182,164082,1,0 S,2,163182,164082,0.7,0.14 P,0,163182,164082,A M,0,163219,163257,281.7532,261.6695,297.3066,258.2855 M,0,163257,163294,297.3066,258.2855,312.5419,253.6588 M,0,163294,163332,312.5419,253.6588,327,248
Sprite,Foreground,Centre,"sb\hl.png",0,0 C,0,163482,,36,74,255 M,0,163482,163519,404,155,400.3877,170.4982 F,2,163482,164382,1,0 S,2,163482,164382,0.7,0.14 P,0,163482,164382,A M,0,163519,163557,400.3877,170.4982,398.1982,186.2473 M,0,163557,163594,398.1982,186.2473,397.7346,202.1514 M,0,163594,163632,397.7346,202.1514,399,218
Sprite,Foreground,Centre,"sb\hl.png",460,315 C,0,163782,,36,74,255 F,2,163782,164532,1,0 S,2,163782,164532,0.7,0.14 P,0,163782,164532,A
Sprite,Foreground,Centre,"sb\hl.png",460,315 C,0,163857,,36,74,255 F,2,163857,164607,1,0 S,2,163857,164607,0.7,0.14 P,0,163857,164607,A
Sprite,Foreground,Centre,"sb\hl.png",460,315 C,0,163932,,36,74,255 F,2,163932,164682,1,0 S,2,163932,164682,0.7,0.14 P,0,163932,164682,A
Sprite,Foreground,Centre,"sb\hl.png",0,0 C,0,164082,,36,74,255 M,0,164082,164119,544,226,532.2358,215.2722 F,2,164082,164982,1,0 S,2,164082,164982,0.7,0.14 P,0,164082,164982,A M,0,164119,164157,532.2358,215.2722,519.5734,205.6408 M,0,164157,164194,519.5734,205.6408,505.9948,197.3509 M,0,164194,164232,505.9948,197.3509,491.713,190.3147
Sprite,Foreground,Centre,"sb\hl.png",376,221 C,0,164382,,223,223,223 F,2,164382,165132,1,0 S,2,164382,165132,0.7,0.14 P,0,164382,165132,A
Sprite,Foreground,Centre,"sb\hl.png",0,0 C,0,164532,,223,223,223 M,0,164532,164569,376,221,391.3196,216.761 F,2,164532,165432,1,0 S,2,164532,165432,0.7,0.14 P,0,164532,165432,A M,0,164569,164607,391.3196,216.761,405.882,210.4659 M,0,164607,164644,405.882,210.4659,391.3196,216.761 M,0,164644,164682,391.3196,216.761,376,221
Sprite,Foreground,Centre,"sb\hl.png",227,208 C,0,164832,,223,223,223 F,2,164832,165582,1,0 S,2,164832,165582,0.7,0.14 P,0,164832,165582,A
Sprite,Foreground,Centre,"sb\hl.png",322,283 C,0,164982,,223,223,223 F,2,164982,165732,1,0 S,2,164982,165732,0.7,0.14 P,0,164982,165732,A
Sprite,Foreground,Centre,"sb\hl.png",322,283 C,0,165057,,223,223,223 F,2,165057,165807,1,0 S,2,165057,165807,0.7,0.14 P,0,165057,165807,A
Sprite,Foreground,Centre,"sb\hl.png",322,283 C,0,165132,,223,223,223 F,2,165132,165882,1,0 S,2,165132,165882,0.7,0.14 P,0,165132,165882,A
Sprite,Foreground,Centre,"sb\hl.png",0,0 C,0,165282,,223,223,223 M,0,165282,165319,357,147,360.4419,131.449 F,2,165282,166182,1,0 S,2,165282,166182,0.7,0.14 P,0,165282,166182,A M,0,165319,165357,360.4419,131.449,362.8702,115.715 M,0,165357,165394,362.8702,115.715,364.1009,99.841 M,0,165394,165432,364.1009,99.841,364.2018,83.91286
Sprite,Foreground,Centre,"sb\hl.png",0,0 C,0,165582,,149,255,218 M,0,165582,165619,227,208,227.1212,223.9257 F,2,165582,166482,1,0 S,2,165582,166482,0.7,0.14 P,0,165582,166482,A M,0,165619,165657,227.1212,223.9257,228.2394,239.8063 M,0,165657,165694,228.2394,239.8063,230.5477,255.5629 M,0,165694,165732,230.5477,255.5629,234,271
Sprite,Foreground,Centre,"sb\hl.png",0,0 C,0,165882,,149,255,218 M,0,165882,165919,333,365,336.4419,349.449 F,2,165882,166782,1,0 S,2,165882,166782,0.7,0.14 P,0,165882,166782,A M,0,165919,165957,336.4419,349.449,338.8702,333.715 M,0,165957,165994,338.8702,333.715,340.1009,317.841 M,0,165994,166032,340.1009,317.841,340.2018,301.9128
Sprite,Foreground,Centre,"sb\hl.png",265,428 C,0,166182,,149,255,218 F,2,166182,166932,1,0 S,2,166182,166932,0.7,0.14 P,0,166182,166932,A
Sprite,Foreground,Centre,"sb\hl.png",265,428 C,0,166257,,149,255,218 F,2,166257,167007,1,0 S,2,166257,167007,0.7,0.14 P,0,166257,167007,A
Sprite,Foreground,Centre,"sb\hl.png",265,428 C,0,166332,,149,255,218 F,2,166332,167082,1,0 S,2,166332,167082,0.7,0.14 P,0,166332,167082,A
Sprite,Foreground,Centre,"sb\hl.png",0,0 C,0,166482,,149,255,218 M,0,166482,166519,418,413,404.2709,404.9601 F,2,166482,167382,1,0 S,2,166482,167382,0.7,0.14 P,0,166482,167382,A M,0,166519,166557,404.2709,404.9601,389.8035,398.3834 M,0,166557,166594,389.8035,398.3834,374.6385,393.6112 M,0,166594,166632,374.6385,393.6112,358.997,390.7152
Sprite,Foreground,Centre,"sb\hl.png",265,428 C,0,166782,,36,74,255 F,2,166782,167532,1,0 S,2,166782,167532,0.7,0.14 P,0,166782,167532,A
Sprite,Foreground,Centre,"sb\hl.png",0,0 C,0,166932,,36,74,255 M,0,166932,166969,202,339,198.8664,323.4123 F,2,166932,167832,1,0 S,2,166932,167832,0.7,0.14 P,0,166932,167832,A M,0,166969,167007,198.8664,323.4123,197.7971,307.5763 M,0,167007,167044,197.7971,307.5763,198.8664,323.4123 M,0,167044,167082,198.8664,323.4123,202,339
Sprite,Foreground,Centre,"sb\hl.png",265,428 C,0,167232,,36,74,255 F,2,167232,167982,1,0 S,2,167232,167982,0.7,0.14 P,0,167232,167982,A
Sprite,Foreground,Centre,"sb\hl.png",340,301 C,0,167382,,36,74,255 F,2,167382,168132,1,0 S,2,167382,168132,0.7,0.14 P,0,167382,168132,A
Sprite,Foreground,Centre,"sb\hl.png",340,301 C,0,167457,,36,74,255 F,2,167457,168207,1,0 S,2,167457,168207,0.7,0.14 P,0,167457,168207,A
Sprite,Foreground,Centre,"sb\hl.png",340,301 C,0,167532,,36,74,255 F,2,167532,168282,1,0 S,2,167532,168282,0.7,0.14 P,0,167532,168282,A
Sprite,Foreground,Centre,"sb\hl.png",0,0 C,0,167682,,36,74,255 M,0,167682,167719,479,379,464.8188,386.196 F,2,167682,168582,1,0 S,2,167682,168582,0.7,0.14 P,0,167682,168582,A M,0,167719,167757,464.8188,386.196,449.9063,391.6506 M,0,167757,167794,449.9063,391.6506,434.3747,394.9783 M,0,167794,167832,434.3747,394.9783,418.5232,396.1131
Sprite,Foreground,Centre,"sb\hl.png",0,0 C,0,167982,,223,223,223 M,0,167982,168019,533,253,538.4938,267.9095 F,2,167982,168882,1,0 S,2,167982,168882,0.7,0.14 P,0,167982,168882,A M,0,168019,168057,538.4938,267.9095,541.874,283.4026 M,0,168057,168094,541.874,283.4026,542.7024,299.2466 M,0,168094,168132,542.7024,299.2466,540.9537,315.0281
Sprite,Foreground,Centre,"sb\hl.png",0,0 C,0,168282,,223,223,223 M,0,168282,168319,436,176,451.7522,173.5766 F,2,168282,169332,1,0 S,2,168282,169332,0.7,0.14 P,0,168282,169332,A M,0,168319,168357,451.7522,173.5766,467.5043,171.1532 M,0,168357,168394,467.5043,171.1532,483.2565,168.7298 M,0,168394,168432,483.2565,168.7298,499.0087,166.3064 M,0,168432,168469,499.0087,166.3064,514.7609,163.8829 M,0,168469,168507,514.7609,163.8829,530.5131,161.4595 M,0,168507,168544,530.5131,161.4595,546.2653,159.0361 M,0,168544,168582,546.2653,159.0361,562.0174,156.6127
Sprite,Foreground,Centre,"sb\hl.png",0,0 C,0,168732,,223,223,223 M,0,168732,168769,461,294,445.1943,291.9546 F,2,168732,169632,1,0 S,2,168732,169632,0.7,0.14 P,0,168732,169632,A M,0,168769,168807,445.1943,291.9546,429.3886,289.9091 M,0,168807,168844,429.3886,289.9091,413.5829,287.8637 M,0,168844,168882,413.5829,287.8637,397.7772,285.8182
Sprite,Foreground,Centre,"sb\hl.png",310,276 C,0,169032,,223,223,223 F,2,169032,169782,1,0 S,2,169032,169782,0.7,0.14 P,0,169032,169782,A
Sprite,Foreground,Centre,"sb\hl.png",436,176 C,0,169182,,149,255,218 F,2,169182,169932,1,0 S,2,169182,169932,0.7,0.14 P,0,169182,169932,A
Sprite,Foreground,Centre,"sb\hl.png",0,0 C,0,169332,,149,255,218 M,0,169332,169369,349,191,333.2596,193.4985 F,2,169332,170232,1,0 S,2,169332,170232,0.7,0.14 P,0,169332,170232,A M,0,169369,169407,333.2596,193.4985,317.5191,195.997 M,0,169407,169444,317.5191,195.997,301.7787,198.4955 M,0,169444,169482,301.7787,198.4955,286.0382,200.9939
Sprite,Foreground,Centre,"sb\hl.png",0,0 C,0,169632,,149,255,218 M,0,169632,169669,164,254,179.8634,255.5352 F,2,169632,170532,1,0 S,2,169632,170532,0.7,0.14 P,0,169632,170532,A M,0,169669,169707,179.8634,255.5352,195.7268,257.0703 M,0,169707,169744,195.7268,257.0703,211.5902,258.6055 M,0,169744,169782,211.5902,258.6055,226,260
Sprite,Foreground,Centre,"sb\hl.png",94,196 C,0,169932,,149,255,218 F,2,169932,170682,1,0 S,2,169932,170682,0.7,0.14 P,0,169932,170682,A
Sprite,Foreground,Centre,"sb\hl.png",148,335 C,0,170082,,149,255,218 F,2,170082,170832,1,0 S,2,170082,170832,0.7,0.14 P,0,170082,170832,A
Sprite,Foreground,Centre,"sb\hl.png",192,160 C,0,170232,,149,255,218 F,2,170232,170982,1,0 S,2,170232,170982,0.7,0.14 P,0,170232,170982,A
Sprite,Foreground,Centre,"sb\hl.png",0,0 C,0,170382,,36,74,255 M,0,170382,170419,65,300,61.51077,315.5054 F,2,170382,171282,1,0 S,2,170382,171282,0.7,0.14 P,0,170382,171282,A M,0,170419,170457,61.51077,315.5054,60.31425,331.321 M,0,170457,170494,60.31425,331.321,61.77009,347.1151 M,0,170494,170532,61.77009,347.1151,65.83768,362.4461
Sprite,Foreground,Centre,"sb\hl.png",0,0 C,0,170682,,36,74,255 M,0,170682,170719,134,434,146.4552,424.0865 F,2,170682,171732,1,0 S,2,170682,171732,0.7,0.14 P,0,170682,171732,A M,0,170719,170757,146.4552,424.0865,159.7377,415.3365 M,0,170757,170794,159.7377,415.3365,173.8612,408.0183 M,0,170794,170832,173.8612,408.0183,188.6726,402.2115 M,0,170832,170869,188.6726,402.2115,204.0113,397.9797 M,0,170869,170907,204.0113,397.9797,219.711,395.3696 M,0,170907,170944,219.711,395.3696,235.6013,394.4102 M,0,170944,170982,235.6013,394.4102,251.5136,395.0884
Sprite,Foreground,Centre,"sb\hl.png",0,0 C,0,171132,,36,74,255 M,0,171132,171169,408,426,392.6265,430.0228 F,2,171132,172032,1,0 S,2,171132,172032,0.7,0.14 P,0,171132,172032,A M,0,171169,171207,392.6265,430.0228,376.8595,431.7115 M,0,171207,171244,376.8595,431.7115,361.0352,430.6871 M,0,171244,171282,361.0352,430.6871,345.6168,426.9798
Sprite,Foreground,Centre,"sb\hl.png",417,311 C,0,171432,,36,74,255 F,2,171432,172182,1,0 S,2,171432,172182,0.7,0.14 P,0,171432,172182,A
Sprite,Foreground,Centre,"sb\hl.png",503,400 C,0,171582,,223,223,223 F,2,171582,172332,1,0 S,2,171582,172332,0.7,0.14 P,0,171582,172332,A
Sprite,Foreground,Centre,"sb\hl.png",0,0 C,0,171732,,223,223,223 M,0,171732,171769,533,317,537.056,301.5939 F,2,171732,172782,1,0 S,2,171732,172782,0.7,0.14 P,0,171732,172782,A M,0,171769,171807,537.056,301.5939,540.2697,285.995 M,0,171807,171844,540.2697,285.995,542.5011,270.2255 M,0,171844,171882,542.5011,270.2255,543.7417,254.347 M,0,171882,171919,543.7417,254.347,543.9866,238.4218 M,0,171919,171957,543.9866,238.4218,543.2349,222.5122 M,0,171957,171994,543.2349,222.5122,541.4891,206.6803 M,0,171994,172032,541.4891,206.6803,538.8221,190.9735
Sprite,Foreground,Centre,"sb\hl.png",0,0 C,0,172082,,223,223,223 M,0,172082,172119,535,179,520.7451,186.1275 F,2,172082,173082,1,0 S,2,172082,173082,0.7,0.14 P,0,172082,173082,A M,0,172119,172157,520.7451,186.1275,506.4901,193.2549 M,0,172157,172194,506.4901,193.2549,492.2352,200.3824 M,0,172194,172232,492.2352,200.3824,477.3279,200.146 M,0,172232,172269,477.3279,200.146,462.0421,195.6354 M,0,172269,172307,462.0421,195.6354,446.7562,191.1248 M,0,172307,172332,446.7562,191.1248,436.5656,188.1177
Sprite,Foreground,Centre,"sb\hl.png",318,181 C,0,172482,,223,223,223 F,2,172482,173232,1,0 S,2,172482,173232,0.7,0.14 P,0,172482,173232,A
Sprite,Foreground,Centre,"sb\hl.png",0,0 C,0,172632,,223,223,223 M,0,172632,172669,318,181,317.2166,165.1781 F,2,172632,173532,1,0 S,2,172632,173532,0.7,0.14 P,0,172632,173532,A M,0,172669,172707,317.2166,165.1781,319.8223,149.6236 M,0,172707,172744,319.8223,149.6236,326.1546,135.1791 M,0,172744,172782,326.1546,135.1791,335.8289,122.7223
Sprite,Foreground,Centre,"sb\hl.png",436,188 C,0,172932,,149,255,218 F,2,172932,173682,1,0 S,2,172932,173682,0.7,0.14 P,0,172932,173682,A
Sprite,Foreground,Centre,"sb\hl.png",0,0 C,0,173082,,149,255,218 M,0,173082,173119,359,269,343.4433,272.3055 F,2,173082,174132,1,0 S,2,173082,174132,0.7,0.14 P,0,173082,174132,A M,0,173119,173157,343.4433,272.3055,327.6198,273.6387 M,0,173157,173194,327.6198,273.6387,311.7686,272.6828 M,0,173194,173232,311.7686,272.6828,296.2189,269.4574 M,0,173232,173269,296.2189,269.4574,281.2936,264.0294 M,0,173269,173307,281.2936,264.0294,267.303,256.511 M,0,173307,173344,267.303,256.511,254.5376,247.0583 M,0,173344,173382,254.5376,247.0583,243.263,235.8671
Sprite,Foreground,Centre,"sb\hl.png",0,0 C,0,173532,,149,255,218 M,0,173532,173569,156,143,140.1412,143.1692 F,2,173532,174432,1,0 S,2,173532,174432,0.7,0.14 P,0,173532,174432,A M,0,173569,173607,140.1412,143.1692,124.638,146.2392 M,0,173607,173644,124.638,146.2392,110.14,152.5415 M,0,173644,173682,110.14,152.5415,97.31087,161.7902
Sprite,Foreground,Centre,"sb\hl.png",64,269 C,0,173832,,149,255,218 F,2,173832,174582,1,0 S,2,173832,174582,0.7,0.14 P,0,173832,174582,A
Sprite,Foreground,Centre,"sb\hl.png",146,222 C,0,173982,,36,74,255 F,2,173982,174732,1,0 S,2,173982,174732,0.7,0.14 P,0,173982,174732,A
Sprite,Foreground,Centre,"sb\hl.png",0,0 C,0,174132,,36,74,255 M,0,174132,174169,238,242,253.8616,240.9424 F,2,174132,175032,1,0 S,2,174132,175032,0.7,0.14 P,0,174132,175032,A M,0,174169,174207,253.8616,240.9424,269.4069,237.761 M,0,174207,174244,269.4069,237.761,284.2675,232.1942 M,0,174244,174282,284.2675,232.1942,298.0804,224.3775
Sprite,Foreground,Centre,"sb\hl.png",0,0 C,0,174432,,36,74,255 M,0,174432,174469,375,131,376.3907,146.8767 F,2,174432,175482,1,0 S,2,174432,175482,0.7,0.14 P,0,174432,175482,A M,0,174469,174507,376.3907,146.8767,377.7813,162.7534 M,0,174507,174544,377.7813,162.7534,379.172,178.6301 M,0,174544,174582,379.172,178.6301,380.5627,194.5069 M,0,174582,174619,380.5627,194.5069,381.9533,210.3836 M,0,174619,174657,381.9533,210.3836,383.344,226.2603 M,0,174657,174694,383.344,226.2603,384.7346,242.137 M,0,174694,174732,384.7346,242.137,386.1253,258.0137
Sprite,Foreground,Centre,"sb\hl.png",0,0 C,0,174882,,36,74,255 M,0,174882,174919,459,313,459.7462,297.08 F,2,174882,175932,1,0 S,2,174882,175932,0.7,0.14 P,0,174882,175932,A M,0,174919,174957,459.7462,297.08,460.4925,281.16 M,0,174957,174994,460.4925,281.16,461.2387,265.2399 M,0,174994,175032,461.2387,265.2399,461.985,249.3199 M,0,175032,175069,461.985,249.3199,461.2387,265.2399 M,0,175069,175107,461.2387,265.2399,460.4925,281.16 M,0,175107,175144,460.4925,281.16,459.7462,297.08 M,0,175144,175182,459.7462,297.08,459,313
Sprite,Foreground,Centre,"sb\hl.png",363,406 C,0,175332,,223,223,223 F,2,175332,176082,1,0 S,2,175332,176082,0.7,0.14 P,0,175332,176082,A
Sprite,Foreground,Centre,"sb\hl.png",0,0 C,0,175482,,223,223,223 M,0,175482,175519,363,406,362.2538,390.08 F,2,175482,176382,1,0 S,2,175482,176382,0.7,0.14 P,0,175482,176382,A M,0,175519,175557,362.2538,390.08,361.5075,374.16 M,0,175557,175594,361.5075,374.16,360.7613,358.2399 M,0,175594,175632,360.7613,358.2399,360.015,342.3199
Sprite,Foreground,Centre,"sb\hl.png",273,237 C,0,175782,,223,223,223 F,2,175782,176532,1,0 S,2,175782,176532,0.7,0.14 P,0,175782,176532,A
Sprite,Foreground,Centre,"sb\hl.png",0,0 C,0,175932,,223,223,223 M,0,175932,175969,273,237,272.2538,252.92 F,2,175932,176832,1,0 S,2,175932,176832,0.7,0.14 P,0,175932,176832,A M,0,175969,176007,272.2538,252.92,271.5075,268.84 M,0,176007,176044,271.5075,268.84,270.7612,284.7601 M,0,176044,176082,270.7612,284.7601,270.015,300.6801
Sprite,Foreground,Centre,"sb\hl.png",199,399 C,0,176232,,223,223,223 F,2,176232,176982,1,0 S,2,176232,176982,0.7,0.14 P,0,176232,176982,A
Sprite,Foreground,Centre,"sb\hl.png",0,0 C,0,176382,,149,255,218 M,0,176382,176419,152,287,146.1057,272.2272 F,2,176382,177432,1,0 S,2,176382,177432,0.7,0.14 P,0,176382,177432,A M,0,176419,176457,146.1057,272.2272,138.5113,258.2784 M,0,176457,176494,138.5113,258.2784,129.0681,245.5061 M,0,176494,176532,129.0681,245.5061,117.955,234.1532 M,0,176532,176569,117.955,234.1532,129.0681,245.5061 M,0,176569,176607,129.0681,245.5061,138.5113,258.2784 M,0,176607,176644,138.5113,258.2784,146.1057,272.2272 M,0,176644,176682,146.1057,272.2272,152,287
Sprite,Foreground,Centre,"sb\hl.png",0,0 C,0,176832,,149,255,218 M,0,176832,176869,278,318,288.9913,306.4954 F,2,176832,177882,1,0 S,2,176832,177882,0.7,0.14 P,0,176832,177882,A M,0,176869,176907,288.9913,306.4954,301.1489,296.2606 M,0,176907,176944,301.1489,296.2606,314.4946,287.6299 M,0,176944,176982,314.4946,287.6299,328.8184,280.7394 M,0,176982,177019,328.8184,280.7394,343.8951,275.6981 M,0,177019,177057,343.8951,275.6981,359.4877,272.5858 M,0,177057,177094,359.4877,272.5858,375.3509,271.4525 M,0,177094,177132,375.3509,271.4525,391.2486,272.2348
Sprite,Foreground,Centre,"sb\hl.png",0,0 C,0,177282,,149,255,218 M,0,177282,177319,495,367,483.4123,356.1729 F,2,177282,178182,1,0 S,2,177282,178182,0.7,0.14 P,0,177282,178182,A M,0,177319,177357,483.4123,356.1729,474.0675,343.4296 M,0,177357,177394,474.0675,343.4296,467.6751,328.9734 M,0,177394,177432,467.6751,328.9734,464.5346,313.4759
Sprite,Foreground,Centre,"sb\hl.png",0,0 C,0,177582,,36,74,255 M,0,177582,177619,546,217,557.5877,227.8271 F,2,177582,178482,1,0 S,2,177582,178482,0.7,0.14 P,0,177582,178482,A M,0,177619,177657,557.5877,227.8271,566.9325,240.5704 M,0,177657,177694,566.9325,240.5704,573.3249,255.0266 M,0,177694,177732,573.3249,255.0266,576.4653,270.5241
Sprite,Foreground,Centre,"sb\hl.png",0,0 C,0,177882,,36,74,255 M,0,177882,177919,504,380,490.6838,371.2861 F,2,177882,178932,1,0 S,2,177882,178932,0.7,0.14 P,0,177882,178932,A M,0,177919,177957,490.6838,371.2861,476.5744,363.9618 M,0,177957,177994,476.5744,363.9618,461.7038,358.3365 M,0,177994,178032,461.7038,358.3365,446.2748,354.4875 M,0,178032,178069,446.2748,354.4875,430.498,352.4683 M,0,178069,178107,430.498,352.4683,414.5888,352.3073 M,0,178107,178144,414.5888,352.3073,398.7645,354.008 M,0,178144,178182,398.7645,354.008,383.2413,357.5488
Sprite,Foreground,Centre,"sb\hl.png",0,0 C,0,178332,,36,74,255 M,0,178332,178369,264,422,248.2873,419.793 F,2,178332,179232,1,0 S,2,178332,179232,0.7,0.14 P,0,178332,179232,A M,0,178369,178407,248.2873,419.793,233.2072,415.0119 M,0,178407,178444,233.2072,415.0119,219.344,407.3651 M,0,178444,178482,219.344,407.3651,207.2321,397.14
Sprite,Foreground,Centre,"sb\hl.png",188,309 C,0,178632,,36,74,255 F,2,178632,179382,1,0 S,2,178632,179382,0.7,0.14 P,0,178632,179382,A
Sprite,Foreground,Centre,"sb\hl.png",68,406 C,0,178782,,223,223,223 F,2,178782,179532,1,0 S,2,178782,179532,0.7,0.14 P,0,178782,179532,A
Sprite,Foreground,Centre,"sb\hl.png",115,271 C,0,178932,,223,223,223 F,2,178932,179682,1,0 S,2,178932,179682,0.7,0.14 P,0,178932,179682,A
Sprite,Foreground,Centre,"sb\hl.png",115,271 C,0,179007,,223,223,223 F,2,179007,179757,1,0 S,2,179007,179757,0.7,0.14 P,0,179007,179757,A
Sprite,Foreground,Centre,"sb\hl.png",115,271 C,0,179082,,223,223,223 F,2,179082,179832,1,0 S,2,179082,179832,0.7,0.14 P,0,179082,179832,A
Sprite,Foreground,Centre,"sb\hl.png",0,0 C,0,179232,,223,223,223 M,0,179232,179269,207,397,219.4196,406.8745 F,2,179232,180132,1,0 S,2,179232,180132,0.7,0.14 P,0,179232,180132,A M,0,179269,179307,219.4196,406.8745,233.1909,414.6769 M,0,179307,179344,233.1909,414.6769,248.2058,419.7835 M,0,179344,179382,248.2058,419.7835,263.9568,421.9963
Sprite,Foreground,Centre,"sb\hl.png",373,364 C,0,179532,,223,223,223 F,2,179532,180282,1,0 S,2,179532,180282,0.7,0.14 P,0,179532,180282,A
Sprite,Foreground,Centre,"sb\hl.png",261,340 C,0,179682,,223,223,223 F,2,179682,180432,1,0 S,2,179682,180432,0.7,0.14 P,0,179682,180432,A
Sprite,Foreground,Centre,"sb\hl.png",393,440 C,0,179832,,223,223,223 F,2,179832,180582,1,0 S,2,179832,180582,0.7,0.14 P,0,179832,180582,A
Sprite,Foreground,Centre,"sb\hl.png",0,0 C,0,179982,,149,255,218 M,0,179982,180019,442,282,452.1894,269.8991 F,2,179982,180882,1,0 S,2,179982,180882,0.7,0.14 P,0,179982,180882,A M,0,180019,180057,452.1894,269.8991,464.7082,260.36 M,0,180057,180094,464.7082,260.36,479.2587,254.3183 M,0,180094,180132,479.2587,254.3183,494.9122,251.9353
Sprite,Foreground,Centre,"sb\hl.png",576,383 C,0,180282,,149,255,218 F,2,180282,181032,1,0 S,2,180282,181032,0.7,0.14 P,0,180282,181032,A
Sprite,Foreground,Centre,"sb\hl.png",568,381 C,0,180357,,149,255,218 F,2,180357,181107,1,0 S,2,180357,181107,0.7,0.14 P,0,180357,181107,A
Sprite,Foreground,Centre,"sb\hl.png",560,380 C,0,180432,,149,255,218 F,2,180432,181182,1,0 S,2,180432,181182,0.7,0.14 P,0,180432,181182,A
Sprite,Foreground,Centre,"sb\hl.png",552,378 C,0,180507,,149,255,218 F,2,180507,181257,1,0 S,2,180507,181257,0.7,0.14 P,0,180507,181257,A
Sprite,Foreground,Centre,"sb\hl.png",544,377 C,0,180582,,149,255,218 F,2,180582,181332,1,0 S,2,180582,181332,0.7,0.14 P,0,180582,181332,A
Sprite,Foreground,Centre,"sb\hl.png",536,375 C,0,180657,,149,255,218 F,2,180657,181407,1,0 S,2,180657,181407,0.7,0.14 P,0,180657,181407,A
Sprite,Foreground,Centre,"sb\hl.png",0,0 C,0,180732,,149,255,218 M,0,180732,180769,527,373,511.4373,369.5641 F,2,180732,181632,1,0 S,2,180732,181632,0.7,0.14 P,0,180732,181632,A M,0,180769,180807,511.4373,369.5641,495.8745,366.1281 M,0,180807,180844,495.8745,366.1281,480.3118,362.6922 M,0,180844,180882,480.3118,362.6922,464.7491,359.2563
Sprite,Foreground,Centre,"sb\hl.png",355,338 C,0,181032,,149,255,218 F,2,181032,181782,1,0 S,2,181032,181782,0.7,0.14 P,0,181032,181782,A
Sprite,Foreground,Centre,"sb\hl.png",0,0 C,0,181182,,36,74,255 M,0,181182,181219,411,202,420.0473,215.0622 F,2,181182,182082,1,0 S,2,181182,182082,0.7,0.14 P,0,181182,182082,A M,0,181219,181257,420.0473,215.0622,426.983,229.3191 M,0,181257,181294,426.983,229.3191,431.3259,244.5671 M,0,181294,181332,431.3259,244.5671,432.9428,260.3391
Sprite,Foreground,Centre,"sb\hl.png",355,338 C,0,181482,,36,74,255 F,2,181482,182232,1,0 S,2,181482,182232,0.7,0.14 P,0,181482,182232,A
Sprite,Foreground,Centre,"sb\hl.png",337,339 C,0,181557,,36,74,255 F,2,181557,182307,1,0 S,2,181557,182307,0.7,0.14 P,0,181557,182307,A
Sprite,Foreground,Centre,"sb\hl.png",319,335 C,0,181632,,36,74,255 F,2,181632,182382,1,0 S,2,181632,182382,0.7,0.14 P,0,181632,182382,A
Sprite,Foreground,Centre,"sb\hl.png",303,328 C,0,181707,,36,74,255 F,2,181707,182457,1,0 S,2,181707,182457,0.7,0.14 P,0,181707,182457,A
Sprite,Foreground,Centre,"sb\hl.png",0,0 C,0,181782,,36,74,255 M,0,181782,181819,289,317,278.3882,305.2103 F,2,181782,182682,1,0 S,2,181782,182682,0.7,0.14 P,0,181782,182682,A M,0,181819,181857,278.3882,305.2103,270.1878,291.6965 M,0,181857,181894,270.1878,291.6965,265.0734,276.7381 M,0,181894,181932,265.0734,276.7381,263.283,261.0294
Sprite,Foreground,Centre,"sb\hl.png",311,149 C,0,182082,,36,74,255 F,2,182082,182832,1,0 S,2,182082,182832,0.7,0.14 P,0,182082,182832,A
Sprite,Foreground,Centre,"sb\hl.png",349,252 C,0,182232,,36,74,255 F,2,182232,182982,1,0 S,2,182232,182982,0.7,0.14 P,0,182232,182982,A
Sprite,Foreground,Centre,"sb\hl.png",218,177 C,0,182532,,223,223,223 F,2,182532,183282,1,0 S,2,182532,183282,0.7,0.14 P,0,182532,183282,A
Sprite,Foreground,Centre,"sb\hl.png",200,176 C,0,182607,,223,223,223 F,2,182607,183357,1,0 S,2,182607,183357,0.7,0.14 P,0,182607,183357,A
Sprite,Foreground,Centre,"sb\hl.png",182,180 C,0,182682,,223,223,223 F,2,182682,183432,1,0 S,2,182682,183432,0.7,0.14 P,0,182682,183432,A
Sprite,Foreground,Centre,"sb\hl.png",166,187 C,0,182757,,223,223,223 F,2,182757,183507,1,0 S,2,182757,183507,0.7,0.14 P,0,182757,183507,A
Sprite,Foreground,Centre,"sb\hl.png",152,198 C,0,182832,,223,223,223 F,2,182832,183582,1,0 S,2,182832,183582,0.7,0.14 P,0,182832,183582,A
Sprite,Foreground,Centre,"sb\hl.png",110,303 C,0,182982,,223,223,223 F,2,182982,183732,1,0 S,2,182982,183732,0.7,0.14 P,0,182982,183732,A
Sprite,Foreground,Centre,"sb\hl.png",0,0 C,0,183132,,223,223,223 M,0,183132,183169,64,195,69.52832,209.9468 F,2,183132,184182,1,0 S,2,183132,184182,0.7,0.14 P,0,183132,184182,A M,0,183169,183207,69.52832,209.9468,74.72484,225.0113 M,0,183207,183244,74.72484,225.0113,79.53284,240.2043 M,0,183244,183282,79.53284,240.2043,83.94916,255.5159 M,0,183282,183319,83.94916,255.5159,87.9709,270.9359 M,0,183319,183357,87.9709,270.9359,91.59541,286.4543 M,0,183357,183394,91.59541,286.4543,94.82036,302.0609 M,0,183394,183432,94.82036,302.0609,97.64354,317.7454
Sprite,Foreground,Centre,"sb\hl.png",0,0 C,0,183582,,149,255,218 M,0,183582,183619,162,409,167.4486,394.0239 F,2,183582,184632,1,0 S,2,183582,184632,0.7,0.14 P,0,183582,184632,A M,0,183619,183657,167.4486,394.0239,172.58,378.937 M,0,183657,183694,172.58,378.937,177.3396,363.7285 M,0,183694,183732,177.3396,363.7285,181.7244,348.4077 M,0,183732,183769,181.7244,348.4077,185.7318,332.9837 M,0,183769,183807,185.7318,332.9837,189.3595,317.4657 M,0,183807,183844,189.3595,317.4657,192.6051,301.8632 M,0,183844,183882,192.6051,301.8632,195.4667,286.1853
Sprite,Foreground,Centre,"sb\hl.png",0,0 C,0,184032,,149,255,218 M,0,184032,184069,271,220,276.6167,234.9138 F,2,184032,184932,1,0 S,2,184032,184932,0.7,0.14 P,0,184032,184932,A M,0,184069,184107,276.6167,234.9138,281.9182,249.9417 M,0,184107,184144,281.9182,249.9417,286.8459,265.0966 M,0,184144,184182,286.8459,265.0966,291.4156,280.3639
Sprite,Foreground,Centre,"sb\hl.png",392,390 C,0,184332,,36,74,255 F,2,184332,185082,1,0 S,2,184332,185082,0.7,0.14 P,0,184332,185082,A
Sprite,Foreground,Centre,"sb\hl.png",486,301 C,0,184482,,36,74,255 F,2,184482,185232,1,0 S,2,184482,185232,0.7,0.14 P,0,184482,185232,A
Sprite,Foreground,Centre,"sb\hl.png",549,414 C,0,184632,,36,74,255 F,2,184632,185382,1,0 S,2,184632,185382,0.7,0.14 P,0,184632,185382,A
Sprite,Foreground,Centre,"sb\hl.png",0,0 C,0,184782,,223,223,223 M,0,184782,184821,404,309,402.9492,301.9951 F,2,184782,185691,1,0 S,2,184782,185691,0.7,0.14 P,0,184782,185691,A M,0,184821,184861,402.9492,301.9951,401.8985,294.9901 M,0,184861,184901,401.8985,294.9901,400.8478,287.9851 M,0,184901,184941,400.8478,287.9851,399.797,280.9801
Sprite,Foreground,Centre,"sb\hl.png",0,0 C,0,185242,,223,223,223 M,0,185242,185279,299,261,297.9492,253.995 F,2,185242,186142,1,0 S,2,185242,186142,0.7,0.14 P,0,185242,186142,A M,0,185279,185317,297.9492,253.995,296.8985,246.9901 M,0,185317,185354,296.8985,246.9901,295.8478,239.9851 M,0,185354,185392,295.8478,239.9851,294.797,232.9801
Sprite,Foreground,Centre,"sb\hl.png",0,0 C,0,185692,,223,223,223 M,0,185692,185729,181,168,182.0017,175.0121 F,2,185692,186742,1,0 S,2,185692,186742,0.7,0.14 P,0,185692,186742,A M,0,185729,185767,182.0017,175.0121,183.0035,182.0243 M,0,185767,185804,183.0035,182.0243,184.0052,189.0364 M,0,185804,185842,184.0052,189.0364,185.0069,196.0486 M,0,185842,185879,185.0069,196.0486,186.0087,203.0607 M,0,185879,185917,186.0087,203.0607,187.0104,210.0728 M,0,185917,185954,187.0104,210.0728,188.0121,217.085 M,0,185954,185992,188.0121,217.085,189,224
Sprite,Foreground,Centre,"sb\hl.png",0,0 C,0,186142,,223,223,223 M,0,186142,186179,203,306,204.0017,313.0121 F,2,186142,187042,1,0 S,2,186142,187042,0.7,0.14 P,0,186142,187042,A M,0,186179,186217,204.0017,313.0121,205.0035,320.0243 M,0,186217,186254,205.0035,320.0243,206.0052,327.0364 M,0,186254,186292,206.0052,327.0364,207,334
Sprite,Foreground,Centre,"sb\hl.png",221,415 C,0,186592,,223,223,223 F,2,186592,187342,1,0 S,2,186592,187342,0.7,0.14 P,0,186592,187342,A
Sprite,Foreground,Centre,"sb\hl.png",0,0 C,0,9582,,149,255,218 M,0,9582,9619,210,172,208.2159,182.4388 F,2,9582,10482,1,0 S,2,9582,10482,0.7,0.14 P,0,9582,10482,A M,0,9619,9657,208.2159,182.4388,208.0697,193.0099 M,0,9657,9694,208.0697,193.0099,209.5602,203.4608 M,0,9694,9732,209.5602,203.4608,212.3445,213.6838
Sprite,Foreground,Centre,"sb\hl.png",0,0 C,0,9882,,149,255,218 M,0,9882,9919,321,273,312.8854,266.1917 F,2,9882,10782,1,0 S,2,9882,10782,0.7,0.14 P,0,9882,10782,A M,0,9919,9957,312.8854,266.1917,303.8457,260.7032 M,0,9957,9994,303.8457,260.7032,294.0908,256.6567 M,0,9994,10032,294.0908,256.6567,283.8774,253.8314
Sprite,Foreground,Centre,"sb\hl.png",179,347 C,0,10182,,149,255,218 F,2,10182,10932,1,0 S,2,10182,10932,0.7,0.14 P,0,10182,10932,A
Sprite,Foreground,Centre,"sb\hl.png",0,0 C,0,10332,,149,255,218 M,0,10332,10369,179,347,189.4922,345.3257 F,2,10332,11382,1,0 S,2,10332,11382,0.7,0.14 P,0,10332,11382,A M,0,10369,10407,189.4922,345.3257,199.9845,343.6514 M,0,10407,10444,199.9845,343.6514,210.4768,341.9771 M,0,10444,10482,210.4768,341.9771,220.969,340.3028 M,0,10482,10519,220.969,340.3028,231.4613,338.6285 M,0,10519,10557,231.4613,338.6285,241.9535,336.9542 M,0,10557,10594,241.9535,336.9542,252.4458,335.2799 M,0,10594,10632,252.4458,335.2799,262.938,333.6056
Sprite,Foreground,Centre,"sb\hl.png",0,0 C,0,10782,,36,74,255 M,0,10782,10819,327,262,337.4922,263.6743 F,2,10782,11832,1,0 S,2,10782,11832,0.7,0.14 P,0,10782,11832,A M,0,10819,10857,337.4922,263.6743,347.9845,265.3486 M,0,10857,10894,347.9845,265.3486,358.4767,267.0229 M,0,10894,10932,358.4767,267.0229,368.969,268.6972 M,0,10932,10969,368.969,268.6972,379.4613,270.3715 M,0,10969,11007,379.4613,270.3715,389.9535,272.0458 M,0,11007,11044,389.9535,272.0458,400.4458,273.7201 M,0,11044,11082,400.4458,273.7201,410.938,275.3943
Sprite,Foreground,Centre,"sb\hl.png",518,338 C,0,11232,,36,74,255 F,2,11232,11982,1,0 S,2,11232,11982,0.7,0.14 P,0,11232,11982,A
Sprite,Foreground,Centre,"sb\hl.png",551,246 C,0,11382,,36,74,255 F,2,11382,12132,1,0 S,2,11382,12132,0.7,0.14 P,0,11382,12132,A
Sprite,Foreground,Centre,"sb\hl.png",374,347 C,0,11682,,36,74,255 F,2,11682,12432,1,0 S,2,11682,12432,0.7,0.14 P,0,11682,12432,A
Sprite,Foreground,Centre,"sb\hl.png",0,0 C,0,11832,,36,74,255 M,0,11832,11869,327,262,319.6334,254.384 F,2,11832,12732,1,0 S,2,11832,12732,0.7,0.14 P,0,11832,12732,A M,0,11869,11907,319.6334,254.384,311.3026,247.8612 M,0,11907,11944,311.3026,247.8612,302.1655,242.551 M,0,11944,11982,302.1655,242.551,292.4869,238.2258
Sprite,Foreground,Centre,"sb\hl.png",204,254 C,0,12132,,36,74,255 F,2,12132,12882,1,0 S,2,12132,12882,0.7,0.14 P,0,12132,12882,A
Sprite,Foreground,Centre,"sb\hl.png",0,0 C,0,12282,,223,223,223 M,0,12282,12319,204,254,214.6022,253.7779 F,2,12282,13332,1,0 S,2,12282,13332,0.7,0.14 P,0,12282,13332,A M,0,12319,12357,214.6022,253.7779,225.1091,252.42 M,0,12357,12394,225.1091,252.42,235.4025,249.9435 M,0,12394,12432,235.4025,249.9435,245.3663,246.3771 M,0,12432,12469,245.3663,246.3771,255.0215,242.0181 M,0,12469,12507,255.0215,242.0181,263.9119,236.2489 M,0,12507,12544,263.9119,236.2489,272.1248,229.5638 M,0,12544,12582,272.1248,229.5638,279.5683,222.0392
Sprite,Foreground,Centre,"sb\hl.png",0,0 C,0,12732,,223,223,223 M,0,12732,12769,337,135,347.604,134.9413 F,2,12732,13632,1,0 S,2,12732,13632,0.7,0.14 P,0,12732,13632,A M,0,12769,12807,347.604,134.9413,358.1448,136.0035 M,0,12807,12844,358.1448,136.0035,368.5081,138.1738 M,0,12844,12882,368.5081,138.1738,378.6819,141.1508
Sprite,Foreground,Centre,"sb\hl.png",432,201 C,0,13032,,223,223,223 F,2,13032,13782,1,0 S,2,13032,13782,0.7,0.14 P,0,13032,13782,A
Sprite,Foreground,Centre,"sb\hl.png",0,0 C,0,13182,,149,255,218 M,0,13182,13219,518,130,524.6346,138.2758 F,2,13182,14232,1,0 S,2,13182,14232,0.7,0.14 P,0,13182,14232,A M,0,13219,13257,524.6346,138.2758,530.4009,147.168 M,0,13257,13294,530.4009,147.168,535.2431,156.5882 M,0,13294,13332,535.2431,156.5882,539.1143,166.4435 M,0,13332,13369,539.1143,166.4435,542.2168,176.5743 M,0,13369,13407,542.2168,176.5743,543.8788,187.0438 M,0,13407,13444,543.8788,187.0438,544.4816,197.6201 M,0,13444,13482,544.4816,197.6201,544.0203,208.1992
Sprite,Foreground,Centre,"sb\hl.png",0,0 C,0,13632,,149,255,218 M,0,13632,13669,565,299,562.3925,309.2814 F,2,13632,14682,1,0 S,2,13632,14682,0.7,0.14 P,0,13632,14682,A M,0,13669,13707,562.3925,309.2814,558.7794,319.2445 M,0,13707,13744,558.7794,319.2445,554.1964,328.7942 M,0,13744,13782,554.1964,328.7942,548.96,338.0213 M,0,13782,13819,548.96,338.0213,542.4288,346.3773 M,0,13819,13857,542.4288,346.3773,535.1055,354.037 M,0,13857,13894,535.1055,354.037,527.0612,360.9274 M,0,13894,13932,527.0612,360.9274,519,367
Sprite,Foreground,Centre,"sb\hl.png",434,388 C,0,14082,,149,255,218 F,2,14082,14832,1,0 S,2,14082,14832,0.7,0.14 P,0,14082,14832,A
Sprite,Foreground,Centre,"sb\hl.png",356,342 C,0,14232,,36,74,255 F,2,14232,14982,1,0 S,2,14232,14982,0.7,0.14 P,0,14232,14982,A
Sprite,Foreground,Centre,"sb\hl.png",0,0 C,0,14382,,36,74,255 M,0,14382,14419,356,342,354.3429,331.505 F,2,14382,15282,1,0 S,2,14382,15282,0.7,0.14 P,0,14382,15282,A M,0,14419,14457,354.3429,331.505,352.6858,321.01 M,0,14457,14494,352.6858,321.01,351.0287,310.5151 M,0,14494,14532,351.0287,310.5151,349.3716,300.0201
Sprite,Foreground,Centre,"sb\hl.png",0,0 C,0,14682,,36,74,255 M,0,14682,14719,277,397,275.2119,407.4734 F,2,14682,15582,1,0 S,2,14682,15582,0.7,0.14 P,0,14682,15582,A M,0,14719,14757,275.2119,407.4734,273.4237,417.9469 M,0,14757,14794,273.4237,417.9469,271.6356,428.4203 M,0,14794,14832,271.6356,428.4203,270,438
Sprite,Foreground,Centre,"sb\hl.png",186,308 C,0,14982,,36,74,255 F,2,14982,15732,1,0 S,2,14982,15732,0.7,0.14 P,0,14982,15732,A
Sprite,Foreground,Centre,"sb\hl.png",0,0 C,0,15132,,36,74,255 M,0,15132,15169,186,308,184.3048,297.5111 F,2,15132,16182,1,0 S,2,15132,16182,0.7,0.14 P,0,15132,16182,A M,0,15169,15207,184.3048,297.5111,182.6096,287.0222 M,0,15207,15244,182.6096,287.0222,180.9145,276.5333 M,0,15244,15282,180.9145,276.5333,179.2193,266.0444 M,0,15282,15319,179.2193,266.0444,177.5241,255.5555 M,0,15319,15357,177.5241,255.5555,175.8289,245.0666 M,0,15357,15394,175.8289,245.0666,174.1338,234.5777 M,0,15394,15432,174.1338,234.5777,172.4386,224.0888
Sprite,Foreground,Centre,"sb\hl.png",0,0 C,0,15582,,223,223,223 M,0,15582,15619,209,112,210.916,122.4508 F,2,15582,16482,1,0 S,2,15582,16482,0.7,0.14 P,0,15582,16482,A M,0,15619,15657,210.916,122.4508,212.832,132.9016 M,0,15657,15694,212.832,132.9016,214.748,143.3525 M,0,15694,15732,214.748,143.3525,216.6639,153.8033
Sprite,Foreground,Centre,"sb\hl.png",282,226 C,0,15882,,223,223,223 F,2,15882,16632,1,0 S,2,15882,16632,0.7,0.14 P,0,15882,16632,A
Sprite,Foreground,Centre,"sb\hl.png",0,0 C,0,16032,,223,223,223 M,0,16032,16069,282,226,292.6022,226.4745 F,2,16032,17082,1,0 S,2,16032,17082,0.7,0.14 P,0,16032,17082,A M,0,16069,16107,292.6022,226.4745,303.2014,226.0742 M,0,16107,16144,303.2014,226.0742,313.7274,224.8025 M,0,16144,16182,313.7274,224.8025,324.1107,222.6681 M,0,16182,16219,324.1107,222.6681,334.3341,219.8567 M,0,16219,16257,334.3341,219.8567,344.181,215.9119 M,0,16257,16294,344.181,215.9119,353.6654,211.1711 M,0,16294,16332,353.6654,211.1711,362.7246,205.6663
Sprite,Foreground,Centre,"sb\hl.png",436,115 C,0,16482,,223,223,223 F,2,16482,17232,1,0 S,2,16482,17232,0.7,0.14 P,0,16482,17232,A
Sprite,Foreground,Centre,"sb\hl.png",491,232 C,0,16632,,223,223,223 F,2,16632,17382,1,0 S,2,16632,17382,0.7,0.14 P,0,16632,17382,A
Sprite,Foreground,Centre,"sb\hl.png",561,122 C,0,16782,,149,255,218 F,2,16782,17532,1,0 S,2,16782,17532,0.7,0.14 P,0,16782,17532,A
Sprite,Foreground,Centre,"sb\hl.png",0,0 C,0,16932,,149,255,218 M,0,16932,16969,561,122,562.4863,111.5168 F,2,16932,17982,1,0 S,2,16932,17982,0.7,0.14 P,0,16932,17982,A M,0,16969,17007,562.4863,111.5168,565.4788,101.3799 M,0,17007,17044,565.4788,101.3799,569.9109,91.79984 M,0,17044,17082,569.9109,91.79984,575.6877,82.97574 M,0,17082,17119,575.6877,82.97574,569.9109,91.79984 M,0,17119,17157,569.9109,91.79984,565.4788,101.3799 M,0,17157,17194,565.4788,101.3799,562.4863,111.5168 M,0,17194,17232,562.4863,111.5168,561,122
Sprite,Foreground,Centre,"sb\hl.png",491,232 C,0,17382,,149,255,218 F,2,17382,18132,1,0 S,2,17382,18132,0.7,0.14 P,0,17382,18132,A
Sprite,Foreground,Centre,"sb\hl.png",0,0 C,0,17532,,149,255,218 M,0,17532,17569,436,115,434.0119,104.5922 F,2,17532,18582,1,0 S,2,17532,18582,0.7,0.14 P,0,17532,18582,A M,0,17569,17607,434.0119,104.5922,430.6974,94.54337 M,0,17607,17644,430.6974,94.54337,426.114,85.01832 M,0,17644,17682,426.114,85.01832,420.3391,76.17332 M,0,17682,17719,420.3391,76.17332,426.114,85.01832 M,0,17719,17757,426.114,85.01832,430.6974,94.54337 M,0,17757,17794,430.6974,94.54337,434.0119,104.5922 M,0,17794,17832,434.0119,104.5922,436,115
Sprite,Foreground,Centre,"sb\hl.png",0,0 C,0,17982,,36,74,255 M,0,17982,18019,363,197,354.8836,190.1845 F,2,17982,19032,1,0 S,2,17982,19032,0.7,0.14 P,0,17982,19032,A M,0,18019,18057,354.8836,190.1845,346.0327,184.3761 M,0,18057,18094,346.0327,184.3761,336.5663,179.6509 M,0,18094,18132,336.5663,179.6509,326.6732,175.9065 M,0,18132,18169,326.6732,175.9065,316.3062,173.7547 M,0,18169,18207,316.3062,173.7547,305.7653,172.8367 M,0,18207,18244,305.7653,172.8367,295.1837,172.9519 M,0,18244,18282,295.1837,172.9519,284.7495,174.7585
Sprite,Foreground,Centre,"sb\hl.png",0,0 C,0,18432,,36,74,255 M,0,18432,18469,218,271,209.8836,277.8156 F,2,18432,19482,1,0 S,2,18432,19482,0.7,0.14 P,0,18432,19482,A M,0,18469,18507,209.8836,277.8156,201.0327,283.6239 M,0,18507,18544,201.0327,283.6239,191.5663,288.3491 M,0,18544,18582,191.5663,288.3491,181.6732,292.0935 M,0,18582,18619,181.6732,292.0935,171.3062,294.2453 M,0,18619,18657,171.3062,294.2453,160.7653,295.1633 M,0,18657,18694,160.7653,295.1633,150.1837,295.0482 M,0,18694,18732,150.1837,295.0482,139.7495,293.2415
Sprite,Foreground,Centre,"sb\hl.png",64,161 C,0,18882,,36,74,255 F,2,18882,19632,1,0 S,2,18882,19632,0.7,0.14 P,0,18882,19632,A
Sprite,Foreground,Centre,"sb\hl.png",129,278 C,0,19032,,36,74,255 F,2,19032,19782,1,0 S,2,19032,19782,0.7,0.14 P,0,19032,19782,A
Sprite,Foreground,Centre,"sb\hl.png",0,0 C,0,20637,,223,223,223 M,0,20637,20676,393,240,385.3211,247.2776 F,2,20637,21626,1,0 S,2,20637,21626,0.7,0.14 P,0,20637,21626,A M,0,20676,20716,385.3211,247.2776,376.6063,253.2367 M,0,20716,20756,376.6063,253.2367,367.0721,257.7351 M,0,20756,20796,367.0721,257.7351,356.9539,260.6653 M,0,20796,20836,356.9539,260.6653,346.5379,262.2911 M,0,20836,20876,346.5379,262.2911,335.9977,261.642
Sprite,Foreground,Centre,"sb\hl.png",0,0 C,0,20956,,149,255,218 M,0,20956,20995,260,206,257.5204,195.6684 F,2,20956,21942,1,0 S,2,20956,21942,0.7,0.14 P,0,20956,21942,A M,0,20995,21034,257.5204,195.6684,255.0408,185.3368 M,0,21034,21074,255.0408,185.3368,256.3405,180.5269 M,0,21074,21113,256.3405,180.5269,253.6028,170.2607 M,0,21113,21153,253.6028,170.2607,254.0517,164.6261 M,0,21153,21192,254.0517,164.6261,252.2052,154.1628
Sprite,Foreground,Centre,"sb\hl.png",0,0 C,0,21271,,149,255,218 M,0,21271,21309,226,124,220.7153,133.1765 F,2,21271,22176,1,0 S,2,21271,22176,0.7,0.14 P,0,21271,22176,A M,0,21309,21348,220.7153,133.1765,214.1859,141.4905 M,0,21348,21387,214.1859,141.4905,206.5455,148.7778 M,0,21387,21426,206.5455,148.7778,197.9493,154.894
Sprite,Foreground,Centre,"sb\hl.png",0,0 C,0,21582,,36,74,255 M,0,21582,21619,64,173,77.46916,181.39 F,2,21582,22482,1,0 S,2,21582,22482,0.7,0.14 P,0,21582,22482,A M,0,21619,21657,77.46916,181.39,89.33403,191.8578 M,0,21657,21694,89.33403,191.8578,98.95287,204.4356 M,0,21694,21732,98.95287,204.4356,106.1121,218.6104
Sprite,Foreground,Centre,"sb\hl.png",88,329 C,0,21882,,36,74,255 F,2,21882,22632,1,0 S,2,21882,22632,0.7,0.14 P,0,21882,22632,A
Sprite,Foreground,Centre,"sb\hl.png",88,329 C,0,22032,,36,74,255 F,2,22032,22782,1,0 S,2,22032,22782,0.7,0.14 P,0,22032,22782,A
Sprite,Foreground,Centre,"sb\hl.png",0,0 C,0,22182,,36,74,255 M,0,22182,22219,201,268,216.8769,266.7943 F,2,22182,23157,1,0 S,2,22182,23157,0.7,0.14 P,0,22182,23157,A M,0,22219,22257,216.8769,266.7943,232.7881,266.9403 M,0,22257,22294,232.7881,266.9403,248.6097,268.6329 M,0,22294,22332,248.6097,268.6329,264.1917,271.856 M,0,22332,22369,264.1917,271.856,279.3865,276.5791 M,0,22369,22407,279.3865,276.5791,294.1265,282.6007
Sprite,Foreground,Centre,"sb\hl.png",0,0 C,0,22482,,223,223,223 M,0,22482,22519,326,347,341.7647,349.0134 F,2,22482,23382,1,0 S,2,22482,23382,0.7,0.14 P,0,22482,23382,A M,0,22519,22557,341.7647,349.0134,357.627,348.9011 M,0,22557,22594,357.627,348.9011,373.2822,346.301 M,0,22594,22632,373.2822,346.301,388.3458,341.274
Sprite,Foreground,Centre,"sb\hl.png",0,0 C,0,22782,,223,223,223 M,0,22782,22819,515,270,514.0059,285.9065 F,2,22782,23832,1,0 S,2,22782,23832,0.7,0.14 P,0,22782,23832,A M,0,22819,22857,514.0059,285.9065,513.0117,301.8129 M,0,22857,22894,513.0117,301.8129,512.0176,317.7194 M,0,22894,22932,512.0176,317.7194,511.0234,333.6259 M,0,22932,22969,511.0234,333.6259,510.0292,349.5323 M,0,22969,23007,510.0292,349.5323,509.0351,365.4388 M,0,23007,23044,509.0351,365.4388,508.0409,381.3452 M,0,23044,23082,508.0409,381.3452,507.0468,397.2517
Sprite,Foreground,Centre,"sb\hl.png",0,0 C,0,23382,,223,223,223 M,0,23382,23419,374,130,374.9941,145.9065 F,2,23382,24432,1,0 S,2,23382,24432,0.7,0.14 P,0,23382,24432,A M,0,23419,23457,374.9941,145.9065,375.9883,161.8129 M,0,23457,23494,375.9883,161.8129,376.9825,177.7194 M,0,23494,23532,376.9825,177.7194,377.9766,193.6259 M,0,23532,23569,377.9766,193.6259,378.9708,209.5323 M,0,23569,23607,378.9708,209.5323,379.9649,225.4388 M,0,23607,23644,379.9649,225.4388,380.9591,241.3452 M,0,23644,23682,380.9591,241.3452,381.9532,257.2517
Sprite,Foreground,Centre,"sb\hl.png",529,118 C,0,23832,,223,223,223 F,2,23832,24582,1,0 S,2,23832,24582,0.7,0.14 P,0,23832,24582,A
Sprite,Foreground,Centre,"sb\hl.png",529,118 C,0,23907,,223,223,223 F,2,23907,24657,1,0 S,2,23907,24657,0.7,0.14 P,0,23907,24657,A
Sprite,Foreground,Centre,"sb\hl.png",0,0 C,0,23982,,149,255,218 M,0,23982,24019,529,118,513.076,117.3426 F,2,23982,25182,1,0 S,2,23982,25182,0.7,0.14 P,0,23982,25182,A M,0,24019,24057,513.076,117.3426,497.1521,116.6852 M,0,24057,24094,497.1521,116.6852,481.2282,116.0278 M,0,24094,24132,481.2282,116.0278,465.3043,115.3704 M,0,24132,24169,465.3043,115.3704,449.3803,114.713 M,0,24169,24207,449.3803,114.713,433.4564,114.0555 M,0,24207,24244,433.4564,114.0555,417.5324,113.3981 M,0,24244,24282,417.5324,113.3981,401.6085,112.7407 M,0,24282,24319,401.6085,112.7407,385.6846,112.0833 M,0,24319,24357,385.6846,112.0833,369.7607,111.4259 M,0,24357,24394,369.7607,111.4259,353.8367,110.7685 M,0,24394,24432,353.8367,110.7685,337.9128,110.1111
Sprite,Foreground,Centre,"sb\hl.png",0,0 C,0,24582,,149,255,218 M,0,24582,24619,194,154,209.9211,153.2763 F,2,24582,25482,1,0 S,2,24582,25482,0.7,0.14 P,0,24582,25482,A M,0,24619,24657,209.9211,153.2763,225.8421,152.5526 M,0,24657,24694,225.8421,152.5526,241.7632,151.8289 M,0,24694,24732,241.7632,151.8289,257.6843,151.1053
Sprite,Foreground,Centre,"sb\hl.png",0,0 C,0,24882,,149,255,218 M,0,24882,24919,398,188,382.08,187.2538 F,2,24882,25782,1,0 S,2,24882,25782,0.7,0.14 P,0,24882,25782,A M,0,24919,24957,382.08,187.2538,366.16,186.5075 M,0,24957,24994,366.16,186.5075,350.2399,185.7612 M,0,24994,25032,350.2399,185.7612,334.3199,185.015
Sprite,Foreground,Centre,"sb\hl.png",0,0 C,0,25182,,149,255,218 M,0,25182,25219,224,246,236.2963,256.1056 F,2,25182,26232,1,0 S,2,25182,26232,0.7,0.14 P,0,25182,26232,A M,0,25219,25257,236.2963,256.1056,247.529,267.3596 M,0,25257,25294,247.529,267.3596,257.411,279.8174 M,0,25294,25332,257.411,279.8174,265.8145,293.3181 M,0,25332,25369,265.8145,293.3181,272.6305,307.6873 M,0,25369,25407,272.6305,307.6873,277.7706,322.7395 M,0,25407,25444,277.7706,322.7395,281.1678,338.2803 M,0,25444,25482,281.1678,338.2803,282.778,354.1091
Sprite,Foreground,Centre,"sb\hl.png",0,0 C,0,25782,,149,255,218 M,0,25782,25819,122,434,109.7038,423.8944 F,2,25782,26832,1,0 S,2,25782,26832,0.7,0.14 P,0,25782,26832,A M,0,25819,25857,109.7038,423.8944,98.471,412.6404 M,0,25857,25894,98.471,412.6404,88.58897,400.1826 M,0,25894,25932,88.58897,400.1826,80.18552,386.6819 M,0,25932,25969,80.18552,386.6819,73.36953,372.3127 M,0,25969,26007,73.36953,372.3127,68.22944,357.2605 M,0,26007,26044,68.22944,357.2605,64.83213,341.7197 M,0,26044,26082,64.83213,341.7197,63.22207,325.8909
Sprite,Foreground,Centre,"sb\hl.png",139,129 C,0,26382,,36,74,255 F,2,26382,27132,1,0 S,2,26382,27132,0.7,0.14 P,0,26382,27132,A
Sprite,Foreground,Centre,"sb\hl.png",0,0 C,0,26532,,36,74,255 M,0,26532,26569,139,129,136.5015,113.2596 F,2,26532,27582,1,0 S,2,26532,27582,0.7,0.14 P,0,26532,27582,A M,0,26569,26607,136.5015,113.2596,134.003,97.51912 M,0,26607,26644,134.003,97.51912,131.5045,81.77868 M,0,26644,26682,131.5045,81.77868,129.0061,66.03824 M,0,26682,26719,129.0061,66.03824,131.5045,81.77867 M,0,26719,26757,131.5045,81.77867,134.003,97.51911 M,0,26757,26794,134.003,97.51911,136.5015,113.2596 M,0,26794,26832,136.5015,113.2596,139,129
Sprite,Foreground,Centre,"sb\hl.png",87,202 C,0,26982,,36,74,255 F,2,26982,27732,1,0 S,2,26982,27732,0.7,0.14 P,0,26982,27732,A
Sprite,Foreground,Centre,"sb\hl.png",0,0 C,0,27282,,36,74,255 M,0,27282,27319,87,202,85.66418,217.8814 F,2,27282,28257,1,0 S,2,27282,28257,0.7,0.14 P,0,27282,28257,A M,0,27319,27357,85.66418,217.8814,84.32836,233.7628 M,0,27357,27394,84.32836,233.7628,82.99254,249.6443 M,0,27394,27432,82.99254,249.6443,81.65672,265.5257 M,0,27432,27469,81.65672,265.5257,80.3209,281.4071 M,0,27469,27507,80.3209,281.4071,78.98508,297.2885
Sprite,Foreground,Centre,"sb\hl.png",0,0 C,0,27582,,223,223,223 M,0,27582,27619,119,362,128.0969,348.9903 F,2,27582,28482,1,0 S,2,27582,28482,0.7,0.14 P,0,27582,28482,A M,0,27619,27657,128.0969,348.9903,138.9816,337.4822 M,0,27657,27694,138.9816,337.4822,151.7436,328.0526 M,0,27694,27732,151.7436,328.0526,166,321
Sprite,Foreground,Centre,"sb\hl.png",0,0 C,0,27882,,223,223,223 M,0,27882,27919,288,310,303.8549,311.6202 F,2,27882,29232,1,0 S,2,27882,29232,0.7,0.14 P,0,27882,29232,A M,0,27919,27957,303.8549,311.6202,319.7099,313.2404 M,0,27957,27994,319.7099,313.2404,335.5648,314.8606 M,0,27994,28032,335.5648,314.8606,351.4197,316.4808 M,0,28032,28069,351.4197,316.4808,367.2747,318.1011 M,0,28069,28107,367.2747,318.1011,383.1296,319.7213 M,0,28107,28144,383.1296,319.7213,398.9845,321.3415 M,0,28144,28182,398.9845,321.3415,414.8394,322.9617 M,0,28182,28219,414.8394,322.9617,398.9845,321.3415 M,0,28219,28257,398.9845,321.3415,383.1296,319.7213 M,0,28257,28294,383.1296,319.7213,367.2747,318.1011 M,0,28294,28332,367.2747,318.1011,351.4197,316.4808 M,0,28332,28369,351.4197,316.4808,335.5648,314.8606 M,0,28369,28407,335.5648,314.8606,319.7099,313.2404 M,0,28407,28444,319.7099,313.2404,303.8549,311.6202 M,0,28444,28482,303.8549,311.6202,288,310
Sprite,Foreground,Centre,"sb\hl.png",166,320 C,0,28632,,149,255,218 F,2,28632,29382,1,0 S,2,28632,29382,0.7,0.14 P,0,28632,29382,A
Sprite,Foreground,Centre,"sb\hl.png",166,320 C,0,28707,,149,255,218 F,2,28707,29457,1,0 S,2,28707,29457,0.7,0.14 P,0,28707,29457,A
Sprite,Foreground,Centre,"sb\hl.png",0,0 C,0,28782,,149,255,218 M,0,28782,28819,166,320,165.0709,304.0896 F,2,28782,29832,1,0 S,2,28782,29832,0.7,0.14 P,0,28782,29832,A M,0,28819,28857,165.0709,304.0896,164.1418,288.1792 M,0,28857,28894,164.1418,288.1792,163.2128,272.2688 M,0,28894,28932,163.2128,272.2688,162.2837,256.3584 M,0,28932,28969,162.2837,256.3584,161.3546,240.448 M,0,28969,29007,161.3546,240.448,160.4256,224.5376 M,0,29007,29044,160.4256,224.5376,159.4965,208.6272 M,0,29044,29082,159.4965,208.6272,158.5674,192.7168
Sprite,Foreground,Centre,"sb\hl.png",225,69 C,0,29232,,149,255,218 F,2,29232,29982,1,0 S,2,29232,29982,0.7,0.14 P,0,29232,29982,A
Sprite,Foreground,Centre,"sb\hl.png",0,0 C,0,29382,,149,255,218 M,0,29382,29419,225,69,225.7024,84.92201 F,2,29382,30282,1,0 S,2,29382,30282,0.7,0.14 P,0,29382,30282,A M,0,29419,29457,225.7024,84.92201,226.4049,100.844 M,0,29457,29494,226.4049,100.844,227.1073,116.766 M,0,29494,29532,227.1073,116.766,227.8098,132.688
Sprite,Foreground,Centre,"sb\hl.png",0,0 C,0,29682,,36,74,255 M,0,29682,29719,303,222,302.7963,206.088 F,2,29682,30882,1,0 S,2,29682,30882,0.7,0.14 P,0,29682,30882,A M,0,29719,29757,302.7963,206.088,304.2847,190.2623 M,0,29757,29794,304.2847,190.2623,307.6992,174.7374 M,0,29794,29832,307.6992,174.7374,312.9885,159.7468 M,0,29832,29869,312.9885,159.7468,320.0733,145.5157 M,0,29869,29907,320.0733,145.5157,328.8473,132.2582 M,0,29907,29944,328.8473,132.2582,339.1787,120.1737 M,0,29944,29982,339.1787,120.1737,350.9125,109.4438 M,0,29982,30019,350.9125,109.4438,363.8726,100.2302 M,0,30019,30057,363.8726,100.2302,377.8643,92.67164 M,0,30057,30094,377.8643,92.67164,392.6776,86.882 M,0,30094,30132,392.6776,86.882,408.09,82.94875
Sprite,Foreground,Centre,"sb\hl.png",0,0 C,0,30282,,36,74,255 M,0,30282,30319,474,206,458.2276,203.8943 F,2,30282,31182,1,0 S,2,30282,31182,0.7,0.14 P,0,30282,31182,A M,0,30319,30357,458.2276,203.8943,442.746,200.2844 M,0,30357,30394,442.746,200.2844,427.7713,194.9259 M,0,30394,30432,427.7713,194.9259,413.4734,187.9223
Sprite,Foreground,Centre,"sb\hl.png",0,0 C,0,30582,,36,74,255 M,0,30582,30619,568,139,565.3071,154.7084 F,2,30582,31632,1,0 S,2,30582,31632,0.7,0.14 P,0,30582,31632,A M,0,30619,30657,565.3071,154.7084,562.6143,170.4167 M,0,30657,30694,562.6143,170.4167,559.9214,186.1251 M,0,30694,30732,559.9214,186.1251,557.2285,201.8334 M,0,30732,30769,557.2285,201.8334,554.5357,217.5418 M,0,30769,30807,554.5357,217.5418,551.8428,233.2501 M,0,30807,30844,551.8428,233.2501,549.15,248.9585 M,0,30844,30882,549.15,248.9585,546.4572,264.6668
Sprite,Foreground,Centre,"sb\hl.png",0,0 C,0,31182,,223,223,223 M,0,31182,31219,420,388,422.9371,403.6645 F,2,31182,32082,1,0 S,2,31182,32082,0.7,0.14 P,0,31182,32082,A M,0,31219,31257,422.9371,403.6645,425.8742,419.329 M,0,31257,31294,425.8742,419.329,422.9371,403.6645 M,0,31294,31332,422.9371,403.6645,420,388
Sprite,Foreground,Centre,"sb\hl.png",386,258 C,0,31632,,223,223,223 F,2,31632,32382,1,0 S,2,31632,32382,0.7,0.14 P,0,31632,32382,A
Sprite,Foreground,Centre,"sb\hl.png",0,0 C,0,31782,,223,223,223 M,0,31782,31819,386,258,370.1203,259.3556 F,2,31782,32682,1,0 S,2,31782,32682,0.7,0.14 P,0,31782,32682,A M,0,31819,31857,370.1203,259.3556,354.2405,260.7112 M,0,31857,31894,354.2405,260.7112,338.3608,262.0668 M,0,31894,31932,338.3608,262.0668,322.481,263.4224
Sprite,Foreground,Centre,"sb\hl.png",0,0 C,0,32082,,149,255,218 M,0,32082,32119,232,268,227.8993,252.6029 F,2,32082,32982,1,0 S,2,32082,32982,0.7,0.14 P,0,32082,32982,A M,0,32119,32157,227.8993,252.6029,223.21,237.3773 M,0,32157,32194,223.21,237.3773,217.8373,222.3787 M,0,32194,32232,217.8373,222.3787,211.7919,207.6373
Sprite,Foreground,Centre,"sb\hl.png",0,0 C,0,32382,,149,255,218 M,0,32382,32419,134,176,138.1007,160.6029 F,2,32382,33282,1,0 S,2,32382,33282,0.7,0.14 P,0,32382,33282,A M,0,32419,32457,138.1007,160.6029,142.79,145.3773 M,0,32457,32494,142.79,145.3773,148.1627,130.3787 M,0,32494,32532,148.1627,130.3787,154.2081,115.6373
Sprite,Foreground,Centre,"sb\hl.png",0,0 C,0,32682,,149,255,218 M,0,32682,32719,249,277,244.8993,261.6029 F,2,32682,33582,1,0 S,2,32682,33582,0.7,0.14 P,0,32682,33582,A M,0,32719,32757,244.8993,261.6029,240.21,246.3773 M,0,32757,32794,240.21,246.3773,234.8373,231.3787 M,0,32794,32832,234.8373,231.3787,228.7919,216.6373
Sprite,Foreground,Centre,"sb\hl.png",0,0 C,0,32982,,149,255,218 M,0,32982,33019,117,185,121.1007,169.6029 F,2,32982,33882,1,0 S,2,32982,33882,0.7,0.14 P,0,32982,33882,A M,0,33019,33057,121.1007,169.6029,125.79,154.3773 M,0,33057,33094,125.79,154.3773,131.1627,139.3787 M,0,33094,33132,131.1627,139.3787,137.2081,124.6373
Sprite,Foreground,Centre,"sb\hl.png",266,286 C,0,33282,,36,74,255 F,2,33282,34032,1,0 S,2,33282,34032,0.7,0.14 P,0,33282,34032,A
Sprite,Foreground,Centre,"sb\hl.png",386,258 C,0,33432,,36,74,255 F,2,33432,34182,1,0 S,2,33432,34182,0.7,0.14 P,0,33432,34182,A
Sprite,Foreground,Centre,"sb\hl.png",386,258 C,0,33507,,36,74,255 F,2,33507,34257,1,0 S,2,33507,34257,0.7,0.14 P,0,33507,34257,A
Sprite,Foreground,Centre,"sb\hl.png",0,0 C,0,33582,,36,74,255 M,0,33582,33619,386,258,401.8652,259.5165 F,2,33582,34632,1,0 S,2,33582,34632,0.7,0.14 P,0,33582,34632,A M,0,33619,33657,401.8652,259.5165,417.7304,261.0331 M,0,33657,33694,417.7304,261.0331,433.5956,262.5496 M,0,33694,33732,433.5956,262.5496,449.4608,264.0661 M,0,33732,33769,449.4608,264.0661,465.3259,265.5826 M,0,33769,33807,465.3259,265.5826,481.1911,267.0992 M,0,33807,33844,481.1911,267.0992,497.0563,268.6157 M,0,33844,33882,497.0563,268.6157,512.9215,270.1322
Sprite,Foreground,Centre,"sb\hl.png",572,361 C,0,34032,,36,74,255 F,2,34032,34782,1,0 S,2,34032,34782,0.7,0.14 P,0,34032,34782,A
Sprite,Foreground,Centre,"sb\hl.png",0,0 C,0,34182,,36,74,255 M,0,34182,34219,572,361,556.157,359.2672 F,2,34182,35082,1,0 S,2,34182,35082,0.7,0.14 P,0,34182,35082,A M,0,34219,34257,556.157,359.2672,540.314,357.5343 M,0,34257,34294,540.314,357.5343,524.4709,355.8015 M,0,34294,34332,524.4709,355.8015,508.6279,354.0687
Sprite,Foreground,Centre,"sb\hl.png",0,0 C,0,34482,,223,223,223 M,0,34482,34519,393,387,377.1144,388.2849 F,2,34482,35532,1,0 S,2,34482,35532,0.7,0.14 P,0,34482,35532,A M,0,34519,34557,377.1144,388.2849,361.2288,389.5697 M,0,34557,34594,361.2288,389.5697,345.3431,390.8546 M,0,34594,34632,345.3431,390.8546,329.4575,392.1395 M,0,34632,34669,329.4575,392.1395,313.5719,393.4243 M,0,34669,34707,313.5719,393.4243,297.6862,394.7092 M,0,34707,34744,297.6862,394.7092,281.8006,395.9941 M,0,34744,34782,281.8006,395.9941,265.915,397.2789
Sprite,Foreground,Centre,"sb\hl.png",0,0 C,0,35082,,223,223,223 M,0,35082,35119,265,397,260.4787,381.7345 F,2,35082,35982,1,0 S,2,35082,35982,0.7,0.14 P,0,35082,35982,A M,0,35119,35157,260.4787,381.7345,254.6288,366.9402 M,0,35157,35194,254.6288,366.9402,247.3051,352.817 M,0,35194,35232,247.3051,352.817,238.5835,339.5114
Sprite,Foreground,Centre,"sb\hl.png",0,0 C,0,35382,,223,223,223 M,0,35382,35419,166,274,156.9632,287.0941 F,2,35382,36282,1,0 S,2,35382,36282,0.7,0.14 P,0,35382,36282,A M,0,35419,35457,156.9632,287.0941,149.2612,300.9976 M,0,35457,35494,149.2612,300.9976,143.2421,315.7211 M,0,35494,35532,143.2421,315.7211,139,331
Sprite,Foreground,Centre,"sb\hl.png",0,0 C,0,35682,,223,223,223 M,0,35682,35719,253,236,248.2646,220.7973 F,2,35682,36582,1,0 S,2,35682,36582,0.7,0.14 P,0,35682,36582,A M,0,35719,35757,248.2646,220.7973,242.2774,206.0541 M,0,35757,35794,242.2774,206.0541,234.9042,191.9529 M,0,35794,35832,234.9042,191.9529,226.3582,178.5176
Sprite,Foreground,Centre,"sb\hl.png",107,149 C,0,35982,,149,255,218 F,2,35982,36732,1,0 S,2,35982,36732,0.7,0.14 P,0,35982,36732,A
Sprite,Foreground,Centre,"sb\hl.png",107,149 C,0,36132,,149,255,218 F,2,36132,36882,1,0 S,2,36132,36882,0.7,0.14 P,0,36132,36882,A
Sprite,Foreground,Centre,"sb\hl.png",290,81 C,0,36432,,149,255,218 F,2,36432,37182,1,0 S,2,36432,37182,0.7,0.14 P,0,36432,37182,A
Sprite,Foreground,Centre,"sb\hl.png",0,0 C,0,36582,,149,255,218 M,0,36582,36619,290,81,292.0267,96.80811 F,2,36582,37482,1,0 S,2,36582,37482,0.7,0.14 P,0,36582,37482,A M,0,36619,36657,292.0267,96.80811,294.0533,112.6162 M,0,36657,36694,294.0533,112.6162,296.08,128.4243 M,0,36694,36732,296.08,128.4243,298.1067,144.2325
Sprite,Foreground,Centre,"sb\hl.png",0,0 C,0,36882,,149,255,218 M,0,36882,36919,341,234,346.8662,219.3193 F,2,36882,38082,1,0 S,2,36882,38082,0.7,0.14 P,0,36882,38082,A M,0,36919,36957,346.8662,219.3193,356.065,206.5764 M,0,36957,36994,356.065,206.5764,368.4498,196.8977 M,0,36994,37032,368.4498,196.8977,383.0424,191.0493 M,0,37032,37069,383.0424,191.0493,398.6901,189.4953 M,0,37069,37107,398.6901,189.4953,414.1563,192.3609 M,0,37107,37144,414.1563,192.3609,428.2178,199.4225 M,0,37144,37182,428.2178,199.4225,439.7615,210.125 M,0,37182,37219,439.7615,210.125,447.8721,223.6252 M,0,37219,37257,447.8721,223.6252,451.9043,238.8582 M,0,37257,37294,451.9043,238.8582,451.5345,254.621 M,0,37294,37332,451.5345,254.621,446.7862,269.667
Sprite,Foreground,Centre,"sb\hl.png",0,0 C,0,37482,,36,74,255 M,0,37482,37519,504,339,513.7169,326.3944 F,2,37482,38832,1,0 S,2,37482,38832,0.7,0.14 P,0,37482,38832,A M,0,37519,37557,513.7169,326.3944,522.13,312.9021 M,0,37557,37594,522.13,312.9021,528.9467,298.5364 M,0,37594,37632,528.9467,298.5364,534.0776,283.4851 M,0,37632,37669,534.0776,283.4851,537.4555,267.945 M,0,37669,37707,537.4555,267.945,539.0358,252.1194 M,0,37707,37744,539.0358,252.1194,538.7976,236.2152 M,0,37744,37782,538.7976,236.2152,536.8521,220.4161 M,0,37782,37819,536.8521,220.4161,538.7976,236.2152 M,0,37819,37857,538.7976,236.2152,539.0358,252.1194 M,0,37857,37894,539.0358,252.1194,537.4555,267.945 M,0,37894,37932,537.4555,267.945,534.0776,283.485 M,0,37932,37969,534.0776,283.485,528.9467,298.5363 M,0,37969,38007,528.9467,298.5363,522.13,312.9021 M,0,38007,38044,522.13,312.9021,513.7169,326.3944 M,0,38044,38082,513.7169,326.3944,504,339
Sprite,Foreground,Centre,"sb\hl.png",331,388 C,0,38232,,36,74,255 F,2,38232,38982,1,0 S,2,38232,38982,0.7,0.14 P,0,38232,38982,A
Sprite,Foreground,Centre,"sb\hl.png",331,388 C,0,38307,,36,74,255 F,2,38307,39057,1,0 S,2,38307,39057,0.7,0.14 P,0,38307,39057,A
Sprite,Foreground,Centre,"sb\hl.png",0,0 C,0,38382,,223,223,223 M,0,38382,38419,331,388,315.2249,385.731 F,2,38382,39432,1,0 S,2,38382,39432,0.7,0.14 P,0,38382,39432,A M,0,38419,38457,315.2249,385.731,299.4497,383.4619 M,0,38457,38494,299.4497,383.4619,283.6746,381.1929 M,0,38494,38532,283.6746,381.1929,267.8994,378.9239 M,0,38532,38569,267.8994,378.9239,252.1242,376.6548 M,0,38569,38607,252.1242,376.6548,236.3491,374.3858 M,0,38607,38644,236.3491,374.3858,220.5739,372.1168 M,0,38644,38682,220.5739,372.1168,204.7988,369.8478
Sprite,Foreground,Centre,"sb\hl.png",75,318 C,0,38832,,223,223,223 F,2,38832,39582,1,0 S,2,38832,39582,0.7,0.14 P,0,38832,39582,A
Sprite,Foreground,Centre,"sb\hl.png",0,0 C,0,38982,,223,223,223 M,0,38982,39019,75,318,90.88112,316.6606 F,2,38982,39882,1,0 S,2,38982,39882,0.7,0.14 P,0,38982,39882,A M,0,39019,39057,90.88112,316.6606,106.7622,315.3213 M,0,39057,39094,106.7622,315.3213,122.6434,313.9819 M,0,39094,39132,122.6434,313.9819,138.5245,312.6425
Sprite,Foreground,Centre,"sb\hl.png",0,0 C,0,39282,,223,223,223 M,0,39282,39319,251,231,238.9861,220.5462 F,2,39282,40482,1,0 S,2,39282,40482,0.7,0.14 P,0,39282,40482,A M,0,39319,39357,238.9861,220.5462,227.7964,209.227 M,0,39357,39394,227.7964,209.227,217.6276,196.9822 M,0,39394,39432,217.6276,196.9822,208.5557,183.9035 M,0,39432,39469,208.5557,183.9035,200.6488,170.0887 M,0,39469,39507,200.6488,170.0887,193.9662,155.6412 M,0,39507,39544,193.9662,155.6412,188.5579,140.6692 M,0,39544,39582,188.5579,140.6692,184.4647,125.2847 M,0,39582,39619,184.4647,125.2847,181.7172,109.6028 M,0,39619,39657,181.7172,109.6028,180.3364,93.74101 M,0,39657,39694,180.3364,93.74101,180.3327,77.81798 M,0,39694,39732,180.3327,77.81798,181.7063,61.95295
Sprite,Foreground,Centre,"sb\hl.png",0,0 C,0,39882,,149,255,218 M,0,39882,39919,373,119,357.3073,116.3718 F,2,39882,40782,1,0 S,2,39882,40782,0.7,0.14 P,0,39882,40782,A M,0,39919,39957,357.3073,116.3718,342.0074,112.0729 M,0,39957,39994,342.0074,112.0729,327.3626,105.8973 M,0,39994,40032,327.3626,105.8973,313.6017,97.94102
Sprite,Foreground,Centre,"sb\hl.png",0,0 C,0,40182,,149,255,218 M,0,40182,40219,439,192,423.5981,195.9995 F,2,40182,41082,1,0 S,2,40182,41082,0.7,0.14 P,0,40182,41082,A M,0,40219,40257,423.5981,195.9995,407.8794,198.3587 M,0,40257,40294,407.8794,198.3587,391.9893,198.7905 M,0,40294,40332,391.9893,198.7905,376.1628,197.2883
Sprite,Foreground,Centre,"sb\hl.png",0,0 C,0,40482,,149,255,218 M,0,40482,40519,553,225,540.5496,234.9165 F,2,40482,41382,1,0 S,2,40482,41382,0.7,0.14 P,0,40482,41382,A M,0,40519,40557,540.5496,234.9165,527.2233,243.5936 M,0,40557,40594,527.2233,243.5936,513.0197,250.7468 M,0,40594,40632,513.0197,250.7468,498.1117,256.2886
Sprite,Foreground,Centre,"sb\ring.png",64,173 F,6,21582,22332,0.7,0 S,19,21582,22332,0.125,0.55
Sprite,Foreground,Centre,"sb\ring.png",482,110 F,6,187182,187682,0.7,0 S,19,187182,187682,0.125,0.55
Sprite,Foreground,Centre,"sb\ring.png",390,360 F,6,40782,41532,0.7,0 S,19,40782,41532,0.125,0.55
Sprite,Foreground,Centre,"sb\ring.png",189,240 F,6,59982,60732,0.7,0 S,19,59982,60732,0.125,0.55
Sprite,Foreground,Centre,"sb\hl.png",178,186 C,0,57582,,223,223,223 F,2,57582,58332,1,0 S,2,57582,58332,0.7,0.14 P,0,57582,58332,A
Sprite,Foreground,Centre,"sb\hl.png",246,386 C,0,57807,,223,223,223 F,2,57807,58557,1,0 S,2,57807,58557,0.7,0.14 P,0,57807,58557,A
Sprite,Foreground,Centre,"sb\hl.png",307,189 C,0,58032,,223,223,223 F,2,58032,58782,1,0 S,2,58032,58782,0.7,0.14 P,0,58032,58782,A
Sprite,Foreground,Centre,"sb\hl.png",329,308 C,0,58182,,149,255,218 F,2,58182,58932,1,0 S,2,58182,58932,0.7,0.14 P,0,58182,58932,A
Sprite,Foreground,Centre,"sb\hl.png",378,140 C,0,58407,,149,255,218 F,2,58407,59157,1,0 S,2,58407,59157,0.7,0.14 P,0,58407,59157,A
Sprite,Foreground,Centre,"sb\hl.png",433,306 C,0,58632,,149,255,218 F,2,58632,59382,1,0 S,2,58632,59382,0.7,0.14 P,0,58632,59382,A
Sprite,Foreground,Centre,"sb\hl.png",465,200 C,0,58782,,36,74,255 F,2,58782,59532,1,0 S,2,58782,59532,0.7,0.14 P,0,58782,59532,A
Sprite,Foreground,Centre,"sb\hl.png",509,340 C,0,59007,,36,74,255 F,2,59007,59757,1,0 S,2,59007,59757,0.7,0.14 P,0,59007,59757,A
Sprite,Foreground,Centre,"sb\hl.png",548,201 C,0,59232,,36,74,255 F,2,59232,59982,1,0 S,2,59232,59982,0.7,0.14 P,0,59232,59982,A
Sprite,Foreground,Centre,"sb\hl.png",0,0 C,0,59382,,223,223,223 M,0,59382,59419,429,297,422.3391,313.7374 F,2,59382,60282,1,0 S,2,59382,60282,0.7,0.14 P,0,59382,60282,A M,0,59419,59457,422.3391,313.7374,418.9918,331.4177 M,0,59457,59494,418.9918,331.4177,419.0739,349.3985 M,0,59494,59532,419.0739,349.3985,422.5788,367.0273
Sprite,Foreground,Centre,"sb\hl.png",0,0 C,0,59682,,223,223,223 M,0,59682,59719,298,337,297.9898,355.0285 F,2,59682,60582,1,0 S,2,59682,60582,0.7,0.14 P,0,59682,60582,A M,0,59719,59757,297.9898,355.0285,301.0168,372.7881 M,0,59757,59794,301.0168,372.7881,306.9911,389.7733 M,0,59794,59832,306.9911,389.7733,315.7397,405.501
Sprite,Foreground,Centre,"sb\hl.png",64,398 C,0,76782,,223,223,223 F,2,76782,77532,1,0 S,2,76782,77532,0.7,0.14 P,0,76782,77532,A
Sprite,Foreground,Centre,"sb\hl.png",290,358 C,0,77007,,223,223,223 F,2,77007,77757,1,0 S,2,77007,77757,0.7,0.14 P,0,77007,77757,A
Sprite,Foreground,Centre,"sb\hl.png",88,262 C,0,77232,,223,223,223 F,2,77232,77982,1,0 S,2,77232,77982,0.7,0.14 P,0,77232,77982,A
Sprite,Foreground,Centre,"sb\hl.png",174,340 C,0,77382,,149,255,218 F,2,77382,78132,1,0 S,2,77382,78132,0.7,0.14 P,0,77382,78132,A
Sprite,Foreground,Centre,"sb\hl.png",234,169 C,0,77607,,149,255,218 F,2,77607,78357,1,0 S,2,77607,78357,0.7,0.14 P,0,77607,78357,A
Sprite,Foreground,Centre,"sb\hl.png",88,262 C,0,77832,,149,255,218 F,2,77832,78582,1,0 S,2,77832,78582,0.7,0.14 P,0,77832,78582,A
Sprite,Foreground,Centre,"sb\hl.png",178,244 C,0,77982,,36,74,255 F,2,77982,78732,1,0 S,2,77982,78732,0.7,0.14 P,0,77982,78732,A
Sprite,Foreground,Centre,"sb\hl.png",99,111 C,0,78207,,36,74,255 F,2,78207,78957,1,0 S,2,78207,78957,0.7,0.14 P,0,78207,78957,A
Sprite,Foreground,Centre,"sb\hl.png",88,262 C,0,78432,,36,74,255 F,2,78432,79182,1,0 S,2,78432,79182,0.7,0.14 P,0,78432,79182,A
Sprite,Foreground,Centre,"sb\ring.png",121,193 F,6,78582,79332,0.7,0 S,19,78582,79332,0.125,0.55
Sprite,Foreground,Centre,"sb\ring.png",283,244 F,6,78882,79632,0.7,0 S,19,78882,79632,0.125,0.55
Sprite,Foreground,Centre,"sb\ring.png",121,193 F,6,79032,79782,0.7,0 S,19,79032,79782,0.125,0.55
Sprite,Foreground,Centre,"sb\ring.png",354,299 F,6,79182,79932,0.7,0 S,19,79182,79932,0.125,0.55
Sprite,Foreground,Centre,"sb\ring.png",298,200 F,6,98382,99132,0.7,0 S,19,98382,99132,0.125,0.55
Sprite,Foreground,Centre,"sb\ring.png",302,106 F,6,117582,118332,0.7,0 S,19,117582,118332,0.125,0.55
Sprite,Foreground,Centre,"sb\ring.png",533,123 F,6,128982,129732,0.7,0 S,19,128982,129732,0.125,0.55
Sprite,Foreground,Centre,"sb\ring.png",475,303 F,6,129132,129882,0.7,0 S,19,129132,129882,0.125,0.55
Sprite,Foreground,Centre,"sb\ring.png",374,74 F,6,129282,130032,0.7,0 S,19,129282,130032,0.125,0.55
Sprite,Foreground,Centre,"sb\ring.png",316,254 F,6,129432,130182,0.7,0 S,19,129432,130182,0.125,0.55
Sprite,Foreground,Centre,"sb\ring.png",205,69 F,6,129582,130332,0.7,0 S,19,129582,130332,0.125,0.55
Sprite,Foreground,Centre,"sb\ring.png",459,402 F,6,139182,140682,0.7,0 S,19,139182,140682,0.125,0.55
Sprite,Foreground,Centre,"sb\ring.png",527,284 F,6,131382,132882,0.7,0 S,19,131382,132882,0.125,0.55
Sprite,Foreground,Centre,"sb\ring.png",473,90 F,6,131532,133032,0.7,0 S,19,131532,133032,0.125,0.55
Sprite,Foreground,Centre,"sb\ring.png",417,313 F,6,131682,133182,0.7,0 S,19,131682,133182,0.125,0.55
Sprite,Foreground,Centre,"sb\ring.png",357,67 F,6,131832,133332,0.7,0 S,19,131832,133332,0.125,0.55
Sprite,Foreground,Centre,"sb\ring.png",300,356 F,6,131982,133482,0.7,0 S,19,131982,133482,0.125,0.55
Sprite,Foreground,Centre,"sb\ring.png",432,350 F,6,143982,144482,0.7,0 S,19,143982,144482,0.125,0.55
Sprite,Foreground,Centre,"sb\ring.png",371,164 F,6,144132,144632,0.7,0 S,19,144132,144632,0.125,0.55
Sprite,Foreground,Centre,"sb\ring.png",375,367 F,6,144432,144932,0.7,0 S,19,144432,144932,0.125,0.55
Sprite,Foreground,Centre,"sb\ring.png",429,147 F,6,144582,145082,0.7,0 S,19,144582,145082,0.125,0.55
Sprite,Foreground,Centre,"sb\ring.png",450,373 F,6,144882,145382,0.7,0 S,19,144882,145382,0.125,0.55
Sprite,Foreground,Centre,"sb\ring.png",354,141 F,6,145032,145532,0.7,0 S,19,145032,145532,0.125,0.55
Sprite,Foreground,Centre,"sb\ring.png",366,393 F,6,145332,145832,0.7,0 S,19,145332,145832,0.125,0.55
Sprite,Foreground,Centre,"sb\ring.png",438,121 F,6,145482,145982,0.7,0 S,19,145482,145982,0.125,0.55
Sprite,Foreground,Centre,"sb\ring.png",343,304 F,6,145782,146282,0.7,0 S,19,145782,146282,0.125,0.55
Sprite,Foreground,Centre,"sb\ring.png",173,168 F,6,146382,146882,0.7,0 S,19,146382,146882,0.125,0.55
Sprite,Foreground,Centre,"sb\ring.png",234,354 F,6,146532,147032,0.7,0 S,19,146532,147032,0.125,0.55
Sprite,Foreground,Centre,"sb\ring.png",230,151 F,6,146832,147332,0.7,0 S,19,146832,147332,0.125,0.55
Sprite,Foreground,Centre,"sb\ring.png",176,371 F,6,146982,147482,0.7,0 S,19,146982,147482,0.125,0.55
Sprite,Foreground,Centre,"sb\ring.png",155,145 F,6,147282,147782,0.7,0 S,19,147282,147782,0.125,0.55
Sprite,Foreground,Centre,"sb\ring.png",251,377 F,6,147432,147932,0.7,0 S,19,147432,147932,0.125,0.55
Sprite,Foreground,Centre,"sb\ring.png",239,125 F,6,147732,148232,0.7,0 S,19,147732,148232,0.125,0.55
Sprite,Foreground,Centre,"sb\ring.png",167,397 F,6,147882,148382,0.7,0 S,19,147882,148382,0.125,0.55
Sprite,Foreground,Centre,"sb\ring.png",68,211 F,6,148182,148682,0.7,0 S,19,148182,148682,0.125,0.55
Sprite,Foreground,Centre,"sb\ring.png",122,301 F,6,153582,154082,0.7,0 S,19,153582,154082,0.125,0.55
Sprite,Foreground,Centre,"sb\ring.png",353,252 F,6,153732,154232,0.7,0 S,19,153732,154232,0.125,0.55
Sprite,Foreground,Centre,"sb\ring.png",118,244 F,6,154032,154532,0.7,0 S,19,154032,154532,0.125,0.55
Sprite,Foreground,Centre,"sb\ring.png",356,311 F,6,154182,154682,0.7,0 S,19,154182,154682,0.125,0.55
Sprite,Foreground,Centre,"sb\ring.png",101,325 F,6,154482,154982,0.7,0 S,19,154482,154982,0.125,0.55
Sprite,Foreground,Centre,"sb\ring.png",373,229 F,6,154632,155132,0.7,0 S,19,154632,155132,0.125,0.55
Sprite,Foreground,Centre,"sb\ring.png",100,224 F,6,154932,155432,0.7,0 S,19,154932,155432,0.125,0.55
Sprite,Foreground,Centre,"sb\ring.png",375,330 F,6,155082,155582,0.7,0 S,19,155082,155582,0.125,0.55
Sprite,Foreground,Centre,"sb\ring.png",112,214 F,6,155232,155732,0.7,0 S,19,155232,155732,0.125,0.55
Sprite,Foreground,Centre,"sb\ring.png",387,322 F,6,155382,155882,0.7,0 S,19,155382,155882,0.125,0.55
Sprite,Foreground,Centre,"sb\ring.png",222,209 F,6,155982,156482,0.7,0 S,19,155982,156482,0.125,0.55
Sprite,Foreground,Centre,"sb\ring.png",453,160 F,6,156132,156632,0.7,0 S,19,156132,156632,0.125,0.55
Sprite,Foreground,Centre,"sb\ring.png",218,152 F,6,156432,156932,0.7,0 S,19,156432,156932,0.125,0.55
Sprite,Foreground,Centre,"sb\ring.png",456,219 F,6,156582,157082,0.7,0 S,19,156582,157082,0.125,0.55
Sprite,Foreground,Centre,"sb\ring.png",201,233 F,6,156882,157382,0.7,0 S,19,156882,157382,0.125,0.55
Sprite,Foreground,Centre,"sb\ring.png",473,137 F,6,157032,157532,0.7,0 S,19,157032,157532,0.125,0.55
Sprite,Foreground,Centre,"sb\ring.png",200,132 F,6,157332,157832,0.7,0 S,19,157332,157832,0.125,0.55
Sprite,Foreground,Centre,"sb\ring.png",475,238 F,6,157482,157982,0.7,0 S,19,157482,157982,0.125,0.55
Sprite,Foreground,Centre,"sb\ring.png",212,122 F,6,157632,158132,0.7,0 S,19,157632,158132,0.125,0.55
Sprite,Foreground,Centre,"sb\ring.png",487,230 F,6,157782,158282,0.7,0 S,19,157782,158282,0.125,0.55
Sprite,Foreground,Centre,"sb\ring.png",387,138 F,6,194382,194882,0.7,0 S,19,194382,194882,0.125,0.55
Sprite,Foreground,Centre,"sb\ring.png",242,253 F,6,194532,195032,0.7,0 S,19,194532,195032,0.125,0.55
Sprite,Foreground,Centre,"sb\ring.png",496,207 F,6,194682,195182,0.7,0 S,19,194682,195182,0.125,0.55
Sprite,Foreground,Centre,"sb\ring.png",258,106 F,6,194832,195332,0.7,0 S,19,194832,195332,0.125,0.55
Sprite,Foreground,Centre,"sb\ring.png",435,358 F,6,194982,195482,0.7,0 S,19,194982,195482,0.125,0.55
Sprite,Foreground,Centre,"sb\ring.png",488,97 F,6,195132,195632,0.7,0 S,19,195132,195632,0.125,0.55
Sprite,Foreground,Centre,"sb\ring.png",488,97 F,6,195207,195707,0.7,0 S,19,195207,195707,0.125,0.55
Sprite,Foreground,Centre,"sb\ring.png",488,97 F,6,195282,195782,0.7,0 S,19,195282,195782,0.125,0.55
Sprite,Foreground,Centre,"sb\ring.png",243,268 F,6,195432,195932,0.7,0 S,19,195432,195932,0.125,0.55
Sprite,Foreground,Centre,"sb\ring.png",253,276 F,6,195732,196232,0.7,0 S,19,195732,196232,0.125,0.55
Sprite,Foreground,Centre,"sb\ring.png",391,56 F,6,195882,196382,0.7,0 S,19,195882,196382,0.125,0.55
Sprite,Foreground,Centre,"sb\ring.png",439,343 F,6,196032,196532,0.7,0 S,19,196032,196532,0.125,0.55
Sprite,Foreground,Centre,"sb\ring.png",212,177 F,6,196182,196682,0.7,0 S,19,196182,196682,0.125,0.55
Sprite,Foreground,Centre,"sb\ring.png",418,385 F,6,203982,204482,0.7,0 S,19,203982,204482,0.125,0.55
Sprite,Foreground,Centre,"sb\ring.png",163,411 F,6,204132,204632,0.7,0 S,19,204132,204632,0.125,0.55
Sprite,Foreground,Centre,"sb\ring.png",466,324 F,6,204432,204932,0.7,0 S,19,204432,204932,0.125,0.55
Sprite,Foreground,Centre,"sb\ring.png",191,276 F,6,204582,205082,0.7,0 S,19,204582,205082,0.125,0.55
Sprite,Foreground,Centre,"sb\ring.png",447,180 F,6,204882,205382,0.7,0 S,19,204882,205382,0.125,0.55
Sprite,Foreground,Centre,"sb\ring.png",149,213 F,6,205032,205532,0.7,0 S,19,205032,205532,0.125,0.55
Sprite,Foreground,Centre,"sb\ring.png",501,124 F,6,205332,205832,0.7,0 S,19,205332,205832,0.125,0.55
Sprite,Foreground,Centre,"sb\ring.png",178,68 F,6,205482,205982,0.7,0 S,19,205482,205982,0.125,0.55
Sprite,Foreground,Centre,"sb\ring.png",277,281 F,6,205782,206282,0.7,0 S,19,205782,206282,0.125,0.55
Sprite,Foreground,Centre,"sb\ring.png",398,267 F,6,206382,206882,0.7,0 S,19,206382,206882,0.125,0.55
Sprite,Foreground,Centre,"sb\ring.png",306,390 F,6,223182,223682,0.7,0 S,19,223182,223682,0.125,0.55
Sprite,Foreground,Centre,"sb\ring.png",395,161 F,6,223332,223832,0.7,0 S,19,223332,223832,0.125,0.55
Sprite,Foreground,Centre,"sb\ring.png",300,378 F,6,223632,224132,0.7,0 S,19,223632,224132,0.125,0.55
Sprite,Foreground,Centre,"sb\ring.png",225,128 F,6,223782,224282,0.7,0 S,19,223782,224282,0.125,0.55
Sprite,Foreground,Centre,"sb\ring.png",305,366 F,6,224082,224582,0.7,0 S,19,224082,224582,0.125,0.55
Sprite,Foreground,Centre,"sb\ring.png",417,95 F,6,224232,224732,0.7,0 S,19,224232,224732,0.125,0.55
Sprite,Foreground,Centre,"sb\ring.png",299,354 F,6,224532,225032,0.7,0 S,19,224532,225032,0.125,0.55
Sprite,Foreground,Centre,"sb\ring.png",200,60 F,6,224682,225182,0.7,0 S,19,224682,225182,0.125,0.55
Sprite,Foreground,Centre,"sb\ring.png",363,232 F,6,224982,225482,0.7,0 S,19,224982,225482,0.125,0.55
Sprite,Foreground,Centre,"sb\ring.png",363,232 F,6,225582,226082,0.7,0 S,19,225582,226082,0.125,0.55
Sprite,Foreground,Centre,"sb\ring.png",258,100 F,6,244782,246282,0.7,0 S,19,244782,246282,0.125,0.55
Sprite,Foreground,Centre,"sb\d.png",0,0 M,4,187182,187782,482,110,549,205 F,0,187182,187782,1,0 S,0,187182,187782,0.7,0.28 P,0,187182,187782,A
Sprite,Foreground,Centre,"sb\d.png",0,0 M,4,187182,187782,482,110,562,127 F,0,187182,187782,1,0 S,0,187182,187782,0.7,0.28 P,0,187182,187782,A
Sprite,Foreground,Centre,"sb\d.png",0,0 M,4,187182,187782,482,110,393,127 F,0,187182,187782,1,0 S,0,187182,187782,0.7,0.28 P,0,187182,187782,A
Sprite,Foreground,Centre,"sb\d.png",0,0 M,4,187182,187782,482,110,603,92 F,0,187182,187782,1,0 S,0,187182,187782,0.7,0.28 P,0,187182,187782,A
Sprite,Foreground,Centre,"sb\d.png",0,0 M,4,187182,187782,482,110,625,42 F,0,187182,187782,1,0 S,0,187182,187782,0.7,0.28 P,0,187182,187782,A
Sprite,Foreground,Centre,"sb\d.png",0,0 M,4,187182,187782,482,110,419,100 F,0,187182,187782,1,0 S,0,187182,187782,0.7,0.28 P,0,187182,187782,A
Sprite,Foreground,Centre,"sb\d.png",0,0 M,4,187182,187782,482,110,521,100 F,0,187182,187782,1,0 S,0,187182,187782,0.7,0.28 P,0,187182,187782,A
Sprite,Foreground,Centre,"sb\d.png",0,0 M,4,187482,188082,152,80,296,-61 F,0,187482,188082,1,0 S,0,187482,188082,0.7,0.28 P,0,187482,188082,A
Sprite,Foreground,Centre,"sb\d.png",0,0 M,4,187482,188082,152,80,260,228 F,0,187482,188082,1,0 S,0,187482,188082,0.7,0.28 P,0,187482,188082,A
Sprite,Foreground,Centre,"sb\d.png",0,0 M,4,187482,188082,152,80,205,24 F,0,187482,188082,1,0 S,0,187482,188082,0.7,0.28 P,0,187482,188082,A
Sprite,Foreground,Centre,"sb\d.png",0,0 M,4,187482,188082,152,80,247,184 F,0,187482,188082,1,0 S,0,187482,188082,0.7,0.28 P,0,187482,188082,A
Sprite,Foreground,Centre,"sb\d.png",0,0 M,4,187482,188082,152,80,299,-61 F,0,187482,188082,1,0 S,0,187482,188082,0.7,0.28 P,0,187482,188082,A
Sprite,Foreground,Centre,"sb\d.png",0,0 M,4,187482,188082,152,80,211,87 F,0,187482,188082,1,0 S,0,187482,188082,0.7,0.28 P,0,187482,188082,A
Sprite,Foreground,Centre,"sb\d.png",0,0 M,4,187482,188082,152,80,282,136 F,0,187482,188082,1,0 S,0,187482,188082,0.7,0.28 P,0,187482,188082,A
Sprite,Foreground,Centre,"sb\d.png",0,0 M,4,187632,188232,309,278,323,152 F,0,187632,188232,1,0 S,0,187632,188232,0.7,0.28 P,0,187632,188232,A
Sprite,Foreground,Centre,"sb\d.png",0,0 M,4,187632,188232,309,278,215,263 F,0,187632,188232,1,0 S,0,187632,188232,0.7,0.28 P,0,187632,188232,A
Sprite,Foreground,Centre,"sb\d.png",0,0 M,4,187632,188232,309,278,248,424 F,0,187632,188232,1,0 S,0,187632,188232,0.7,0.28 P,0,187632,188232,A
Sprite,Foreground,Centre,"sb\d.png",0,0 M,4,187632,188232,309,278,351,356 F,0,187632,188232,1,0 S,0,187632,188232,0.7,0.28 P,0,187632,188232,A
Sprite,Foreground,Centre,"sb\d.png",0,0 M,4,187632,188232,309,278,168,242 F,0,187632,188232,1,0 S,0,187632,188232,0.7,0.28 P,0,187632,188232,A
Sprite,Foreground,Centre,"sb\d.png",0,0 M,4,187632,188232,309,278,261,415 F,0,187632,188232,1,0 S,0,187632,188232,0.7,0.28 P,0,187632,188232,A
Sprite,Foreground,Centre,"sb\d.png",0,0 M,4,187632,188232,309,278,310,342 F,0,187632,188232,1,0 S,0,187632,188232,0.7,0.28 P,0,187632,188232,A
Sprite,Foreground,Centre,"sb\d.png",0,0 M,4,187707,188307,302,235,187,167 F,0,187707,188307,1,0 S,0,187707,188307,0.7,0.28 P,0,187707,188307,A
Sprite,Foreground,Centre,"sb\d.png",0,0 M,4,187707,188307,302,235,424,323 F,0,187707,188307,1,0 S,0,187707,188307,0.7,0.28 P,0,187707,188307,A
Sprite,Foreground,Centre,"sb\d.png",0,0 M,4,187707,188307,302,235,253,222 F,0,187707,188307,1,0 S,0,187707,188307,0.7,0.28 P,0,187707,188307,A
Sprite,Foreground,Centre,"sb\d.png",0,0 M,4,187707,188307,302,235,196,151 F,0,187707,188307,1,0 S,0,187707,188307,0.7,0.28 P,0,187707,188307,A
Sprite,Foreground,Centre,"sb\d.png",0,0 M,4,187707,188307,302,235,275,300 F,0,187707,188307,1,0 S,0,187707,188307,0.7,0.28 P,0,187707,188307,A
Sprite,Foreground,Centre,"sb\d.png",0,0 M,4,187707,188307,302,235,337,231 F,0,187707,188307,1,0 S,0,187707,188307,0.7,0.28 P,0,187707,188307,A
Sprite,Foreground,Centre,"sb\d.png",0,0 M,4,187707,188307,302,235,210,348 F,0,187707,188307,1,0 S,0,187707,188307,0.7,0.28 P,0,187707,188307,A
Sprite,Foreground,Centre,"sb\d.png",0,0 M,4,187782,188382,297,193,394,263 F,0,187782,188382,1,0 S,0,187782,188382,0.7,0.28 P,0,187782,188382,A
Sprite,Foreground,Centre,"sb\d.png",0,0 M,4,187782,188382,297,193,404,246 F,0,187782,188382,1,0 S,0,187782,188382,0.7,0.28 P,0,187782,188382,A
Sprite,Foreground,Centre,"sb\d.png",0,0 M,4,187782,188382,297,193,334,108 F,0,187782,188382,1,0 S,0,187782,188382,0.7,0.28 P,0,187782,188382,A
Sprite,Foreground,Centre,"sb\d.png",0,0 M,4,187782,188382,297,193,415,311 F,0,187782,188382,1,0 S,0,187782,188382,0.7,0.28 P,0,187782,188382,A
Sprite,Foreground,Centre,"sb\d.png",0,0 M,4,187782,188382,297,193,172,294 F,0,187782,188382,1,0 S,0,187782,188382,0.7,0.28 P,0,187782,188382,A
Sprite,Foreground,Centre,"sb\d.png",0,0 M,4,187782,188382,297,193,198,236 F,0,187782,188382,1,0 S,0,187782,188382,0.7,0.28 P,0,187782,188382,A
Sprite,Foreground,Centre,"sb\d.png",0,0 M,4,187782,188382,297,193,395,108 F,0,187782,188382,1,0 S,0,187782,188382,0.7,0.28 P,0,187782,188382,A
Sprite,Foreground,Centre,"sb\d.png",0,0 M,4,187857,188457,290,150,439,144 F,0,187857,188457,1,0 S,0,187857,188457,0.7,0.28 P,0,187857,188457,A
Sprite,Foreground,Centre,"sb\d.png",0,0 M,4,187857,188457,290,150,335,215 F,0,187857,188457,1,0 S,0,187857,188457,0.7,0.28 P,0,187857,188457,A
Sprite,Foreground,Centre,"sb\d.png",0,0 M,4,187857,188457,290,150,382,30 F,0,187857,188457,1,0 S,0,187857,188457,0.7,0.28 P,0,187857,188457,A
Sprite,Foreground,Centre,"sb\d.png",0,0 M,4,187857,188457,290,150,358,215 F,0,187857,188457,1,0 S,0,187857,188457,0.7,0.28 P,0,187857,188457,A
Sprite,Foreground,Centre,"sb\d.png",0,0 M,4,187857,188457,290,150,177,271 F,0,187857,188457,1,0 S,0,187857,188457,0.7,0.28 P,0,187857,188457,A
Sprite,Foreground,Centre,"sb\d.png",0,0 M,4,187857,188457,290,150,196,143 F,0,187857,188457,1,0 S,0,187857,188457,0.7,0.28 P,0,187857,188457,A
Sprite,Foreground,Centre,"sb\d.png",0,0 M,4,187857,188457,290,150,302,97 F,0,187857,188457,1,0 S,0,187857,188457,0.7,0.28 P,0,187857,188457,A
Sprite,Foreground,Centre,"sb\d.png",0,0 M,4,187932,188532,286,109,337,99 F,0,187932,188532,1,0 S,0,187932,188532,0.7,0.28 P,0,187932,188532,A
Sprite,Foreground,Centre,"sb\d.png",0,0 M,4,187932,188532,286,109,386,201 F,0,187932,188532,1,0 S,0,187932,188532,0.7,0.28 P,0,187932,188532,A
Sprite,Foreground,Centre,"sb\d.png",0,0 M,4,187932,188532,286,109,374,188 F,0,187932,188532,1,0 S,0,187932,188532,0.7,0.28 P,0,187932,188532,A
Sprite,Foreground,Centre,"sb\d.png",0,0 M,4,187932,188532,286,109,417,47 F,0,187932,188532,1,0 S,0,187932,188532,0.7,0.28 P,0,187932,188532,A
Sprite,Foreground,Centre,"sb\d.png",0,0 M,4,187932,188532,286,109,292,158 F,0,187932,188532,1,0 S,0,187932,188532,0.7,0.28 P,0,187932,188532,A
Sprite,Foreground,Centre,"sb\d.png",0,0 M,4,187932,188532,286,109,235,45 F,0,187932,188532,1,0 S,0,187932,188532,0.7,0.28 P,0,187932,188532,A
Sprite,Foreground,Centre,"sb\d.png",0,0 M,4,187932,188532,286,109,382,25 F,0,187932,188532,1,0 S,0,187932,188532,0.7,0.28 P,0,187932,188532,A
Sprite,Foreground,Centre,"sb\d.png",0,0 M,4,188082,188682,110,210,16,80 F,0,188082,188682,1,0 S,0,188082,188682,0.7,0.28 P,0,188082,188682,A
Sprite,Foreground,Centre,"sb\d.png",0,0 M,4,188082,188682,110,210,147,267 F,0,188082,188682,1,0 S,0,188082,188682,0.7,0.28 P,0,188082,188682,A
Sprite,Foreground,Centre,"sb\d.png",0,0 M,4,188082,188682,110,210,149,338 F,0,188082,188682,1,0 S,0,188082,188682,0.7,0.28 P,0,188082,188682,A
Sprite,Foreground,Centre,"sb\d.png",0,0 M,4,188082,188682,110,210,26,338 F,0,188082,188682,1,0 S,0,188082,188682,0.7,0.28 P,0,188082,188682,A
Sprite,Foreground,Centre,"sb\d.png",0,0 M,4,188082,188682,110,210,-21,330 F,0,188082,188682,1,0 S,0,188082,188682,0.7,0.28 P,0,188082,188682,A
Sprite,Foreground,Centre,"sb\d.png",0,0 M,4,188082,188682,110,210,163,88 F,0,188082,188682,1,0 S,0,188082,188682,0.7,0.28 P,0,188082,188682,A
Sprite,Foreground,Centre,"sb\d.png",0,0 M,4,188082,188682,110,210,4,92 F,0,188082,188682,1,0 S,0,188082,188682,0.7,0.28 P,0,188082,188682,A
Sprite,Foreground,Centre,"sb\d.png",0,0 M,4,188382,188982,391,93,423,228 F,0,188382,188982,1,0 S,0,188382,188982,0.7,0.28 P,0,188382,188982,A
Sprite,Foreground,Centre,"sb\d.png",0,0 M,4,188382,188982,391,93,388,-13 F,0,188382,188982,1,0 S,0,188382,188982,0.7,0.28 P,0,188382,188982,A
Sprite,Foreground,Centre,"sb\d.png",0,0 M,4,188382,188982,391,93,444,113 F,0,188382,188982,1,0 S,0,188382,188982,0.7,0.28 P,0,188382,188982,A
Sprite,Foreground,Centre,"sb\d.png",0,0 M,4,188382,188982,391,93,308,128 F,0,188382,188982,1,0 S,0,188382,188982,0.7,0.28 P,0,188382,188982,A
Sprite,Foreground,Centre,"sb\d.png",0,0 M,4,188382,188982,391,93,242,51 F,0,188382,188982,1,0 S,0,188382,188982,0.7,0.28 P,0,188382,188982,A
Sprite,Foreground,Centre,"sb\d.png",0,0 M,4,188382,188982,391,93,496,-39 F,0,188382,188982,1,0 S,0,188382,188982,0.7,0.28 P,0,188382,188982,A
Sprite,Foreground,Centre,"sb\d.png",0,0 M,4,188382,188982,391,93,325,154 F,0,188382,188982,1,0 S,0,188382,188982,0.7,0.28 P,0,188382,188982,A
Sprite,Foreground,Centre,"sb\d.png",0,0 M,4,188682,189282,450,306,587,452 F,0,188682,189282,1,0 S,0,188682,189282,0.7,0.28 P,0,188682,189282,A
Sprite,Foreground,Centre,"sb\d.png",0,0 M,4,188682,189282,450,306,416,312 F,0,188682,189282,1,0 S,0,188682,189282,0.7,0.28 P,0,188682,189282,A
Sprite,Foreground,Centre,"sb\d.png",0,0 M,4,188682,189282,450,306,384,307 F,0,188682,189282,1,0 S,0,188682,189282,0.7,0.28 P,0,188682,189282,A
Sprite,Foreground,Centre,"sb\d.png",0,0 M,4,188682,189282,450,306,459,173 F,0,188682,189282,1,0 S,0,188682,189282,0.7,0.28 P,0,188682,189282,A
Sprite,Foreground,Centre,"sb\d.png",0,0 M,4,188682,189282,450,306,384,304 F,0,188682,189282,1,0 S,0,188682,189282,0.7,0.28 P,0,188682,189282,A
Sprite,Foreground,Centre,"sb\d.png",0,0 M,4,188682,189282,450,306,553,339 F,0,188682,189282,1,0 S,0,188682,189282,0.7,0.28 P,0,188682,189282,A
Sprite,Foreground,Centre,"sb\d.png",0,0 M,4,188682,189282,450,306,331,378 F,0,188682,189282,1,0 S,0,188682,189282,0.7,0.28 P,0,188682,189282,A
Sprite,Foreground,Centre,"sb\d.png",0,0 M,4,188832,189432,531,80,501,210 F,0,188832,189432,1,0 S,0,188832,189432,0.7,0.28 P,0,188832,189432,A
Sprite,Foreground,Centre,"sb\d.png",0,0 M,4,188832,189432,531,80,420,139 F,0,188832,189432,1,0 S,0,188832,189432,0.7,0.28 P,0,188832,189432,A
Sprite,Foreground,Centre,"sb\d.png",0,0 M,4,188832,189432,531,80,565,179 F,0,188832,189432,1,0 S,0,188832,189432,0.7,0.28 P,0,188832,189432,A
Sprite,Foreground,Centre,"sb\d.png",0,0 M,4,188832,189432,531,80,586,100 F,0,188832,189432,1,0 S,0,188832,189432,0.7,0.28 P,0,188832,189432,A
Sprite,Foreground,Centre,"sb\d.png",0,0 M,4,188832,189432,531,80,432,-15 F,0,188832,189432,1,0 S,0,188832,189432,0.7,0.28 P,0,188832,189432,A
Sprite,Foreground,Centre,"sb\d.png",0,0 M,4,188832,189432,531,80,563,5 F,0,188832,189432,1,0 S,0,188832,189432,0.7,0.28 P,0,188832,189432,A
Sprite,Foreground,Centre,"sb\d.png",0,0 M,4,188832,189432,531,80,680,100 F,0,188832,189432,1,0 S,0,188832,189432,0.7,0.28 P,0,188832,189432,A
Sprite,Foreground,Centre,"sb\d.png",0,0 M,4,188907,189507,501,102,370,31 F,0,188907,189507,1,0 S,0,188907,189507,0.7,0.28 P,0,188907,189507,A
Sprite,Foreground,Centre,"sb\d.png",0,0 M,4,188907,189507,501,102,603,122 F,0,188907,189507,1,0 S,0,188907,189507,0.7,0.28 P,0,188907,189507,A
Sprite,Foreground,Centre,"sb\d.png",0,0 M,4,188907,189507,501,102,544,106 F,0,188907,189507,1,0 S,0,188907,189507,0.7,0.28 P,0,188907,189507,A
Sprite,Foreground,Centre,"sb\d.png",0,0 M,4,188907,189507,501,102,642,-25 F,0,188907,189507,1,0 S,0,188907,189507,0.7,0.28 P,0,188907,189507,A
Sprite,Foreground,Centre,"sb\d.png",0,0 M,4,188907,189507,501,102,504,-2 F,0,188907,189507,1,0 S,0,188907,189507,0.7,0.28 P,0,188907,189507,A
Sprite,Foreground,Centre,"sb\d.png",0,0 M,4,188907,189507,501,102,595,144 F,0,188907,189507,1,0 S,0,188907,189507,0.7,0.28 P,0,188907,189507,A
Sprite,Foreground,Centre,"sb\d.png",0,0 M,4,188907,189507,501,102,523,117 F,0,188907,189507,1,0 S,0,188907,189507,0.7,0.28 P,0,188907,189507,A
Sprite,Foreground,Centre,"sb\d.png",0,0 M,4,188982,189582,478,131,529,279 F,0,188982,189582,1,0 S,0,188982,189582,0.7,0.28 P,0,188982,189582,A
Sprite,Foreground,Centre,"sb\d.png",0,0 M,4,188982,189582,478,131,418,0 F,0,188982,189582,1,0 S,0,188982,189582,0.7,0.28 P,0,188982,189582,A
Sprite,Foreground,Centre,"sb\d.png",0,0 M,4,188982,189582,478,131,467,125 F,0,188982,189582,1,0 S,0,188982,189582,0.7,0.28 P,0,188982,189582,A
Sprite,Foreground,Centre,"sb\d.png",0,0 M,4,188982,189582,478,131,392,2 F,0,188982,189582,1,0 S,0,188982,189582,0.7,0.28 P,0,188982,189582,A
Sprite,Foreground,Centre,"sb\d.png",0,0 M,4,188982,189582,478,131,397,26 F,0,188982,189582,1,0 S,0,188982,189582,0.7,0.28 P,0,188982,189582,A
Sprite,Foreground,Centre,"sb\d.png",0,0 M,4,188982,189582,478,131,462,116 F,0,188982,189582,1,0 S,0,188982,189582,0.7,0.28 P,0,188982,189582,A
Sprite,Foreground,Centre,"sb\d.png",0,0 M,4,188982,189582,478,131,333,97 F,0,188982,189582,1,0 S,0,188982,189582,0.7,0.28 P,0,188982,189582,A
Sprite,Foreground,Centre,"sb\d.png",0,0 M,4,189057,189657,461,164,555,74 F,0,189057,189657,1,0 S,0,189057,189657,0.7,0.28 P,0,189057,189657,A
Sprite,Foreground,Centre,"sb\d.png",0,0 M,4,189057,189657,461,164,585,22 F,0,189057,189657,1,0 S,0,189057,189657,0.7,0.28 P,0,189057,189657,A
Sprite,Foreground,Centre,"sb\d.png",0,0 M,4,189057,189657,461,164,463,302 F,0,189057,189657,1,0 S,0,189057,189657,0.7,0.28 P,0,189057,189657,A
Sprite,Foreground,Centre,"sb\d.png",0,0 M,4,189057,189657,461,164,609,19 F,0,189057,189657,1,0 S,0,189057,189657,0.7,0.28 P,0,189057,189657,A
Sprite,Foreground,Centre,"sb\d.png",0,0 M,4,189057,189657,461,164,507,97 F,0,189057,189657,1,0 S,0,189057,189657,0.7,0.28 P,0,189057,189657,A
Sprite,Foreground,Centre,"sb\d.png",0,0 M,4,189057,189657,461,164,601,190 F,0,189057,189657,1,0 S,0,189057,189657,0.7,0.28 P,0,189057,189657,A
Sprite,Foreground,Centre,"sb\d.png",0,0 M,4,189057,189657,461,164,542,111 F,0,189057,189657,1,0 S,0,189057,189657,0.7,0.28 P,0,189057,189657,A
Sprite,Foreground,Centre,"sb\d.png",0,0 M,4,189132,189732,452,200,428,342 F,0,189132,189732,1,0 S,0,189132,189732,0.7,0.28 P,0,189132,189732,A
Sprite,Foreground,Centre,"sb\d.png",0,0 M,4,189132,189732,452,200,567,341 F,0,189132,189732,1,0 S,0,189132,189732,0.7,0.28 P,0,189132,189732,A
Sprite,Foreground,Centre,"sb\d.png",0,0 M,4,189132,189732,452,200,378,89 F,0,189132,189732,1,0 S,0,189132,189732,0.7,0.28 P,0,189132,189732,A
Sprite,Foreground,Centre,"sb\d.png",0,0 M,4,189132,189732,452,200,571,103 F,0,189132,189732,1,0 S,0,189132,189732,0.7,0.28 P,0,189132,189732,A
Sprite,Foreground,Centre,"sb\d.png",0,0 M,4,189132,189732,452,200,566,213 F,0,189132,189732,1,0 S,0,189132,189732,0.7,0.28 P,0,189132,189732,A
Sprite,Foreground,Centre,"sb\d.png",0,0 M,4,189132,189732,452,200,537,204 F,0,189132,189732,1,0 S,0,189132,189732,0.7,0.28 P,0,189132,189732,A
Sprite,Foreground,Centre,"sb\d.png",0,0 M,4,189132,189732,452,200,407,347 F,0,189132,189732,1,0 S,0,189132,189732,0.7,0.28 P,0,189132,189732,A
Sprite,Foreground,Centre,"sb\d.png",0,0 M,4,189282,189882,574,342,434,399 F,0,189282,189882,1,0 S,0,189282,189882,0.7,0.28 P,0,189282,189882,A
Sprite,Foreground,Centre,"sb\d.png",0,0 M,4,189282,189882,574,342,460,250 F,0,189282,189882,1,0 S,0,189282,189882,0.7,0.28 P,0,189282,189882,A
Sprite,Foreground,Centre,"sb\d.png",0,0 M,4,189282,189882,574,342,572,366 F,0,189282,189882,1,0 S,0,189282,189882,0.7,0.28 P,0,189282,189882,A
Sprite,Foreground,Centre,"sb\d.png",0,0 M,4,189282,189882,574,342,502,285 F,0,189282,189882,1,0 S,0,189282,189882,0.7,0.28 P,0,189282,189882,A
Sprite,Foreground,Centre,"sb\d.png",0,0 M,4,189282,189882,574,342,496,427 F,0,189282,189882,1,0 S,0,189282,189882,0.7,0.28 P,0,189282,189882,A
Sprite,Foreground,Centre,"sb\d.png",0,0 M,4,189282,189882,574,342,463,375 F,0,189282,189882,1,0 S,0,189282,189882,0.7,0.28 P,0,189282,189882,A
Sprite,Foreground,Centre,"sb\d.png",0,0 M,4,189282,189882,574,342,591,388 F,0,189282,189882,1,0 S,0,189282,189882,0.7,0.28 P,0,189282,189882,A
Sprite,Foreground,Centre,"sb\d.png",0,0 M,4,189582,190182,367,108,319,-36 F,0,189582,190182,1,0 S,0,189582,190182,0.7,0.28 P,0,189582,190182,A
Sprite,Foreground,Centre,"sb\d.png",0,0 M,4,189582,190182,367,108,246,221 F,0,189582,190182,1,0 S,0,189582,190182,0.7,0.28 P,0,189582,190182,A
Sprite,Foreground,Centre,"sb\d.png",0,0 M,4,189582,190182,367,108,430,225 F,0,189582,190182,1,0 S,0,189582,190182,0.7,0.28 P,0,189582,190182,A
Sprite,Foreground,Centre,"sb\d.png",0,0 M,4,189582,190182,367,108,412,34 F,0,189582,190182,1,0 S,0,189582,190182,0.7,0.28 P,0,189582,190182,A
Sprite,Foreground,Centre,"sb\d.png",0,0 M,4,189582,190182,367,108,296,100 F,0,189582,190182,1,0 S,0,189582,190182,0.7,0.28 P,0,189582,190182,A
Sprite,Foreground,Centre,"sb\d.png",0,0 M,4,189582,190182,367,108,275,224 F,0,189582,190182,1,0 S,0,189582,190182,0.7,0.28 P,0,189582,190182,A
Sprite,Foreground,Centre,"sb\d.png",0,0 M,4,189582,190182,367,108,364,149 F,0,189582,190182,1,0 S,0,189582,190182,0.7,0.28 P,0,189582,190182,A
Sprite,Foreground,Centre,"sb\d.png",0,0 M,4,189882,190482,327,435,272,395 F,0,189882,190482,1,0 S,0,189882,190482,0.7,0.28 P,0,189882,190482,A
Sprite,Foreground,Centre,"sb\d.png",0,0 M,4,189882,190482,327,435,250,583 F,0,189882,190482,1,0 S,0,189882,190482,0.7,0.28 P,0,189882,190482,A
Sprite,Foreground,Centre,"sb\d.png",0,0 M,4,189882,190482,327,435,360,285 F,0,189882,190482,1,0 S,0,189882,190482,0.7,0.28 P,0,189882,190482,A
Sprite,Foreground,Centre,"sb\d.png",0,0 M,4,189882,190482,327,435,472,573 F,0,189882,190482,1,0 S,0,189882,190482,0.7,0.28 P,0,189882,190482,A
Sprite,Foreground,Centre,"sb\d.png",0,0 M,4,189882,190482,327,435,224,516 F,0,189882,190482,1,0 S,0,189882,190482,0.7,0.28 P,0,189882,190482,A
Sprite,Foreground,Centre,"sb\d.png",0,0 M,4,189882,190482,327,435,204,342 F,0,189882,190482,1,0 S,0,189882,190482,0.7,0.28 P,0,189882,190482,A
Sprite,Foreground,Centre,"sb\d.png",0,0 M,4,189882,190482,327,435,195,318 F,0,189882,190482,1,0 S,0,189882,190482,0.7,0.28 P,0,189882,190482,A
Sprite,Foreground,Centre,"sb\d.png",0,0 M,4,190032,190632,192,237,261,117 F,0,190032,190632,1,0 S,0,190032,190632,0.7,0.28 P,0,190032,190632,A
Sprite,Foreground,Centre,"sb\d.png",0,0 M,4,190032,190632,192,237,293,279 F,0,190032,190632,1,0 S,0,190032,190632,0.7,0.28 P,0,190032,190632,A
Sprite,Foreground,Centre,"sb\d.png",0,0 M,4,190032,190632,192,237,213,159 F,0,190032,190632,1,0 S,0,190032,190632,0.7,0.28 P,0,190032,190632,A
Sprite,Foreground,Centre,"sb\d.png",0,0 M,4,190032,190632,192,237,293,344 F,0,190032,190632,1,0 S,0,190032,190632,0.7,0.28 P,0,190032,190632,A
Sprite,Foreground,Centre,"sb\d.png",0,0 M,4,190032,190632,192,237,176,359 F,0,190032,190632,1,0 S,0,190032,190632,0.7,0.28 P,0,190032,190632,A
Sprite,Foreground,Centre,"sb\d.png",0,0 M,4,190032,190632,192,237,282,225 F,0,190032,190632,1,0 S,0,190032,190632,0.7,0.28 P,0,190032,190632,A
Sprite,Foreground,Centre,"sb\d.png",0,0 M,4,190032,190632,192,237,144,320 F,0,190032,190632,1,0 S,0,190032,190632,0.7,0.28 P,0,190032,190632,A
Sprite,Foreground,Centre,"sb\d.png",0,0 M,4,190107,190707,229,242,207,286 F,0,190107,190707,1,0 S,0,190107,190707,0.7,0.28 P,0,190107,190707,A
Sprite,Foreground,Centre,"sb\d.png",0,0 M,4,190107,190707,229,242,378,274 F,0,190107,190707,1,0 S,0,190107,190707,0.7,0.28 P,0,190107,190707,A
Sprite,Foreground,Centre,"sb\d.png",0,0 M,4,190107,190707,229,242,105,279 F,0,190107,190707,1,0 S,0,190107,190707,0.7,0.28 P,0,190107,190707,A
Sprite,Foreground,Centre,"sb\d.png",0,0 M,4,190107,190707,229,242,376,353 F,0,190107,190707,1,0 S,0,190107,190707,0.7,0.28 P,0,190107,190707,A
Sprite,Foreground,Centre,"sb\d.png",0,0 M,4,190107,190707,229,242,240,133 F,0,190107,190707,1,0 S,0,190107,190707,0.7,0.28 P,0,190107,190707,A
Sprite,Foreground,Centre,"sb\d.png",0,0 M,4,190107,190707,229,242,79,259 F,0,190107,190707,1,0 S,0,190107,190707,0.7,0.28 P,0,190107,190707,A
Sprite,Foreground,Centre,"sb\d.png",0,0 M,4,190107,190707,229,242,280,205 F,0,190107,190707,1,0 S,0,190107,190707,0.7,0.28 P,0,190107,190707,A
Sprite,Foreground,Centre,"sb\d.png",0,0 M,4,190182,190782,265,253,374,200 F,0,190182,190782,1,0 S,0,190182,190782,0.7,0.28 P,0,190182,190782,A
Sprite,Foreground,Centre,"sb\d.png",0,0 M,4,190182,190782,265,253,350,258 F,0,190182,190782,1,0 S,0,190182,190782,0.7,0.28 P,0,190182,190782,A
Sprite,Foreground,Centre,"sb\d.png",0,0 M,4,190182,190782,265,253,363,265 F,0,190182,190782,1,0 S,0,190182,190782,0.7,0.28 P,0,190182,190782,A
Sprite,Foreground,Centre,"sb\d.png",0,0 M,4,190182,190782,265,253,271,151 F,0,190182,190782,1,0 S,0,190182,190782,0.7,0.28 P,0,190182,190782,A
Sprite,Foreground,Centre,"sb\d.png",0,0 M,4,190182,190782,265,253,305,268 F,0,190182,190782,1,0 S,0,190182,190782,0.7,0.28 P,0,190182,190782,A
Sprite,Foreground,Centre,"sb\d.png",0,0 M,4,190182,190782,265,253,209,177 F,0,190182,190782,1,0 S,0,190182,190782,0.7,0.28 P,0,190182,190782,A
Sprite,Foreground,Centre,"sb\d.png",0,0 M,4,190182,190782,265,253,355,241 F,0,190182,190782,1,0 S,0,190182,190782,0.7,0.28 P,0,190182,190782,A
Sprite,Foreground,Centre,"sb\d.png",0,0 M,4,190257,190857,300,266,426,217 F,0,190257,190857,1,0 S,0,190257,190857,0.7,0.28 P,0,190257,190857,A
Sprite,Foreground,Centre,"sb\d.png",0,0 M,4,190257,190857,300,266,207,161 F,0,190257,190857,1,0 S,0,190257,190857,0.7,0.28 P,0,190257,190857,A
Sprite,Foreground,Centre,"sb\d.png",0,0 M,4,190257,190857,300,266,348,177 F,0,190257,190857,1,0 S,0,190257,190857,0.7,0.28 P,0,190257,190857,A
Sprite,Foreground,Centre,"sb\d.png",0,0 M,4,190257,190857,300,266,310,268 F,0,190257,190857,1,0 S,0,190257,190857,0.7,0.28 P,0,190257,190857,A
Sprite,Foreground,Centre,"sb\d.png",0,0 M,4,190257,190857,300,266,381,260 F,0,190257,190857,1,0 S,0,190257,190857,0.7,0.28 P,0,190257,190857,A
Sprite,Foreground,Centre,"sb\d.png",0,0 M,4,190257,190857,300,266,180,247 F,0,190257,190857,1,0 S,0,190257,190857,0.7,0.28 P,0,190257,190857,A
Sprite,Foreground,Centre,"sb\d.png",0,0 M,4,190257,190857,300,266,185,373 F,0,190257,190857,1,0 S,0,190257,190857,0.7,0.28 P,0,190257,190857,A
Sprite,Foreground,Centre,"sb\d.png",0,0 M,4,190332,190932,333,284,351,344 F,0,190332,190932,1,0 S,0,190332,190932,0.7,0.28 P,0,190332,190932,A
Sprite,Foreground,Centre,"sb\d.png",0,0 M,4,190332,190932,333,284,375,138 F,0,190332,190932,1,0 S,0,190332,190932,0.7,0.28 P,0,190332,190932,A
Sprite,Foreground,Centre,"sb\d.png",0,0 M,4,190332,190932,333,284,353,271 F,0,190332,190932,1,0 S,0,190332,190932,0.7,0.28 P,0,190332,190932,A
Sprite,Foreground,Centre,"sb\d.png",0,0 M,4,190332,190932,333,284,481,170 F,0,190332,190932,1,0 S,0,190332,190932,0.7,0.28 P,0,190332,190932,A
Sprite,Foreground,Centre,"sb\d.png",0,0 M,4,190332,190932,333,284,219,218 F,0,190332,190932,1,0 S,0,190332,190932,0.7,0.28 P,0,190332,190932,A
Sprite,Foreground,Centre,"sb\d.png",0,0 M,4,190332,190932,333,284,372,373 F,0,190332,190932,1,0 S,0,190332,190932,0.7,0.28 P,0,190332,190932,A
Sprite,Foreground,Centre,"sb\d.png",0,0 M,4,190332,190932,333,284,259,213 F,0,190332,190932,1,0 S,0,190332,190932,0.7,0.28 P,0,190332,190932,A
Sprite,Foreground,Centre,"sb\d.png",0,0 M,4,190482,191082,91,396,-56,379 F,0,190482,191082,1,0 S,0,190482,191082,0.7,0.28 P,0,190482,191082,A
Sprite,Foreground,Centre,"sb\d.png",0,0 M,4,190482,191082,91,396,29,497 F,0,190482,191082,1,0 S,0,190482,191082,0.7,0.28 P,0,190482,191082,A
Sprite,Foreground,Centre,"sb\d.png",0,0 M,4,190482,191082,91,396,187,405 F,0,190482,191082,1,0 S,0,190482,191082,0.7,0.28 P,0,190482,191082,A
Sprite,Foreground,Centre,"sb\d.png",0,0 M,4,190482,191082,91,396,226,306 F,0,190482,191082,1,0 S,0,190482,191082,0.7,0.28 P,0,190482,191082,A
Sprite,Foreground,Centre,"sb\d.png",0,0 M,4,190482,191082,91,396,224,501 F,0,190482,191082,1,0 S,0,190482,191082,0.7,0.28 P,0,190482,191082,A
Sprite,Foreground,Centre,"sb\d.png",0,0 M,4,190482,191082,91,396,209,386 F,0,190482,191082,1,0 S,0,190482,191082,0.7,0.28 P,0,190482,191082,A
Sprite,Foreground,Centre,"sb\d.png",0,0 M,4,190482,191082,91,396,194,352 F,0,190482,191082,1,0 S,0,190482,191082,0.7,0.28 P,0,190482,191082,A
Sprite,Foreground,Centre,"sb\d.png",0,0 M,4,190782,191382,255,148,270,89 F,0,190782,191382,1,0 S,0,190782,191382,0.7,0.28 P,0,190782,191382,A
Sprite,Foreground,Centre,"sb\d.png",0,0 M,4,190782,191382,255,148,230,115 F,0,190782,191382,1,0 S,0,190782,191382,0.7,0.28 P,0,190782,191382,A
Sprite,Foreground,Centre,"sb\d.png",0,0 M,4,190782,191382,255,148,231,196 F,0,190782,191382,1,0 S,0,190782,191382,0.7,0.28 P,0,190782,191382,A
Sprite,Foreground,Centre,"sb\d.png",0,0 M,4,190782,191382,255,148,285,277 F,0,190782,191382,1,0 S,0,190782,191382,0.7,0.28 P,0,190782,191382,A
Sprite,Foreground,Centre,"sb\d.png",0,0 M,4,190782,191382,255,148,378,87 F,0,190782,191382,1,0 S,0,190782,191382,0.7,0.28 P,0,190782,191382,A
Sprite,Foreground,Centre,"sb\d.png",0,0 M,4,190782,191382,255,148,309,100 F,0,190782,191382,1,0 S,0,190782,191382,0.7,0.28 P,0,190782,191382,A
Sprite,Foreground,Centre,"sb\d.png",0,0 M,4,190782,191382,255,148,245,237 F,0,190782,191382,1,0 S,0,190782,191382,0.7,0.28 P,0,190782,191382,A
Sprite,Foreground,Centre,"sb\d.png",0,0 M,4,191082,191682,124,66,39,188 F,0,191082,191682,1,0 S,0,191082,191682,0.7,0.28 P,0,191082,191682,A
Sprite,Foreground,Centre,"sb\d.png",0,0 M,4,191082,191682,124,66,129,174 F,0,191082,191682,1,0 S,0,191082,191682,0.7,0.28 P,0,191082,191682,A
Sprite,Foreground,Centre,"sb\d.png",0,0 M,4,191082,191682,124,66,258,-3 F,0,191082,191682,1,0 S,0,191082,191682,0.7,0.28 P,0,191082,191682,A
Sprite,Foreground,Centre,"sb\d.png",0,0 M,4,191082,191682,124,66,123,14 F,0,191082,191682,1,0 S,0,191082,191682,0.7,0.28 P,0,191082,191682,A
Sprite,Foreground,Centre,"sb\d.png",0,0 M,4,191082,191682,124,66,30,-6 F,0,191082,191682,1,0 S,0,191082,191682,0.7,0.28 P,0,191082,191682,A
Sprite,Foreground,Centre,"sb\d.png",0,0 M,4,191082,191682,124,66,158,92 F,0,191082,191682,1,0 S,0,191082,191682,0.7,0.28 P,0,191082,191682,A
Sprite,Foreground,Centre,"sb\d.png",0,0 M,4,191082,191682,124,66,246,24 F,0,191082,191682,1,0 S,0,191082,191682,0.7,0.28 P,0,191082,191682,A
Sprite,Foreground,Centre,"sb\d.png",0,0 M,4,191232,191832,361,100,438,186 F,0,191232,191832,1,0 S,0,191232,191832,0.7,0.28 P,0,191232,191832,A
Sprite,Foreground,Centre,"sb\d.png",0,0 M,4,191232,191832,361,100,246,-20 F,0,191232,191832,1,0 S,0,191232,191832,0.7,0.28 P,0,191232,191832,A
Sprite,Foreground,Centre,"sb\d.png",0,0 M,4,191232,191832,361,100,395,141 F,0,191232,191832,1,0 S,0,191232,191832,0.7,0.28 P,0,191232,191832,A
Sprite,Foreground,Centre,"sb\d.png",0,0 M,4,191232,191832,361,100,382,194 F,0,191232,191832,1,0 S,0,191232,191832,0.7,0.28 P,0,191232,191832,A
Sprite,Foreground,Centre,"sb\d.png",0,0 M,4,191232,191832,361,100,470,21 F,0,191232,191832,1,0 S,0,191232,191832,0.7,0.28 P,0,191232,191832,A
Sprite,Foreground,Centre,"sb\d.png",0,0 M,4,191232,191832,361,100,324,127 F,0,191232,191832,1,0 S,0,191232,191832,0.7,0.28 P,0,191232,191832,A
Sprite,Foreground,Centre,"sb\d.png",0,0 M,4,191232,191832,361,100,410,-26 F,0,191232,191832,1,0 S,0,191232,191832,0.7,0.28 P,0,191232,191832,A
Sprite,Foreground,Centre,"sb\d.png",0,0 M,4,191307,191907,361,100,370,248 F,0,191307,191907,1,0 S,0,191307,191907,0.7,0.28 P,0,191307,191907,A
Sprite,Foreground,Centre,"sb\d.png",0,0 M,4,191307,191907,361,100,258,94 F,0,191307,191907,1,0 S,0,191307,191907,0.7,0.28 P,0,191307,191907,A
Sprite,Foreground,Centre,"sb\d.png",0,0 M,4,191307,191907,361,100,230,-5 F,0,191307,191907,1,0 S,0,191307,191907,0.7,0.28 P,0,191307,191907,A
Sprite,Foreground,Centre,"sb\d.png",0,0 M,4,191307,191907,361,100,506,-40 F,0,191307,191907,1,0 S,0,191307,191907,0.7,0.28 P,0,191307,191907,A
Sprite,Foreground,Centre,"sb\d.png",0,0 M,4,191307,191907,361,100,310,-40 F,0,191307,191907,1,0 S,0,191307,191907,0.7,0.28 P,0,191307,191907,A
Sprite,Foreground,Centre,"sb\d.png",0,0 M,4,191307,191907,361,100,366,122 F,0,191307,191907,1,0 S,0,191307,191907,0.7,0.28 P,0,191307,191907,A
Sprite,Foreground,Centre,"sb\d.png",0,0 M,4,191307,191907,361,100,468,17 F,0,191307,191907,1,0 S,0,191307,191907,0.7,0.28 P,0,191307,191907,A
Sprite,Foreground,Centre,"sb\d.png",0,0 M,4,191382,191982,361,100,245,-3 F,0,191382,191982,1,0 S,0,191382,191982,0.7,0.28 P,0,191382,191982,A
Sprite,Foreground,Centre,"sb\d.png",0,0 M,4,191382,191982,361,100,443,199 F,0,191382,191982,1,0 S,0,191382,191982,0.7,0.28 P,0,191382,191982,A
Sprite,Foreground,Centre,"sb\d.png",0,0 M,4,191382,191982,361,100,437,22 F,0,191382,191982,1,0 S,0,191382,191982,0.7,0.28 P,0,191382,191982,A
Sprite,Foreground,Centre,"sb\d.png",0,0 M,4,191382,191982,361,100,263,-13 F,0,191382,191982,1,0 S,0,191382,191982,0.7,0.28 P,0,191382,191982,A
Sprite,Foreground,Centre,"sb\d.png",0,0 M,4,191382,191982,361,100,264,123 F,0,191382,191982,1,0 S,0,191382,191982,0.7,0.28 P,0,191382,191982,A
Sprite,Foreground,Centre,"sb\d.png",0,0 M,4,191382,191982,361,100,429,198 F,0,191382,191982,1,0 S,0,191382,191982,0.7,0.28 P,0,191382,191982,A
Sprite,Foreground,Centre,"sb\d.png",0,0 M,4,191382,191982,361,100,279,70 F,0,191382,191982,1,0 S,0,191382,191982,0.7,0.28 P,0,191382,191982,A
Sprite,Foreground,Centre,"sb\d.png",0,0 M,4,191682,192282,172,162,35,96 F,0,191682,192282,1,0 S,0,191682,192282,0.7,0.28 P,0,191682,192282,A
Sprite,Foreground,Centre,"sb\d.png",0,0 M,4,191682,192282,172,162,167,119 F,0,191682,192282,1,0 S,0,191682,192282,0.7,0.28 P,0,191682,192282,A
Sprite,Foreground,Centre,"sb\d.png",0,0 M,4,191682,192282,172,162,204,136 F,0,191682,192282,1,0 S,0,191682,192282,0.7,0.28 P,0,191682,192282,A
Sprite,Foreground,Centre,"sb\d.png",0,0 M,4,191682,192282,172,162,260,69 F,0,191682,192282,1,0 S,0,191682,192282,0.7,0.28 P,0,191682,192282,A
Sprite,Foreground,Centre,"sb\d.png",0,0 M,4,191682,192282,172,162,52,52 F,0,191682,192282,1,0 S,0,191682,192282,0.7,0.28 P,0,191682,192282,A
Sprite,Foreground,Centre,"sb\d.png",0,0 M,4,191682,192282,172,162,179,238 F,0,191682,192282,1,0 S,0,191682,192282,0.7,0.28 P,0,191682,192282,A
Sprite,Foreground,Centre,"sb\d.png",0,0 M,4,191682,192282,172,162,134,228 F,0,191682,192282,1,0 S,0,191682,192282,0.7,0.28 P,0,191682,192282,A
Sprite,Foreground,Centre,"sb\d.png",0,0 M,4,191982,192582,254,340,241,215 F,0,191982,192582,1,0 S,0,191982,192582,0.7,0.28 P,0,191982,192582,A
Sprite,Foreground,Centre,"sb\d.png",0,0 M,4,191982,192582,254,340,279,202 F,0,191982,192582,1,0 S,0,191982,192582,0.7,0.28 P,0,191982,192582,A
Sprite,Foreground,Centre,"sb\d.png",0,0 M,4,191982,192582,254,340,337,293 F,0,191982,192582,1,0 S,0,191982,192582,0.7,0.28 P,0,191982,192582,A
Sprite,Foreground,Centre,"sb\d.png",0,0 M,4,191982,192582,254,340,313,402 F,0,191982,192582,1,0 S,0,191982,192582,0.7,0.28 P,0,191982,192582,A
Sprite,Foreground,Centre,"sb\d.png",0,0 M,4,191982,192582,254,340,243,353 F,0,191982,192582,1,0 S,0,191982,192582,0.7,0.28 P,0,191982,192582,A
Sprite,Foreground,Centre,"sb\d.png",0,0 M,4,191982,192582,254,340,355,316 F,0,191982,192582,1,0 S,0,191982,192582,0.7,0.28 P,0,191982,192582,A
Sprite,Foreground,Centre,"sb\d.png",0,0 M,4,191982,192582,254,340,375,312 F,0,191982,192582,1,0 S,0,191982,192582,0.7,0.28 P,0,191982,192582,A
Sprite,Foreground,Centre,"sb\d.png",0,0 M,4,192282,192882,219,73,313,97 F,0,192282,192882,1,0 S,0,192282,192882,0.7,0.28 P,0,192282,192882,A
Sprite,Foreground,Centre,"sb\d.png",0,0 M,4,192282,192882,219,73,294,-7 F,0,192282,192882,1,0 S,0,192282,192882,0.7,0.28 P,0,192282,192882,A
Sprite,Foreground,Centre,"sb\d.png",0,0 M,4,192282,192882,219,73,346,98 F,0,192282,192882,1,0 S,0,192282,192882,0.7,0.28 P,0,192282,192882,A
Sprite,Foreground,Centre,"sb\d.png",0,0 M,4,192282,192882,219,73,366,-62 F,0,192282,192882,1,0 S,0,192282,192882,0.7,0.28 P,0,192282,192882,A
Sprite,Foreground,Centre,"sb\d.png",0,0 M,4,192282,192882,219,73,233,-29 F,0,192282,192882,1,0 S,0,192282,192882,0.7,0.28 P,0,192282,192882,A
Sprite,Foreground,Centre,"sb\d.png",0,0 M,4,192282,192882,219,73,358,55 F,0,192282,192882,1,0 S,0,192282,192882,0.7,0.28 P,0,192282,192882,A
Sprite,Foreground,Centre,"sb\d.png",0,0 M,4,192282,192882,219,73,198,200 F,0,192282,192882,1,0 S,0,192282,192882,0.7,0.28 P,0,192282,192882,A
Sprite,Foreground,Centre,"sb\d.png",0,0 M,4,192432,193032,64,245,-70,287 F,0,192432,193032,1,0 S,0,192432,193032,0.7,0.28 P,0,192432,193032,A
Sprite,Foreground,Centre,"sb\d.png",0,0 M,4,192432,193032,64,245,6,394 F,0,192432,193032,1,0 S,0,192432,193032,0.7,0.28 P,0,192432,193032,A
Sprite,Foreground,Centre,"sb\d.png",0,0 M,4,192432,193032,64,245,173,231 F,0,192432,193032,1,0 S,0,192432,193032,0.7,0.28 P,0,192432,193032,A
Sprite,Foreground,Centre,"sb\d.png",0,0 M,4,192432,193032,64,245,114,123 F,0,192432,193032,1,0 S,0,192432,193032,0.7,0.28 P,0,192432,193032,A
Sprite,Foreground,Centre,"sb\d.png",0,0 M,4,192432,193032,64,245,211,301 F,0,192432,193032,1,0 S,0,192432,193032,0.7,0.28 P,0,192432,193032,A
Sprite,Foreground,Centre,"sb\d.png",0,0 M,4,192432,193032,64,245,-71,359 F,0,192432,193032,1,0 S,0,192432,193032,0.7,0.28 P,0,192432,193032,A
Sprite,Foreground,Centre,"sb\d.png",0,0 M,4,192432,193032,64,245,124,196 F,0,192432,193032,1,0 S,0,192432,193032,0.7,0.28 P,0,192432,193032,A
Sprite,Foreground,Centre,"sb\d.png",0,0 M,4,192507,193107,97,251,191,382 F,0,192507,193107,1,0 S,0,192507,193107,0.7,0.28 P,0,192507,193107,A
Sprite,Foreground,Centre,"sb\d.png",0,0 M,4,192507,193107,97,251,102,156 F,0,192507,193107,1,0 S,0,192507,193107,0.7,0.28 P,0,192507,193107,A
Sprite,Foreground,Centre,"sb\d.png",0,0 M,4,192507,193107,97,251,100,216 F,0,192507,193107,1,0 S,0,192507,193107,0.7,0.28 P,0,192507,193107,A
Sprite,Foreground,Centre,"sb\d.png",0,0 M,4,192507,193107,97,251,60,257 F,0,192507,193107,1,0 S,0,192507,193107,0.7,0.28 P,0,192507,193107,A
Sprite,Foreground,Centre,"sb\d.png",0,0 M,4,192507,193107,97,251,62,188 F,0,192507,193107,1,0 S,0,192507,193107,0.7,0.28 P,0,192507,193107,A
Sprite,Foreground,Centre,"sb\d.png",0,0 M,4,192507,193107,97,251,196,338 F,0,192507,193107,1,0 S,0,192507,193107,0.7,0.28 P,0,192507,193107,A
Sprite,Foreground,Centre,"sb\d.png",0,0 M,4,192507,193107,97,251,165,222 F,0,192507,193107,1,0 S,0,192507,193107,0.7,0.28 P,0,192507,193107,A
Sprite,Foreground,Centre,"sb\d.png",0,0 M,4,192582,193182,131,257,141,234 F,0,192582,193182,1,0 S,0,192582,193182,0.7,0.28 P,0,192582,193182,A
Sprite,Foreground,Centre,"sb\d.png",0,0 M,4,192582,193182,131,257,3,207 F,0,192582,193182,1,0 S,0,192582,193182,0.7,0.28 P,0,192582,193182,A
Sprite,Foreground,Centre,"sb\d.png",0,0 M,4,192582,193182,131,257,255,339 F,0,192582,193182,1,0 S,0,192582,193182,0.7,0.28 P,0,192582,193182,A
Sprite,Foreground,Centre,"sb\d.png",0,0 M,4,192582,193182,131,257,176,354 F,0,192582,193182,1,0 S,0,192582,193182,0.7,0.28 P,0,192582,193182,A
Sprite,Foreground,Centre,"sb\d.png",0,0 M,4,192582,193182,131,257,52,358 F,0,192582,193182,1,0 S,0,192582,193182,0.7,0.28 P,0,192582,193182,A
Sprite,Foreground,Centre,"sb\d.png",0,0 M,4,192582,193182,131,257,148,242 F,0,192582,193182,1,0 S,0,192582,193182,0.7,0.28 P,0,192582,193182,A
Sprite,Foreground,Centre,"sb\d.png",0,0 M,4,192582,193182,131,257,203,323 F,0,192582,193182,1,0 S,0,192582,193182,0.7,0.28 P,0,192582,193182,A
Sprite,Foreground,Centre,"sb\d.png",0,0 M,4,192657,193257,165,263,191,131 F,0,192657,193257,1,0 S,0,192657,193257,0.7,0.28 P,0,192657,193257,A
Sprite,Foreground,Centre,"sb\d.png",0,0 M,4,192657,193257,165,263,69,125 F,0,192657,193257,1,0 S,0,192657,193257,0.7,0.28 P,0,192657,193257,A
Sprite,Foreground,Centre,"sb\d.png",0,0 M,4,192657,193257,165,263,280,309 F,0,192657,193257,1,0 S,0,192657,193257,0.7,0.28 P,0,192657,193257,A
Sprite,Foreground,Centre,"sb\d.png",0,0 M,4,192657,193257,165,263,85,295 F,0,192657,193257,1,0 S,0,192657,193257,0.7,0.28 P,0,192657,193257,A
Sprite,Foreground,Centre,"sb\d.png",0,0 M,4,192657,193257,165,263,207,347 F,0,192657,193257,1,0 S,0,192657,193257,0.7,0.28 P,0,192657,193257,A
Sprite,Foreground,Centre,"sb\d.png",0,0 M,4,192657,193257,165,263,294,126 F,0,192657,193257,1,0 S,0,192657,193257,0.7,0.28 P,0,192657,193257,A
Sprite,Foreground,Centre,"sb\d.png",0,0 M,4,192657,193257,165,263,178,273 F,0,192657,193257,1,0 S,0,192657,193257,0.7,0.28 P,0,192657,193257,A
Sprite,Foreground,Centre,"sb\d.png",0,0 M,4,192732,193332,199,269,126,124 F,0,192732,193332,1,0 S,0,192732,193332,0.7,0.28 P,0,192732,193332,A
Sprite,Foreground,Centre,"sb\d.png",0,0 M,4,192732,193332,199,269,99,141 F,0,192732,193332,1,0 S,0,192732,193332,0.7,0.28 P,0,192732,193332,A
Sprite,Foreground,Centre,"sb\d.png",0,0 M,4,192732,193332,199,269,266,197 F,0,192732,193332,1,0 S,0,192732,193332,0.7,0.28 P,0,192732,193332,A
Sprite,Foreground,Centre,"sb\d.png",0,0 M,4,192732,193332,199,269,216,289 F,0,192732,193332,1,0 S,0,192732,193332,0.7,0.28 P,0,192732,193332,A
Sprite,Foreground,Centre,"sb\d.png",0,0 M,4,192732,193332,199,269,233,334 F,0,192732,193332,1,0 S,0,192732,193332,0.7,0.28 P,0,192732,193332,A
Sprite,Foreground,Centre,"sb\d.png",0,0 M,4,192732,193332,199,269,338,396 F,0,192732,193332,1,0 S,0,192732,193332,0.7,0.28 P,0,192732,193332,A
Sprite,Foreground,Centre,"sb\d.png",0,0 M,4,192732,193332,199,269,254,416 F,0,192732,193332,1,0 S,0,192732,193332,0.7,0.28 P,0,192732,193332,A
Sprite,Foreground,Centre,"sb\d.png",0,0 M,4,192882,193482,387,402,447,456 F,0,192882,193482,1,0 S,0,192882,193482,0.7,0.28 P,0,192882,193482,A
Sprite,Foreground,Centre,"sb\d.png",0,0 M,4,192882,193482,387,402,424,269 F,0,192882,193482,1,0 S,0,192882,193482,0.7,0.28 P,0,192882,193482,A
Sprite,Foreground,Centre,"sb\d.png",0,0 M,4,192882,193482,387,402,429,448 F,0,192882,193482,1,0 S,0,192882,193482,0.7,0.28 P,0,192882,193482,A
Sprite,Foreground,Centre,"sb\d.png",0,0 M,4,192882,193482,387,402,516,348 F,0,192882,193482,1,0 S,0,192882,193482,0.7,0.28 P,0,192882,193482,A
Sprite,Foreground,Centre,"sb\d.png",0,0 M,4,192882,193482,387,402,269,489 F,0,192882,193482,1,0 S,0,192882,193482,0.7,0.28 P,0,192882,193482,A
Sprite,Foreground,Centre,"sb\d.png",0,0 M,4,192882,193482,387,402,508,274 F,0,192882,193482,1,0 S,0,192882,193482,0.7,0.28 P,0,192882,193482,A
Sprite,Foreground,Centre,"sb\d.png",0,0 M,4,192882,193482,387,402,287,529 F,0,192882,193482,1,0 S,0,192882,193482,0.7,0.28 P,0,192882,193482,A
Sprite,Foreground,Centre,"sb\d.png",0,0 M,4,193182,193782,441,293,526,230 F,0,193182,193782,1,0 S,0,193182,193782,0.7,0.28 P,0,193182,193782,A
Sprite,Foreground,Centre,"sb\d.png",0,0 M,4,193182,193782,441,293,411,404 F,0,193182,193782,1,0 S,0,193182,193782,0.7,0.28 P,0,193182,193782,A
Sprite,Foreground,Centre,"sb\d.png",0,0 M,4,193182,193782,441,293,360,178 F,0,193182,193782,1,0 S,0,193182,193782,0.7,0.28 P,0,193182,193782,A
Sprite,Foreground,Centre,"sb\d.png",0,0 M,4,193182,193782,441,293,460,208 F,0,193182,193782,1,0 S,0,193182,193782,0.7,0.28 P,0,193182,193782,A
Sprite,Foreground,Centre,"sb\d.png",0,0 M,4,193182,193782,441,293,492,287 F,0,193182,193782,1,0 S,0,193182,193782,0.7,0.28 P,0,193182,193782,A
Sprite,Foreground,Centre,"sb\d.png",0,0 M,4,193182,193782,441,293,508,287 F,0,193182,193782,1,0 S,0,193182,193782,0.7,0.28 P,0,193182,193782,A
Sprite,Foreground,Centre,"sb\d.png",0,0 M,4,193182,193782,441,293,339,149 F,0,193182,193782,1,0 S,0,193182,193782,0.7,0.28 P,0,193182,193782,A
Sprite,Foreground,Centre,"sb\d.png",0,0 M,4,193482,194082,178,358,162,347 F,0,193482,194082,1,0 S,0,193482,194082,0.7,0.28 P,0,193482,194082,A
Sprite,Foreground,Centre,"sb\d.png",0,0 M,4,193482,194082,178,358,50,495 F,0,193482,194082,1,0 S,0,193482,194082,0.7,0.28 P,0,193482,194082,A
Sprite,Foreground,Centre,"sb\d.png",0,0 M,4,193482,194082,178,358,318,281 F,0,193482,194082,1,0 S,0,193482,194082,0.7,0.28 P,0,193482,194082,A
Sprite,Foreground,Centre,"sb\d.png",0,0 M,4,193482,194082,178,358,299,496 F,0,193482,194082,1,0 S,0,193482,194082,0.7,0.28 P,0,193482,194082,A
Sprite,Foreground,Centre,"sb\d.png",0,0 M,4,193482,194082,178,358,74,470 F,0,193482,194082,1,0 S,0,193482,194082,0.7,0.28 P,0,193482,194082,A
Sprite,Foreground,Centre,"sb\d.png",0,0 M,4,193482,194082,178,358,149,474 F,0,193482,194082,1,0 S,0,193482,194082,0.7,0.28 P,0,193482,194082,A
Sprite,Foreground,Centre,"sb\d.png",0,0 M,4,193482,194082,178,358,208,488 F,0,193482,194082,1,0 S,0,193482,194082,0.7,0.28 P,0,193482,194082,A
Sprite,Foreground,Centre,"sb\d.png",0,0 M,4,193632,194232,286,142,408,104 F,0,193632,194232,1,0 S,0,193632,194232,0.7,0.28 P,0,193632,194232,A
Sprite,Foreground,Centre,"sb\d.png",0,0 M,4,193632,194232,286,142,186,187 F,0,193632,194232,1,0 S,0,193632,194232,0.7,0.28 P,0,193632,194232,A
Sprite,Foreground,Centre,"sb\d.png",0,0 M,4,193632,194232,286,142,163,181 F,0,193632,194232,1,0 S,0,193632,194232,0.7,0.28 P,0,193632,194232,A
Sprite,Foreground,Centre,"sb\d.png",0,0 M,4,193632,194232,286,142,371,88 F,0,193632,194232,1,0 S,0,193632,194232,0.7,0.28 P,0,193632,194232,A
Sprite,Foreground,Centre,"sb\d.png",0,0 M,4,193632,194232,286,142,230,20 F,0,193632,194232,1,0 S,0,193632,194232,0.7,0.28 P,0,193632,194232,A
Sprite,Foreground,Centre,"sb\d.png",0,0 M,4,193632,194232,286,142,344,162 F,0,193632,194232,1,0 S,0,193632,194232,0.7,0.28 P,0,193632,194232,A
Sprite,Foreground,Centre,"sb\d.png",0,0 M,4,193632,194232,286,142,263,137 F,0,193632,194232,1,0 S,0,193632,194232,0.7,0.28 P,0,193632,194232,A
Sprite,Foreground,Centre,"sb\d.png",0,0 M,4,193707,194307,305,174,157,67 F,0,193707,194307,1,0 S,0,193707,194307,0.7,0.28 P,0,193707,194307,A
Sprite,Foreground,Centre,"sb\d.png",0,0 M,4,193707,194307,305,174,255,72 F,0,193707,194307,1,0 S,0,193707,194307,0.7,0.28 P,0,193707,194307,A
Sprite,Foreground,Centre,"sb\d.png",0,0 M,4,193707,194307,305,174,303,297 F,0,193707,194307,1,0 S,0,193707,194307,0.7,0.28 P,0,193707,194307,A
Sprite,Foreground,Centre,"sb\d.png",0,0 M,4,193707,194307,305,174,416,216 F,0,193707,194307,1,0 S,0,193707,194307,0.7,0.28 P,0,193707,194307,A
Sprite,Foreground,Centre,"sb\d.png",0,0 M,4,193707,194307,305,174,369,308 F,0,193707,194307,1,0 S,0,193707,194307,0.7,0.28 P,0,193707,194307,A
Sprite,Foreground,Centre,"sb\d.png",0,0 M,4,193707,194307,305,174,186,301 F,0,193707,194307,1,0 S,0,193707,194307,0.7,0.28 P,0,193707,194307,A
Sprite,Foreground,Centre,"sb\d.png",0,0 M,4,193707,194307,305,174,161,270 F,0,193707,194307,1,0 S,0,193707,194307,0.7,0.28 P,0,193707,194307,A
Sprite,Foreground,Centre,"sb\d.png",0,0 M,4,193782,194382,319,208,210,216 F,0,193782,194382,1,0 S,0,193782,194382,0.7,0.28 P,0,193782,194382,A
Sprite,Foreground,Centre,"sb\d.png",0,0 M,4,193782,194382,319,208,309,160 F,0,193782,194382,1,0 S,0,193782,194382,0.7,0.28 P,0,193782,194382,A
Sprite,Foreground,Centre,"sb\d.png",0,0 M,4,193782,194382,319,208,323,246 F,0,193782,194382,1,0 S,0,193782,194382,0.7,0.28 P,0,193782,194382,A
Sprite,Foreground,Centre,"sb\d.png",0,0 M,4,193782,194382,319,208,262,146 F,0,193782,194382,1,0 S,0,193782,194382,0.7,0.28 P,0,193782,194382,A
Sprite,Foreground,Centre,"sb\d.png",0,0 M,4,193782,194382,319,208,263,80 F,0,193782,194382,1,0 S,0,193782,194382,0.7,0.28 P,0,193782,194382,A
Sprite,Foreground,Centre,"sb\d.png",0,0 M,4,193782,194382,319,208,285,217 F,0,193782,194382,1,0 S,0,193782,194382,0.7,0.28 P,0,193782,194382,A
Sprite,Foreground,Centre,"sb\d.png",0,0 M,4,193782,194382,319,208,240,95 F,0,193782,194382,1,0 S,0,193782,194382,0.7,0.28 P,0,193782,194382,A
Sprite,Foreground,Centre,"sb\d.png",0,0 M,4,193857,194457,330,244,225,387 F,0,193857,194457,1,0 S,0,193857,194457,0.7,0.28 P,0,193857,194457,A
Sprite,Foreground,Centre,"sb\d.png",0,0 M,4,193857,194457,330,244,259,214 F,0,193857,194457,1,0 S,0,193857,194457,0.7,0.28 P,0,193857,194457,A
Sprite,Foreground,Centre,"sb\d.png",0,0 M,4,193857,194457,330,244,425,220 F,0,193857,194457,1,0 S,0,193857,194457,0.7,0.28 P,0,193857,194457,A
Sprite,Foreground,Centre,"sb\d.png",0,0 M,4,193857,194457,330,244,465,97 F,0,193857,194457,1,0 S,0,193857,194457,0.7,0.28 P,0,193857,194457,A
Sprite,Foreground,Centre,"sb\d.png",0,0 M,4,193857,194457,330,244,341,166 F,0,193857,194457,1,0 S,0,193857,194457,0.7,0.28 P,0,193857,194457,A
Sprite,Foreground,Centre,"sb\d.png",0,0 M,4,193857,194457,330,244,298,301 F,0,193857,194457,1,0 S,0,193857,194457,0.7,0.28 P,0,193857,194457,A
Sprite,Foreground,Centre,"sb\d.png",0,0 M,4,193857,194457,330,244,199,174 F,0,193857,194457,1,0 S,0,193857,194457,0.7,0.28 P,0,193857,194457,A
Sprite,Foreground,Centre,"sb\d.png",0,0 M,4,193932,194532,336,280,383,196 F,0,193932,194532,1,0 S,0,193932,194532,0.7,0.28 P,0,193932,194532,A
Sprite,Foreground,Centre,"sb\d.png",0,0 M,4,193932,194532,336,280,349,180 F,0,193932,194532,1,0 S,0,193932,194532,0.7,0.28 P,0,193932,194532,A
Sprite,Foreground,Centre,"sb\d.png",0,0 M,4,193932,194532,336,280,369,418 F,0,193932,194532,1,0 S,0,193932,194532,0.7,0.28 P,0,193932,194532,A
Sprite,Foreground,Centre,"sb\d.png",0,0 M,4,193932,194532,336,280,241,366 F,0,193932,194532,1,0 S,0,193932,194532,0.7,0.28 P,0,193932,194532,A
Sprite,Foreground,Centre,"sb\d.png",0,0 M,4,193932,194532,336,280,374,236 F,0,193932,194532,1,0 S,0,193932,194532,0.7,0.28 P,0,193932,194532,A
Sprite,Foreground,Centre,"sb\d.png",0,0 M,4,193932,194532,336,280,201,368 F,0,193932,194532,1,0 S,0,193932,194532,0.7,0.28 P,0,193932,194532,A
Sprite,Foreground,Centre,"sb\d.png",0,0 M,4,193932,194532,336,280,237,343 F,0,193932,194532,1,0 S,0,193932,194532,0.7,0.28 P,0,193932,194532,A
Sprite,Foreground,Centre,"sb\d.png",0,0 M,4,194082,194682,133,184,231,112 F,0,194082,194682,1,0 S,0,194082,194682,0.7,0.28 P,0,194082,194682,A
Sprite,Foreground,Centre,"sb\d.png",0,0 M,4,194082,194682,133,184,215,322 F,0,194082,194682,1,0 S,0,194082,194682,0.7,0.28 P,0,194082,194682,A
Sprite,Foreground,Centre,"sb\d.png",0,0 M,4,194082,194682,133,184,185,258 F,0,194082,194682,1,0 S,0,194082,194682,0.7,0.28 P,0,194082,194682,A
Sprite,Foreground,Centre,"sb\d.png",0,0 M,4,194082,194682,133,184,130,254 F,0,194082,194682,1,0 S,0,194082,194682,0.7,0.28 P,0,194082,194682,A
Sprite,Foreground,Centre,"sb\d.png",0,0 M,4,194082,194682,133,184,187,245 F,0,194082,194682,1,0 S,0,194082,194682,0.7,0.28 P,0,194082,194682,A
Sprite,Foreground,Centre,"sb\d.png",0,0 M,4,194082,194682,133,184,15,213 F,0,194082,194682,1,0 S,0,194082,194682,0.7,0.28 P,0,194082,194682,A
Sprite,Foreground,Centre,"sb\d.png",0,0 M,4,194082,194682,133,184,243,71 F,0,194082,194682,1,0 S,0,194082,194682,0.7,0.28 P,0,194082,194682,A
Sprite,Foreground,Centre,"sb\d.png",0,0 M,4,194232,194832,387,138,533,55 F,0,194232,194832,1,0 S,0,194232,194832,0.7,0.28 P,0,194232,194832,A
Sprite,Foreground,Centre,"sb\d.png",0,0 M,4,194232,194832,387,138,520,235 F,0,194232,194832,1,0 S,0,194232,194832,0.7,0.28 P,0,194232,194832,A
Sprite,Foreground,Centre,"sb\d.png",0,0 M,4,194232,194832,387,138,406,1 F,0,194232,194832,1,0 S,0,194232,194832,0.7,0.28 P,0,194232,194832,A
Sprite,Foreground,Centre,"sb\d.png",0,0 M,4,194232,194832,387,138,427,16 F,0,194232,194832,1,0 S,0,194232,194832,0.7,0.28 P,0,194232,194832,A
Sprite,Foreground,Centre,"sb\d.png",0,0 M,4,194232,194832,387,138,395,53 F,0,194232,194832,1,0 S,0,194232,194832,0.7,0.28 P,0,194232,194832,A
Sprite,Foreground,Centre,"sb\d.png",0,0 M,4,194232,194832,387,138,512,70 F,0,194232,194832,1,0 S,0,194232,194832,0.7,0.28 P,0,194232,194832,A
Sprite,Foreground,Centre,"sb\d.png",0,0 M,4,194232,194832,387,138,519,97 F,0,194232,194832,1,0 S,0,194232,194832,0.7,0.28 P,0,194232,194832,A
Sprite,Foreground,Centre,"sb\d.png",0,0 M,4,194307,194907,387,138,342,261 F,0,194307,194907,1,0 S,0,194307,194907,0.7,0.28 P,0,194307,194907,A
Sprite,Foreground,Centre,"sb\d.png",0,0 M,4,194307,194907,387,138,342,-6 F,0,194307,194907,1,0 S,0,194307,194907,0.7,0.28 P,0,194307,194907,A
Sprite,Foreground,Centre,"sb\d.png",0,0 M,4,194307,194907,387,138,312,60 F,0,194307,194907,1,0 S,0,194307,194907,0.7,0.28 P,0,194307,194907,A
Sprite,Foreground,Centre,"sb\d.png",0,0 M,4,194307,194907,387,138,291,71 F,0,194307,194907,1,0 S,0,194307,194907,0.7,0.28 P,0,194307,194907,A
Sprite,Foreground,Centre,"sb\d.png",0,0 M,4,194307,194907,387,138,377,117 F,0,194307,194907,1,0 S,0,194307,194907,0.7,0.28 P,0,194307,194907,A
Sprite,Foreground,Centre,"sb\d.png",0,0 M,4,194307,194907,387,138,241,82 F,0,194307,194907,1,0 S,0,194307,194907,0.7,0.28 P,0,194307,194907,A
Sprite,Foreground,Centre,"sb\d.png",0,0 M,4,194307,194907,387,138,469,265 F,0,194307,194907,1,0 S,0,194307,194907,0.7,0.28 P,0,194307,194907,A
Sprite,Foreground,Centre,"sb\d.png",0,0 M,4,194382,194982,387,138,398,240 F,0,194382,194982,1,0 S,0,194382,194982,0.7,0.28 P,0,194382,194982,A
Sprite,Foreground,Centre,"sb\d.png",0,0 M,4,194382,194982,387,138,255,-8 F,0,194382,194982,1,0 S,0,194382,194982,0.7,0.28 P,0,194382,194982,A
Sprite,Foreground,Centre,"sb\d.png",0,0 M,4,194382,194982,387,138,264,5 F,0,194382,194982,1,0 S,0,194382,194982,0.7,0.28 P,0,194382,194982,A
Sprite,Foreground,Centre,"sb\d.png",0,0 M,4,194382,194982,387,138,476,108 F,0,194382,194982,1,0 S,0,194382,194982,0.7,0.28 P,0,194382,194982,A
Sprite,Foreground,Centre,"sb\d.png",0,0 M,4,194382,194982,387,138,359,55 F,0,194382,194982,1,0 S,0,194382,194982,0.7,0.28 P,0,194382,194982,A
Sprite,Foreground,Centre,"sb\d.png",0,0 M,4,194382,194982,387,138,305,26 F,0,194382,194982,1,0 S,0,194382,194982,0.7,0.28 P,0,194382,194982,A
Sprite,Foreground,Centre,"sb\d.png",0,0 M,4,194382,194982,387,138,259,208 F,0,194382,194982,1,0 S,0,194382,194982,0.7,0.28 P,0,194382,194982,A
Sprite,Foreground,Centre,"sb\d.png",0,0 M,4,194532,195132,242,253,312,269 F,0,194532,195132,1,0 S,0,194532,195132,0.7,0.28 P,0,194532,195132,A
Sprite,Foreground,Centre,"sb\d.png",0,0 M,4,194532,195132,242,253,105,222 F,0,194532,195132,1,0 S,0,194532,195132,0.7,0.28 P,0,194532,195132,A
Sprite,Foreground,Centre,"sb\d.png",0,0 M,4,194532,195132,242,253,333,141 F,0,194532,195132,1,0 S,0,194532,195132,0.7,0.28 P,0,194532,195132,A
Sprite,Foreground,Centre,"sb\d.png",0,0 M,4,194532,195132,242,253,207,333 F,0,194532,195132,1,0 S,0,194532,195132,0.7,0.28 P,0,194532,195132,A
Sprite,Foreground,Centre,"sb\d.png",0,0 M,4,194532,195132,242,253,198,128 F,0,194532,195132,1,0 S,0,194532,195132,0.7,0.28 P,0,194532,195132,A
Sprite,Foreground,Centre,"sb\d.png",0,0 M,4,194532,195132,242,253,196,291 F,0,194532,195132,1,0 S,0,194532,195132,0.7,0.28 P,0,194532,195132,A
Sprite,Foreground,Centre,"sb\d.png",0,0 M,4,194532,195132,242,253,374,315 F,0,194532,195132,1,0 S,0,194532,195132,0.7,0.28 P,0,194532,195132,A
Sprite,Foreground,Centre,"sb\d.png",0,0 M,4,194682,195282,496,207,572,210 F,0,194682,195282,1,0 S,0,194682,195282,0.7,0.28 P,0,194682,195282,A
Sprite,Foreground,Centre,"sb\d.png",0,0 M,4,194682,195282,496,207,588,131 F,0,194682,195282,1,0 S,0,194682,195282,0.7,0.28 P,0,194682,195282,A
Sprite,Foreground,Centre,"sb\d.png",0,0 M,4,194682,195282,496,207,426,270 F,0,194682,195282,1,0 S,0,194682,195282,0.7,0.28 P,0,194682,195282,A
Sprite,Foreground,Centre,"sb\d.png",0,0 M,4,194682,195282,496,207,512,262 F,0,194682,195282,1,0 S,0,194682,195282,0.7,0.28 P,0,194682,195282,A
Sprite,Foreground,Centre,"sb\d.png",0,0 M,4,194682,195282,496,207,393,327 F,0,194682,195282,1,0 S,0,194682,195282,0.7,0.28 P,0,194682,195282,A
Sprite,Foreground,Centre,"sb\d.png",0,0 M,4,194682,195282,496,207,400,321 F,0,194682,195282,1,0 S,0,194682,195282,0.7,0.28 P,0,194682,195282,A
Sprite,Foreground,Centre,"sb\d.png",0,0 M,4,194682,195282,496,207,515,341 F,0,194682,195282,1,0 S,0,194682,195282,0.7,0.28 P,0,194682,195282,A
Sprite,Foreground,Centre,"sb\d.png",0,0 M,4,194832,195432,258,106,258,-7 F,0,194832,195432,1,0 S,0,194832,195432,0.7,0.28 P,0,194832,195432,A
Sprite,Foreground,Centre,"sb\d.png",0,0 M,4,194832,195432,258,106,345,-8 F,0,194832,195432,1,0 S,0,194832,195432,0.7,0.28 P,0,194832,195432,A
Sprite,Foreground,Centre,"sb\d.png",0,0 M,4,194832,195432,258,106,157,90 F,0,194832,195432,1,0 S,0,194832,195432,0.7,0.28 P,0,194832,195432,A
Sprite,Foreground,Centre,"sb\d.png",0,0 M,4,194832,195432,258,106,271,230 F,0,194832,195432,1,0 S,0,194832,195432,0.7,0.28 P,0,194832,195432,A
Sprite,Foreground,Centre,"sb\d.png",0,0 M,4,194832,195432,258,106,224,141 F,0,194832,195432,1,0 S,0,194832,195432,0.7,0.28 P,0,194832,195432,A
Sprite,Foreground,Centre,"sb\d.png",0,0 M,4,194832,195432,258,106,261,150 F,0,194832,195432,1,0 S,0,194832,195432,0.7,0.28 P,0,194832,195432,A
Sprite,Foreground,Centre,"sb\d.png",0,0 M,4,194832,195432,258,106,269,186 F,0,194832,195432,1,0 S,0,194832,195432,0.7,0.28 P,0,194832,195432,A
Sprite,Foreground,Centre,"sb\d.png",0,0 M,4,194982,195582,435,358,431,500 F,0,194982,195582,1,0 S,0,194982,195582,0.7,0.28 P,0,194982,195582,A
Sprite,Foreground,Centre,"sb\d.png",0,0 M,4,194982,195582,435,358,485,347 F,0,194982,195582,1,0 S,0,194982,195582,0.7,0.28 P,0,194982,195582,A
Sprite,Foreground,Centre,"sb\d.png",0,0 M,4,194982,195582,435,358,319,234 F,0,194982,195582,1,0 S,0,194982,195582,0.7,0.28 P,0,194982,195582,A
Sprite,Foreground,Centre,"sb\d.png",0,0 M,4,194982,195582,435,358,479,477 F,0,194982,195582,1,0 S,0,194982,195582,0.7,0.28 P,0,194982,195582,A
Sprite,Foreground,Centre,"sb\d.png",0,0 M,4,194982,195582,435,358,409,501 F,0,194982,195582,1,0 S,0,194982,195582,0.7,0.28 P,0,194982,195582,A
Sprite,Foreground,Centre,"sb\d.png",0,0 M,4,194982,195582,435,358,543,316 F,0,194982,195582,1,0 S,0,194982,195582,0.7,0.28 P,0,194982,195582,A
Sprite,Foreground,Centre,"sb\d.png",0,0 M,4,194982,195582,435,358,339,222 F,0,194982,195582,1,0 S,0,194982,195582,0.7,0.28 P,0,194982,195582,A
Sprite,Foreground,Centre,"sb\d.png",0,0 M,4,195132,195732,488,97,456,-11 F,0,195132,195732,1,0 S,0,195132,195732,0.7,0.28 P,0,195132,195732,A
Sprite,Foreground,Centre,"sb\d.png",0,0 M,4,195132,195732,488,97,402,224 F,0,195132,195732,1,0 S,0,195132,195732,0.7,0.28 P,0,195132,195732,A
Sprite,Foreground,Centre,"sb\d.png",0,0 M,4,195132,195732,488,97,506,77 F,0,195132,195732,1,0 S,0,195132,195732,0.7,0.28 P,0,195132,195732,A
Sprite,Foreground,Centre,"sb\d.png",0,0 M,4,195132,195732,488,97,418,15 F,0,195132,195732,1,0 S,0,195132,195732,0.7,0.28 P,0,195132,195732,A
Sprite,Foreground,Centre,"sb\d.png",0,0 M,4,195132,195732,488,97,426,14 F,0,195132,195732,1,0 S,0,195132,195732,0.7,0.28 P,0,195132,195732,A
Sprite,Foreground,Centre,"sb\d.png",0,0 M,4,195132,195732,488,97,476,95 F,0,195132,195732,1,0 S,0,195132,195732,0.7,0.28 P,0,195132,195732,A
Sprite,Foreground,Centre,"sb\d.png",0,0 M,4,195132,195732,488,97,387,199 F,0,195132,195732,1,0 S,0,195132,195732,0.7,0.28 P,0,195132,195732,A
Sprite,Foreground,Centre,"sb\d.png",0,0 M,4,195207,195807,488,97,374,4 F,0,195207,195807,1,0 S,0,195207,195807,0.7,0.28 P,0,195207,195807,A
Sprite,Foreground,Centre,"sb\d.png",0,0 M,4,195207,195807,488,97,559,132 F,0,195207,195807,1,0 S,0,195207,195807,0.7,0.28 P,0,195207,195807,A
Sprite,Foreground,Centre,"sb\d.png",0,0 M,4,195207,195807,488,97,390,182 F,0,195207,195807,1,0 S,0,195207,195807,0.7,0.28 P,0,195207,195807,A
Sprite,Foreground,Centre,"sb\d.png",0,0 M,4,195207,195807,488,97,396,1 F,0,195207,195807,1,0 S,0,195207,195807,0.7,0.28 P,0,195207,195807,A
Sprite,Foreground,Centre,"sb\d.png",0,0 M,4,195207,195807,488,97,408,162 F,0,195207,195807,1,0 S,0,195207,195807,0.7,0.28 P,0,195207,195807,A
Sprite,Foreground,Centre,"sb\d.png",0,0 M,4,195207,195807,488,97,567,89 F,0,195207,195807,1,0 S,0,195207,195807,0.7,0.28 P,0,195207,195807,A
Sprite,Foreground,Centre,"sb\d.png",0,0 M,4,195207,195807,488,97,428,127 F,0,195207,195807,1,0 S,0,195207,195807,0.7,0.28 P,0,195207,195807,A
Sprite,Foreground,Centre,"sb\d.png",0,0 M,4,195282,195882,488,97,550,190 F,0,195282,195882,1,0 S,0,195282,195882,0.7,0.28 P,0,195282,195882,A
Sprite,Foreground,Centre,"sb\d.png",0,0 M,4,195282,195882,488,97,415,187 F,0,195282,195882,1,0 S,0,195282,195882,0.7,0.28 P,0,195282,195882,A
Sprite,Foreground,Centre,"sb\d.png",0,0 M,4,195282,195882,488,97,417,95 F,0,195282,195882,1,0 S,0,195282,195882,0.7,0.28 P,0,195282,195882,A
Sprite,Foreground,Centre,"sb\d.png",0,0 M,4,195282,195882,488,97,493,20 F,0,195282,195882,1,0 S,0,195282,195882,0.7,0.28 P,0,195282,195882,A
Sprite,Foreground,Centre,"sb\d.png",0,0 M,4,195282,195882,488,97,458,122 F,0,195282,195882,1,0 S,0,195282,195882,0.7,0.28 P,0,195282,195882,A
Sprite,Foreground,Centre,"sb\d.png",0,0 M,4,195282,195882,488,97,364,-22 F,0,195282,195882,1,0 S,0,195282,195882,0.7,0.28 P,0,195282,195882,A
Sprite,Foreground,Centre,"sb\d.png",0,0 M,4,195282,195882,488,97,488,24 F,0,195282,195882,1,0 S,0,195282,195882,0.7,0.28 P,0,195282,195882,A
Sprite,Foreground,Centre,"sb\d.png",0,0 M,4,195432,196032,243,268,297,250 F,0,195432,196032,1,0 S,0,195432,196032,0.7,0.28 P,0,195432,196032,A
Sprite,Foreground,Centre,"sb\d.png",0,0 M,4,195432,196032,243,268,93,304 F,0,195432,196032,1,0 S,0,195432,196032,0.7,0.28 P,0,195432,196032,A
Sprite,Foreground,Centre,"sb\d.png",0,0 M,4,195432,196032,243,268,370,359 F,0,195432,196032,1,0 S,0,195432,196032,0.7,0.28 P,0,195432,196032,A
Sprite,Foreground,Centre,"sb\d.png",0,0 M,4,195432,196032,243,268,325,185 F,0,195432,196032,1,0 S,0,195432,196032,0.7,0.28 P,0,195432,196032,A
Sprite,Foreground,Centre,"sb\d.png",0,0 M,4,195432,196032,243,268,165,191 F,0,195432,196032,1,0 S,0,195432,196032,0.7,0.28 P,0,195432,196032,A
Sprite,Foreground,Centre,"sb\d.png",0,0 M,4,195432,196032,243,268,149,237 F,0,195432,196032,1,0 S,0,195432,196032,0.7,0.28 P,0,195432,196032,A
Sprite,Foreground,Centre,"sb\d.png",0,0 M,4,195432,196032,243,268,348,182 F,0,195432,196032,1,0 S,0,195432,196032,0.7,0.28 P,0,195432,196032,A
Sprite,Foreground,Centre,"sb\d.png",0,0 M,4,195732,196332,253,276,375,275 F,0,195732,196332,1,0 S,0,195732,196332,0.7,0.28 P,0,195732,196332,A
Sprite,Foreground,Centre,"sb\d.png",0,0 M,4,195732,196332,253,276,150,152 F,0,195732,196332,1,0 S,0,195732,196332,0.7,0.28 P,0,195732,196332,A
Sprite,Foreground,Centre,"sb\d.png",0,0 M,4,195732,196332,253,276,143,325 F,0,195732,196332,1,0 S,0,195732,196332,0.7,0.28 P,0,195732,196332,A
Sprite,Foreground,Centre,"sb\d.png",0,0 M,4,195732,196332,253,276,259,270 F,0,195732,196332,1,0 S,0,195732,196332,0.7,0.28 P,0,195732,196332,A
Sprite,Foreground,Centre,"sb\d.png",0,0 M,4,195732,196332,253,276,392,324 F,0,195732,196332,1,0 S,0,195732,196332,0.7,0.28 P,0,195732,196332,A
Sprite,Foreground,Centre,"sb\d.png",0,0 M,4,195732,196332,253,276,171,326 F,0,195732,196332,1,0 S,0,195732,196332,0.7,0.28 P,0,195732,196332,A
Sprite,Foreground,Centre,"sb\d.png",0,0 M,4,195732,196332,253,276,200,389 F,0,195732,196332,1,0 S,0,195732,196332,0.7,0.28 P,0,195732,196332,A
Sprite,Foreground,Centre,"sb\d.png",0,0 M,4,195882,196482,391,56,478,-49 F,0,195882,196482,1,0 S,0,195882,196482,0.7,0.28 P,0,195882,196482,A
Sprite,Foreground,Centre,"sb\d.png",0,0 M,4,195882,196482,391,56,400,-74 F,0,195882,196482,1,0 S,0,195882,196482,0.7,0.28 P,0,195882,196482,A
Sprite,Foreground,Centre,"sb\d.png",0,0 M,4,195882,196482,391,56,325,187 F,0,195882,196482,1,0 S,0,195882,196482,0.7,0.28 P,0,195882,196482,A
Sprite,Foreground,Centre,"sb\d.png",0,0 M,4,195882,196482,391,56,391,143 F,0,195882,196482,1,0 S,0,195882,196482,0.7,0.28 P,0,195882,196482,A
Sprite,Foreground,Centre,"sb\d.png",0,0 M,4,195882,196482,391,56,456,-51 F,0,195882,196482,1,0 S,0,195882,196482,0.7,0.28 P,0,195882,196482,A
Sprite,Foreground,Centre,"sb\d.png",0,0 M,4,195882,196482,391,56,405,54 F,0,195882,196482,1,0 S,0,195882,196482,0.7,0.28 P,0,195882,196482,A
Sprite,Foreground,Centre,"sb\d.png",0,0 M,4,195882,196482,391,56,489,51 F,0,195882,196482,1,0 S,0,195882,196482,0.7,0.28 P,0,195882,196482,A
Sprite,Foreground,Centre,"sb\d.png",0,0 M,4,196032,196632,439,343,460,197 F,0,196032,196632,1,0 S,0,196032,196632,0.7,0.28 P,0,196032,196632,A
Sprite,Foreground,Centre,"sb\d.png",0,0 M,4,196032,196632,439,343,472,453 F,0,196032,196632,1,0 S,0,196032,196632,0.7,0.28 P,0,196032,196632,A
Sprite,Foreground,Centre,"sb\d.png",0,0 M,4,196032,196632,439,343,482,284 F,0,196032,196632,1,0 S,0,196032,196632,0.7,0.28 P,0,196032,196632,A
Sprite,Foreground,Centre,"sb\d.png",0,0 M,4,196032,196632,439,343,390,463 F,0,196032,196632,1,0 S,0,196032,196632,0.7,0.28 P,0,196032,196632,A
Sprite,Foreground,Centre,"sb\d.png",0,0 M,4,196032,196632,439,343,417,193 F,0,196032,196632,1,0 S,0,196032,196632,0.7,0.28 P,0,196032,196632,A
Sprite,Foreground,Centre,"sb\d.png",0,0 M,4,196032,196632,439,343,579,444 F,0,196032,196632,1,0 S,0,196032,196632,0.7,0.28 P,0,196032,196632,A
Sprite,Foreground,Centre,"sb\d.png",0,0 M,4,196032,196632,439,343,510,252 F,0,196032,196632,1,0 S,0,196032,196632,0.7,0.28 P,0,196032,196632,A
Sprite,Foreground,Centre,"sb\d.png",0,0 M,4,196182,196782,212,177,204,129 F,0,196182,196782,1,0 S,0,196182,196782,0.7,0.28 P,0,196182,196782,A
Sprite,Foreground,Centre,"sb\d.png",0,0 M,4,196182,196782,212,177,179,104 F,0,196182,196782,1,0 S,0,196182,196782,0.7,0.28 P,0,196182,196782,A
Sprite,Foreground,Centre,"sb\d.png",0,0 M,4,196182,196782,212,177,206,296 F,0,196182,196782,1,0 S,0,196182,196782,0.7,0.28 P,0,196182,196782,A
Sprite,Foreground,Centre,"sb\d.png",0,0 M,4,196182,196782,212,177,191,53 F,0,196182,196782,1,0 S,0,196182,196782,0.7,0.28 P,0,196182,196782,A
Sprite,Foreground,Centre,"sb\d.png",0,0 M,4,196182,196782,212,177,275,62 F,0,196182,196782,1,0 S,0,196182,196782,0.7,0.28 P,0,196182,196782,A
Sprite,Foreground,Centre,"sb\d.png",0,0 M,4,196182,196782,212,177,96,301 F,0,196182,196782,1,0 S,0,196182,196782,0.7,0.28 P,0,196182,196782,A
Sprite,Foreground,Centre,"sb\d.png",0,0 M,4,196182,196782,212,177,275,61 F,0,196182,196782,1,0 S,0,196182,196782,0.7,0.28 P,0,196182,196782,A
Sprite,Foreground,Centre,"sb\d.png",0,0 M,4,196482,197082,113,273,197,127 F,0,196482,197082,1,0 S,0,196482,197082,0.7,0.28 P,0,196482,197082,A
Sprite,Foreground,Centre,"sb\d.png",0,0 M,4,196482,197082,113,273,124,314 F,0,196482,197082,1,0 S,0,196482,197082,0.7,0.28 P,0,196482,197082,A
Sprite,Foreground,Centre,"sb\d.png",0,0 M,4,196482,197082,113,273,214,134 F,0,196482,197082,1,0 S,0,196482,197082,0.7,0.28 P,0,196482,197082,A
Sprite,Foreground,Centre,"sb\d.png",0,0 M,4,196482,197082,113,273,235,407 F,0,196482,197082,1,0 S,0,196482,197082,0.7,0.28 P,0,196482,197082,A
Sprite,Foreground,Centre,"sb\d.png",0,0 M,4,196482,197082,113,273,-23,231 F,0,196482,197082,1,0 S,0,196482,197082,0.7,0.28 P,0,196482,197082,A
Sprite,Foreground,Centre,"sb\d.png",0,0 M,4,196482,197082,113,273,-31,128 F,0,196482,197082,1,0 S,0,196482,197082,0.7,0.28 P,0,196482,197082,A
Sprite,Foreground,Centre,"sb\d.png",0,0 M,4,196482,197082,113,273,124,389 F,0,196482,197082,1,0 S,0,196482,197082,0.7,0.28 P,0,196482,197082,A
Sprite,Foreground,Centre,"sb\d.png",0,0 M,4,196782,197382,246,311,313,320 F,0,196782,197382,1,0 S,0,196782,197382,0.7,0.28 P,0,196782,197382,A
Sprite,Foreground,Centre,"sb\d.png",0,0 M,4,196782,197382,246,311,126,294 F,0,196782,197382,1,0 S,0,196782,197382,0.7,0.28 P,0,196782,197382,A
Sprite,Foreground,Centre,"sb\d.png",0,0 M,4,196782,197382,246,311,155,251 F,0,196782,197382,1,0 S,0,196782,197382,0.7,0.28 P,0,196782,197382,A
Sprite,Foreground,Centre,"sb\d.png",0,0 M,4,196782,197382,246,311,190,273 F,0,196782,197382,1,0 S,0,196782,197382,0.7,0.28 P,0,196782,197382,A
Sprite,Foreground,Centre,"sb\d.png",0,0 M,4,196782,197382,246,311,321,247 F,0,196782,197382,1,0 S,0,196782,197382,0.7,0.28 P,0,196782,197382,A
Sprite,Foreground,Centre,"sb\d.png",0,0 M,4,196782,197382,246,311,100,439 F,0,196782,197382,1,0 S,0,196782,197382,0.7,0.28 P,0,196782,197382,A
Sprite,Foreground,Centre,"sb\d.png",0,0 M,4,196782,197382,246,311,111,306 F,0,196782,197382,1,0 S,0,196782,197382,0.7,0.28 P,0,196782,197382,A
Sprite,Foreground,Centre,"sb\d.png",0,0 M,4,197082,197682,79,174,20,171 F,0,197082,197682,1,0 S,0,197082,197682,0.7,0.28 P,0,197082,197682,A
Sprite,Foreground,Centre,"sb\d.png",0,0 M,4,197082,197682,79,174,154,242 F,0,197082,197682,1,0 S,0,197082,197682,0.7,0.28 P,0,197082,197682,A
Sprite,Foreground,Centre,"sb\d.png",0,0 M,4,197082,197682,79,174,106,91 F,0,197082,197682,1,0 S,0,197082,197682,0.7,0.28 P,0,197082,197682,A
Sprite,Foreground,Centre,"sb\d.png",0,0 M,4,197082,197682,79,174,-35,147 F,0,197082,197682,1,0 S,0,197082,197682,0.7,0.28 P,0,197082,197682,A
Sprite,Foreground,Centre,"sb\d.png",0,0 M,4,197082,197682,79,174,67,123 F,0,197082,197682,1,0 S,0,197082,197682,0.7,0.28 P,0,197082,197682,A
Sprite,Foreground,Centre,"sb\d.png",0,0 M,4,197082,197682,79,174,-71,234 F,0,197082,197682,1,0 S,0,197082,197682,0.7,0.28 P,0,197082,197682,A
Sprite,Foreground,Centre,"sb\d.png",0,0 M,4,197082,197682,79,174,16,181 F,0,197082,197682,1,0 S,0,197082,197682,0.7,0.28 P,0,197082,197682,A
Sprite,Foreground,Centre,"sb\d.png",0,0 M,4,197232,197832,374,245,311,104 F,0,197232,197832,1,0 S,0,197232,197832,0.7,0.28 P,0,197232,197832,A
Sprite,Foreground,Centre,"sb\d.png",0,0 M,4,197232,197832,374,245,294,233 F,0,197232,197832,1,0 S,0,197232,197832,0.7,0.28 P,0,197232,197832,A
Sprite,Foreground,Centre,"sb\d.png",0,0 M,4,197232,197832,374,245,332,257 F,0,197232,197832,1,0 S,0,197232,197832,0.7,0.28 P,0,197232,197832,A
Sprite,Foreground,Centre,"sb\d.png",0,0 M,4,197232,197832,374,245,332,149 F,0,197232,197832,1,0 S,0,197232,197832,0.7,0.28 P,0,197232,197832,A
Sprite,Foreground,Centre,"sb\d.png",0,0 M,4,197232,197832,374,245,229,296 F,0,197232,197832,1,0 S,0,197232,197832,0.7,0.28 P,0,197232,197832,A
Sprite,Foreground,Centre,"sb\d.png",0,0 M,4,197232,197832,374,245,438,218 F,0,197232,197832,1,0 S,0,197232,197832,0.7,0.28 P,0,197232,197832,A
Sprite,Foreground,Centre,"sb\d.png",0,0 M,4,197232,197832,374,245,463,216 F,0,197232,197832,1,0 S,0,197232,197832,0.7,0.28 P,0,197232,197832,A
Sprite,Foreground,Centre,"sb\d.png",0,0 M,4,197307,197907,348,271,277,195 F,0,197307,197907,1,0 S,0,197307,197907,0.7,0.28 P,0,197307,197907,A
Sprite,Foreground,Centre,"sb\d.png",0,0 M,4,197307,197907,348,271,385,393 F,0,197307,197907,1,0 S,0,197307,197907,0.7,0.28 P,0,197307,197907,A
Sprite,Foreground,Centre,"sb\d.png",0,0 M,4,197307,197907,348,271,493,248 F,0,197307,197907,1,0 S,0,197307,197907,0.7,0.28 P,0,197307,197907,A
Sprite,Foreground,Centre,"sb\d.png",0,0 M,4,197307,197907,348,271,391,287 F,0,197307,197907,1,0 S,0,197307,197907,0.7,0.28 P,0,197307,197907,A
Sprite,Foreground,Centre,"sb\d.png",0,0 M,4,197307,197907,348,271,380,209 F,0,197307,197907,1,0 S,0,197307,197907,0.7,0.28 P,0,197307,197907,A
Sprite,Foreground,Centre,"sb\d.png",0,0 M,4,197307,197907,348,271,326,215 F,0,197307,197907,1,0 S,0,197307,197907,0.7,0.28 P,0,197307,197907,A
Sprite,Foreground,Centre,"sb\d.png",0,0 M,4,197307,197907,348,271,427,214 F,0,197307,197907,1,0 S,0,197307,197907,0.7,0.28 P,0,197307,197907,A
Sprite,Foreground,Centre,"sb\d.png",0,0 M,4,197382,197982,317,292,187,372 F,0,197382,197982,1,0 S,0,197382,197982,0.7,0.28 P,0,197382,197982,A
Sprite,Foreground,Centre,"sb\d.png",0,0 M,4,197382,197982,317,292,300,291 F,0,197382,197982,1,0 S,0,197382,197982,0.7,0.28 P,0,197382,197982,A
Sprite,Foreground,Centre,"sb\d.png",0,0 M,4,197382,197982,317,292,170,379 F,0,197382,197982,1,0 S,0,197382,197982,0.7,0.28 P,0,197382,197982,A
Sprite,Foreground,Centre,"sb\d.png",0,0 M,4,197382,197982,317,292,192,357 F,0,197382,197982,1,0 S,0,197382,197982,0.7,0.28 P,0,197382,197982,A
Sprite,Foreground,Centre,"sb\d.png",0,0 M,4,197382,197982,317,292,183,307 F,0,197382,197982,1,0 S,0,197382,197982,0.7,0.28 P,0,197382,197982,A
Sprite,Foreground,Centre,"sb\d.png",0,0 M,4,197382,197982,317,292,337,294 F,0,197382,197982,1,0 S,0,197382,197982,0.7,0.28 P,0,197382,197982,A
Sprite,Foreground,Centre,"sb\d.png",0,0 M,4,197382,197982,317,292,203,178 F,0,197382,197982,1,0 S,0,197382,197982,0.7,0.28 P,0,197382,197982,A
Sprite,Foreground,Centre,"sb\d.png",0,0 M,4,197457,198057,283,306,274,180 F,0,197457,198057,1,0 S,0,197457,198057,0.7,0.28 P,0,197457,198057,A
Sprite,Foreground,Centre,"sb\d.png",0,0 M,4,197457,198057,283,306,137,209 F,0,197457,198057,1,0 S,0,197457,198057,0.7,0.28 P,0,197457,198057,A
Sprite,Foreground,Centre,"sb\d.png",0,0 M,4,197457,198057,283,306,260,371 F,0,197457,198057,1,0 S,0,197457,198057,0.7,0.28 P,0,197457,198057,A
Sprite,Foreground,Centre,"sb\d.png",0,0 M,4,197457,198057,283,306,177,220 F,0,197457,198057,1,0 S,0,197457,198057,0.7,0.28 P,0,197457,198057,A
Sprite,Foreground,Centre,"sb\d.png",0,0 M,4,197457,198057,283,306,345,183 F,0,197457,198057,1,0 S,0,197457,198057,0.7,0.28 P,0,197457,198057,A
Sprite,Foreground,Centre,"sb\d.png",0,0 M,4,197457,198057,283,306,347,415 F,0,197457,198057,1,0 S,0,197457,198057,0.7,0.28 P,0,197457,198057,A
Sprite,Foreground,Centre,"sb\d.png",0,0 M,4,197457,198057,283,306,396,376 F,0,197457,198057,1,0 S,0,197457,198057,0.7,0.28 P,0,197457,198057,A
Sprite,Foreground,Centre,"sb\d.png",0,0 M,4,197532,198132,246,311,223,443 F,0,197532,198132,1,0 S,0,197532,198132,0.7,0.28 P,0,197532,198132,A
Sprite,Foreground,Centre,"sb\d.png",0,0 M,4,197532,198132,246,311,106,174 F,0,197532,198132,1,0 S,0,197532,198132,0.7,0.28 P,0,197532,198132,A
Sprite,Foreground,Centre,"sb\d.png",0,0 M,4,197532,198132,246,311,329,175 F,0,197532,198132,1,0 S,0,197532,198132,0.7,0.28 P,0,197532,198132,A
Sprite,Foreground,Centre,"sb\d.png",0,0 M,4,197532,198132,246,311,130,236 F,0,197532,198132,1,0 S,0,197532,198132,0.7,0.28 P,0,197532,198132,A
Sprite,Foreground,Centre,"sb\d.png",0,0 M,4,197532,198132,246,311,164,225 F,0,197532,198132,1,0 S,0,197532,198132,0.7,0.28 P,0,197532,198132,A
Sprite,Foreground,Centre,"sb\d.png",0,0 M,4,197532,198132,246,311,216,163 F,0,197532,198132,1,0 S,0,197532,198132,0.7,0.28 P,0,197532,198132,A
Sprite,Foreground,Centre,"sb\d.png",0,0 M,4,197532,198132,246,311,192,324 F,0,197532,198132,1,0 S,0,197532,198132,0.7,0.28 P,0,197532,198132,A
Sprite,Foreground,Centre,"sb\d.png",0,0 M,4,197682,198282,271,77,179,-52 F,0,197682,198282,1,0 S,0,197682,198282,0.7,0.28 P,0,197682,198282,A
Sprite,Foreground,Centre,"sb\d.png",0,0 M,4,197682,198282,271,77,223,69 F,0,197682,198282,1,0 S,0,197682,198282,0.7,0.28 P,0,197682,198282,A
Sprite,Foreground,Centre,"sb\d.png",0,0 M,4,197682,198282,271,77,211,84 F,0,197682,198282,1,0 S,0,197682,198282,0.7,0.28 P,0,197682,198282,A
Sprite,Foreground,Centre,"sb\d.png",0,0 M,4,197682,198282,271,77,146,85 F,0,197682,198282,1,0 S,0,197682,198282,0.7,0.28 P,0,197682,198282,A
Sprite,Foreground,Centre,"sb\d.png",0,0 M,4,197682,198282,271,77,204,1 F,0,197682,198282,1,0 S,0,197682,198282,0.7,0.28 P,0,197682,198282,A
Sprite,Foreground,Centre,"sb\d.png",0,0 M,4,197682,198282,271,77,387,-59 F,0,197682,198282,1,0 S,0,197682,198282,0.7,0.28 P,0,197682,198282,A
Sprite,Foreground,Centre,"sb\d.png",0,0 M,4,197682,198282,271,77,170,183 F,0,197682,198282,1,0 S,0,197682,198282,0.7,0.28 P,0,197682,198282,A
Sprite,Foreground,Centre,"sb\d.png",0,0 M,4,197982,198582,67,278,-65,233 F,0,197982,198582,1,0 S,0,197982,198582,0.7,0.28 P,0,197982,198582,A
Sprite,Foreground,Centre,"sb\d.png",0,0 M,4,197982,198582,67,278,152,171 F,0,197982,198582,1,0 S,0,197982,198582,0.7,0.28 P,0,197982,198582,A
Sprite,Foreground,Centre,"sb\d.png",0,0 M,4,197982,198582,67,278,190,232 F,0,197982,198582,1,0 S,0,197982,198582,0.7,0.28 P,0,197982,198582,A
Sprite,Foreground,Centre,"sb\d.png",0,0 M,4,197982,198582,67,278,5,161 F,0,197982,198582,1,0 S,0,197982,198582,0.7,0.28 P,0,197982,198582,A
Sprite,Foreground,Centre,"sb\d.png",0,0 M,4,197982,198582,67,278,71,284 F,0,197982,198582,1,0 S,0,197982,198582,0.7,0.28 P,0,197982,198582,A
Sprite,Foreground,Centre,"sb\d.png",0,0 M,4,197982,198582,67,278,136,150 F,0,197982,198582,1,0 S,0,197982,198582,0.7,0.28 P,0,197982,198582,A
Sprite,Foreground,Centre,"sb\d.png",0,0 M,4,197982,198582,67,278,-81,194 F,0,197982,198582,1,0 S,0,197982,198582,0.7,0.28 P,0,197982,198582,A
Sprite,Foreground,Centre,"sb\d.png",0,0 M,4,198282,198882,231,409,336,498 F,0,198282,198882,1,0 S,0,198282,198882,0.7,0.28 P,0,198282,198882,A
Sprite,Foreground,Centre,"sb\d.png",0,0 M,4,198282,198882,231,409,314,384 F,0,198282,198882,1,0 S,0,198282,198882,0.7,0.28 P,0,198282,198882,A
Sprite,Foreground,Centre,"sb\d.png",0,0 M,4,198282,198882,231,409,200,440 F,0,198282,198882,1,0 S,0,198282,198882,0.7,0.28 P,0,198282,198882,A
Sprite,Foreground,Centre,"sb\d.png",0,0 M,4,198282,198882,231,409,86,449 F,0,198282,198882,1,0 S,0,198282,198882,0.7,0.28 P,0,198282,198882,A
Sprite,Foreground,Centre,"sb\d.png",0,0 M,4,198282,198882,231,409,305,331 F,0,198282,198882,1,0 S,0,198282,198882,0.7,0.28 P,0,198282,198882,A
Sprite,Foreground,Centre,"sb\d.png",0,0 M,4,198282,198882,231,409,249,365 F,0,198282,198882,1,0 S,0,198282,198882,0.7,0.28 P,0,198282,198882,A
Sprite,Foreground,Centre,"sb\d.png",0,0 M,4,198282,198882,231,409,276,528 F,0,198282,198882,1,0 S,0,198282,198882,0.7,0.28 P,0,198282,198882,A
Sprite,Foreground,Centre,"sb\d.png",0,0 M,4,198432,199032,388,264,436,349 F,0,198432,199032,1,0 S,0,198432,199032,0.7,0.28 P,0,198432,199032,A
Sprite,Foreground,Centre,"sb\d.png",0,0 M,4,198432,199032,388,264,285,333 F,0,198432,199032,1,0 S,0,198432,199032,0.7,0.28 P,0,198432,199032,A
Sprite,Foreground,Centre,"sb\d.png",0,0 M,4,198432,199032,388,264,503,191 F,0,198432,199032,1,0 S,0,198432,199032,0.7,0.28 P,0,198432,199032,A
Sprite,Foreground,Centre,"sb\d.png",0,0 M,4,198432,199032,388,264,294,376 F,0,198432,199032,1,0 S,0,198432,199032,0.7,0.28 P,0,198432,199032,A
Sprite,Foreground,Centre,"sb\d.png",0,0 M,4,198432,199032,388,264,367,190 F,0,198432,199032,1,0 S,0,198432,199032,0.7,0.28 P,0,198432,199032,A
Sprite,Foreground,Centre,"sb\d.png",0,0 M,4,198432,199032,388,264,267,405 F,0,198432,199032,1,0 S,0,198432,199032,0.7,0.28 P,0,198432,199032,A
Sprite,Foreground,Centre,"sb\d.png",0,0 M,4,198432,199032,388,264,313,139 F,0,198432,199032,1,0 S,0,198432,199032,0.7,0.28 P,0,198432,199032,A
Sprite,Foreground,Centre,"sb\d.png",0,0 M,4,198507,199107,350,268,366,363 F,0,198507,199107,1,0 S,0,198507,199107,0.7,0.28 P,0,198507,199107,A
Sprite,Foreground,Centre,"sb\d.png",0,0 M,4,198507,199107,350,268,422,186 F,0,198507,199107,1,0 S,0,198507,199107,0.7,0.28 P,0,198507,199107,A
Sprite,Foreground,Centre,"sb\d.png",0,0 M,4,198507,199107,350,268,355,376 F,0,198507,199107,1,0 S,0,198507,199107,0.7,0.28 P,0,198507,199107,A
Sprite,Foreground,Centre,"sb\d.png",0,0 M,4,198507,199107,350,268,402,262 F,0,198507,199107,1,0 S,0,198507,199107,0.7,0.28 P,0,198507,199107,A
Sprite,Foreground,Centre,"sb\d.png",0,0 M,4,198507,199107,350,268,341,258 F,0,198507,199107,1,0 S,0,198507,199107,0.7,0.28 P,0,198507,199107,A
Sprite,Foreground,Centre,"sb\d.png",0,0 M,4,198507,199107,350,268,394,285 F,0,198507,199107,1,0 S,0,198507,199107,0.7,0.28 P,0,198507,199107,A
Sprite,Foreground,Centre,"sb\d.png",0,0 M,4,198507,199107,350,268,450,245 F,0,198507,199107,1,0 S,0,198507,199107,0.7,0.28 P,0,198507,199107,A
Sprite,Foreground,Centre,"sb\d.png",0,0 M,4,198582,199182,313,274,343,286 F,0,198582,199182,1,0 S,0,198582,199182,0.7,0.28 P,0,198582,199182,A
Sprite,Foreground,Centre,"sb\d.png",0,0 M,4,198582,199182,313,274,338,290 F,0,198582,199182,1,0 S,0,198582,199182,0.7,0.28 P,0,198582,199182,A
Sprite,Foreground,Centre,"sb\d.png",0,0 M,4,198582,199182,313,274,371,243 F,0,198582,199182,1,0 S,0,198582,199182,0.7,0.28 P,0,198582,199182,A
Sprite,Foreground,Centre,"sb\d.png",0,0 M,4,198582,199182,313,274,297,343 F,0,198582,199182,1,0 S,0,198582,199182,0.7,0.28 P,0,198582,199182,A
Sprite,Foreground,Centre,"sb\d.png",0,0 M,4,198582,199182,313,274,272,124 F,0,198582,199182,1,0 S,0,198582,199182,0.7,0.28 P,0,198582,199182,A
Sprite,Foreground,Centre,"sb\d.png",0,0 M,4,198582,199182,313,274,219,348 F,0,198582,199182,1,0 S,0,198582,199182,0.7,0.28 P,0,198582,199182,A
Sprite,Foreground,Centre,"sb\d.png",0,0 M,4,198582,199182,313,274,172,416 F,0,198582,199182,1,0 S,0,198582,199182,0.7,0.28 P,0,198582,199182,A
Sprite,Foreground,Centre,"sb\d.png",0,0 M,4,198657,199257,277,280,237,286 F,0,198657,199257,1,0 S,0,198657,199257,0.7,0.28 P,0,198657,199257,A
Sprite,Foreground,Centre,"sb\d.png",0,0 M,4,198657,199257,277,280,223,257 F,0,198657,199257,1,0 S,0,198657,199257,0.7,0.28 P,0,198657,199257,A
Sprite,Foreground,Centre,"sb\d.png",0,0 M,4,198657,199257,277,280,233,410 F,0,198657,199257,1,0 S,0,198657,199257,0.7,0.28 P,0,198657,199257,A
Sprite,Foreground,Centre,"sb\d.png",0,0 M,4,198657,199257,277,280,150,409 F,0,198657,199257,1,0 S,0,198657,199257,0.7,0.28 P,0,198657,199257,A
Sprite,Foreground,Centre,"sb\d.png",0,0 M,4,198657,199257,277,280,276,229 F,0,198657,199257,1,0 S,0,198657,199257,0.7,0.28 P,0,198657,199257,A
Sprite,Foreground,Centre,"sb\d.png",0,0 M,4,198657,199257,277,280,378,367 F,0,198657,199257,1,0 S,0,198657,199257,0.7,0.28 P,0,198657,199257,A
Sprite,Foreground,Centre,"sb\d.png",0,0 M,4,198657,199257,277,280,193,184 F,0,198657,199257,1,0 S,0,198657,199257,0.7,0.28 P,0,198657,199257,A
Sprite,Foreground,Centre,"sb\d.png",0,0 M,4,198732,199332,240,286,183,342 F,0,198732,199332,1,0 S,0,198732,199332,0.7,0.28 P,0,198732,199332,A
Sprite,Foreground,Centre,"sb\d.png",0,0 M,4,198732,199332,240,286,114,233 F,0,198732,199332,1,0 S,0,198732,199332,0.7,0.28 P,0,198732,199332,A
Sprite,Foreground,Centre,"sb\d.png",0,0 M,4,198732,199332,240,286,216,365 F,0,198732,199332,1,0 S,0,198732,199332,0.7,0.28 P,0,198732,199332,A
Sprite,Foreground,Centre,"sb\d.png",0,0 M,4,198732,199332,240,286,171,402 F,0,198732,199332,1,0 S,0,198732,199332,0.7,0.28 P,0,198732,199332,A
Sprite,Foreground,Centre,"sb\d.png",0,0 M,4,198732,199332,240,286,291,298 F,0,198732,199332,1,0 S,0,198732,199332,0.7,0.28 P,0,198732,199332,A
Sprite,Foreground,Centre,"sb\d.png",0,0 M,4,198732,199332,240,286,172,391 F,0,198732,199332,1,0 S,0,198732,199332,0.7,0.28 P,0,198732,199332,A
Sprite,Foreground,Centre,"sb\d.png",0,0 M,4,198732,199332,240,286,280,383 F,0,198732,199332,1,0 S,0,198732,199332,0.7,0.28 P,0,198732,199332,A
Sprite,Foreground,Centre,"sb\d.png",0,0 M,4,198882,199482,100,159,86,231 F,0,198882,199482,1,0 S,0,198882,199482,0.7,0.28 P,0,198882,199482,A
Sprite,Foreground,Centre,"sb\d.png",0,0 M,4,198882,199482,100,159,-38,239 F,0,198882,199482,1,0 S,0,198882,199482,0.7,0.28 P,0,198882,199482,A
Sprite,Foreground,Centre,"sb\d.png",0,0 M,4,198882,199482,100,159,198,218 F,0,198882,199482,1,0 S,0,198882,199482,0.7,0.28 P,0,198882,199482,A
Sprite,Foreground,Centre,"sb\d.png",0,0 M,4,198882,199482,100,159,-16,293 F,0,198882,199482,1,0 S,0,198882,199482,0.7,0.28 P,0,198882,199482,A
Sprite,Foreground,Centre,"sb\d.png",0,0 M,4,198882,199482,100,159,-6,75 F,0,198882,199482,1,0 S,0,198882,199482,0.7,0.28 P,0,198882,199482,A
Sprite,Foreground,Centre,"sb\d.png",0,0 M,4,198882,199482,100,159,11,279 F,0,198882,199482,1,0 S,0,198882,199482,0.7,0.28 P,0,198882,199482,A
Sprite,Foreground,Centre,"sb\d.png",0,0 M,4,198882,199482,100,159,54,210 F,0,198882,199482,1,0 S,0,198882,199482,0.7,0.28 P,0,198882,199482,A
Sprite,Foreground,Centre,"sb\d.png",0,0 M,4,199182,199782,64,367,-73,292 F,0,199182,199782,1,0 S,0,199182,199782,0.7,0.28 P,0,199182,199782,A
Sprite,Foreground,Centre,"sb\d.png",0,0 M,4,199182,199782,64,367,129,488 F,0,199182,199782,1,0 S,0,199182,199782,0.7,0.28 P,0,199182,199782,A
Sprite,Foreground,Centre,"sb\d.png",0,0 M,4,199182,199782,64,367,-34,297 F,0,199182,199782,1,0 S,0,199182,199782,0.7,0.28 P,0,199182,199782,A
Sprite,Foreground,Centre,"sb\d.png",0,0 M,4,199182,199782,64,367,39,419 F,0,199182,199782,1,0 S,0,199182,199782,0.7,0.28 P,0,199182,199782,A
Sprite,Foreground,Centre,"sb\d.png",0,0 M,4,199182,199782,64,367,189,475 F,0,199182,199782,1,0 S,0,199182,199782,0.7,0.28 P,0,199182,199782,A
Sprite,Foreground,Centre,"sb\d.png",0,0 M,4,199182,199782,64,367,12,297 F,0,199182,199782,1,0 S,0,199182,199782,0.7,0.28 P,0,199182,199782,A
Sprite,Foreground,Centre,"sb\d.png",0,0 M,4,199182,199782,64,367,124,360 F,0,199182,199782,1,0 S,0,199182,199782,0.7,0.28 P,0,199182,199782,A
Sprite,Foreground,Centre,"sb\d.png",0,0 M,4,199482,200082,231,409,336,493 F,0,199482,200082,1,0 S,0,199482,200082,0.7,0.28 P,0,199482,200082,A
Sprite,Foreground,Centre,"sb\d.png",0,0 M,4,199482,200082,231,409,126,409 F,0,199482,200082,1,0 S,0,199482,200082,0.7,0.28 P,0,199482,200082,A
Sprite,Foreground,Centre,"sb\d.png",0,0 M,4,199482,200082,231,409,171,334 F,0,199482,200082,1,0 S,0,199482,200082,0.7,0.28 P,0,199482,200082,A
Sprite,Foreground,Centre,"sb\d.png",0,0 M,4,199482,200082,231,409,223,486 F,0,199482,200082,1,0 S,0,199482,200082,0.7,0.28 P,0,199482,200082,A
Sprite,Foreground,Centre,"sb\d.png",0,0 M,4,199482,200082,231,409,168,280 F,0,199482,200082,1,0 S,0,199482,200082,0.7,0.28 P,0,199482,200082,A
Sprite,Foreground,Centre,"sb\d.png",0,0 M,4,199482,200082,231,409,369,415 F,0,199482,200082,1,0 S,0,199482,200082,0.7,0.28 P,0,199482,200082,A
Sprite,Foreground,Centre,"sb\d.png",0,0 M,4,199482,200082,231,409,100,367 F,0,199482,200082,1,0 S,0,199482,200082,0.7,0.28 P,0,199482,200082,A
Sprite,Foreground,Centre,"sb\d.png",0,0 M,4,199632,200232,350,268,361,375 F,0,199632,200232,1,0 S,0,199632,200232,0.7,0.28 P,0,199632,200232,A
Sprite,Foreground,Centre,"sb\d.png",0,0 M,4,199632,200232,350,268,235,274 F,0,199632,200232,1,0 S,0,199632,200232,0.7,0.28 P,0,199632,200232,A
Sprite,Foreground,Centre,"sb\d.png",0,0 M,4,199632,200232,350,268,324,298 F,0,199632,200232,1,0 S,0,199632,200232,0.7,0.28 P,0,199632,200232,A
Sprite,Foreground,Centre,"sb\d.png",0,0 M,4,199632,200232,350,268,453,244 F,0,199632,200232,1,0 S,0,199632,200232,0.7,0.28 P,0,199632,200232,A
Sprite,Foreground,Centre,"sb\d.png",0,0 M,4,199632,200232,350,268,447,228 F,0,199632,200232,1,0 S,0,199632,200232,0.7,0.28 P,0,199632,200232,A
Sprite,Foreground,Centre,"sb\d.png",0,0 M,4,199632,200232,350,268,402,227 F,0,199632,200232,1,0 S,0,199632,200232,0.7,0.28 P,0,199632,200232,A
Sprite,Foreground,Centre,"sb\d.png",0,0 M,4,199632,200232,350,268,322,351 F,0,199632,200232,1,0 S,0,199632,200232,0.7,0.28 P,0,199632,200232,A
Sprite,Foreground,Centre,"sb\d.png",0,0 M,4,199707,200307,379,255,475,158 F,0,199707,200307,1,0 S,0,199707,200307,0.7,0.28 P,0,199707,200307,A
Sprite,Foreground,Centre,"sb\d.png",0,0 M,4,199707,200307,379,255,361,273 F,0,199707,200307,1,0 S,0,199707,200307,0.7,0.28 P,0,199707,200307,A
Sprite,Foreground,Centre,"sb\d.png",0,0 M,4,199707,200307,379,255,527,296 F,0,199707,200307,1,0 S,0,199707,200307,0.7,0.28 P,0,199707,200307,A
Sprite,Foreground,Centre,"sb\d.png",0,0 M,4,199707,200307,379,255,258,215 F,0,199707,200307,1,0 S,0,199707,200307,0.7,0.28 P,0,199707,200307,A
Sprite,Foreground,Centre,"sb\d.png",0,0 M,4,199707,200307,379,255,250,316 F,0,199707,200307,1,0 S,0,199707,200307,0.7,0.28 P,0,199707,200307,A
Sprite,Foreground,Centre,"sb\d.png",0,0 M,4,199707,200307,379,255,409,133 F,0,199707,200307,1,0 S,0,199707,200307,0.7,0.28 P,0,199707,200307,A
Sprite,Foreground,Centre,"sb\d.png",0,0 M,4,199707,200307,379,255,288,190 F,0,199707,200307,1,0 S,0,199707,200307,0.7,0.28 P,0,199707,200307,A
Sprite,Foreground,Centre,"sb\d.png",0,0 M,4,199782,200382,410,249,547,293 F,0,199782,200382,1,0 S,0,199782,200382,0.7,0.28 P,0,199782,200382,A
Sprite,Foreground,Centre,"sb\d.png",0,0 M,4,199782,200382,410,249,543,294 F,0,199782,200382,1,0 S,0,199782,200382,0.7,0.28 P,0,199782,200382,A
Sprite,Foreground,Centre,"sb\d.png",0,0 M,4,199782,200382,410,249,320,115 F,0,199782,200382,1,0 S,0,199782,200382,0.7,0.28 P,0,199782,200382,A
Sprite,Foreground,Centre,"sb\d.png",0,0 M,4,199782,200382,410,249,300,116 F,0,199782,200382,1,0 S,0,199782,200382,0.7,0.28 P,0,199782,200382,A
Sprite,Foreground,Centre,"sb\d.png",0,0 M,4,199782,200382,410,249,482,341 F,0,199782,200382,1,0 S,0,199782,200382,0.7,0.28 P,0,199782,200382,A
Sprite,Foreground,Centre,"sb\d.png",0,0 M,4,199782,200382,410,249,515,129 F,0,199782,200382,1,0 S,0,199782,200382,0.7,0.28 P,0,199782,200382,A
Sprite,Foreground,Centre,"sb\d.png",0,0 M,4,199782,200382,410,249,449,227 F,0,199782,200382,1,0 S,0,199782,200382,0.7,0.28 P,0,199782,200382,A
Sprite,Foreground,Centre,"sb\d.png",0,0 M,4,199857,200457,442,251,579,335 F,0,199857,200457,1,0 S,0,199857,200457,0.7,0.28 P,0,199857,200457,A
Sprite,Foreground,Centre,"sb\d.png",0,0 M,4,199857,200457,442,251,539,381 F,0,199857,200457,1,0 S,0,199857,200457,0.7,0.28 P,0,199857,200457,A
Sprite,Foreground,Centre,"sb\d.png",0,0 M,4,199857,200457,442,251,545,309 F,0,199857,200457,1,0 S,0,199857,200457,0.7,0.28 P,0,199857,200457,A
Sprite,Foreground,Centre,"sb\d.png",0,0 M,4,199857,200457,442,251,572,135 F,0,199857,200457,1,0 S,0,199857,200457,0.7,0.28 P,0,199857,200457,A
Sprite,Foreground,Centre,"sb\d.png",0,0 M,4,199857,200457,442,251,481,221 F,0,199857,200457,1,0 S,0,199857,200457,0.7,0.28 P,0,199857,200457,A
Sprite,Foreground,Centre,"sb\d.png",0,0 M,4,199857,200457,442,251,449,229 F,0,199857,200457,1,0 S,0,199857,200457,0.7,0.28 P,0,199857,200457,A
Sprite,Foreground,Centre,"sb\d.png",0,0 M,4,199857,200457,442,251,371,152 F,0,199857,200457,1,0 S,0,199857,200457,0.7,0.28 P,0,199857,200457,A
Sprite,Foreground,Centre,"sb\d.png",0,0 M,4,199932,200532,473,259,559,233 F,0,199932,200532,1,0 S,0,199932,200532,0.7,0.28 P,0,199932,200532,A
Sprite,Foreground,Centre,"sb\d.png",0,0 M,4,199932,200532,473,259,598,205 F,0,199932,200532,1,0 S,0,199932,200532,0.7,0.28 P,0,199932,200532,A
Sprite,Foreground,Centre,"sb\d.png",0,0 M,4,199932,200532,473,259,443,276 F,0,199932,200532,1,0 S,0,199932,200532,0.7,0.28 P,0,199932,200532,A
Sprite,Foreground,Centre,"sb\d.png",0,0 M,4,199932,200532,473,259,461,161 F,0,199932,200532,1,0 S,0,199932,200532,0.7,0.28 P,0,199932,200532,A
Sprite,Foreground,Centre,"sb\d.png",0,0 M,4,199932,200532,473,259,450,115 F,0,199932,200532,1,0 S,0,199932,200532,0.7,0.28 P,0,199932,200532,A
Sprite,Foreground,Centre,"sb\d.png",0,0 M,4,199932,200532,473,259,371,214 F,0,199932,200532,1,0 S,0,199932,200532,0.7,0.28 P,0,199932,200532,A
Sprite,Foreground,Centre,"sb\d.png",0,0 M,4,199932,200532,473,259,515,337 F,0,199932,200532,1,0 S,0,199932,200532,0.7,0.28 P,0,199932,200532,A
Sprite,Foreground,Centre,"sb\d.png",0,0 M,4,200082,200682,309,437,289,476 F,0,200082,200682,1,0 S,0,200082,200682,0.7,0.28 P,0,200082,200682,A
Sprite,Foreground,Centre,"sb\d.png",0,0 M,4,200082,200682,309,437,371,555 F,0,200082,200682,1,0 S,0,200082,200682,0.7,0.28 P,0,200082,200682,A
Sprite,Foreground,Centre,"sb\d.png",0,0 M,4,200082,200682,309,437,160,488 F,0,200082,200682,1,0 S,0,200082,200682,0.7,0.28 P,0,200082,200682,A
Sprite,Foreground,Centre,"sb\d.png",0,0 M,4,200082,200682,309,437,282,373 F,0,200082,200682,1,0 S,0,200082,200682,0.7,0.28 P,0,200082,200682,A
Sprite,Foreground,Centre,"sb\d.png",0,0 M,4,200082,200682,309,437,422,486 F,0,200082,200682,1,0 S,0,200082,200682,0.7,0.28 P,0,200082,200682,A
Sprite,Foreground,Centre,"sb\d.png",0,0 M,4,200082,200682,309,437,233,437 F,0,200082,200682,1,0 S,0,200082,200682,0.7,0.28 P,0,200082,200682,A
Sprite,Foreground,Centre,"sb\d.png",0,0 M,4,200082,200682,309,437,263,540 F,0,200082,200682,1,0 S,0,200082,200682,0.7,0.28 P,0,200082,200682,A
Sprite,Foreground,Centre,"sb\d.png",0,0 M,4,200382,200982,238,136,93,149 F,0,200382,200982,1,0 S,0,200382,200982,0.7,0.28 P,0,200382,200982,A
Sprite,Foreground,Centre,"sb\d.png",0,0 M,4,200382,200982,238,136,126,218 F,0,200382,200982,1,0 S,0,200382,200982,0.7,0.28 P,0,200382,200982,A
Sprite,Foreground,Centre,"sb\d.png",0,0 M,4,200382,200982,238,136,325,275 F,0,200382,200982,1,0 S,0,200382,200982,0.7,0.28 P,0,200382,200982,A
Sprite,Foreground,Centre,"sb\d.png",0,0 M,4,200382,200982,238,136,169,84 F,0,200382,200982,1,0 S,0,200382,200982,0.7,0.28 P,0,200382,200982,A
Sprite,Foreground,Centre,"sb\d.png",0,0 M,4,200382,200982,238,136,354,145 F,0,200382,200982,1,0 S,0,200382,200982,0.7,0.28 P,0,200382,200982,A
Sprite,Foreground,Centre,"sb\d.png",0,0 M,4,200382,200982,238,136,298,7 F,0,200382,200982,1,0 S,0,200382,200982,0.7,0.28 P,0,200382,200982,A
Sprite,Foreground,Centre,"sb\d.png",0,0 M,4,200382,200982,238,136,377,220 F,0,200382,200982,1,0 S,0,200382,200982,0.7,0.28 P,0,200382,200982,A
Sprite,Foreground,Centre,"sb\d.png",0,0 M,4,200682,201282,364,57,321,147 F,0,200682,201282,1,0 S,0,200682,201282,0.7,0.28 P,0,200682,201282,A
Sprite,Foreground,Centre,"sb\d.png",0,0 M,4,200682,201282,364,57,445,55 F,0,200682,201282,1,0 S,0,200682,201282,0.7,0.28 P,0,200682,201282,A
Sprite,Foreground,Centre,"sb\d.png",0,0 M,4,200682,201282,364,57,229,-41 F,0,200682,201282,1,0 S,0,200682,201282,0.7,0.28 P,0,200682,201282,A
Sprite,Foreground,Centre,"sb\d.png",0,0 M,4,200682,201282,364,57,417,206 F,0,200682,201282,1,0 S,0,200682,201282,0.7,0.28 P,0,200682,201282,A
Sprite,Foreground,Centre,"sb\d.png",0,0 M,4,200682,201282,364,57,421,96 F,0,200682,201282,1,0 S,0,200682,201282,0.7,0.28 P,0,200682,201282,A
Sprite,Foreground,Centre,"sb\d.png",0,0 M,4,200682,201282,364,57,340,85 F,0,200682,201282,1,0 S,0,200682,201282,0.7,0.28 P,0,200682,201282,A
Sprite,Foreground,Centre,"sb\d.png",0,0 M,4,200682,201282,364,57,442,56 F,0,200682,201282,1,0 S,0,200682,201282,0.7,0.28 P,0,200682,201282,A
Sprite,Foreground,Centre,"sb\d.png",0,0 M,4,200832,201432,472,252,482,178 F,0,200832,201432,1,0 S,0,200832,201432,0.7,0.28 P,0,200832,201432,A
Sprite,Foreground,Centre,"sb\d.png",0,0 M,4,200832,201432,472,252,344,371 F,0,200832,201432,1,0 S,0,200832,201432,0.7,0.28 P,0,200832,201432,A
Sprite,Foreground,Centre,"sb\d.png",0,0 M,4,200832,201432,472,252,384,287 F,0,200832,201432,1,0 S,0,200832,201432,0.7,0.28 P,0,200832,201432,A
Sprite,Foreground,Centre,"sb\d.png",0,0 M,4,200832,201432,472,252,369,366 F,0,200832,201432,1,0 S,0,200832,201432,0.7,0.28 P,0,200832,201432,A
Sprite,Foreground,Centre,"sb\d.png",0,0 M,4,200832,201432,472,252,590,218 F,0,200832,201432,1,0 S,0,200832,201432,0.7,0.28 P,0,200832,201432,A
Sprite,Foreground,Centre,"sb\d.png",0,0 M,4,200832,201432,472,252,490,305 F,0,200832,201432,1,0 S,0,200832,201432,0.7,0.28 P,0,200832,201432,A
Sprite,Foreground,Centre,"sb\d.png",0,0 M,4,200832,201432,472,252,469,134 F,0,200832,201432,1,0 S,0,200832,201432,0.7,0.28 P,0,200832,201432,A
Sprite,Foreground,Centre,"sb\d.png",0,0 M,4,200907,201507,472,252,545,154 F,0,200907,201507,1,0 S,0,200907,201507,0.7,0.28 P,0,200907,201507,A
Sprite,Foreground,Centre,"sb\d.png",0,0 M,4,200907,201507,472,252,379,382 F,0,200907,201507,1,0 S,0,200907,201507,0.7,0.28 P,0,200907,201507,A
Sprite,Foreground,Centre,"sb\d.png",0,0 M,4,200907,201507,472,252,533,291 F,0,200907,201507,1,0 S,0,200907,201507,0.7,0.28 P,0,200907,201507,A
Sprite,Foreground,Centre,"sb\d.png",0,0 M,4,200907,201507,472,252,601,125 F,0,200907,201507,1,0 S,0,200907,201507,0.7,0.28 P,0,200907,201507,A
Sprite,Foreground,Centre,"sb\d.png",0,0 M,4,200907,201507,472,252,589,328 F,0,200907,201507,1,0 S,0,200907,201507,0.7,0.28 P,0,200907,201507,A
Sprite,Foreground,Centre,"sb\d.png",0,0 M,4,200907,201507,472,252,457,154 F,0,200907,201507,1,0 S,0,200907,201507,0.7,0.28 P,0,200907,201507,A
Sprite,Foreground,Centre,"sb\d.png",0,0 M,4,200907,201507,472,252,371,107 F,0,200907,201507,1,0 S,0,200907,201507,0.7,0.28 P,0,200907,201507,A
Sprite,Foreground,Centre,"sb\d.png",0,0 M,4,200982,201582,472,252,577,250 F,0,200982,201582,1,0 S,0,200982,201582,0.7,0.28 P,0,200982,201582,A
Sprite,Foreground,Centre,"sb\d.png",0,0 M,4,200982,201582,472,252,427,161 F,0,200982,201582,1,0 S,0,200982,201582,0.7,0.28 P,0,200982,201582,A
Sprite,Foreground,Centre,"sb\d.png",0,0 M,4,200982,201582,472,252,382,333 F,0,200982,201582,1,0 S,0,200982,201582,0.7,0.28 P,0,200982,201582,A
Sprite,Foreground,Centre,"sb\d.png",0,0 M,4,200982,201582,472,252,559,292 F,0,200982,201582,1,0 S,0,200982,201582,0.7,0.28 P,0,200982,201582,A
Sprite,Foreground,Centre,"sb\d.png",0,0 M,4,200982,201582,472,252,459,342 F,0,200982,201582,1,0 S,0,200982,201582,0.7,0.28 P,0,200982,201582,A
Sprite,Foreground,Centre,"sb\d.png",0,0 M,4,200982,201582,472,252,580,206 F,0,200982,201582,1,0 S,0,200982,201582,0.7,0.28 P,0,200982,201582,A
Sprite,Foreground,Centre,"sb\d.png",0,0 M,4,200982,201582,472,252,508,244 F,0,200982,201582,1,0 S,0,200982,201582,0.7,0.28 P,0,200982,201582,A
Sprite,Foreground,Centre,"sb\d.png",0,0 M,4,201282,201882,344,145,465,110 F,0,201282,201882,1,0 S,0,201282,201882,0.7,0.28 P,0,201282,201882,A
Sprite,Foreground,Centre,"sb\d.png",0,0 M,4,201282,201882,344,145,474,106 F,0,201282,201882,1,0 S,0,201282,201882,0.7,0.28 P,0,201282,201882,A
Sprite,Foreground,Centre,"sb\d.png",0,0 M,4,201282,201882,344,145,399,166 F,0,201282,201882,1,0 S,0,201282,201882,0.7,0.28 P,0,201282,201882,A
Sprite,Foreground,Centre,"sb\d.png",0,0 M,4,201282,201882,344,145,269,150 F,0,201282,201882,1,0 S,0,201282,201882,0.7,0.28 P,0,201282,201882,A
Sprite,Foreground,Centre,"sb\d.png",0,0 M,4,201282,201882,344,145,325,141 F,0,201282,201882,1,0 S,0,201282,201882,0.7,0.28 P,0,201282,201882,A
Sprite,Foreground,Centre,"sb\d.png",0,0 M,4,201282,201882,344,145,461,34 F,0,201282,201882,1,0 S,0,201282,201882,0.7,0.28 P,0,201282,201882,A
Sprite,Foreground,Centre,"sb\d.png",0,0 M,4,201282,201882,344,145,363,132 F,0,201282,201882,1,0 S,0,201282,201882,0.7,0.28 P,0,201282,201882,A
Sprite,Foreground,Centre,"sb\d.png",0,0 M,4,201582,202182,140,315,98,261 F,0,201582,202182,1,0 S,0,201582,202182,0.7,0.28 P,0,201582,202182,A
Sprite,Foreground,Centre,"sb\d.png",0,0 M,4,201582,202182,140,315,124,175 F,0,201582,202182,1,0 S,0,201582,202182,0.7,0.28 P,0,201582,202182,A
Sprite,Foreground,Centre,"sb\d.png",0,0 M,4,201582,202182,140,315,125,206 F,0,201582,202182,1,0 S,0,201582,202182,0.7,0.28 P,0,201582,202182,A
Sprite,Foreground,Centre,"sb\d.png",0,0 M,4,201582,202182,140,315,-2,285 F,0,201582,202182,1,0 S,0,201582,202182,0.7,0.28 P,0,201582,202182,A
Sprite,Foreground,Centre,"sb\d.png",0,0 M,4,201582,202182,140,315,0,274 F,0,201582,202182,1,0 S,0,201582,202182,0.7,0.28 P,0,201582,202182,A
Sprite,Foreground,Centre,"sb\d.png",0,0 M,4,201582,202182,140,315,132,380 F,0,201582,202182,1,0 S,0,201582,202182,0.7,0.28 P,0,201582,202182,A
Sprite,Foreground,Centre,"sb\d.png",0,0 M,4,201582,202182,140,315,84,198 F,0,201582,202182,1,0 S,0,201582,202182,0.7,0.28 P,0,201582,202182,A
Sprite,Foreground,Centre,"sb\d.png",0,0 M,4,201882,202482,64,160,129,127 F,0,201882,202482,1,0 S,0,201882,202482,0.7,0.28 P,0,201882,202482,A
Sprite,Foreground,Centre,"sb\d.png",0,0 M,4,201882,202482,64,160,-65,116 F,0,201882,202482,1,0 S,0,201882,202482,0.7,0.28 P,0,201882,202482,A
Sprite,Foreground,Centre,"sb\d.png",0,0 M,4,201882,202482,64,160,-84,146 F,0,201882,202482,1,0 S,0,201882,202482,0.7,0.28 P,0,201882,202482,A
Sprite,Foreground,Centre,"sb\d.png",0,0 M,4,201882,202482,64,160,-35,161 F,0,201882,202482,1,0 S,0,201882,202482,0.7,0.28 P,0,201882,202482,A
Sprite,Foreground,Centre,"sb\d.png",0,0 M,4,201882,202482,64,160,159,33 F,0,201882,202482,1,0 S,0,201882,202482,0.7,0.28 P,0,201882,202482,A
Sprite,Foreground,Centre,"sb\d.png",0,0 M,4,201882,202482,64,160,60,188 F,0,201882,202482,1,0 S,0,201882,202482,0.7,0.28 P,0,201882,202482,A
Sprite,Foreground,Centre,"sb\d.png",0,0 M,4,201882,202482,64,160,144,110 F,0,201882,202482,1,0 S,0,201882,202482,0.7,0.28 P,0,201882,202482,A
Sprite,Foreground,Centre,"sb\d.png",0,0 M,4,202032,202632,126,382,-8,491 F,0,202032,202632,1,0 S,0,202032,202632,0.7,0.28 P,0,202032,202632,A
Sprite,Foreground,Centre,"sb\d.png",0,0 M,4,202032,202632,126,382,68,253 F,0,202032,202632,1,0 S,0,202032,202632,0.7,0.28 P,0,202032,202632,A
Sprite,Foreground,Centre,"sb\d.png",0,0 M,4,202032,202632,126,382,37,331 F,0,202032,202632,1,0 S,0,202032,202632,0.7,0.28 P,0,202032,202632,A
Sprite,Foreground,Centre,"sb\d.png",0,0 M,4,202032,202632,126,382,57,272 F,0,202032,202632,1,0 S,0,202032,202632,0.7,0.28 P,0,202032,202632,A
Sprite,Foreground,Centre,"sb\d.png",0,0 M,4,202032,202632,126,382,82,479 F,0,202032,202632,1,0 S,0,202032,202632,0.7,0.28 P,0,202032,202632,A
Sprite,Foreground,Centre,"sb\d.png",0,0 M,4,202032,202632,126,382,244,376 F,0,202032,202632,1,0 S,0,202032,202632,0.7,0.28 P,0,202032,202632,A
Sprite,Foreground,Centre,"sb\d.png",0,0 M,4,202032,202632,126,382,110,383 F,0,202032,202632,1,0 S,0,202032,202632,0.7,0.28 P,0,202032,202632,A
Sprite,Foreground,Centre,"sb\d.png",0,0 M,4,202107,202707,132,348,87,368 F,0,202107,202707,1,0 S,0,202107,202707,0.7,0.28 P,0,202107,202707,A
Sprite,Foreground,Centre,"sb\d.png",0,0 M,4,202107,202707,132,348,250,488 F,0,202107,202707,1,0 S,0,202107,202707,0.7,0.28 P,0,202107,202707,A
Sprite,Foreground,Centre,"sb\d.png",0,0 M,4,202107,202707,132,348,58,240 F,0,202107,202707,1,0 S,0,202107,202707,0.7,0.28 P,0,202107,202707,A
Sprite,Foreground,Centre,"sb\d.png",0,0 M,4,202107,202707,132,348,221,212 F,0,202107,202707,1,0 S,0,202107,202707,0.7,0.28 P,0,202107,202707,A
Sprite,Foreground,Centre,"sb\d.png",0,0 M,4,202107,202707,132,348,106,358 F,0,202107,202707,1,0 S,0,202107,202707,0.7,0.28 P,0,202107,202707,A
Sprite,Foreground,Centre,"sb\d.png",0,0 M,4,202107,202707,132,348,18,230 F,0,202107,202707,1,0 S,0,202107,202707,0.7,0.28 P,0,202107,202707,A
Sprite,Foreground,Centre,"sb\d.png",0,0 M,4,202107,202707,132,348,68,454 F,0,202107,202707,1,0 S,0,202107,202707,0.7,0.28 P,0,202107,202707,A
Sprite,Foreground,Centre,"sb\d.png",0,0 M,4,202182,202782,140,315,140,275 F,0,202182,202782,1,0 S,0,202182,202782,0.7,0.28 P,0,202182,202782,A
Sprite,Foreground,Centre,"sb\d.png",0,0 M,4,202182,202782,140,315,153,422 F,0,202182,202782,1,0 S,0,202182,202782,0.7,0.28 P,0,202182,202782,A
Sprite,Foreground,Centre,"sb\d.png",0,0 M,4,202182,202782,140,315,101,373 F,0,202182,202782,1,0 S,0,202182,202782,0.7,0.28 P,0,202182,202782,A
Sprite,Foreground,Centre,"sb\d.png",0,0 M,4,202182,202782,140,315,93,216 F,0,202182,202782,1,0 S,0,202182,202782,0.7,0.28 P,0,202182,202782,A
Sprite,Foreground,Centre,"sb\d.png",0,0 M,4,202182,202782,140,315,7,286 F,0,202182,202782,1,0 S,0,202182,202782,0.7,0.28 P,0,202182,202782,A
Sprite,Foreground,Centre,"sb\d.png",0,0 M,4,202182,202782,140,315,143,459 F,0,202182,202782,1,0 S,0,202182,202782,0.7,0.28 P,0,202182,202782,A
Sprite,Foreground,Centre,"sb\d.png",0,0 M,4,202182,202782,140,315,241,339 F,0,202182,202782,1,0 S,0,202182,202782,0.7,0.28 P,0,202182,202782,A
Sprite,Foreground,Centre,"sb\d.png",0,0 M,4,202257,202857,147,282,8,205 F,0,202257,202857,1,0 S,0,202257,202857,0.7,0.28 P,0,202257,202857,A
Sprite,Foreground,Centre,"sb\d.png",0,0 M,4,202257,202857,147,282,135,289 F,0,202257,202857,1,0 S,0,202257,202857,0.7,0.28 P,0,202257,202857,A
Sprite,Foreground,Centre,"sb\d.png",0,0 M,4,202257,202857,147,282,-1,332 F,0,202257,202857,1,0 S,0,202257,202857,0.7,0.28 P,0,202257,202857,A
Sprite,Foreground,Centre,"sb\d.png",0,0 M,4,202257,202857,147,282,43,207 F,0,202257,202857,1,0 S,0,202257,202857,0.7,0.28 P,0,202257,202857,A
Sprite,Foreground,Centre,"sb\d.png",0,0 M,4,202257,202857,147,282,51,288 F,0,202257,202857,1,0 S,0,202257,202857,0.7,0.28 P,0,202257,202857,A
Sprite,Foreground,Centre,"sb\d.png",0,0 M,4,202257,202857,147,282,98,319 F,0,202257,202857,1,0 S,0,202257,202857,0.7,0.28 P,0,202257,202857,A
Sprite,Foreground,Centre,"sb\d.png",0,0 M,4,202257,202857,147,282,158,134 F,0,202257,202857,1,0 S,0,202257,202857,0.7,0.28 P,0,202257,202857,A
Sprite,Foreground,Centre,"sb\d.png",0,0 M,4,202332,202932,154,249,138,330 F,0,202332,202932,1,0 S,0,202332,202932,0.7,0.28 P,0,202332,202932,A
Sprite,Foreground,Centre,"sb\d.png",0,0 M,4,202332,202932,154,249,288,128 F,0,202332,202932,1,0 S,0,202332,202932,0.7,0.28 P,0,202332,202932,A
Sprite,Foreground,Centre,"sb\d.png",0,0 M,4,202332,202932,154,249,17,224 F,0,202332,202932,1,0 S,0,202332,202932,0.7,0.28 P,0,202332,202932,A
Sprite,Foreground,Centre,"sb\d.png",0,0 M,4,202332,202932,154,249,194,394 F,0,202332,202932,1,0 S,0,202332,202932,0.7,0.28 P,0,202332,202932,A
Sprite,Foreground,Centre,"sb\d.png",0,0 M,4,202332,202932,154,249,87,109 F,0,202332,202932,1,0 S,0,202332,202932,0.7,0.28 P,0,202332,202932,A
Sprite,Foreground,Centre,"sb\d.png",0,0 M,4,202332,202932,154,249,37,324 F,0,202332,202932,1,0 S,0,202332,202932,0.7,0.28 P,0,202332,202932,A
Sprite,Foreground,Centre,"sb\d.png",0,0 M,4,202332,202932,154,249,51,153 F,0,202332,202932,1,0 S,0,202332,202932,0.7,0.28 P,0,202332,202932,A
Sprite,Foreground,Centre,"sb\d.png",0,0 M,4,202482,203082,322,372,325,369 F,0,202482,203082,1,0 S,0,202482,203082,0.7,0.28 P,0,202482,203082,A
Sprite,Foreground,Centre,"sb\d.png",0,0 M,4,202482,203082,322,372,308,304 F,0,202482,203082,1,0 S,0,202482,203082,0.7,0.28 P,0,202482,203082,A
Sprite,Foreground,Centre,"sb\d.png",0,0 M,4,202482,203082,322,372,263,286 F,0,202482,203082,1,0 S,0,202482,203082,0.7,0.28 P,0,202482,203082,A
Sprite,Foreground,Centre,"sb\d.png",0,0 M,4,202482,203082,322,372,175,272 F,0,202482,203082,1,0 S,0,202482,203082,0.7,0.28 P,0,202482,203082,A
Sprite,Foreground,Centre,"sb\d.png",0,0 M,4,202482,203082,322,372,193,401 F,0,202482,203082,1,0 S,0,202482,203082,0.7,0.28 P,0,202482,203082,A
Sprite,Foreground,Centre,"sb\d.png",0,0 M,4,202482,203082,322,372,202,407 F,0,202482,203082,1,0 S,0,202482,203082,0.7,0.28 P,0,202482,203082,A
Sprite,Foreground,Centre,"sb\d.png",0,0 M,4,202482,203082,322,372,381,297 F,0,202482,203082,1,0 S,0,202482,203082,0.7,0.28 P,0,202482,203082,A
Sprite,Foreground,Centre,"sb\d.png",0,0 M,4,202782,203382,310,170,215,27 F,0,202782,203382,1,0 S,0,202782,203382,0.7,0.28 P,0,202782,203382,A
Sprite,Foreground,Centre,"sb\d.png",0,0 M,4,202782,203382,310,170,316,244 F,0,202782,203382,1,0 S,0,202782,203382,0.7,0.28 P,0,202782,203382,A
Sprite,Foreground,Centre,"sb\d.png",0,0 M,4,202782,203382,310,170,207,121 F,0,202782,203382,1,0 S,0,202782,203382,0.7,0.28 P,0,202782,203382,A
Sprite,Foreground,Centre,"sb\d.png",0,0 M,4,202782,203382,310,170,376,105 F,0,202782,203382,1,0 S,0,202782,203382,0.7,0.28 P,0,202782,203382,A
Sprite,Foreground,Centre,"sb\d.png",0,0 M,4,202782,203382,310,170,296,144 F,0,202782,203382,1,0 S,0,202782,203382,0.7,0.28 P,0,202782,203382,A
Sprite,Foreground,Centre,"sb\d.png",0,0 M,4,202782,203382,310,170,440,145 F,0,202782,203382,1,0 S,0,202782,203382,0.7,0.28 P,0,202782,203382,A
Sprite,Foreground,Centre,"sb\d.png",0,0 M,4,202782,203382,310,170,444,35 F,0,202782,203382,1,0 S,0,202782,203382,0.7,0.28 P,0,202782,203382,A
Sprite,Foreground,Centre,"sb\d.png",0,0 M,4,203082,203682,154,249,293,226 F,0,203082,203682,1,0 S,0,203082,203682,0.7,0.28 P,0,203082,203682,A
Sprite,Foreground,Centre,"sb\d.png",0,0 M,4,203082,203682,154,249,128,175 F,0,203082,203682,1,0 S,0,203082,203682,0.7,0.28 P,0,203082,203682,A
Sprite,Foreground,Centre,"sb\d.png",0,0 M,4,203082,203682,154,249,156,391 F,0,203082,203682,1,0 S,0,203082,203682,0.7,0.28 P,0,203082,203682,A
Sprite,Foreground,Centre,"sb\d.png",0,0 M,4,203082,203682,154,249,225,306 F,0,203082,203682,1,0 S,0,203082,203682,0.7,0.28 P,0,203082,203682,A
Sprite,Foreground,Centre,"sb\d.png",0,0 M,4,203082,203682,154,249,23,117 F,0,203082,203682,1,0 S,0,203082,203682,0.7,0.28 P,0,203082,203682,A
Sprite,Foreground,Centre,"sb\d.png",0,0 M,4,203082,203682,154,249,99,195 F,0,203082,203682,1,0 S,0,203082,203682,0.7,0.28 P,0,203082,203682,A
Sprite,Foreground,Centre,"sb\d.png",0,0 M,4,203082,203682,154,249,303,182 F,0,203082,203682,1,0 S,0,203082,203682,0.7,0.28 P,0,203082,203682,A
Sprite,Foreground,Centre,"sb\d.png",0,0 M,4,203232,203832,230,72,290,27 F,0,203232,203832,1,0 S,0,203232,203832,0.7,0.28 P,0,203232,203832,A
Sprite,Foreground,Centre,"sb\d.png",0,0 M,4,203232,203832,230,72,379,49 F,0,203232,203832,1,0 S,0,203232,203832,0.7,0.28 P,0,203232,203832,A
Sprite,Foreground,Centre,"sb\d.png",0,0 M,4,203232,203832,230,72,295,37 F,0,203232,203832,1,0 S,0,203232,203832,0.7,0.28 P,0,203232,203832,A
Sprite,Foreground,Centre,"sb\d.png",0,0 M,4,203232,203832,230,72,319,-2 F,0,203232,203832,1,0 S,0,203232,203832,0.7,0.28 P,0,203232,203832,A
Sprite,Foreground,Centre,"sb\d.png",0,0 M,4,203232,203832,230,72,234,31 F,0,203232,203832,1,0 S,0,203232,203832,0.7,0.28 P,0,203232,203832,A
Sprite,Foreground,Centre,"sb\d.png",0,0 M,4,203232,203832,230,72,258,168 F,0,203232,203832,1,0 S,0,203232,203832,0.7,0.28 P,0,203232,203832,A
Sprite,Foreground,Centre,"sb\d.png",0,0 M,4,203232,203832,230,72,217,-10 F,0,203232,203832,1,0 S,0,203232,203832,0.7,0.28 P,0,203232,203832,A
Sprite,Foreground,Centre,"sb\d.png",0,0 M,4,203307,203907,230,72,90,-66 F,0,203307,203907,1,0 S,0,203307,203907,0.7,0.28 P,0,203307,203907,A
Sprite,Foreground,Centre,"sb\d.png",0,0 M,4,203307,203907,230,72,181,188 F,0,203307,203907,1,0 S,0,203307,203907,0.7,0.28 P,0,203307,203907,A
Sprite,Foreground,Centre,"sb\d.png",0,0 M,4,203307,203907,230,72,160,209 F,0,203307,203907,1,0 S,0,203307,203907,0.7,0.28 P,0,203307,203907,A
Sprite,Foreground,Centre,"sb\d.png",0,0 M,4,203307,203907,230,72,141,115 F,0,203307,203907,1,0 S,0,203307,203907,0.7,0.28 P,0,203307,203907,A
Sprite,Foreground,Centre,"sb\d.png",0,0 M,4,203307,203907,230,72,135,175 F,0,203307,203907,1,0 S,0,203307,203907,0.7,0.28 P,0,203307,203907,A
Sprite,Foreground,Centre,"sb\d.png",0,0 M,4,203307,203907,230,72,113,139 F,0,203307,203907,1,0 S,0,203307,203907,0.7,0.28 P,0,203307,203907,A
Sprite,Foreground,Centre,"sb\d.png",0,0 M,4,203307,203907,230,72,233,70 F,0,203307,203907,1,0 S,0,203307,203907,0.7,0.28 P,0,203307,203907,A
Sprite,Foreground,Centre,"sb\d.png",0,0 M,4,203382,203982,230,72,367,59 F,0,203382,203982,1,0 S,0,203382,203982,0.7,0.28 P,0,203382,203982,A
Sprite,Foreground,Centre,"sb\d.png",0,0 M,4,203382,203982,230,72,208,172 F,0,203382,203982,1,0 S,0,203382,203982,0.7,0.28 P,0,203382,203982,A
Sprite,Foreground,Centre,"sb\d.png",0,0 M,4,203382,203982,230,72,181,54 F,0,203382,203982,1,0 S,0,203382,203982,0.7,0.28 P,0,203382,203982,A
Sprite,Foreground,Centre,"sb\d.png",0,0 M,4,203382,203982,230,72,254,-47 F,0,203382,203982,1,0 S,0,203382,203982,0.7,0.28 P,0,203382,203982,A
Sprite,Foreground,Centre,"sb\d.png",0,0 M,4,203382,203982,230,72,205,74 F,0,203382,203982,1,0 S,0,203382,203982,0.7,0.28 P,0,203382,203982,A
Sprite,Foreground,Centre,"sb\d.png",0,0 M,4,203382,203982,230,72,289,90 F,0,203382,203982,1,0 S,0,203382,203982,0.7,0.28 P,0,203382,203982,A
Sprite,Foreground,Centre,"sb\d.png",0,0 M,4,203382,203982,230,72,155,135 F,0,203382,203982,1,0 S,0,203382,203982,0.7,0.28 P,0,203382,203982,A
Sprite,Foreground,Centre,"sb\d.png",0,0 M,4,203682,204282,307,274,430,138 F,0,203682,204282,1,0 S,0,203682,204282,0.7,0.28 P,0,203682,204282,A
Sprite,Foreground,Centre,"sb\d.png",0,0 M,4,203682,204282,307,274,355,329 F,0,203682,204282,1,0 S,0,203682,204282,0.7,0.28 P,0,203682,204282,A
Sprite,Foreground,Centre,"sb\d.png",0,0 M,4,203682,204282,307,274,311,277 F,0,203682,204282,1,0 S,0,203682,204282,0.7,0.28 P,0,203682,204282,A
Sprite,Foreground,Centre,"sb\d.png",0,0 M,4,203682,204282,307,274,353,130 F,0,203682,204282,1,0 S,0,203682,204282,0.7,0.28 P,0,203682,204282,A
Sprite,Foreground,Centre,"sb\d.png",0,0 M,4,203682,204282,307,274,374,253 F,0,203682,204282,1,0 S,0,203682,204282,0.7,0.28 P,0,203682,204282,A
Sprite,Foreground,Centre,"sb\d.png",0,0 M,4,203682,204282,307,274,173,135 F,0,203682,204282,1,0 S,0,203682,204282,0.7,0.28 P,0,203682,204282,A
Sprite,Foreground,Centre,"sb\d.png",0,0 M,4,203682,204282,307,274,179,140 F,0,203682,204282,1,0 S,0,203682,204282,0.7,0.28 P,0,203682,204282,A
Sprite,Foreground,Centre,"sb\d.png",0,0 M,4,203982,204582,418,385,317,280 F,0,203982,204582,1,0 S,0,203982,204582,0.7,0.28 P,0,203982,204582,A
Sprite,Foreground,Centre,"sb\d.png",0,0 M,4,203982,204582,418,385,362,533 F,0,203982,204582,1,0 S,0,203982,204582,0.7,0.28 P,0,203982,204582,A
Sprite,Foreground,Centre,"sb\d.png",0,0 M,4,203982,204582,418,385,530,326 F,0,203982,204582,1,0 S,0,203982,204582,0.7,0.28 P,0,203982,204582,A
Sprite,Foreground,Centre,"sb\d.png",0,0 M,4,203982,204582,418,385,356,251 F,0,203982,204582,1,0 S,0,203982,204582,0.7,0.28 P,0,203982,204582,A
Sprite,Foreground,Centre,"sb\d.png",0,0 M,4,203982,204582,418,385,549,462 F,0,203982,204582,1,0 S,0,203982,204582,0.7,0.28 P,0,203982,204582,A
Sprite,Foreground,Centre,"sb\d.png",0,0 M,4,203982,204582,418,385,413,240 F,0,203982,204582,1,0 S,0,203982,204582,0.7,0.28 P,0,203982,204582,A
Sprite,Foreground,Centre,"sb\d.png",0,0 M,4,203982,204582,418,385,461,514 F,0,203982,204582,1,0 S,0,203982,204582,0.7,0.28 P,0,203982,204582,A
Sprite,Foreground,Centre,"sb\d.png",0,0 M,4,204132,204732,163,411,200,510 F,0,204132,204732,1,0 S,0,204132,204732,0.7,0.28 P,0,204132,204732,A
Sprite,Foreground,Centre,"sb\d.png",0,0 M,4,204132,204732,163,411,69,473 F,0,204132,204732,1,0 S,0,204132,204732,0.7,0.28 P,0,204132,204732,A
Sprite,Foreground,Centre,"sb\d.png",0,0 M,4,204132,204732,163,411,224,408 F,0,204132,204732,1,0 S,0,204132,204732,0.7,0.28 P,0,204132,204732,A
Sprite,Foreground,Centre,"sb\d.png",0,0 M,4,204132,204732,163,411,233,301 F,0,204132,204732,1,0 S,0,204132,204732,0.7,0.28 P,0,204132,204732,A
Sprite,Foreground,Centre,"sb\d.png",0,0 M,4,204132,204732,163,411,67,389 F,0,204132,204732,1,0 S,0,204132,204732,0.7,0.28 P,0,204132,204732,A
Sprite,Foreground,Centre,"sb\d.png",0,0 M,4,204132,204732,163,411,75,261 F,0,204132,204732,1,0 S,0,204132,204732,0.7,0.28 P,0,204132,204732,A
Sprite,Foreground,Centre,"sb\d.png",0,0 M,4,204132,204732,163,411,264,542 F,0,204132,204732,1,0 S,0,204132,204732,0.7,0.28 P,0,204132,204732,A
Sprite,Foreground,Centre,"sb\d.png",0,0 M,4,204432,205032,466,324,536,473 F,0,204432,205032,1,0 S,0,204432,205032,0.7,0.28 P,0,204432,205032,A
Sprite,Foreground,Centre,"sb\d.png",0,0 M,4,204432,205032,466,324,550,263 F,0,204432,205032,1,0 S,0,204432,205032,0.7,0.28 P,0,204432,205032,A
Sprite,Foreground,Centre,"sb\d.png",0,0 M,4,204432,205032,466,324,425,331 F,0,204432,205032,1,0 S,0,204432,205032,0.7,0.28 P,0,204432,205032,A
Sprite,Foreground,Centre,"sb\d.png",0,0 M,4,204432,205032,466,324,597,253 F,0,204432,205032,1,0 S,0,204432,205032,0.7,0.28 P,0,204432,205032,A
Sprite,Foreground,Centre,"sb\d.png",0,0 M,4,204432,205032,466,324,374,384 F,0,204432,205032,1,0 S,0,204432,205032,0.7,0.28 P,0,204432,205032,A
Sprite,Foreground,Centre,"sb\d.png",0,0 M,4,204432,205032,466,324,521,458 F,0,204432,205032,1,0 S,0,204432,205032,0.7,0.28 P,0,204432,205032,A
Sprite,Foreground,Centre,"sb\d.png",0,0 M,4,204432,205032,466,324,440,430 F,0,204432,205032,1,0 S,0,204432,205032,0.7,0.28 P,0,204432,205032,A
Sprite,Foreground,Centre,"sb\d.png",0,0 M,4,204582,205182,191,276,74,396 F,0,204582,205182,1,0 S,0,204582,205182,0.7,0.28 P,0,204582,205182,A
Sprite,Foreground,Centre,"sb\d.png",0,0 M,4,204582,205182,191,276,101,274 F,0,204582,205182,1,0 S,0,204582,205182,0.7,0.28 P,0,204582,205182,A
Sprite,Foreground,Centre,"sb\d.png",0,0 M,4,204582,205182,191,276,300,343 F,0,204582,205182,1,0 S,0,204582,205182,0.7,0.28 P,0,204582,205182,A
Sprite,Foreground,Centre,"sb\d.png",0,0 M,4,204582,205182,191,276,159,394 F,0,204582,205182,1,0 S,0,204582,205182,0.7,0.28 P,0,204582,205182,A
Sprite,Foreground,Centre,"sb\d.png",0,0 M,4,204582,205182,191,276,113,230 F,0,204582,205182,1,0 S,0,204582,205182,0.7,0.28 P,0,204582,205182,A
Sprite,Foreground,Centre,"sb\d.png",0,0 M,4,204582,205182,191,276,141,300 F,0,204582,205182,1,0 S,0,204582,205182,0.7,0.28 P,0,204582,205182,A
Sprite,Foreground,Centre,"sb\d.png",0,0 M,4,204582,205182,191,276,137,135 F,0,204582,205182,1,0 S,0,204582,205182,0.7,0.28 P,0,204582,205182,A
Sprite,Foreground,Centre,"sb\d.png",0,0 M,4,204882,205482,447,180,588,296 F,0,204882,205482,1,0 S,0,204882,205482,0.7,0.28 P,0,204882,205482,A
Sprite,Foreground,Centre,"sb\d.png",0,0 M,4,204882,205482,447,180,533,291 F,0,204882,205482,1,0 S,0,204882,205482,0.7,0.28 P,0,204882,205482,A
Sprite,Foreground,Centre,"sb\d.png",0,0 M,4,204882,205482,447,180,436,137 F,0,204882,205482,1,0 S,0,204882,205482,0.7,0.28 P,0,204882,205482,A
Sprite,Foreground,Centre,"sb\d.png",0,0 M,4,204882,205482,447,180,393,311 F,0,204882,205482,1,0 S,0,204882,205482,0.7,0.28 P,0,204882,205482,A
Sprite,Foreground,Centre,"sb\d.png",0,0 M,4,204882,205482,447,180,590,85 F,0,204882,205482,1,0 S,0,204882,205482,0.7,0.28 P,0,204882,205482,A
Sprite,Foreground,Centre,"sb\d.png",0,0 M,4,204882,205482,447,180,493,65 F,0,204882,205482,1,0 S,0,204882,205482,0.7,0.28 P,0,204882,205482,A
Sprite,Foreground,Centre,"sb\d.png",0,0 M,4,204882,205482,447,180,594,138 F,0,204882,205482,1,0 S,0,204882,205482,0.7,0.28 P,0,204882,205482,A
Sprite,Foreground,Centre,"sb\d.png",0,0 M,4,205032,205632,149,213,189,208 F,0,205032,205632,1,0 S,0,205032,205632,0.7,0.28 P,0,205032,205632,A
Sprite,Foreground,Centre,"sb\d.png",0,0 M,4,205032,205632,149,213,5,290 F,0,205032,205632,1,0 S,0,205032,205632,0.7,0.28 P,0,205032,205632,A
Sprite,Foreground,Centre,"sb\d.png",0,0 M,4,205032,205632,149,213,22,326 F,0,205032,205632,1,0 S,0,205032,205632,0.7,0.28 P,0,205032,205632,A
Sprite,Foreground,Centre,"sb\d.png",0,0 M,4,205032,205632,149,213,6,147 F,0,205032,205632,1,0 S,0,205032,205632,0.7,0.28 P,0,205032,205632,A
Sprite,Foreground,Centre,"sb\d.png",0,0 M,4,205032,205632,149,213,66,276 F,0,205032,205632,1,0 S,0,205032,205632,0.7,0.28 P,0,205032,205632,A
Sprite,Foreground,Centre,"sb\d.png",0,0 M,4,205032,205632,149,213,40,97 F,0,205032,205632,1,0 S,0,205032,205632,0.7,0.28 P,0,205032,205632,A
Sprite,Foreground,Centre,"sb\d.png",0,0 M,4,205032,205632,149,213,161,315 F,0,205032,205632,1,0 S,0,205032,205632,0.7,0.28 P,0,205032,205632,A
Sprite,Foreground,Centre,"sb\d.png",0,0 M,4,205332,205932,501,124,577,103 F,0,205332,205932,1,0 S,0,205332,205932,0.7,0.28 P,0,205332,205932,A
Sprite,Foreground,Centre,"sb\d.png",0,0 M,4,205332,205932,501,124,640,208 F,0,205332,205932,1,0 S,0,205332,205932,0.7,0.28 P,0,205332,205932,A
Sprite,Foreground,Centre,"sb\d.png",0,0 M,4,205332,205932,501,124,412,246 F,0,205332,205932,1,0 S,0,205332,205932,0.7,0.28 P,0,205332,205932,A
Sprite,Foreground,Centre,"sb\d.png",0,0 M,4,205332,205932,501,124,438,66 F,0,205332,205932,1,0 S,0,205332,205932,0.7,0.28 P,0,205332,205932,A
Sprite,Foreground,Centre,"sb\d.png",0,0 M,4,205332,205932,501,124,625,218 F,0,205332,205932,1,0 S,0,205332,205932,0.7,0.28 P,0,205332,205932,A
Sprite,Foreground,Centre,"sb\d.png",0,0 M,4,205332,205932,501,124,495,-9 F,0,205332,205932,1,0 S,0,205332,205932,0.7,0.28 P,0,205332,205932,A
Sprite,Foreground,Centre,"sb\d.png",0,0 M,4,205332,205932,501,124,510,25 F,0,205332,205932,1,0 S,0,205332,205932,0.7,0.28 P,0,205332,205932,A
Sprite,Foreground,Centre,"sb\d.png",0,0 M,4,205482,206082,178,68,304,-78 F,0,205482,206082,1,0 S,0,205482,206082,0.7,0.28 P,0,205482,206082,A
Sprite,Foreground,Centre,"sb\d.png",0,0 M,4,205482,206082,178,68,280,141 F,0,205482,206082,1,0 S,0,205482,206082,0.7,0.28 P,0,205482,206082,A
Sprite,Foreground,Centre,"sb\d.png",0,0 M,4,205482,206082,178,68,247,-72 F,0,205482,206082,1,0 S,0,205482,206082,0.7,0.28 P,0,205482,206082,A
Sprite,Foreground,Centre,"sb\d.png",0,0 M,4,205482,206082,178,68,105,144 F,0,205482,206082,1,0 S,0,205482,206082,0.7,0.28 P,0,205482,206082,A
Sprite,Foreground,Centre,"sb\d.png",0,0 M,4,205482,206082,178,68,126,90 F,0,205482,206082,1,0 S,0,205482,206082,0.7,0.28 P,0,205482,206082,A
Sprite,Foreground,Centre,"sb\d.png",0,0 M,4,205482,206082,178,68,179,50 F,0,205482,206082,1,0 S,0,205482,206082,0.7,0.28 P,0,205482,206082,A
Sprite,Foreground,Centre,"sb\d.png",0,0 M,4,205482,206082,178,68,29,124 F,0,205482,206082,1,0 S,0,205482,206082,0.7,0.28 P,0,205482,206082,A
Sprite,Foreground,Centre,"sb\d.png",0,0 M,4,205782,206382,277,281,325,153 F,0,205782,206382,1,0 S,0,205782,206382,0.7,0.28 P,0,205782,206382,A
Sprite,Foreground,Centre,"sb\d.png",0,0 M,4,205782,206382,277,281,347,236 F,0,205782,206382,1,0 S,0,205782,206382,0.7,0.28 P,0,205782,206382,A
Sprite,Foreground,Centre,"sb\d.png",0,0 M,4,205782,206382,277,281,371,275 F,0,205782,206382,1,0 S,0,205782,206382,0.7,0.28 P,0,205782,206382,A
Sprite,Foreground,Centre,"sb\d.png",0,0 M,4,205782,206382,277,281,182,294 F,0,205782,206382,1,0 S,0,205782,206382,0.7,0.28 P,0,205782,206382,A
Sprite,Foreground,Centre,"sb\d.png",0,0 M,4,205782,206382,277,281,192,392 F,0,205782,206382,1,0 S,0,205782,206382,0.7,0.28 P,0,205782,206382,A
Sprite,Foreground,Centre,"sb\d.png",0,0 M,4,205782,206382,277,281,401,156 F,0,205782,206382,1,0 S,0,205782,206382,0.7,0.28 P,0,205782,206382,A
Sprite,Foreground,Centre,"sb\d.png",0,0 M,4,205782,206382,277,281,147,229 F,0,205782,206382,1,0 S,0,205782,206382,0.7,0.28 P,0,205782,206382,A
Sprite,Foreground,Centre,"sb\d.png",0,0 M,4,206082,206682,348,398,368,310 F,0,206082,206682,1,0 S,0,206082,206682,0.7,0.28 P,0,206082,206682,A
Sprite,Foreground,Centre,"sb\d.png",0,0 M,4,206082,206682,348,398,280,253 F,0,206082,206682,1,0 S,0,206082,206682,0.7,0.28 P,0,206082,206682,A
Sprite,Foreground,Centre,"sb\d.png",0,0 M,4,206082,206682,348,398,302,503 F,0,206082,206682,1,0 S,0,206082,206682,0.7,0.28 P,0,206082,206682,A
Sprite,Foreground,Centre,"sb\d.png",0,0 M,4,206082,206682,348,398,305,311 F,0,206082,206682,1,0 S,0,206082,206682,0.7,0.28 P,0,206082,206682,A
Sprite,Foreground,Centre,"sb\d.png",0,0 M,4,206082,206682,348,398,458,365 F,0,206082,206682,1,0 S,0,206082,206682,0.7,0.28 P,0,206082,206682,A
Sprite,Foreground,Centre,"sb\d.png",0,0 M,4,206082,206682,348,398,312,400 F,0,206082,206682,1,0 S,0,206082,206682,0.7,0.28 P,0,206082,206682,A
Sprite,Foreground,Centre,"sb\d.png",0,0 M,4,206082,206682,348,398,372,547 F,0,206082,206682,1,0 S,0,206082,206682,0.7,0.28 P,0,206082,206682,A
Sprite,Foreground,Centre,"sb\d.png",0,0 M,4,206382,206982,398,267,279,234 F,0,206382,206982,1,0 S,0,206382,206982,0.7,0.28 P,0,206382,206982,A
Sprite,Foreground,Centre,"sb\d.png",0,0 M,4,206382,206982,398,267,330,345 F,0,206382,206982,1,0 S,0,206382,206982,0.7,0.28 P,0,206382,206982,A
Sprite,Foreground,Centre,"sb\d.png",0,0 M,4,206382,206982,398,267,518,298 F,0,206382,206982,1,0 S,0,206382,206982,0.7,0.28 P,0,206382,206982,A
Sprite,Foreground,Centre,"sb\d.png",0,0 M,4,206382,206982,398,267,442,369 F,0,206382,206982,1,0 S,0,206382,206982,0.7,0.28 P,0,206382,206982,A
Sprite,Foreground,Centre,"sb\d.png",0,0 M,4,206382,206982,398,267,271,156 F,0,206382,206982,1,0 S,0,206382,206982,0.7,0.28 P,0,206382,206982,A
Sprite,Foreground,Centre,"sb\d.png",0,0 M,4,206382,206982,398,267,321,131 F,0,206382,206982,1,0 S,0,206382,206982,0.7,0.28 P,0,206382,206982,A
Sprite,Foreground,Centre,"sb\d.png",0,0 M,4,206382,206982,398,267,544,229 F,0,206382,206982,1,0 S,0,206382,206982,0.7,0.28 P,0,206382,206982,A
Sprite,Foreground,Centre,"sb\d.png",0,0 M,4,206682,207282,348,398,436,539 F,0,206682,207282,1,0 S,0,206682,207282,0.7,0.28 P,0,206682,207282,A
Sprite,Foreground,Centre,"sb\d.png",0,0 M,4,206682,207282,348,398,447,442 F,0,206682,207282,1,0 S,0,206682,207282,0.7,0.28 P,0,206682,207282,A
Sprite,Foreground,Centre,"sb\d.png",0,0 M,4,206682,207282,348,398,487,527 F,0,206682,207282,1,0 S,0,206682,207282,0.7,0.28 P,0,206682,207282,A
Sprite,Foreground,Centre,"sb\d.png",0,0 M,4,206682,207282,348,398,253,283 F,0,206682,207282,1,0 S,0,206682,207282,0.7,0.28 P,0,206682,207282,A
Sprite,Foreground,Centre,"sb\d.png",0,0 M,4,206682,207282,348,398,287,394 F,0,206682,207282,1,0 S,0,206682,207282,0.7,0.28 P,0,206682,207282,A
Sprite,Foreground,Centre,"sb\d.png",0,0 M,4,206682,207282,348,398,226,294 F,0,206682,207282,1,0 S,0,206682,207282,0.7,0.28 P,0,206682,207282,A
Sprite,Foreground,Centre,"sb\d.png",0,0 M,4,206682,207282,348,398,297,383 F,0,206682,207282,1,0 S,0,206682,207282,0.7,0.28 P,0,206682,207282,A
Sprite,Foreground,Centre,"sb\d.png",0,0 M,4,206832,207432,174,291,85,243 F,0,206832,207432,1,0 S,0,206832,207432,0.7,0.28 P,0,206832,207432,A
Sprite,Foreground,Centre,"sb\d.png",0,0 M,4,206832,207432,174,291,315,232 F,0,206832,207432,1,0 S,0,206832,207432,0.7,0.28 P,0,206832,207432,A
Sprite,Foreground,Centre,"sb\d.png",0,0 M,4,206832,207432,174,291,294,196 F,0,206832,207432,1,0 S,0,206832,207432,0.7,0.28 P,0,206832,207432,A
Sprite,Foreground,Centre,"sb\d.png",0,0 M,4,206832,207432,174,291,156,389 F,0,206832,207432,1,0 S,0,206832,207432,0.7,0.28 P,0,206832,207432,A
Sprite,Foreground,Centre,"sb\d.png",0,0 M,4,206832,207432,174,291,202,186 F,0,206832,207432,1,0 S,0,206832,207432,0.7,0.28 P,0,206832,207432,A
Sprite,Foreground,Centre,"sb\d.png",0,0 M,4,206832,207432,174,291,78,280 F,0,206832,207432,1,0 S,0,206832,207432,0.7,0.28 P,0,206832,207432,A
Sprite,Foreground,Centre,"sb\d.png",0,0 M,4,206832,207432,174,291,228,359 F,0,206832,207432,1,0 S,0,206832,207432,0.7,0.28 P,0,206832,207432,A
Sprite,Foreground,Centre,"sb\d.png",0,0 M,4,206907,207507,207,295,95,188 F,0,206907,207507,1,0 S,0,206907,207507,0.7,0.28 P,0,206907,207507,A
Sprite,Foreground,Centre,"sb\d.png",0,0 M,4,206907,207507,207,295,289,234 F,0,206907,207507,1,0 S,0,206907,207507,0.7,0.28 P,0,206907,207507,A
Sprite,Foreground,Centre,"sb\d.png",0,0 M,4,206907,207507,207,295,316,439 F,0,206907,207507,1,0 S,0,206907,207507,0.7,0.28 P,0,206907,207507,A
Sprite,Foreground,Centre,"sb\d.png",0,0 M,4,206907,207507,207,295,181,414 F,0,206907,207507,1,0 S,0,206907,207507,0.7,0.28 P,0,206907,207507,A
Sprite,Foreground,Centre,"sb\d.png",0,0 M,4,206907,207507,207,295,225,364 F,0,206907,207507,1,0 S,0,206907,207507,0.7,0.28 P,0,206907,207507,A
Sprite,Foreground,Centre,"sb\d.png",0,0 M,4,206907,207507,207,295,220,340 F,0,206907,207507,1,0 S,0,206907,207507,0.7,0.28 P,0,206907,207507,A
Sprite,Foreground,Centre,"sb\d.png",0,0 M,4,206907,207507,207,295,301,440 F,0,206907,207507,1,0 S,0,206907,207507,0.7,0.28 P,0,206907,207507,A
Sprite,Foreground,Centre,"sb\d.png",0,0 M,4,206982,207582,239,299,116,385 F,0,206982,207582,1,0 S,0,206982,207582,0.7,0.28 P,0,206982,207582,A
Sprite,Foreground,Centre,"sb\d.png",0,0 M,4,206982,207582,239,299,289,373 F,0,206982,207582,1,0 S,0,206982,207582,0.7,0.28 P,0,206982,207582,A
Sprite,Foreground,Centre,"sb\d.png",0,0 M,4,206982,207582,239,299,170,207 F,0,206982,207582,1,0 S,0,206982,207582,0.7,0.28 P,0,206982,207582,A
Sprite,Foreground,Centre,"sb\d.png",0,0 M,4,206982,207582,239,299,279,370 F,0,206982,207582,1,0 S,0,206982,207582,0.7,0.28 P,0,206982,207582,A
Sprite,Foreground,Centre,"sb\d.png",0,0 M,4,206982,207582,239,299,136,430 F,0,206982,207582,1,0 S,0,206982,207582,0.7,0.28 P,0,206982,207582,A
Sprite,Foreground,Centre,"sb\d.png",0,0 M,4,206982,207582,239,299,133,389 F,0,206982,207582,1,0 S,0,206982,207582,0.7,0.28 P,0,206982,207582,A
Sprite,Foreground,Centre,"sb\d.png",0,0 M,4,206982,207582,239,299,369,439 F,0,206982,207582,1,0 S,0,206982,207582,0.7,0.28 P,0,206982,207582,A
Sprite,Foreground,Centre,"sb\d.png",0,0 M,4,207057,207657,272,303,235,356 F,0,207057,207657,1,0 S,0,207057,207657,0.7,0.28 P,0,207057,207657,A
Sprite,Foreground,Centre,"sb\d.png",0,0 M,4,207057,207657,272,303,261,302 F,0,207057,207657,1,0 S,0,207057,207657,0.7,0.28 P,0,207057,207657,A
Sprite,Foreground,Centre,"sb\d.png",0,0 M,4,207057,207657,272,303,196,290 F,0,207057,207657,1,0 S,0,207057,207657,0.7,0.28 P,0,207057,207657,A
Sprite,Foreground,Centre,"sb\d.png",0,0 M,4,207057,207657,272,303,419,199 F,0,207057,207657,1,0 S,0,207057,207657,0.7,0.28 P,0,207057,207657,A
Sprite,Foreground,Centre,"sb\d.png",0,0 M,4,207057,207657,272,303,335,392 F,0,207057,207657,1,0 S,0,207057,207657,0.7,0.28 P,0,207057,207657,A
Sprite,Foreground,Centre,"sb\d.png",0,0 M,4,207057,207657,272,303,209,257 F,0,207057,207657,1,0 S,0,207057,207657,0.7,0.28 P,0,207057,207657,A
Sprite,Foreground,Centre,"sb\d.png",0,0 M,4,207057,207657,272,303,132,245 F,0,207057,207657,1,0 S,0,207057,207657,0.7,0.28 P,0,207057,207657,A
Sprite,Foreground,Centre,"sb\d.png",0,0 M,4,207132,207732,306,308,389,229 F,0,207132,207732,1,0 S,0,207132,207732,0.7,0.28 P,0,207132,207732,A
Sprite,Foreground,Centre,"sb\d.png",0,0 M,4,207132,207732,306,308,384,233 F,0,207132,207732,1,0 S,0,207132,207732,0.7,0.28 P,0,207132,207732,A
Sprite,Foreground,Centre,"sb\d.png",0,0 M,4,207132,207732,306,308,267,294 F,0,207132,207732,1,0 S,0,207132,207732,0.7,0.28 P,0,207132,207732,A
Sprite,Foreground,Centre,"sb\d.png",0,0 M,4,207132,207732,306,308,377,399 F,0,207132,207732,1,0 S,0,207132,207732,0.7,0.28 P,0,207132,207732,A
Sprite,Foreground,Centre,"sb\d.png",0,0 M,4,207132,207732,306,308,301,288 F,0,207132,207732,1,0 S,0,207132,207732,0.7,0.28 P,0,207132,207732,A
Sprite,Foreground,Centre,"sb\d.png",0,0 M,4,207132,207732,306,308,213,303 F,0,207132,207732,1,0 S,0,207132,207732,0.7,0.28 P,0,207132,207732,A
Sprite,Foreground,Centre,"sb\d.png",0,0 M,4,207132,207732,306,308,183,275 F,0,207132,207732,1,0 S,0,207132,207732,0.7,0.28 P,0,207132,207732,A
Sprite,Foreground,Centre,"sb\d.png",0,0 M,4,207282,207882,81,355,227,456 F,0,207282,207882,1,0 S,0,207282,207882,0.7,0.28 P,0,207282,207882,A
Sprite,Foreground,Centre,"sb\d.png",0,0 M,4,207282,207882,81,355,-25,223 F,0,207282,207882,1,0 S,0,207282,207882,0.7,0.28 P,0,207282,207882,A
Sprite,Foreground,Centre,"sb\d.png",0,0 M,4,207282,207882,81,355,-55,338 F,0,207282,207882,1,0 S,0,207282,207882,0.7,0.28 P,0,207282,207882,A
Sprite,Foreground,Centre,"sb\d.png",0,0 M,4,207282,207882,81,355,86,470 F,0,207282,207882,1,0 S,0,207282,207882,0.7,0.28 P,0,207282,207882,A
Sprite,Foreground,Centre,"sb\d.png",0,0 M,4,207282,207882,81,355,11,218 F,0,207282,207882,1,0 S,0,207282,207882,0.7,0.28 P,0,207282,207882,A
Sprite,Foreground,Centre,"sb\d.png",0,0 M,4,207282,207882,81,355,51,311 F,0,207282,207882,1,0 S,0,207282,207882,0.7,0.28 P,0,207282,207882,A
Sprite,Foreground,Centre,"sb\d.png",0,0 M,4,207282,207882,81,355,229,485 F,0,207282,207882,1,0 S,0,207282,207882,0.7,0.28 P,0,207282,207882,A
Sprite,Foreground,Centre,"sb\d.png",0,0 M,4,207582,208182,263,196,135,307 F,0,207582,208182,1,0 S,0,207582,208182,0.7,0.28 P,0,207582,208182,A
Sprite,Foreground,Centre,"sb\d.png",0,0 M,4,207582,208182,263,196,250,323 F,0,207582,208182,1,0 S,0,207582,208182,0.7,0.28 P,0,207582,208182,A
Sprite,Foreground,Centre,"sb\d.png",0,0 M,4,207582,208182,263,196,160,143 F,0,207582,208182,1,0 S,0,207582,208182,0.7,0.28 P,0,207582,208182,A
Sprite,Foreground,Centre,"sb\d.png",0,0 M,4,207582,208182,263,196,400,321 F,0,207582,208182,1,0 S,0,207582,208182,0.7,0.28 P,0,207582,208182,A
Sprite,Foreground,Centre,"sb\d.png",0,0 M,4,207582,208182,263,196,165,315 F,0,207582,208182,1,0 S,0,207582,208182,0.7,0.28 P,0,207582,208182,A
Sprite,Foreground,Centre,"sb\d.png",0,0 M,4,207582,208182,263,196,242,190 F,0,207582,208182,1,0 S,0,207582,208182,0.7,0.28 P,0,207582,208182,A
Sprite,Foreground,Centre,"sb\d.png",0,0 M,4,207582,208182,263,196,181,217 F,0,207582,208182,1,0 S,0,207582,208182,0.7,0.28 P,0,207582,208182,A
Sprite,Foreground,Centre,"sb\d.png",0,0 M,4,207882,208482,101,92,9,-50 F,0,207882,208482,1,0 S,0,207882,208482,0.7,0.28 P,0,207882,208482,A
Sprite,Foreground,Centre,"sb\d.png",0,0 M,4,207882,208482,101,92,42,171 F,0,207882,208482,1,0 S,0,207882,208482,0.7,0.28 P,0,207882,208482,A
Sprite,Foreground,Centre,"sb\d.png",0,0 M,4,207882,208482,101,92,60,122 F,0,207882,208482,1,0 S,0,207882,208482,0.7,0.28 P,0,207882,208482,A
Sprite,Foreground,Centre,"sb\d.png",0,0 M,4,207882,208482,101,92,1,204 F,0,207882,208482,1,0 S,0,207882,208482,0.7,0.28 P,0,207882,208482,A
Sprite,Foreground,Centre,"sb\d.png",0,0 M,4,207882,208482,101,92,145,10 F,0,207882,208482,1,0 S,0,207882,208482,0.7,0.28 P,0,207882,208482,A
Sprite,Foreground,Centre,"sb\d.png",0,0 M,4,207882,208482,101,92,41,119 F,0,207882,208482,1,0 S,0,207882,208482,0.7,0.28 P,0,207882,208482,A
Sprite,Foreground,Centre,"sb\d.png",0,0 M,4,207882,208482,101,92,187,210 F,0,207882,208482,1,0 S,0,207882,208482,0.7,0.28 P,0,207882,208482,A
Sprite,Foreground,Centre,"sb\d.png",0,0 M,4,208032,208632,308,135,449,199 F,0,208032,208632,1,0 S,0,208032,208632,0.7,0.28 P,0,208032,208632,A
Sprite,Foreground,Centre,"sb\d.png",0,0 M,4,208032,208632,308,135,412,-11 F,0,208032,208632,1,0 S,0,208032,208632,0.7,0.28 P,0,208032,208632,A
Sprite,Foreground,Centre,"sb\d.png",0,0 M,4,208032,208632,308,135,296,225 F,0,208032,208632,1,0 S,0,208032,208632,0.7,0.28 P,0,208032,208632,A
Sprite,Foreground,Centre,"sb\d.png",0,0 M,4,208032,208632,308,135,377,169 F,0,208032,208632,1,0 S,0,208032,208632,0.7,0.28 P,0,208032,208632,A
Sprite,Foreground,Centre,"sb\d.png",0,0 M,4,208032,208632,308,135,451,65 F,0,208032,208632,1,0 S,0,208032,208632,0.7,0.28 P,0,208032,208632,A
Sprite,Foreground,Centre,"sb\d.png",0,0 M,4,208032,208632,308,135,255,214 F,0,208032,208632,1,0 S,0,208032,208632,0.7,0.28 P,0,208032,208632,A
Sprite,Foreground,Centre,"sb\d.png",0,0 M,4,208032,208632,308,135,288,5 F,0,208032,208632,1,0 S,0,208032,208632,0.7,0.28 P,0,208032,208632,A
Sprite,Foreground,Centre,"sb\d.png",0,0 M,4,208107,208707,341,134,389,59 F,0,208107,208707,1,0 S,0,208107,208707,0.7,0.28 P,0,208107,208707,A
Sprite,Foreground,Centre,"sb\d.png",0,0 M,4,208107,208707,341,134,379,153 F,0,208107,208707,1,0 S,0,208107,208707,0.7,0.28 P,0,208107,208707,A
Sprite,Foreground,Centre,"sb\d.png",0,0 M,4,208107,208707,341,134,256,268 F,0,208107,208707,1,0 S,0,208107,208707,0.7,0.28 P,0,208107,208707,A
Sprite,Foreground,Centre,"sb\d.png",0,0 M,4,208107,208707,341,134,397,55 F,0,208107,208707,1,0 S,0,208107,208707,0.7,0.28 P,0,208107,208707,A
Sprite,Foreground,Centre,"sb\d.png",0,0 M,4,208107,208707,341,134,412,174 F,0,208107,208707,1,0 S,0,208107,208707,0.7,0.28 P,0,208107,208707,A
Sprite,Foreground,Centre,"sb\d.png",0,0 M,4,208107,208707,341,134,488,102 F,0,208107,208707,1,0 S,0,208107,208707,0.7,0.28 P,0,208107,208707,A
Sprite,Foreground,Centre,"sb\d.png",0,0 M,4,208107,208707,341,134,421,44 F,0,208107,208707,1,0 S,0,208107,208707,0.7,0.28 P,0,208107,208707,A
Sprite,Foreground,Centre,"sb\d.png",0,0 M,4,208182,208782,374,131,290,49 F,0,208182,208782,1,0 S,0,208182,208782,0.7,0.28 P,0,208182,208782,A
Sprite,Foreground,Centre,"sb\d.png",0,0 M,4,208182,208782,374,131,411,151 F,0,208182,208782,1,0 S,0,208182,208782,0.7,0.28 P,0,208182,208782,A
Sprite,Foreground,Centre,"sb\d.png",0,0 M,4,208182,208782,374,131,385,-1 F,0,208182,208782,1,0 S,0,208182,208782,0.7,0.28 P,0,208182,208782,A
Sprite,Foreground,Centre,"sb\d.png",0,0 M,4,208182,208782,374,131,508,118 F,0,208182,208782,1,0 S,0,208182,208782,0.7,0.28 P,0,208182,208782,A
Sprite,Foreground,Centre,"sb\d.png",0,0 M,4,208182,208782,374,131,238,105 F,0,208182,208782,1,0 S,0,208182,208782,0.7,0.28 P,0,208182,208782,A
Sprite,Foreground,Centre,"sb\d.png",0,0 M,4,208182,208782,374,131,230,108 F,0,208182,208782,1,0 S,0,208182,208782,0.7,0.28 P,0,208182,208782,A
Sprite,Foreground,Centre,"sb\d.png",0,0 M,4,208182,208782,374,131,476,155 F,0,208182,208782,1,0 S,0,208182,208782,0.7,0.28 P,0,208182,208782,A
Sprite,Foreground,Centre,"sb\d.png",0,0 M,4,208257,208857,408,125,273,-14 F,0,208257,208857,1,0 S,0,208257,208857,0.7,0.28 P,0,208257,208857,A
Sprite,Foreground,Centre,"sb\d.png",0,0 M,4,208257,208857,408,125,390,154 F,0,208257,208857,1,0 S,0,208257,208857,0.7,0.28 P,0,208257,208857,A
Sprite,Foreground,Centre,"sb\d.png",0,0 M,4,208257,208857,408,125,307,5 F,0,208257,208857,1,0 S,0,208257,208857,0.7,0.28 P,0,208257,208857,A
Sprite,Foreground,Centre,"sb\d.png",0,0 M,4,208257,208857,408,125,321,94 F,0,208257,208857,1,0 S,0,208257,208857,0.7,0.28 P,0,208257,208857,A
Sprite,Foreground,Centre,"sb\d.png",0,0 M,4,208257,208857,408,125,437,195 F,0,208257,208857,1,0 S,0,208257,208857,0.7,0.28 P,0,208257,208857,A
Sprite,Foreground,Centre,"sb\d.png",0,0 M,4,208257,208857,408,125,369,227 F,0,208257,208857,1,0 S,0,208257,208857,0.7,0.28 P,0,208257,208857,A
Sprite,Foreground,Centre,"sb\d.png",0,0 M,4,208257,208857,408,125,320,195 F,0,208257,208857,1,0 S,0,208257,208857,0.7,0.28 P,0,208257,208857,A
Sprite,Foreground,Centre,"sb\d.png",0,0 M,4,208332,208932,440,118,583,32 F,0,208332,208932,1,0 S,0,208332,208932,0.7,0.28 P,0,208332,208932,A
Sprite,Foreground,Centre,"sb\d.png",0,0 M,4,208332,208932,440,118,297,-13 F,0,208332,208932,1,0 S,0,208332,208932,0.7,0.28 P,0,208332,208932,A
Sprite,Foreground,Centre,"sb\d.png",0,0 M,4,208332,208932,440,118,299,126 F,0,208332,208932,1,0 S,0,208332,208932,0.7,0.28 P,0,208332,208932,A
Sprite,Foreground,Centre,"sb\d.png",0,0 M,4,208332,208932,440,118,407,193 F,0,208332,208932,1,0 S,0,208332,208932,0.7,0.28 P,0,208332,208932,A
Sprite,Foreground,Centre,"sb\d.png",0,0 M,4,208332,208932,440,118,482,194 F,0,208332,208932,1,0 S,0,208332,208932,0.7,0.28 P,0,208332,208932,A
Sprite,Foreground,Centre,"sb\d.png",0,0 M,4,208332,208932,440,118,358,80 F,0,208332,208932,1,0 S,0,208332,208932,0.7,0.28 P,0,208332,208932,A
Sprite,Foreground,Centre,"sb\d.png",0,0 M,4,208332,208932,440,118,325,29 F,0,208332,208932,1,0 S,0,208332,208932,0.7,0.28 P,0,208332,208932,A
Sprite,Foreground,Centre,"sb\d.png",0,0 M,4,208482,209082,209,63,119,-23 F,0,208482,209082,1,0 S,0,208482,209082,0.7,0.28 P,0,208482,209082,A
Sprite,Foreground,Centre,"sb\d.png",0,0 M,4,208482,209082,209,63,222,150 F,0,208482,209082,1,0 S,0,208482,209082,0.7,0.28 P,0,208482,209082,A
Sprite,Foreground,Centre,"sb\d.png",0,0 M,4,208482,209082,209,63,91,-55 F,0,208482,209082,1,0 S,0,208482,209082,0.7,0.28 P,0,208482,209082,A
Sprite,Foreground,Centre,"sb\d.png",0,0 M,4,208482,209082,209,63,115,122 F,0,208482,209082,1,0 S,0,208482,209082,0.7,0.28 P,0,208482,209082,A
Sprite,Foreground,Centre,"sb\d.png",0,0 M,4,208482,209082,209,63,117,31 F,0,208482,209082,1,0 S,0,208482,209082,0.7,0.28 P,0,208482,209082,A
Sprite,Foreground,Centre,"sb\d.png",0,0 M,4,208482,209082,209,63,127,113 F,0,208482,209082,1,0 S,0,208482,209082,0.7,0.28 P,0,208482,209082,A
Sprite,Foreground,Centre,"sb\d.png",0,0 M,4,208482,209082,209,63,356,159 F,0,208482,209082,1,0 S,0,208482,209082,0.7,0.28 P,0,208482,209082,A
Sprite,Foreground,Centre,"sb\d.png",0,0 M,4,208782,209382,394,355,432,472 F,0,208782,209382,1,0 S,0,208782,209382,0.7,0.28 P,0,208782,209382,A
Sprite,Foreground,Centre,"sb\d.png",0,0 M,4,208782,209382,394,355,303,413 F,0,208782,209382,1,0 S,0,208782,209382,0.7,0.28 P,0,208782,209382,A
Sprite,Foreground,Centre,"sb\d.png",0,0 M,4,208782,209382,394,355,499,269 F,0,208782,209382,1,0 S,0,208782,209382,0.7,0.28 P,0,208782,209382,A
Sprite,Foreground,Centre,"sb\d.png",0,0 M,4,208782,209382,394,355,388,455 F,0,208782,209382,1,0 S,0,208782,209382,0.7,0.28 P,0,208782,209382,A
Sprite,Foreground,Centre,"sb\d.png",0,0 M,4,208782,209382,394,355,361,491 F,0,208782,209382,1,0 S,0,208782,209382,0.7,0.28 P,0,208782,209382,A
Sprite,Foreground,Centre,"sb\d.png",0,0 M,4,208782,209382,394,355,361,298 F,0,208782,209382,1,0 S,0,208782,209382,0.7,0.28 P,0,208782,209382,A
Sprite,Foreground,Centre,"sb\d.png",0,0 M,4,208782,209382,394,355,300,294 F,0,208782,209382,1,0 S,0,208782,209382,0.7,0.28 P,0,208782,209382,A
Sprite,Foreground,Centre,"sb\d.png",0,0 M,4,209082,209682,190,166,159,222 F,0,209082,209682,1,0 S,0,209082,209682,0.7,0.28 P,0,209082,209682,A
Sprite,Foreground,Centre,"sb\d.png",0,0 M,4,209082,209682,190,166,150,253 F,0,209082,209682,1,0 S,0,209082,209682,0.7,0.28 P,0,209082,209682,A
Sprite,Foreground,Centre,"sb\d.png",0,0 M,4,209082,209682,190,166,334,18 F,0,209082,209682,1,0 S,0,209082,209682,0.7,0.28 P,0,209082,209682,A
Sprite,Foreground,Centre,"sb\d.png",0,0 M,4,209082,209682,190,166,99,131 F,0,209082,209682,1,0 S,0,209082,209682,0.7,0.28 P,0,209082,209682,A
Sprite,Foreground,Centre,"sb\d.png",0,0 M,4,209082,209682,190,166,96,190 F,0,209082,209682,1,0 S,0,209082,209682,0.7,0.28 P,0,209082,209682,A
Sprite,Foreground,Centre,"sb\d.png",0,0 M,4,209082,209682,190,166,259,46 F,0,209082,209682,1,0 S,0,209082,209682,0.7,0.28 P,0,209082,209682,A
Sprite,Foreground,Centre,"sb\d.png",0,0 M,4,209082,209682,190,166,203,99 F,0,209082,209682,1,0 S,0,209082,209682,0.7,0.28 P,0,209082,209682,A
Sprite,Foreground,Centre,"sb\d.png",0,0 M,4,209232,209832,251,393,107,431 F,0,209232,209832,1,0 S,0,209232,209832,0.7,0.28 P,0,209232,209832,A
Sprite,Foreground,Centre,"sb\d.png",0,0 M,4,209232,209832,251,393,352,352 F,0,209232,209832,1,0 S,0,209232,209832,0.7,0.28 P,0,209232,209832,A
Sprite,Foreground,Centre,"sb\d.png",0,0 M,4,209232,209832,251,393,262,413 F,0,209232,209832,1,0 S,0,209232,209832,0.7,0.28 P,0,209232,209832,A
Sprite,Foreground,Centre,"sb\d.png",0,0 M,4,209232,209832,251,393,138,468 F,0,209232,209832,1,0 S,0,209232,209832,0.7,0.28 P,0,209232,209832,A
Sprite,Foreground,Centre,"sb\d.png",0,0 M,4,209232,209832,251,393,268,402 F,0,209232,209832,1,0 S,0,209232,209832,0.7,0.28 P,0,209232,209832,A
Sprite,Foreground,Centre,"sb\d.png",0,0 M,4,209232,209832,251,393,257,514 F,0,209232,209832,1,0 S,0,209232,209832,0.7,0.28 P,0,209232,209832,A
Sprite,Foreground,Centre,"sb\d.png",0,0 M,4,209232,209832,251,393,317,353 F,0,209232,209832,1,0 S,0,209232,209832,0.7,0.28 P,0,209232,209832,A
Sprite,Foreground,Centre,"sb\d.png",0,0 M,4,209307,209907,277,372,373,399 F,0,209307,209907,1,0 S,0,209307,209907,0.7,0.28 P,0,209307,209907,A
Sprite,Foreground,Centre,"sb\d.png",0,0 M,4,209307,209907,277,372,246,460 F,0,209307,209907,1,0 S,0,209307,209907,0.7,0.28 P,0,209307,209907,A
Sprite,Foreground,Centre,"sb\d.png",0,0 M,4,209307,209907,277,372,402,488 F,0,209307,209907,1,0 S,0,209307,209907,0.7,0.28 P,0,209307,209907,A
Sprite,Foreground,Centre,"sb\d.png",0,0 M,4,209307,209907,277,372,217,374 F,0,209307,209907,1,0 S,0,209307,209907,0.7,0.28 P,0,209307,209907,A
Sprite,Foreground,Centre,"sb\d.png",0,0 M,4,209307,209907,277,372,134,352 F,0,209307,209907,1,0 S,0,209307,209907,0.7,0.28 P,0,209307,209907,A
Sprite,Foreground,Centre,"sb\d.png",0,0 M,4,209307,209907,277,372,333,516 F,0,209307,209907,1,0 S,0,209307,209907,0.7,0.28 P,0,209307,209907,A
Sprite,Foreground,Centre,"sb\d.png",0,0 M,4,209307,209907,277,372,314,294 F,0,209307,209907,1,0 S,0,209307,209907,0.7,0.28 P,0,209307,209907,A
Sprite,Foreground,Centre,"sb\d.png",0,0 M,4,209382,209982,301,348,361,383 F,0,209382,209982,1,0 S,0,209382,209982,0.7,0.28 P,0,209382,209982,A
Sprite,Foreground,Centre,"sb\d.png",0,0 M,4,209382,209982,301,348,440,423 F,0,209382,209982,1,0 S,0,209382,209982,0.7,0.28 P,0,209382,209982,A
Sprite,Foreground,Centre,"sb\d.png",0,0 M,4,209382,209982,301,348,351,259 F,0,209382,209982,1,0 S,0,209382,209982,0.7,0.28 P,0,209382,209982,A
Sprite,Foreground,Centre,"sb\d.png",0,0 M,4,209382,209982,301,348,395,427 F,0,209382,209982,1,0 S,0,209382,209982,0.7,0.28 P,0,209382,209982,A
Sprite,Foreground,Centre,"sb\d.png",0,0 M,4,209382,209982,301,348,185,206 F,0,209382,209982,1,0 S,0,209382,209982,0.7,0.28 P,0,209382,209982,A
Sprite,Foreground,Centre,"sb\d.png",0,0 M,4,209382,209982,301,348,383,384 F,0,209382,209982,1,0 S,0,209382,209982,0.7,0.28 P,0,209382,209982,A
Sprite,Foreground,Centre,"sb\d.png",0,0 M,4,209382,209982,301,348,203,391 F,0,209382,209982,1,0 S,0,209382,209982,0.7,0.28 P,0,209382,209982,A
Sprite,Foreground,Centre,"sb\d.png",0,0 M,4,209457,210057,322,321,210,421 F,0,209457,210057,1,0 S,0,209457,210057,0.7,0.28 P,0,209457,210057,A
Sprite,Foreground,Centre,"sb\d.png",0,0 M,4,209457,210057,322,321,253,193 F,0,209457,210057,1,0 S,0,209457,210057,0.7,0.28 P,0,209457,210057,A
Sprite,Foreground,Centre,"sb\d.png",0,0 M,4,209457,210057,322,321,257,420 F,0,209457,210057,1,0 S,0,209457,210057,0.7,0.28 P,0,209457,210057,A
Sprite,Foreground,Centre,"sb\d.png",0,0 M,4,209457,210057,322,321,341,350 F,0,209457,210057,1,0 S,0,209457,210057,0.7,0.28 P,0,209457,210057,A
Sprite,Foreground,Centre,"sb\d.png",0,0 M,4,209457,210057,322,321,226,452 F,0,209457,210057,1,0 S,0,209457,210057,0.7,0.28 P,0,209457,210057,A
Sprite,Foreground,Centre,"sb\d.png",0,0 M,4,209457,210057,322,321,226,368 F,0,209457,210057,1,0 S,0,209457,210057,0.7,0.28 P,0,209457,210057,A
Sprite,Foreground,Centre,"sb\d.png",0,0 M,4,209457,210057,322,321,464,325 F,0,209457,210057,1,0 S,0,209457,210057,0.7,0.28 P,0,209457,210057,A
Sprite,Foreground,Centre,"sb\d.png",0,0 M,4,209532,210132,337,291,367,261 F,0,209532,210132,1,0 S,0,209532,210132,0.7,0.28 P,0,209532,210132,A
Sprite,Foreground,Centre,"sb\d.png",0,0 M,4,209532,210132,337,291,389,307 F,0,209532,210132,1,0 S,0,209532,210132,0.7,0.28 P,0,209532,210132,A
Sprite,Foreground,Centre,"sb\d.png",0,0 M,4,209532,210132,337,291,469,405 F,0,209532,210132,1,0 S,0,209532,210132,0.7,0.28 P,0,209532,210132,A
Sprite,Foreground,Centre,"sb\d.png",0,0 M,4,209532,210132,337,291,201,422 F,0,209532,210132,1,0 S,0,209532,210132,0.7,0.28 P,0,209532,210132,A
Sprite,Foreground,Centre,"sb\d.png",0,0 M,4,209532,210132,337,291,357,371 F,0,209532,210132,1,0 S,0,209532,210132,0.7,0.28 P,0,209532,210132,A
Sprite,Foreground,Centre,"sb\d.png",0,0 M,4,209532,210132,337,291,258,296 F,0,209532,210132,1,0 S,0,209532,210132,0.7,0.28 P,0,209532,210132,A
Sprite,Foreground,Centre,"sb\d.png",0,0 M,4,209532,210132,337,291,352,158 F,0,209532,210132,1,0 S,0,209532,210132,0.7,0.28 P,0,209532,210132,A
Sprite,Foreground,Centre,"sb\d.png",0,0 M,4,209682,210282,129,336,121,296 F,0,209682,210282,1,0 S,0,209682,210282,0.7,0.28 P,0,209682,210282,A
Sprite,Foreground,Centre,"sb\d.png",0,0 M,4,209682,210282,129,336,-15,275 F,0,209682,210282,1,0 S,0,209682,210282,0.7,0.28 P,0,209682,210282,A
Sprite,Foreground,Centre,"sb\d.png",0,0 M,4,209682,210282,129,336,193,382 F,0,209682,210282,1,0 S,0,209682,210282,0.7,0.28 P,0,209682,210282,A
Sprite,Foreground,Centre,"sb\d.png",0,0 M,4,209682,210282,129,336,92,243 F,0,209682,210282,1,0 S,0,209682,210282,0.7,0.28 P,0,209682,210282,A
Sprite,Foreground,Centre,"sb\d.png",0,0 M,4,209682,210282,129,336,28,369 F,0,209682,210282,1,0 S,0,209682,210282,0.7,0.28 P,0,209682,210282,A
Sprite,Foreground,Centre,"sb\d.png",0,0 M,4,209682,210282,129,336,188,424 F,0,209682,210282,1,0 S,0,209682,210282,0.7,0.28 P,0,209682,210282,A
Sprite,Foreground,Centre,"sb\d.png",0,0 M,4,209682,210282,129,336,182,217 F,0,209682,210282,1,0 S,0,209682,210282,0.7,0.28 P,0,209682,210282,A
Sprite,Foreground,Centre,"sb\d.png",0,0 M,4,209982,210582,207,221,187,78 F,0,209982,210582,1,0 S,0,209982,210582,0.7,0.28 P,0,209982,210582,A
Sprite,Foreground,Centre,"sb\d.png",0,0 M,4,209982,210582,207,221,228,74 F,0,209982,210582,1,0 S,0,209982,210582,0.7,0.28 P,0,209982,210582,A
Sprite,Foreground,Centre,"sb\d.png",0,0 M,4,209982,210582,207,221,126,161 F,0,209982,210582,1,0 S,0,209982,210582,0.7,0.28 P,0,209982,210582,A
Sprite,Foreground,Centre,"sb\d.png",0,0 M,4,209982,210582,207,221,105,285 F,0,209982,210582,1,0 S,0,209982,210582,0.7,0.28 P,0,209982,210582,A
Sprite,Foreground,Centre,"sb\d.png",0,0 M,4,209982,210582,207,221,163,136 F,0,209982,210582,1,0 S,0,209982,210582,0.7,0.28 P,0,209982,210582,A
Sprite,Foreground,Centre,"sb\d.png",0,0 M,4,209982,210582,207,221,260,159 F,0,209982,210582,1,0 S,0,209982,210582,0.7,0.28 P,0,209982,210582,A
Sprite,Foreground,Centre,"sb\d.png",0,0 M,4,209982,210582,207,221,236,128 F,0,209982,210582,1,0 S,0,209982,210582,0.7,0.28 P,0,209982,210582,A
Sprite,Foreground,Centre,"sb\d.png",0,0 M,4,210282,210882,322,321,251,321 F,0,210282,210882,1,0 S,0,210282,210882,0.7,0.28 P,0,210282,210882,A
Sprite,Foreground,Centre,"sb\d.png",0,0 M,4,210282,210882,322,321,423,400 F,0,210282,210882,1,0 S,0,210282,210882,0.7,0.28 P,0,210282,210882,A
Sprite,Foreground,Centre,"sb\d.png",0,0 M,4,210282,210882,322,321,255,322 F,0,210282,210882,1,0 S,0,210282,210882,0.7,0.28 P,0,210282,210882,A
Sprite,Foreground,Centre,"sb\d.png",0,0 M,4,210282,210882,322,321,208,414 F,0,210282,210882,1,0 S,0,210282,210882,0.7,0.28 P,0,210282,210882,A
Sprite,Foreground,Centre,"sb\d.png",0,0 M,4,210282,210882,322,321,446,436 F,0,210282,210882,1,0 S,0,210282,210882,0.7,0.28 P,0,210282,210882,A
Sprite,Foreground,Centre,"sb\d.png",0,0 M,4,210282,210882,322,321,454,266 F,0,210282,210882,1,0 S,0,210282,210882,0.7,0.28 P,0,210282,210882,A
Sprite,Foreground,Centre,"sb\d.png",0,0 M,4,210282,210882,322,321,212,294 F,0,210282,210882,1,0 S,0,210282,210882,0.7,0.28 P,0,210282,210882,A
Sprite,Foreground,Centre,"sb\d.png",0,0 M,4,210432,211032,294,115,215,-17 F,0,210432,211032,1,0 S,0,210432,211032,0.7,0.28 P,0,210432,211032,A
Sprite,Foreground,Centre,"sb\d.png",0,0 M,4,210432,211032,294,115,400,9 F,0,210432,211032,1,0 S,0,210432,211032,0.7,0.28 P,0,210432,211032,A
Sprite,Foreground,Centre,"sb\d.png",0,0 M,4,210432,211032,294,115,204,247 F,0,210432,211032,1,0 S,0,210432,211032,0.7,0.28 P,0,210432,211032,A
Sprite,Foreground,Centre,"sb\d.png",0,0 M,4,210432,211032,294,115,294,128 F,0,210432,211032,1,0 S,0,210432,211032,0.7,0.28 P,0,210432,211032,A
Sprite,Foreground,Centre,"sb\d.png",0,0 M,4,210432,211032,294,115,203,33 F,0,210432,211032,1,0 S,0,210432,211032,0.7,0.28 P,0,210432,211032,A
Sprite,Foreground,Centre,"sb\d.png",0,0 M,4,210432,211032,294,115,230,40 F,0,210432,211032,1,0 S,0,210432,211032,0.7,0.28 P,0,210432,211032,A
Sprite,Foreground,Centre,"sb\d.png",0,0 M,4,210432,211032,294,115,412,193 F,0,210432,211032,1,0 S,0,210432,211032,0.7,0.28 P,0,210432,211032,A
Sprite,Foreground,Centre,"sb\d.png",0,0 M,4,210507,211107,294,115,148,205 F,0,210507,211107,1,0 S,0,210507,211107,0.7,0.28 P,0,210507,211107,A
Sprite,Foreground,Centre,"sb\d.png",0,0 M,4,210507,211107,294,115,329,91 F,0,210507,211107,1,0 S,0,210507,211107,0.7,0.28 P,0,210507,211107,A
Sprite,Foreground,Centre,"sb\d.png",0,0 M,4,210507,211107,294,115,161,20 F,0,210507,211107,1,0 S,0,210507,211107,0.7,0.28 P,0,210507,211107,A
Sprite,Foreground,Centre,"sb\d.png",0,0 M,4,210507,211107,294,115,421,163 F,0,210507,211107,1,0 S,0,210507,211107,0.7,0.28 P,0,210507,211107,A
Sprite,Foreground,Centre,"sb\d.png",0,0 M,4,210507,211107,294,115,376,245 F,0,210507,211107,1,0 S,0,210507,211107,0.7,0.28 P,0,210507,211107,A
Sprite,Foreground,Centre,"sb\d.png",0,0 M,4,210507,211107,294,115,299,16 F,0,210507,211107,1,0 S,0,210507,211107,0.7,0.28 P,0,210507,211107,A
Sprite,Foreground,Centre,"sb\d.png",0,0 M,4,210507,211107,294,115,439,152 F,0,210507,211107,1,0 S,0,210507,211107,0.7,0.28 P,0,210507,211107,A
Sprite,Foreground,Centre,"sb\d.png",0,0 M,4,210582,211182,294,115,176,170 F,0,210582,211182,1,0 S,0,210582,211182,0.7,0.28 P,0,210582,211182,A
Sprite,Foreground,Centre,"sb\d.png",0,0 M,4,210582,211182,294,115,164,238 F,0,210582,211182,1,0 S,0,210582,211182,0.7,0.28 P,0,210582,211182,A
Sprite,Foreground,Centre,"sb\d.png",0,0 M,4,210582,211182,294,115,193,190 F,0,210582,211182,1,0 S,0,210582,211182,0.7,0.28 P,0,210582,211182,A
Sprite,Foreground,Centre,"sb\d.png",0,0 M,4,210582,211182,294,115,286,52 F,0,210582,211182,1,0 S,0,210582,211182,0.7,0.28 P,0,210582,211182,A
Sprite,Foreground,Centre,"sb\d.png",0,0 M,4,210582,211182,294,115,252,123 F,0,210582,211182,1,0 S,0,210582,211182,0.7,0.28 P,0,210582,211182,A
Sprite,Foreground,Centre,"sb\d.png",0,0 M,4,210582,211182,294,115,171,162 F,0,210582,211182,1,0 S,0,210582,211182,0.7,0.28 P,0,210582,211182,A
Sprite,Foreground,Centre,"sb\d.png",0,0 M,4,210582,211182,294,115,350,181 F,0,210582,211182,1,0 S,0,210582,211182,0.7,0.28 P,0,210582,211182,A
Sprite,Foreground,Centre,"sb\d.png",0,0 M,4,210882,211482,415,199,356,231 F,0,210882,211482,1,0 S,0,210882,211482,0.7,0.28 P,0,210882,211482,A
Sprite,Foreground,Centre,"sb\d.png",0,0 M,4,210882,211482,415,199,408,56 F,0,210882,211482,1,0 S,0,210882,211482,0.7,0.28 P,0,210882,211482,A
Sprite,Foreground,Centre,"sb\d.png",0,0 M,4,210882,211482,415,199,447,157 F,0,210882,211482,1,0 S,0,210882,211482,0.7,0.28 P,0,210882,211482,A
Sprite,Foreground,Centre,"sb\d.png",0,0 M,4,210882,211482,415,199,504,82 F,0,210882,211482,1,0 S,0,210882,211482,0.7,0.28 P,0,210882,211482,A
Sprite,Foreground,Centre,"sb\d.png",0,0 M,4,210882,211482,415,199,344,205 F,0,210882,211482,1,0 S,0,210882,211482,0.7,0.28 P,0,210882,211482,A
Sprite,Foreground,Centre,"sb\d.png",0,0 M,4,210882,211482,415,199,343,333 F,0,210882,211482,1,0 S,0,210882,211482,0.7,0.28 P,0,210882,211482,A
Sprite,Foreground,Centre,"sb\d.png",0,0 M,4,210882,211482,415,199,410,222 F,0,210882,211482,1,0 S,0,210882,211482,0.7,0.28 P,0,210882,211482,A
Sprite,Foreground,Centre,"sb\d.png",0,0 M,4,211182,211782,506,368,441,494 F,0,211182,211782,1,0 S,0,211182,211782,0.7,0.28 P,0,211182,211782,A
Sprite,Foreground,Centre,"sb\d.png",0,0 M,4,211182,211782,506,368,544,226 F,0,211182,211782,1,0 S,0,211182,211782,0.7,0.28 P,0,211182,211782,A
Sprite,Foreground,Centre,"sb\d.png",0,0 M,4,211182,211782,506,368,643,481 F,0,211182,211782,1,0 S,0,211182,211782,0.7,0.28 P,0,211182,211782,A
Sprite,Foreground,Centre,"sb\d.png",0,0 M,4,211182,211782,506,368,486,372 F,0,211182,211782,1,0 S,0,211182,211782,0.7,0.28 P,0,211182,211782,A
Sprite,Foreground,Centre,"sb\d.png",0,0 M,4,211182,211782,506,368,403,330 F,0,211182,211782,1,0 S,0,211182,211782,0.7,0.28 P,0,211182,211782,A
Sprite,Foreground,Centre,"sb\d.png",0,0 M,4,211182,211782,506,368,382,261 F,0,211182,211782,1,0 S,0,211182,211782,0.7,0.28 P,0,211182,211782,A
Sprite,Foreground,Centre,"sb\d.png",0,0 M,4,211182,211782,506,368,441,434 F,0,211182,211782,1,0 S,0,211182,211782,0.7,0.28 P,0,211182,211782,A
Sprite,Foreground,Centre,"sb\d.png",0,0 M,4,211482,212082,351,435,333,311 F,0,211482,212082,1,0 S,0,211482,212082,0.7,0.28 P,0,211482,212082,A
Sprite,Foreground,Centre,"sb\d.png",0,0 M,4,211482,212082,351,435,300,405 F,0,211482,212082,1,0 S,0,211482,212082,0.7,0.28 P,0,211482,212082,A
Sprite,Foreground,Centre,"sb\d.png",0,0 M,4,211482,212082,351,435,350,346 F,0,211482,212082,1,0 S,0,211482,212082,0.7,0.28 P,0,211482,212082,A
Sprite,Foreground,Centre,"sb\d.png",0,0 M,4,211482,212082,351,435,307,335 F,0,211482,212082,1,0 S,0,211482,212082,0.7,0.28 P,0,211482,212082,A
Sprite,Foreground,Centre,"sb\d.png",0,0 M,4,211482,212082,351,435,337,433 F,0,211482,212082,1,0 S,0,211482,212082,0.7,0.28 P,0,211482,212082,A
Sprite,Foreground,Centre,"sb\d.png",0,0 M,4,211482,212082,351,435,369,471 F,0,211482,212082,1,0 S,0,211482,212082,0.7,0.28 P,0,211482,212082,A
Sprite,Foreground,Centre,"sb\d.png",0,0 M,4,211482,212082,351,435,448,584 F,0,211482,212082,1,0 S,0,211482,212082,0.7,0.28 P,0,211482,212082,A
Sprite,Foreground,Centre,"sb\d.png",0,0 M,4,211632,212232,182,342,157,356 F,0,211632,212232,1,0 S,0,211632,212232,0.7,0.28 P,0,211632,212232,A
Sprite,Foreground,Centre,"sb\d.png",0,0 M,4,211632,212232,182,342,227,256 F,0,211632,212232,1,0 S,0,211632,212232,0.7,0.28 P,0,211632,212232,A
Sprite,Foreground,Centre,"sb\d.png",0,0 M,4,211632,212232,182,342,111,461 F,0,211632,212232,1,0 S,0,211632,212232,0.7,0.28 P,0,211632,212232,A
Sprite,Foreground,Centre,"sb\d.png",0,0 M,4,211632,212232,182,342,34,323 F,0,211632,212232,1,0 S,0,211632,212232,0.7,0.28 P,0,211632,212232,A
Sprite,Foreground,Centre,"sb\d.png",0,0 M,4,211632,212232,182,342,302,210 F,0,211632,212232,1,0 S,0,211632,212232,0.7,0.28 P,0,211632,212232,A
Sprite,Foreground,Centre,"sb\d.png",0,0 M,4,211632,212232,182,342,241,434 F,0,211632,212232,1,0 S,0,211632,212232,0.7,0.28 P,0,211632,212232,A
Sprite,Foreground,Centre,"sb\d.png",0,0 M,4,211632,212232,182,342,118,429 F,0,211632,212232,1,0 S,0,211632,212232,0.7,0.28 P,0,211632,212232,A
Sprite,Foreground,Centre,"sb\d.png",0,0 M,4,211707,212307,215,326,199,206 F,0,211707,212307,1,0 S,0,211707,212307,0.7,0.28 P,0,211707,212307,A
Sprite,Foreground,Centre,"sb\d.png",0,0 M,4,211707,212307,215,326,345,315 F,0,211707,212307,1,0 S,0,211707,212307,0.7,0.28 P,0,211707,212307,A
Sprite,Foreground,Centre,"sb\d.png",0,0 M,4,211707,212307,215,326,87,199 F,0,211707,212307,1,0 S,0,211707,212307,0.7,0.28 P,0,211707,212307,A
Sprite,Foreground,Centre,"sb\d.png",0,0 M,4,211707,212307,215,326,266,229 F,0,211707,212307,1,0 S,0,211707,212307,0.7,0.28 P,0,211707,212307,A
Sprite,Foreground,Centre,"sb\d.png",0,0 M,4,211707,212307,215,326,121,433 F,0,211707,212307,1,0 S,0,211707,212307,0.7,0.28 P,0,211707,212307,A
Sprite,Foreground,Centre,"sb\d.png",0,0 M,4,211707,212307,215,326,200,260 F,0,211707,212307,1,0 S,0,211707,212307,0.7,0.28 P,0,211707,212307,A
Sprite,Foreground,Centre,"sb\d.png",0,0 M,4,211707,212307,215,326,131,211 F,0,211707,212307,1,0 S,0,211707,212307,0.7,0.28 P,0,211707,212307,A
Sprite,Foreground,Centre,"sb\d.png",0,0 M,4,211782,212382,251,315,240,205 F,0,211782,212382,1,0 S,0,211782,212382,0.7,0.28 P,0,211782,212382,A
Sprite,Foreground,Centre,"sb\d.png",0,0 M,4,211782,212382,251,315,240,265 F,0,211782,212382,1,0 S,0,211782,212382,0.7,0.28 P,0,211782,212382,A
Sprite,Foreground,Centre,"sb\d.png",0,0 M,4,211782,212382,251,315,117,295 F,0,211782,212382,1,0 S,0,211782,212382,0.7,0.28 P,0,211782,212382,A
Sprite,Foreground,Centre,"sb\d.png",0,0 M,4,211782,212382,251,315,129,348 F,0,211782,212382,1,0 S,0,211782,212382,0.7,0.28 P,0,211782,212382,A
Sprite,Foreground,Centre,"sb\d.png",0,0 M,4,211782,212382,251,315,318,427 F,0,211782,212382,1,0 S,0,211782,212382,0.7,0.28 P,0,211782,212382,A
Sprite,Foreground,Centre,"sb\d.png",0,0 M,4,211782,212382,251,315,365,281 F,0,211782,212382,1,0 S,0,211782,212382,0.7,0.28 P,0,211782,212382,A
Sprite,Foreground,Centre,"sb\d.png",0,0 M,4,211782,212382,251,315,315,165 F,0,211782,212382,1,0 S,0,211782,212382,0.7,0.28 P,0,211782,212382,A
Sprite,Foreground,Centre,"sb\d.png",0,0 M,4,211857,212457,288,310,194,240 F,0,211857,212457,1,0 S,0,211857,212457,0.7,0.28 P,0,211857,212457,A
Sprite,Foreground,Centre,"sb\d.png",0,0 M,4,211857,212457,288,310,348,367 F,0,211857,212457,1,0 S,0,211857,212457,0.7,0.28 P,0,211857,212457,A
Sprite,Foreground,Centre,"sb\d.png",0,0 M,4,211857,212457,288,310,412,329 F,0,211857,212457,1,0 S,0,211857,212457,0.7,0.28 P,0,211857,212457,A
Sprite,Foreground,Centre,"sb\d.png",0,0 M,4,211857,212457,288,310,353,266 F,0,211857,212457,1,0 S,0,211857,212457,0.7,0.28 P,0,211857,212457,A
Sprite,Foreground,Centre,"sb\d.png",0,0 M,4,211857,212457,288,310,305,189 F,0,211857,212457,1,0 S,0,211857,212457,0.7,0.28 P,0,211857,212457,A
Sprite,Foreground,Centre,"sb\d.png",0,0 M,4,211857,212457,288,310,302,384 F,0,211857,212457,1,0 S,0,211857,212457,0.7,0.28 P,0,211857,212457,A
Sprite,Foreground,Centre,"sb\d.png",0,0 M,4,211857,212457,288,310,235,232 F,0,211857,212457,1,0 S,0,211857,212457,0.7,0.28 P,0,211857,212457,A
Sprite,Foreground,Centre,"sb\d.png",0,0 M,4,211932,212532,325,310,282,397 F,0,211932,212532,1,0 S,0,211932,212532,0.7,0.28 P,0,211932,212532,A
Sprite,Foreground,Centre,"sb\d.png",0,0 M,4,211932,212532,325,310,404,455 F,0,211932,212532,1,0 S,0,211932,212532,0.7,0.28 P,0,211932,212532,A
Sprite,Foreground,Centre,"sb\d.png",0,0 M,4,211932,212532,325,310,378,427 F,0,211932,212532,1,0 S,0,211932,212532,0.7,0.28 P,0,211932,212532,A
Sprite,Foreground,Centre,"sb\d.png",0,0 M,4,211932,212532,325,310,466,389 F,0,211932,212532,1,0 S,0,211932,212532,0.7,0.28 P,0,211932,212532,A
Sprite,Foreground,Centre,"sb\d.png",0,0 M,4,211932,212532,325,310,353,268 F,0,211932,212532,1,0 S,0,211932,212532,0.7,0.28 P,0,211932,212532,A
Sprite,Foreground,Centre,"sb\d.png",0,0 M,4,211932,212532,325,310,401,415 F,0,211932,212532,1,0 S,0,211932,212532,0.7,0.28 P,0,211932,212532,A
Sprite,Foreground,Centre,"sb\d.png",0,0 M,4,211932,212532,325,310,383,411 F,0,211932,212532,1,0 S,0,211932,212532,0.7,0.28 P,0,211932,212532,A
Sprite,Foreground,Centre,"sb\d.png",0,0 M,4,212082,212682,506,368,469,236 F,0,212082,212682,1,0 S,0,212082,212682,0.7,0.28 P,0,212082,212682,A
Sprite,Foreground,Centre,"sb\d.png",0,0 M,4,212082,212682,506,368,530,424 F,0,212082,212682,1,0 S,0,212082,212682,0.7,0.28 P,0,212082,212682,A
Sprite,Foreground,Centre,"sb\d.png",0,0 M,4,212082,212682,506,368,465,418 F,0,212082,212682,1,0 S,0,212082,212682,0.7,0.28 P,0,212082,212682,A
Sprite,Foreground,Centre,"sb\d.png",0,0 M,4,212082,212682,506,368,652,493 F,0,212082,212682,1,0 S,0,212082,212682,0.7,0.28 P,0,212082,212682,A
Sprite,Foreground,Centre,"sb\d.png",0,0 M,4,212082,212682,506,368,402,445 F,0,212082,212682,1,0 S,0,212082,212682,0.7,0.28 P,0,212082,212682,A
Sprite,Foreground,Centre,"sb\d.png",0,0 M,4,212082,212682,506,368,465,415 F,0,212082,212682,1,0 S,0,212082,212682,0.7,0.28 P,0,212082,212682,A
Sprite,Foreground,Centre,"sb\d.png",0,0 M,4,212082,212682,506,368,475,251 F,0,212082,212682,1,0 S,0,212082,212682,0.7,0.28 P,0,212082,212682,A
Sprite,Foreground,Centre,"sb\d.png",0,0 M,4,212382,212982,573,83,596,42 F,0,212382,212982,1,0 S,0,212382,212982,0.7,0.28 P,0,212382,212982,A
Sprite,Foreground,Centre,"sb\d.png",0,0 M,4,212382,212982,573,83,659,24 F,0,212382,212982,1,0 S,0,212382,212982,0.7,0.28 P,0,212382,212982,A
Sprite,Foreground,Centre,"sb\d.png",0,0 M,4,212382,212982,573,83,456,189 F,0,212382,212982,1,0 S,0,212382,212982,0.7,0.28 P,0,212382,212982,A
Sprite,Foreground,Centre,"sb\d.png",0,0 M,4,212382,212982,573,83,498,212 F,0,212382,212982,1,0 S,0,212382,212982,0.7,0.28 P,0,212382,212982,A
Sprite,Foreground,Centre,"sb\d.png",0,0 M,4,212382,212982,573,83,456,201 F,0,212382,212982,1,0 S,0,212382,212982,0.7,0.28 P,0,212382,212982,A
Sprite,Foreground,Centre,"sb\d.png",0,0 M,4,212382,212982,573,83,636,179 F,0,212382,212982,1,0 S,0,212382,212982,0.7,0.28 P,0,212382,212982,A
Sprite,Foreground,Centre,"sb\d.png",0,0 M,4,212382,212982,573,83,431,60 F,0,212382,212982,1,0 S,0,212382,212982,0.7,0.28 P,0,212382,212982,A
Sprite,Foreground,Centre,"sb\d.png",0,0 M,4,212682,213282,365,314,417,266 F,0,212682,213282,1,0 S,0,212682,213282,0.7,0.28 P,0,212682,213282,A
Sprite,Foreground,Centre,"sb\d.png",0,0 M,4,212682,213282,365,314,496,183 F,0,212682,213282,1,0 S,0,212682,213282,0.7,0.28 P,0,212682,213282,A
Sprite,Foreground,Centre,"sb\d.png",0,0 M,4,212682,213282,365,314,475,428 F,0,212682,213282,1,0 S,0,212682,213282,0.7,0.28 P,0,212682,213282,A
Sprite,Foreground,Centre,"sb\d.png",0,0 M,4,212682,213282,365,314,508,313 F,0,212682,213282,1,0 S,0,212682,213282,0.7,0.28 P,0,212682,213282,A
Sprite,Foreground,Centre,"sb\d.png",0,0 M,4,212682,213282,365,314,370,421 F,0,212682,213282,1,0 S,0,212682,213282,0.7,0.28 P,0,212682,213282,A
Sprite,Foreground,Centre,"sb\d.png",0,0 M,4,212682,213282,365,314,330,360 F,0,212682,213282,1,0 S,0,212682,213282,0.7,0.28 P,0,212682,213282,A
Sprite,Foreground,Centre,"sb\d.png",0,0 M,4,212682,213282,365,314,290,295 F,0,212682,213282,1,0 S,0,212682,213282,0.7,0.28 P,0,212682,213282,A
Sprite,Foreground,Centre,"sb\d.png",0,0 M,4,212832,213432,399,64,440,-85 F,0,212832,213432,1,0 S,0,212832,213432,0.7,0.28 P,0,212832,213432,A
Sprite,Foreground,Centre,"sb\d.png",0,0 M,4,212832,213432,399,64,434,-81 F,0,212832,213432,1,0 S,0,212832,213432,0.7,0.28 P,0,212832,213432,A
Sprite,Foreground,Centre,"sb\d.png",0,0 M,4,212832,213432,399,64,396,172 F,0,212832,213432,1,0 S,0,212832,213432,0.7,0.28 P,0,212832,213432,A
Sprite,Foreground,Centre,"sb\d.png",0,0 M,4,212832,213432,399,64,304,-18 F,0,212832,213432,1,0 S,0,212832,213432,0.7,0.28 P,0,212832,213432,A
Sprite,Foreground,Centre,"sb\d.png",0,0 M,4,212832,213432,399,64,421,49 F,0,212832,213432,1,0 S,0,212832,213432,0.7,0.28 P,0,212832,213432,A
Sprite,Foreground,Centre,"sb\d.png",0,0 M,4,212832,213432,399,64,471,166 F,0,212832,213432,1,0 S,0,212832,213432,0.7,0.28 P,0,212832,213432,A
Sprite,Foreground,Centre,"sb\d.png",0,0 M,4,212832,213432,399,64,424,47 F,0,212832,213432,1,0 S,0,212832,213432,0.7,0.28 P,0,212832,213432,A
Sprite,Foreground,Centre,"sb\d.png",0,0 M,4,212907,213507,411,87,545,143 F,0,212907,213507,1,0 S,0,212907,213507,0.7,0.28 P,0,212907,213507,A
Sprite,Foreground,Centre,"sb\d.png",0,0 M,4,212907,213507,411,87,554,99 F,0,212907,213507,1,0 S,0,212907,213507,0.7,0.28 P,0,212907,213507,A
Sprite,Foreground,Centre,"sb\d.png",0,0 M,4,212907,213507,411,87,452,105 F,0,212907,213507,1,0 S,0,212907,213507,0.7,0.28 P,0,212907,213507,A
Sprite,Foreground,Centre,"sb\d.png",0,0 M,4,212907,213507,411,87,334,181 F,0,212907,213507,1,0 S,0,212907,213507,0.7,0.28 P,0,212907,213507,A
Sprite,Foreground,Centre,"sb\d.png",0,0 M,4,212907,213507,411,87,507,27 F,0,212907,213507,1,0 S,0,212907,213507,0.7,0.28 P,0,212907,213507,A
Sprite,Foreground,Centre,"sb\d.png",0,0 M,4,212907,213507,411,87,497,92 F,0,212907,213507,1,0 S,0,212907,213507,0.7,0.28 P,0,212907,213507,A
Sprite,Foreground,Centre,"sb\d.png",0,0 M,4,212907,213507,411,87,300,-39 F,0,212907,213507,1,0 S,0,212907,213507,0.7,0.28 P,0,212907,213507,A
Sprite,Foreground,Centre,"sb\d.png",0,0 M,4,212982,213582,420,112,524,240 F,0,212982,213582,1,0 S,0,212982,213582,0.7,0.28 P,0,212982,213582,A
Sprite,Foreground,Centre,"sb\d.png",0,0 M,4,212982,213582,420,112,545,98 F,0,212982,213582,1,0 S,0,212982,213582,0.7,0.28 P,0,212982,213582,A
Sprite,Foreground,Centre,"sb\d.png",0,0 M,4,212982,213582,420,112,450,205 F,0,212982,213582,1,0 S,0,212982,213582,0.7,0.28 P,0,212982,213582,A
Sprite,Foreground,Centre,"sb\d.png",0,0 M,4,212982,213582,420,112,358,-7 F,0,212982,213582,1,0 S,0,212982,213582,0.7,0.28 P,0,212982,213582,A
Sprite,Foreground,Centre,"sb\d.png",0,0 M,4,212982,213582,420,112,353,169 F,0,212982,213582,1,0 S,0,212982,213582,0.7,0.28 P,0,212982,213582,A
Sprite,Foreground,Centre,"sb\d.png",0,0 M,4,212982,213582,420,112,369,12 F,0,212982,213582,1,0 S,0,212982,213582,0.7,0.28 P,0,212982,213582,A
Sprite,Foreground,Centre,"sb\d.png",0,0 M,4,212982,213582,420,112,341,95 F,0,212982,213582,1,0 S,0,212982,213582,0.7,0.28 P,0,212982,213582,A
Sprite,Foreground,Centre,"sb\d.png",0,0 M,4,213057,213657,424,138,504,133 F,0,213057,213657,1,0 S,0,213057,213657,0.7,0.28 P,0,213057,213657,A
Sprite,Foreground,Centre,"sb\d.png",0,0 M,4,213057,213657,424,138,370,-4 F,0,213057,213657,1,0 S,0,213057,213657,0.7,0.28 P,0,213057,213657,A
Sprite,Foreground,Centre,"sb\d.png",0,0 M,4,213057,213657,424,138,362,147 F,0,213057,213657,1,0 S,0,213057,213657,0.7,0.28 P,0,213057,213657,A
Sprite,Foreground,Centre,"sb\d.png",0,0 M,4,213057,213657,424,138,438,237 F,0,213057,213657,1,0 S,0,213057,213657,0.7,0.28 P,0,213057,213657,A
Sprite,Foreground,Centre,"sb\d.png",0,0 M,4,213057,213657,424,138,538,241 F,0,213057,213657,1,0 S,0,213057,213657,0.7,0.28 P,0,213057,213657,A
Sprite,Foreground,Centre,"sb\d.png",0,0 M,4,213057,213657,424,138,278,195 F,0,213057,213657,1,0 S,0,213057,213657,0.7,0.28 P,0,213057,213657,A
Sprite,Foreground,Centre,"sb\d.png",0,0 M,4,213057,213657,424,138,332,234 F,0,213057,213657,1,0 S,0,213057,213657,0.7,0.28 P,0,213057,213657,A
Sprite,Foreground,Centre,"sb\d.png",0,0 M,4,213132,213732,423,165,327,110 F,0,213132,213732,1,0 S,0,213132,213732,0.7,0.28 P,0,213132,213732,A
Sprite,Foreground,Centre,"sb\d.png",0,0 M,4,213132,213732,423,165,342,306 F,0,213132,213732,1,0 S,0,213132,213732,0.7,0.28 P,0,213132,213732,A
Sprite,Foreground,Centre,"sb\d.png",0,0 M,4,213132,213732,423,165,491,46 F,0,213132,213732,1,0 S,0,213132,213732,0.7,0.28 P,0,213132,213732,A
Sprite,Foreground,Centre,"sb\d.png",0,0 M,4,213132,213732,423,165,386,208 F,0,213132,213732,1,0 S,0,213132,213732,0.7,0.28 P,0,213132,213732,A
Sprite,Foreground,Centre,"sb\d.png",0,0 M,4,213132,213732,423,165,432,100 F,0,213132,213732,1,0 S,0,213132,213732,0.7,0.28 P,0,213132,213732,A
Sprite,Foreground,Centre,"sb\d.png",0,0 M,4,213132,213732,423,165,344,246 F,0,213132,213732,1,0 S,0,213132,213732,0.7,0.28 P,0,213132,213732,A
Sprite,Foreground,Centre,"sb\d.png",0,0 M,4,213132,213732,423,165,318,268 F,0,213132,213732,1,0 S,0,213132,213732,0.7,0.28 P,0,213132,213732,A
Sprite,Foreground,Centre,"sb\d.png",0,0 M,4,213282,213882,261,319,233,255 F,0,213282,213882,1,0 S,0,213282,213882,0.7,0.28 P,0,213282,213882,A
Sprite,Foreground,Centre,"sb\d.png",0,0 M,4,213282,213882,261,319,173,310 F,0,213282,213882,1,0 S,0,213282,213882,0.7,0.28 P,0,213282,213882,A
Sprite,Foreground,Centre,"sb\d.png",0,0 M,4,213282,213882,261,319,207,408 F,0,213282,213882,1,0 S,0,213282,213882,0.7,0.28 P,0,213282,213882,A
Sprite,Foreground,Centre,"sb\d.png",0,0 M,4,213282,213882,261,319,125,269 F,0,213282,213882,1,0 S,0,213282,213882,0.7,0.28 P,0,213282,213882,A
Sprite,Foreground,Centre,"sb\d.png",0,0 M,4,213282,213882,261,319,404,397 F,0,213282,213882,1,0 S,0,213282,213882,0.7,0.28 P,0,213282,213882,A
Sprite,Foreground,Centre,"sb\d.png",0,0 M,4,213282,213882,261,319,177,349 F,0,213282,213882,1,0 S,0,213282,213882,0.7,0.28 P,0,213282,213882,A
Sprite,Foreground,Centre,"sb\d.png",0,0 M,4,213282,213882,261,319,270,174 F,0,213282,213882,1,0 S,0,213282,213882,0.7,0.28 P,0,213282,213882,A
Sprite,Foreground,Centre,"sb\d.png",0,0 M,4,213582,214182,447,317,311,188 F,0,213582,214182,1,0 S,0,213582,214182,0.7,0.28 P,0,213582,214182,A
Sprite,Foreground,Centre,"sb\d.png",0,0 M,4,213582,214182,447,317,428,440 F,0,213582,214182,1,0 S,0,213582,214182,0.7,0.28 P,0,213582,214182,A
Sprite,Foreground,Centre,"sb\d.png",0,0 M,4,213582,214182,447,317,482,308 F,0,213582,214182,1,0 S,0,213582,214182,0.7,0.28 P,0,213582,214182,A
Sprite,Foreground,Centre,"sb\d.png",0,0 M,4,213582,214182,447,317,574,454 F,0,213582,214182,1,0 S,0,213582,214182,0.7,0.28 P,0,213582,214182,A
Sprite,Foreground,Centre,"sb\d.png",0,0 M,4,213582,214182,447,317,435,274 F,0,213582,214182,1,0 S,0,213582,214182,0.7,0.28 P,0,213582,214182,A
Sprite,Foreground,Centre,"sb\d.png",0,0 M,4,213582,214182,447,317,428,207 F,0,213582,214182,1,0 S,0,213582,214182,0.7,0.28 P,0,213582,214182,A
Sprite,Foreground,Centre,"sb\d.png",0,0 M,4,213582,214182,447,317,317,203 F,0,213582,214182,1,0 S,0,213582,214182,0.7,0.28 P,0,213582,214182,A
Sprite,Foreground,Centre,"sb\d.png",0,0 M,4,213657,214257,447,317,583,177 F,0,213657,214257,1,0 S,0,213657,214257,0.7,0.28 P,0,213657,214257,A
Sprite,Foreground,Centre,"sb\d.png",0,0 M,4,213657,214257,447,317,533,323 F,0,213657,214257,1,0 S,0,213657,214257,0.7,0.28 P,0,213657,214257,A
Sprite,Foreground,Centre,"sb\d.png",0,0 M,4,213657,214257,447,317,410,378 F,0,213657,214257,1,0 S,0,213657,214257,0.7,0.28 P,0,213657,214257,A
Sprite,Foreground,Centre,"sb\d.png",0,0 M,4,213657,214257,447,317,423,345 F,0,213657,214257,1,0 S,0,213657,214257,0.7,0.28 P,0,213657,214257,A
Sprite,Foreground,Centre,"sb\d.png",0,0 M,4,213657,214257,447,317,488,330 F,0,213657,214257,1,0 S,0,213657,214257,0.7,0.28 P,0,213657,214257,A
Sprite,Foreground,Centre,"sb\d.png",0,0 M,4,213657,214257,447,317,407,285 F,0,213657,214257,1,0 S,0,213657,214257,0.7,0.28 P,0,213657,214257,A
Sprite,Foreground,Centre,"sb\d.png",0,0 M,4,213657,214257,447,317,528,420 F,0,213657,214257,1,0 S,0,213657,214257,0.7,0.28 P,0,213657,214257,A
Sprite,Foreground,Centre,"sb\d.png",0,0 M,4,213732,214332,447,317,398,307 F,0,213732,214332,1,0 S,0,213732,214332,0.7,0.28 P,0,213732,214332,A
Sprite,Foreground,Centre,"sb\d.png",0,0 M,4,213732,214332,447,317,522,205 F,0,213732,214332,1,0 S,0,213732,214332,0.7,0.28 P,0,213732,214332,A
Sprite,Foreground,Centre,"sb\d.png",0,0 M,4,213732,214332,447,317,468,274 F,0,213732,214332,1,0 S,0,213732,214332,0.7,0.28 P,0,213732,214332,A
Sprite,Foreground,Centre,"sb\d.png",0,0 M,4,213732,214332,447,317,475,304 F,0,213732,214332,1,0 S,0,213732,214332,0.7,0.28 P,0,213732,214332,A
Sprite,Foreground,Centre,"sb\d.png",0,0 M,4,213732,214332,447,317,551,264 F,0,213732,214332,1,0 S,0,213732,214332,0.7,0.28 P,0,213732,214332,A
Sprite,Foreground,Centre,"sb\d.png",0,0 M,4,213732,214332,447,317,342,371 F,0,213732,214332,1,0 S,0,213732,214332,0.7,0.28 P,0,213732,214332,A
Sprite,Foreground,Centre,"sb\d.png",0,0 M,4,213732,214332,447,317,572,302 F,0,213732,214332,1,0 S,0,213732,214332,0.7,0.28 P,0,213732,214332,A
Sprite,Foreground,Centre,"sb\d.png",0,0 M,4,213882,214482,193,376,291,480 F,0,213882,214482,1,0 S,0,213882,214482,0.7,0.28 P,0,213882,214482,A
Sprite,Foreground,Centre,"sb\d.png",0,0 M,4,213882,214482,193,376,52,282 F,0,213882,214482,1,0 S,0,213882,214482,0.7,0.28 P,0,213882,214482,A
Sprite,Foreground,Centre,"sb\d.png",0,0 M,4,213882,214482,193,376,262,503 F,0,213882,214482,1,0 S,0,213882,214482,0.7,0.28 P,0,213882,214482,A
Sprite,Foreground,Centre,"sb\d.png",0,0 M,4,213882,214482,193,376,157,508 F,0,213882,214482,1,0 S,0,213882,214482,0.7,0.28 P,0,213882,214482,A
Sprite,Foreground,Centre,"sb\d.png",0,0 M,4,213882,214482,193,376,334,435 F,0,213882,214482,1,0 S,0,213882,214482,0.7,0.28 P,0,213882,214482,A
Sprite,Foreground,Centre,"sb\d.png",0,0 M,4,213882,214482,193,376,109,474 F,0,213882,214482,1,0 S,0,213882,214482,0.7,0.28 P,0,213882,214482,A
Sprite,Foreground,Centre,"sb\d.png",0,0 M,4,213882,214482,193,376,222,362 F,0,213882,214482,1,0 S,0,213882,214482,0.7,0.28 P,0,213882,214482,A
Sprite,Foreground,Centre,"sb\d.png",0,0 M,4,214032,214632,332,136,312,253 F,0,214032,214632,1,0 S,0,214032,214632,0.7,0.28 P,0,214032,214632,A
Sprite,Foreground,Centre,"sb\d.png",0,0 M,4,214032,214632,332,136,345,53 F,0,214032,214632,1,0 S,0,214032,214632,0.7,0.28 P,0,214032,214632,A
Sprite,Foreground,Centre,"sb\d.png",0,0 M,4,214032,214632,332,136,392,9 F,0,214032,214632,1,0 S,0,214032,214632,0.7,0.28 P,0,214032,214632,A
Sprite,Foreground,Centre,"sb\d.png",0,0 M,4,214032,214632,332,136,368,283 F,0,214032,214632,1,0 S,0,214032,214632,0.7,0.28 P,0,214032,214632,A
Sprite,Foreground,Centre,"sb\d.png",0,0 M,4,214032,214632,332,136,364,79 F,0,214032,214632,1,0 S,0,214032,214632,0.7,0.28 P,0,214032,214632,A
Sprite,Foreground,Centre,"sb\d.png",0,0 M,4,214032,214632,332,136,350,198 F,0,214032,214632,1,0 S,0,214032,214632,0.7,0.28 P,0,214032,214632,A
Sprite,Foreground,Centre,"sb\d.png",0,0 M,4,214032,214632,332,136,340,134 F,0,214032,214632,1,0 S,0,214032,214632,0.7,0.28 P,0,214032,214632,A
Sprite,Foreground,Centre,"sb\d.png",0,0 M,4,214107,214707,329,162,235,151 F,0,214107,214707,1,0 S,0,214107,214707,0.7,0.28 P,0,214107,214707,A
Sprite,Foreground,Centre,"sb\d.png",0,0 M,4,214107,214707,329,162,289,221 F,0,214107,214707,1,0 S,0,214107,214707,0.7,0.28 P,0,214107,214707,A
Sprite,Foreground,Centre,"sb\d.png",0,0 M,4,214107,214707,329,162,414,302 F,0,214107,214707,1,0 S,0,214107,214707,0.7,0.28 P,0,214107,214707,A
Sprite,Foreground,Centre,"sb\d.png",0,0 M,4,214107,214707,329,162,408,248 F,0,214107,214707,1,0 S,0,214107,214707,0.7,0.28 P,0,214107,214707,A
Sprite,Foreground,Centre,"sb\d.png",0,0 M,4,214107,214707,329,162,332,66 F,0,214107,214707,1,0 S,0,214107,214707,0.7,0.28 P,0,214107,214707,A
Sprite,Foreground,Centre,"sb\d.png",0,0 M,4,214107,214707,329,162,378,265 F,0,214107,214707,1,0 S,0,214107,214707,0.7,0.28 P,0,214107,214707,A
Sprite,Foreground,Centre,"sb\d.png",0,0 M,4,214107,214707,329,162,318,130 F,0,214107,214707,1,0 S,0,214107,214707,0.7,0.28 P,0,214107,214707,A
Sprite,Foreground,Centre,"sb\d.png",0,0 M,4,214182,214782,327,188,325,53 F,0,214182,214782,1,0 S,0,214182,214782,0.7,0.28 P,0,214182,214782,A
Sprite,Foreground,Centre,"sb\d.png",0,0 M,4,214182,214782,327,188,449,261 F,0,214182,214782,1,0 S,0,214182,214782,0.7,0.28 P,0,214182,214782,A
Sprite,Foreground,Centre,"sb\d.png",0,0 M,4,214182,214782,327,188,405,80 F,0,214182,214782,1,0 S,0,214182,214782,0.7,0.28 P,0,214182,214782,A
Sprite,Foreground,Centre,"sb\d.png",0,0 M,4,214182,214782,327,188,183,324 F,0,214182,214782,1,0 S,0,214182,214782,0.7,0.28 P,0,214182,214782,A
Sprite,Foreground,Centre,"sb\d.png",0,0 M,4,214182,214782,327,188,410,316 F,0,214182,214782,1,0 S,0,214182,214782,0.7,0.28 P,0,214182,214782,A
Sprite,Foreground,Centre,"sb\d.png",0,0 M,4,214182,214782,327,188,470,290 F,0,214182,214782,1,0 S,0,214182,214782,0.7,0.28 P,0,214182,214782,A
Sprite,Foreground,Centre,"sb\d.png",0,0 M,4,214182,214782,327,188,426,288 F,0,214182,214782,1,0 S,0,214182,214782,0.7,0.28 P,0,214182,214782,A
Sprite,Foreground,Centre,"sb\d.png",0,0 M,4,214257,214857,325,215,246,281 F,0,214257,214857,1,0 S,0,214257,214857,0.7,0.28 P,0,214257,214857,A
Sprite,Foreground,Centre,"sb\d.png",0,0 M,4,214257,214857,325,215,362,71 F,0,214257,214857,1,0 S,0,214257,214857,0.7,0.28 P,0,214257,214857,A
Sprite,Foreground,Centre,"sb\d.png",0,0 M,4,214257,214857,325,215,294,330 F,0,214257,214857,1,0 S,0,214257,214857,0.7,0.28 P,0,214257,214857,A
Sprite,Foreground,Centre,"sb\d.png",0,0 M,4,214257,214857,325,215,401,217 F,0,214257,214857,1,0 S,0,214257,214857,0.7,0.28 P,0,214257,214857,A
Sprite,Foreground,Centre,"sb\d.png",0,0 M,4,214257,214857,325,215,274,221 F,0,214257,214857,1,0 S,0,214257,214857,0.7,0.28 P,0,214257,214857,A
Sprite,Foreground,Centre,"sb\d.png",0,0 M,4,214257,214857,325,215,188,253 F,0,214257,214857,1,0 S,0,214257,214857,0.7,0.28 P,0,214257,214857,A
Sprite,Foreground,Centre,"sb\d.png",0,0 M,4,214257,214857,325,215,381,259 F,0,214257,214857,1,0 S,0,214257,214857,0.7,0.28 P,0,214257,214857,A
Sprite,Foreground,Centre,"sb\d.png",0,0 M,4,214332,214932,323,241,286,200 F,0,214332,214932,1,0 S,0,214332,214932,0.7,0.28 P,0,214332,214932,A
Sprite,Foreground,Centre,"sb\d.png",0,0 M,4,214332,214932,323,241,340,347 F,0,214332,214932,1,0 S,0,214332,214932,0.7,0.28 P,0,214332,214932,A
Sprite,Foreground,Centre,"sb\d.png",0,0 M,4,214332,214932,323,241,356,158 F,0,214332,214932,1,0 S,0,214332,214932,0.7,0.28 P,0,214332,214932,A
Sprite,Foreground,Centre,"sb\d.png",0,0 M,4,214332,214932,323,241,322,258 F,0,214332,214932,1,0 S,0,214332,214932,0.7,0.28 P,0,214332,214932,A
Sprite,Foreground,Centre,"sb\d.png",0,0 M,4,214332,214932,323,241,293,336 F,0,214332,214932,1,0 S,0,214332,214932,0.7,0.28 P,0,214332,214932,A
Sprite,Foreground,Centre,"sb\d.png",0,0 M,4,214332,214932,323,241,457,207 F,0,214332,214932,1,0 S,0,214332,214932,0.7,0.28 P,0,214332,214932,A
Sprite,Foreground,Centre,"sb\d.png",0,0 M,4,214332,214932,323,241,314,160 F,0,214332,214932,1,0 S,0,214332,214932,0.7,0.28 P,0,214332,214932,A
Sprite,Foreground,Centre,"sb\d.png",0,0 M,4,214482,215082,116,428,171,410 F,0,214482,215082,1,0 S,0,214482,215082,0.7,0.28 P,0,214482,215082,A
Sprite,Foreground,Centre,"sb\d.png",0,0 M,4,214482,215082,116,428,181,560 F,0,214482,215082,1,0 S,0,214482,215082,0.7,0.28 P,0,214482,215082,A
Sprite,Foreground,Centre,"sb\d.png",0,0 M,4,214482,215082,116,428,7,557 F,0,214482,215082,1,0 S,0,214482,215082,0.7,0.28 P,0,214482,215082,A
Sprite,Foreground,Centre,"sb\d.png",0,0 M,4,214482,215082,116,428,130,515 F,0,214482,215082,1,0 S,0,214482,215082,0.7,0.28 P,0,214482,215082,A
Sprite,Foreground,Centre,"sb\d.png",0,0 M,4,214482,215082,116,428,132,470 F,0,214482,215082,1,0 S,0,214482,215082,0.7,0.28 P,0,214482,215082,A
Sprite,Foreground,Centre,"sb\d.png",0,0 M,4,214482,215082,116,428,100,452 F,0,214482,215082,1,0 S,0,214482,215082,0.7,0.28 P,0,214482,215082,A
Sprite,Foreground,Centre,"sb\d.png",0,0 M,4,214482,215082,116,428,158,574 F,0,214482,215082,1,0 S,0,214482,215082,0.7,0.28 P,0,214482,215082,A
Sprite,Foreground,Centre,"sb\d.png",0,0 M,4,214782,215382,96,121,162,87 F,0,214782,215382,1,0 S,0,214782,215382,0.7,0.28 P,0,214782,215382,A
Sprite,Foreground,Centre,"sb\d.png",0,0 M,4,214782,215382,96,121,156,10 F,0,214782,215382,1,0 S,0,214782,215382,0.7,0.28 P,0,214782,215382,A
Sprite,Foreground,Centre,"sb\d.png",0,0 M,4,214782,215382,96,121,81,83 F,0,214782,215382,1,0 S,0,214782,215382,0.7,0.28 P,0,214782,215382,A
Sprite,Foreground,Centre,"sb\d.png",0,0 M,4,214782,215382,96,121,118,95 F,0,214782,215382,1,0 S,0,214782,215382,0.7,0.28 P,0,214782,215382,A
Sprite,Foreground,Centre,"sb\d.png",0,0 M,4,214782,215382,96,121,56,8 F,0,214782,215382,1,0 S,0,214782,215382,0.7,0.28 P,0,214782,215382,A
Sprite,Foreground,Centre,"sb\d.png",0,0 M,4,214782,215382,96,121,15,152 F,0,214782,215382,1,0 S,0,214782,215382,0.7,0.28 P,0,214782,215382,A
Sprite,Foreground,Centre,"sb\d.png",0,0 M,4,214782,215382,96,121,47,175 F,0,214782,215382,1,0 S,0,214782,215382,0.7,0.28 P,0,214782,215382,A
Sprite,Foreground,Centre,"sb\d.png",0,0 M,4,214857,215457,96,121,41,212 F,0,214857,215457,1,0 S,0,214857,215457,0.7,0.28 P,0,214857,215457,A
Sprite,Foreground,Centre,"sb\d.png",0,0 M,4,214857,215457,96,121,-32,-27 F,0,214857,215457,1,0 S,0,214857,215457,0.7,0.28 P,0,214857,215457,A
Sprite,Foreground,Centre,"sb\d.png",0,0 M,4,214857,215457,96,121,69,127 F,0,214857,215457,1,0 S,0,214857,215457,0.7,0.28 P,0,214857,215457,A
Sprite,Foreground,Centre,"sb\d.png",0,0 M,4,214857,215457,96,121,192,237 F,0,214857,215457,1,0 S,0,214857,215457,0.7,0.28 P,0,214857,215457,A
Sprite,Foreground,Centre,"sb\d.png",0,0 M,4,214857,215457,96,121,186,1 F,0,214857,215457,1,0 S,0,214857,215457,0.7,0.28 P,0,214857,215457,A
Sprite,Foreground,Centre,"sb\d.png",0,0 M,4,214857,215457,96,121,92,198 F,0,214857,215457,1,0 S,0,214857,215457,0.7,0.28 P,0,214857,215457,A
Sprite,Foreground,Centre,"sb\d.png",0,0 M,4,214857,215457,96,121,-25,147 F,0,214857,215457,1,0 S,0,214857,215457,0.7,0.28 P,0,214857,215457,A
Sprite,Foreground,Centre,"sb\d.png",0,0 M,4,214932,215532,96,121,188,246 F,0,214932,215532,1,0 S,0,214932,215532,0.7,0.28 P,0,214932,215532,A
Sprite,Foreground,Centre,"sb\d.png",0,0 M,4,214932,215532,96,121,67,-20 F,0,214932,215532,1,0 S,0,214932,215532,0.7,0.28 P,0,214932,215532,A
Sprite,Foreground,Centre,"sb\d.png",0,0 M,4,214932,215532,96,121,120,123 F,0,214932,215532,1,0 S,0,214932,215532,0.7,0.28 P,0,214932,215532,A
Sprite,Foreground,Centre,"sb\d.png",0,0 M,4,214932,215532,96,121,197,-25 F,0,214932,215532,1,0 S,0,214932,215532,0.7,0.28 P,0,214932,215532,A
Sprite,Foreground,Centre,"sb\d.png",0,0 M,4,214932,215532,96,121,-19,216 F,0,214932,215532,1,0 S,0,214932,215532,0.7,0.28 P,0,214932,215532,A
Sprite,Foreground,Centre,"sb\d.png",0,0 M,4,214932,215532,96,121,227,-1 F,0,214932,215532,1,0 S,0,214932,215532,0.7,0.28 P,0,214932,215532,A
Sprite,Foreground,Centre,"sb\d.png",0,0 M,4,214932,215532,96,121,143,52 F,0,214932,215532,1,0 S,0,214932,215532,0.7,0.28 P,0,214932,215532,A
Sprite,Foreground,Centre,"sb\d.png",0,0 M,4,215082,215682,220,382,91,410 F,0,215082,215682,1,0 S,0,215082,215682,0.7,0.28 P,0,215082,215682,A
Sprite,Foreground,Centre,"sb\d.png",0,0 M,4,215082,215682,220,382,283,392 F,0,215082,215682,1,0 S,0,215082,215682,0.7,0.28 P,0,215082,215682,A
Sprite,Foreground,Centre,"sb\d.png",0,0 M,4,215082,215682,220,382,248,492 F,0,215082,215682,1,0 S,0,215082,215682,0.7,0.28 P,0,215082,215682,A
Sprite,Foreground,Centre,"sb\d.png",0,0 M,4,215082,215682,220,382,211,456 F,0,215082,215682,1,0 S,0,215082,215682,0.7,0.28 P,0,215082,215682,A
Sprite,Foreground,Centre,"sb\d.png",0,0 M,4,215082,215682,220,382,240,363 F,0,215082,215682,1,0 S,0,215082,215682,0.7,0.28 P,0,215082,215682,A
Sprite,Foreground,Centre,"sb\d.png",0,0 M,4,215082,215682,220,382,120,268 F,0,215082,215682,1,0 S,0,215082,215682,0.7,0.28 P,0,215082,215682,A
Sprite,Foreground,Centre,"sb\d.png",0,0 M,4,215082,215682,220,382,120,481 F,0,215082,215682,1,0 S,0,215082,215682,0.7,0.28 P,0,215082,215682,A
Sprite,Foreground,Centre,"sb\d.png",0,0 M,4,215382,215982,308,101,333,130 F,0,215382,215982,1,0 S,0,215382,215982,0.7,0.28 P,0,215382,215982,A
Sprite,Foreground,Centre,"sb\d.png",0,0 M,4,215382,215982,308,101,350,158 F,0,215382,215982,1,0 S,0,215382,215982,0.7,0.28 P,0,215382,215982,A
Sprite,Foreground,Centre,"sb\d.png",0,0 M,4,215382,215982,308,101,241,247 F,0,215382,215982,1,0 S,0,215382,215982,0.7,0.28 P,0,215382,215982,A
Sprite,Foreground,Centre,"sb\d.png",0,0 M,4,215382,215982,308,101,339,86 F,0,215382,215982,1,0 S,0,215382,215982,0.7,0.28 P,0,215382,215982,A
Sprite,Foreground,Centre,"sb\d.png",0,0 M,4,215382,215982,308,101,374,10 F,0,215382,215982,1,0 S,0,215382,215982,0.7,0.28 P,0,215382,215982,A
Sprite,Foreground,Centre,"sb\d.png",0,0 M,4,215382,215982,308,101,165,199 F,0,215382,215982,1,0 S,0,215382,215982,0.7,0.28 P,0,215382,215982,A
Sprite,Foreground,Centre,"sb\d.png",0,0 M,4,215382,215982,308,101,410,42 F,0,215382,215982,1,0 S,0,215382,215982,0.7,0.28 P,0,215382,215982,A
Sprite,Foreground,Centre,"sb\d.png",0,0 M,4,215532,216132,73,223,129,150 F,0,215532,216132,1,0 S,0,215532,216132,0.7,0.28 P,0,215532,216132,A
Sprite,Foreground,Centre,"sb\d.png",0,0 M,4,215532,216132,73,223,-56,167 F,0,215532,216132,1,0 S,0,215532,216132,0.7,0.28 P,0,215532,216132,A
Sprite,Foreground,Centre,"sb\d.png",0,0 M,4,215532,216132,73,223,181,237 F,0,215532,216132,1,0 S,0,215532,216132,0.7,0.28 P,0,215532,216132,A
Sprite,Foreground,Centre,"sb\d.png",0,0 M,4,215532,216132,73,223,168,135 F,0,215532,216132,1,0 S,0,215532,216132,0.7,0.28 P,0,215532,216132,A
Sprite,Foreground,Centre,"sb\d.png",0,0 M,4,215532,216132,73,223,39,359 F,0,215532,216132,1,0 S,0,215532,216132,0.7,0.28 P,0,215532,216132,A
Sprite,Foreground,Centre,"sb\d.png",0,0 M,4,215532,216132,73,223,-28,141 F,0,215532,216132,1,0 S,0,215532,216132,0.7,0.28 P,0,215532,216132,A
Sprite,Foreground,Centre,"sb\d.png",0,0 M,4,215532,216132,73,223,-43,91 F,0,215532,216132,1,0 S,0,215532,216132,0.7,0.28 P,0,215532,216132,A
Sprite,Foreground,Centre,"sb\d.png",0,0 M,4,215682,216282,341,327,296,466 F,0,215682,216282,1,0 S,0,215682,216282,0.7,0.28 P,0,215682,216282,A
Sprite,Foreground,Centre,"sb\d.png",0,0 M,4,215682,216282,341,327,449,314 F,0,215682,216282,1,0 S,0,215682,216282,0.7,0.28 P,0,215682,216282,A
Sprite,Foreground,Centre,"sb\d.png",0,0 M,4,215682,216282,341,327,293,179 F,0,215682,216282,1,0 S,0,215682,216282,0.7,0.28 P,0,215682,216282,A
Sprite,Foreground,Centre,"sb\d.png",0,0 M,4,215682,216282,341,327,319,332 F,0,215682,216282,1,0 S,0,215682,216282,0.7,0.28 P,0,215682,216282,A
Sprite,Foreground,Centre,"sb\d.png",0,0 M,4,215682,216282,341,327,243,250 F,0,215682,216282,1,0 S,0,215682,216282,0.7,0.28 P,0,215682,216282,A
Sprite,Foreground,Centre,"sb\d.png",0,0 M,4,215682,216282,341,327,436,378 F,0,215682,216282,1,0 S,0,215682,216282,0.7,0.28 P,0,215682,216282,A
Sprite,Foreground,Centre,"sb\d.png",0,0 M,4,215682,216282,341,327,391,362 F,0,215682,216282,1,0 S,0,215682,216282,0.7,0.28 P,0,215682,216282,A
Sprite,Foreground,Centre,"sb\d.png",0,0 M,4,215982,216582,174,82,285,85 F,0,215982,216582,1,0 S,0,215982,216582,0.7,0.28 P,0,215982,216582,A
Sprite,Foreground,Centre,"sb\d.png",0,0 M,4,215982,216582,174,82,176,161 F,0,215982,216582,1,0 S,0,215982,216582,0.7,0.28 P,0,215982,216582,A
Sprite,Foreground,Centre,"sb\d.png",0,0 M,4,215982,216582,174,82,31,-18 F,0,215982,216582,1,0 S,0,215982,216582,0.7,0.28 P,0,215982,216582,A
Sprite,Foreground,Centre,"sb\d.png",0,0 M,4,215982,216582,174,82,42,25 F,0,215982,216582,1,0 S,0,215982,216582,0.7,0.28 P,0,215982,216582,A
Sprite,Foreground,Centre,"sb\d.png",0,0 M,4,215982,216582,174,82,134,187 F,0,215982,216582,1,0 S,0,215982,216582,0.7,0.28 P,0,215982,216582,A
Sprite,Foreground,Centre,"sb\d.png",0,0 M,4,215982,216582,174,82,101,117 F,0,215982,216582,1,0 S,0,215982,216582,0.7,0.28 P,0,215982,216582,A
Sprite,Foreground,Centre,"sb\d.png",0,0 M,4,215982,216582,174,82,27,45 F,0,215982,216582,1,0 S,0,215982,216582,0.7,0.28 P,0,215982,216582,A
Sprite,Foreground,Centre,"sb\d.png",0,0 M,4,216282,216882,147,414,60,470 F,0,216282,216882,1,0 S,0,216282,216882,0.7,0.28 P,0,216282,216882,A
Sprite,Foreground,Centre,"sb\d.png",0,0 M,4,216282,216882,147,414,155,278 F,0,216282,216882,1,0 S,0,216282,216882,0.7,0.28 P,0,216282,216882,A
Sprite,Foreground,Centre,"sb\d.png",0,0 M,4,216282,216882,147,414,258,427 F,0,216282,216882,1,0 S,0,216282,216882,0.7,0.28 P,0,216282,216882,A
Sprite,Foreground,Centre,"sb\d.png",0,0 M,4,216282,216882,147,414,27,490 F,0,216282,216882,1,0 S,0,216282,216882,0.7,0.28 P,0,216282,216882,A
Sprite,Foreground,Centre,"sb\d.png",0,0 M,4,216282,216882,147,414,98,433 F,0,216282,216882,1,0 S,0,216282,216882,0.7,0.28 P,0,216282,216882,A
Sprite,Foreground,Centre,"sb\d.png",0,0 M,4,216282,216882,147,414,142,514 F,0,216282,216882,1,0 S,0,216282,216882,0.7,0.28 P,0,216282,216882,A
Sprite,Foreground,Centre,"sb\d.png",0,0 M,4,216282,216882,147,414,259,314 F,0,216282,216882,1,0 S,0,216282,216882,0.7,0.28 P,0,216282,216882,A
Sprite,Foreground,Centre,"sb\d.png",0,0 M,4,216432,217032,339,247,213,345 F,0,216432,217032,1,0 S,0,216432,217032,0.7,0.28 P,0,216432,217032,A
Sprite,Foreground,Centre,"sb\d.png",0,0 M,4,216432,217032,339,247,338,154 F,0,216432,217032,1,0 S,0,216432,217032,0.7,0.28 P,0,216432,217032,A
Sprite,Foreground,Centre,"sb\d.png",0,0 M,4,216432,217032,339,247,453,156 F,0,216432,217032,1,0 S,0,216432,217032,0.7,0.28 P,0,216432,217032,A
Sprite,Foreground,Centre,"sb\d.png",0,0 M,4,216432,217032,339,247,289,360 F,0,216432,217032,1,0 S,0,216432,217032,0.7,0.28 P,0,216432,217032,A
Sprite,Foreground,Centre,"sb\d.png",0,0 M,4,216432,217032,339,247,322,216 F,0,216432,217032,1,0 S,0,216432,217032,0.7,0.28 P,0,216432,217032,A
Sprite,Foreground,Centre,"sb\d.png",0,0 M,4,216432,217032,339,247,249,381 F,0,216432,217032,1,0 S,0,216432,217032,0.7,0.28 P,0,216432,217032,A
Sprite,Foreground,Centre,"sb\d.png",0,0 M,4,216432,217032,339,247,488,109 F,0,216432,217032,1,0 S,0,216432,217032,0.7,0.28 P,0,216432,217032,A
Sprite,Foreground,Centre,"sb\d.png",0,0 M,4,216507,217107,307,247,336,100 F,0,216507,217107,1,0 S,0,216507,217107,0.7,0.28 P,0,216507,217107,A
Sprite,Foreground,Centre,"sb\d.png",0,0 M,4,216507,217107,307,247,216,313 F,0,216507,217107,1,0 S,0,216507,217107,0.7,0.28 P,0,216507,217107,A
Sprite,Foreground,Centre,"sb\d.png",0,0 M,4,216507,217107,307,247,456,112 F,0,216507,217107,1,0 S,0,216507,217107,0.7,0.28 P,0,216507,217107,A
Sprite,Foreground,Centre,"sb\d.png",0,0 M,4,216507,217107,307,247,249,243 F,0,216507,217107,1,0 S,0,216507,217107,0.7,0.28 P,0,216507,217107,A
Sprite,Foreground,Centre,"sb\d.png",0,0 M,4,216507,217107,307,247,371,327 F,0,216507,217107,1,0 S,0,216507,217107,0.7,0.28 P,0,216507,217107,A
Sprite,Foreground,Centre,"sb\d.png",0,0 M,4,216507,217107,307,247,396,133 F,0,216507,217107,1,0 S,0,216507,217107,0.7,0.28 P,0,216507,217107,A
Sprite,Foreground,Centre,"sb\d.png",0,0 M,4,216507,217107,307,247,312,131 F,0,216507,217107,1,0 S,0,216507,217107,0.7,0.28 P,0,216507,217107,A
Sprite,Foreground,Centre,"sb\d.png",0,0 M,4,216582,217182,276,250,178,383 F,0,216582,217182,1,0 S,0,216582,217182,0.7,0.28 P,0,216582,217182,A
Sprite,Foreground,Centre,"sb\d.png",0,0 M,4,216582,217182,276,250,209,157 F,0,216582,217182,1,0 S,0,216582,217182,0.7,0.28 P,0,216582,217182,A
Sprite,Foreground,Centre,"sb\d.png",0,0 M,4,216582,217182,276,250,213,367 F,0,216582,217182,1,0 S,0,216582,217182,0.7,0.28 P,0,216582,217182,A
Sprite,Foreground,Centre,"sb\d.png",0,0 M,4,216582,217182,276,250,194,261 F,0,216582,217182,1,0 S,0,216582,217182,0.7,0.28 P,0,216582,217182,A
Sprite,Foreground,Centre,"sb\d.png",0,0 M,4,216582,217182,276,250,231,119 F,0,216582,217182,1,0 S,0,216582,217182,0.7,0.28 P,0,216582,217182,A
Sprite,Foreground,Centre,"sb\d.png",0,0 M,4,216582,217182,276,250,347,343 F,0,216582,217182,1,0 S,0,216582,217182,0.7,0.28 P,0,216582,217182,A
Sprite,Foreground,Centre,"sb\d.png",0,0 M,4,216582,217182,276,250,139,199 F,0,216582,217182,1,0 S,0,216582,217182,0.7,0.28 P,0,216582,217182,A
Sprite,Foreground,Centre,"sb\d.png",0,0 M,4,216657,217257,245,259,167,147 F,0,216657,217257,1,0 S,0,216657,217257,0.7,0.28 P,0,216657,217257,A
Sprite,Foreground,Centre,"sb\d.png",0,0 M,4,216657,217257,245,259,348,385 F,0,216657,217257,1,0 S,0,216657,217257,0.7,0.28 P,0,216657,217257,A
Sprite,Foreground,Centre,"sb\d.png",0,0 M,4,216657,217257,245,259,258,127 F,0,216657,217257,1,0 S,0,216657,217257,0.7,0.28 P,0,216657,217257,A
Sprite,Foreground,Centre,"sb\d.png",0,0 M,4,216657,217257,245,259,142,206 F,0,216657,217257,1,0 S,0,216657,217257,0.7,0.28 P,0,216657,217257,A
Sprite,Foreground,Centre,"sb\d.png",0,0 M,4,216657,217257,245,259,204,337 F,0,216657,217257,1,0 S,0,216657,217257,0.7,0.28 P,0,216657,217257,A
Sprite,Foreground,Centre,"sb\d.png",0,0 M,4,216657,217257,245,259,345,356 F,0,216657,217257,1,0 S,0,216657,217257,0.7,0.28 P,0,216657,217257,A
Sprite,Foreground,Centre,"sb\d.png",0,0 M,4,216657,217257,245,259,353,287 F,0,216657,217257,1,0 S,0,216657,217257,0.7,0.28 P,0,216657,217257,A
Sprite,Foreground,Centre,"sb\d.png",0,0 M,4,216732,217332,215,269,99,338 F,0,216732,217332,1,0 S,0,216732,217332,0.7,0.28 P,0,216732,217332,A
Sprite,Foreground,Centre,"sb\d.png",0,0 M,4,216732,217332,215,269,183,346 F,0,216732,217332,1,0 S,0,216732,217332,0.7,0.28 P,0,216732,217332,A
Sprite,Foreground,Centre,"sb\d.png",0,0 M,4,216732,217332,215,269,269,184 F,0,216732,217332,1,0 S,0,216732,217332,0.7,0.28 P,0,216732,217332,A
Sprite,Foreground,Centre,"sb\d.png",0,0 M,4,216732,217332,215,269,275,269 F,0,216732,217332,1,0 S,0,216732,217332,0.7,0.28 P,0,216732,217332,A
Sprite,Foreground,Centre,"sb\d.png",0,0 M,4,216732,217332,215,269,101,121 F,0,216732,217332,1,0 S,0,216732,217332,0.7,0.28 P,0,216732,217332,A
Sprite,Foreground,Centre,"sb\d.png",0,0 M,4,216732,217332,215,269,262,151 F,0,216732,217332,1,0 S,0,216732,217332,0.7,0.28 P,0,216732,217332,A
Sprite,Foreground,Centre,"sb\d.png",0,0 M,4,216732,217332,215,269,308,137 F,0,216732,217332,1,0 S,0,216732,217332,0.7,0.28 P,0,216732,217332,A
Sprite,Foreground,Centre,"sb\d.png",0,0 M,4,216882,217482,405,412,452,302 F,0,216882,217482,1,0 S,0,216882,217482,0.7,0.28 P,0,216882,217482,A
Sprite,Foreground,Centre,"sb\d.png",0,0 M,4,216882,217482,405,412,550,317 F,0,216882,217482,1,0 S,0,216882,217482,0.7,0.28 P,0,216882,217482,A
Sprite,Foreground,Centre,"sb\d.png",0,0 M,4,216882,217482,405,412,257,554 F,0,216882,217482,1,0 S,0,216882,217482,0.7,0.28 P,0,216882,217482,A
Sprite,Foreground,Centre,"sb\d.png",0,0 M,4,216882,217482,405,412,329,437 F,0,216882,217482,1,0 S,0,216882,217482,0.7,0.28 P,0,216882,217482,A
Sprite,Foreground,Centre,"sb\d.png",0,0 M,4,216882,217482,405,412,531,525 F,0,216882,217482,1,0 S,0,216882,217482,0.7,0.28 P,0,216882,217482,A
Sprite,Foreground,Centre,"sb\d.png",0,0 M,4,216882,217482,405,412,428,398 F,0,216882,217482,1,0 S,0,216882,217482,0.7,0.28 P,0,216882,217482,A
Sprite,Foreground,Centre,"sb\d.png",0,0 M,4,216882,217482,405,412,542,516 F,0,216882,217482,1,0 S,0,216882,217482,0.7,0.28 P,0,216882,217482,A
Sprite,Foreground,Centre,"sb\d.png",0,0 M,4,217182,217782,381,78,404,82 F,0,217182,217782,1,0 S,0,217182,217782,0.7,0.28 P,0,217182,217782,A
Sprite,Foreground,Centre,"sb\d.png",0,0 M,4,217182,217782,381,78,337,67 F,0,217182,217782,1,0 S,0,217182,217782,0.7,0.28 P,0,217182,217782,A
Sprite,Foreground,Centre,"sb\d.png",0,0 M,4,217182,217782,381,78,240,117 F,0,217182,217782,1,0 S,0,217182,217782,0.7,0.28 P,0,217182,217782,A
Sprite,Foreground,Centre,"sb\d.png",0,0 M,4,217182,217782,381,78,358,114 F,0,217182,217782,1,0 S,0,217182,217782,0.7,0.28 P,0,217182,217782,A
Sprite,Foreground,Centre,"sb\d.png",0,0 M,4,217182,217782,381,78,432,221 F,0,217182,217782,1,0 S,0,217182,217782,0.7,0.28 P,0,217182,217782,A
Sprite,Foreground,Centre,"sb\d.png",0,0 M,4,217182,217782,381,78,270,175 F,0,217182,217782,1,0 S,0,217182,217782,0.7,0.28 P,0,217182,217782,A
Sprite,Foreground,Centre,"sb\d.png",0,0 M,4,217182,217782,381,78,420,149 F,0,217182,217782,1,0 S,0,217182,217782,0.7,0.28 P,0,217182,217782,A
Sprite,Foreground,Centre,"sb\d.png",0,0 M,4,217482,218082,544,321,396,421 F,0,217482,218082,1,0 S,0,217482,218082,0.7,0.28 P,0,217482,218082,A
Sprite,Foreground,Centre,"sb\d.png",0,0 M,4,217482,218082,544,321,472,302 F,0,217482,218082,1,0 S,0,217482,218082,0.7,0.28 P,0,217482,218082,A
Sprite,Foreground,Centre,"sb\d.png",0,0 M,4,217482,218082,544,321,468,199 F,0,217482,218082,1,0 S,0,217482,218082,0.7,0.28 P,0,217482,218082,A
Sprite,Foreground,Centre,"sb\d.png",0,0 M,4,217482,218082,544,321,594,240 F,0,217482,218082,1,0 S,0,217482,218082,0.7,0.28 P,0,217482,218082,A
Sprite,Foreground,Centre,"sb\d.png",0,0 M,4,217482,218082,544,321,627,366 F,0,217482,218082,1,0 S,0,217482,218082,0.7,0.28 P,0,217482,218082,A
Sprite,Foreground,Centre,"sb\d.png",0,0 M,4,217482,218082,544,321,639,436 F,0,217482,218082,1,0 S,0,217482,218082,0.7,0.28 P,0,217482,218082,A
Sprite,Foreground,Centre,"sb\d.png",0,0 M,4,217482,218082,544,321,498,329 F,0,217482,218082,1,0 S,0,217482,218082,0.7,0.28 P,0,217482,218082,A
Sprite,Foreground,Centre,"sb\d.png",0,0 M,4,217632,218232,306,351,398,355 F,0,217632,218232,1,0 S,0,217632,218232,0.7,0.28 P,0,217632,218232,A
Sprite,Foreground,Centre,"sb\d.png",0,0 M,4,217632,218232,306,351,210,268 F,0,217632,218232,1,0 S,0,217632,218232,0.7,0.28 P,0,217632,218232,A
Sprite,Foreground,Centre,"sb\d.png",0,0 M,4,217632,218232,306,351,233,456 F,0,217632,218232,1,0 S,0,217632,218232,0.7,0.28 P,0,217632,218232,A
Sprite,Foreground,Centre,"sb\d.png",0,0 M,4,217632,218232,306,351,433,382 F,0,217632,218232,1,0 S,0,217632,218232,0.7,0.28 P,0,217632,218232,A
Sprite,Foreground,Centre,"sb\d.png",0,0 M,4,217632,218232,306,351,352,258 F,0,217632,218232,1,0 S,0,217632,218232,0.7,0.28 P,0,217632,218232,A
Sprite,Foreground,Centre,"sb\d.png",0,0 M,4,217632,218232,306,351,178,255 F,0,217632,218232,1,0 S,0,217632,218232,0.7,0.28 P,0,217632,218232,A
Sprite,Foreground,Centre,"sb\d.png",0,0 M,4,217632,218232,306,351,347,211 F,0,217632,218232,1,0 S,0,217632,218232,0.7,0.28 P,0,217632,218232,A
Sprite,Foreground,Centre,"sb\d.png",0,0 M,4,217707,218307,279,354,267,206 F,0,217707,218307,1,0 S,0,217707,218307,0.7,0.28 P,0,217707,218307,A
Sprite,Foreground,Centre,"sb\d.png",0,0 M,4,217707,218307,279,354,145,258 F,0,217707,218307,1,0 S,0,217707,218307,0.7,0.28 P,0,217707,218307,A
Sprite,Foreground,Centre,"sb\d.png",0,0 M,4,217707,218307,279,354,232,356 F,0,217707,218307,1,0 S,0,217707,218307,0.7,0.28 P,0,217707,218307,A
Sprite,Foreground,Centre,"sb\d.png",0,0 M,4,217707,218307,279,354,302,229 F,0,217707,218307,1,0 S,0,217707,218307,0.7,0.28 P,0,217707,218307,A
Sprite,Foreground,Centre,"sb\d.png",0,0 M,4,217707,218307,279,354,313,245 F,0,217707,218307,1,0 S,0,217707,218307,0.7,0.28 P,0,217707,218307,A
Sprite,Foreground,Centre,"sb\d.png",0,0 M,4,217707,218307,279,354,191,462 F,0,217707,218307,1,0 S,0,217707,218307,0.7,0.28 P,0,217707,218307,A
Sprite,Foreground,Centre,"sb\d.png",0,0 M,4,217707,218307,279,354,183,307 F,0,217707,218307,1,0 S,0,217707,218307,0.7,0.28 P,0,217707,218307,A
Sprite,Foreground,Centre,"sb\d.png",0,0 M,4,217782,218382,253,358,324,419 F,0,217782,218382,1,0 S,0,217782,218382,0.7,0.28 P,0,217782,218382,A
Sprite,Foreground,Centre,"sb\d.png",0,0 M,4,217782,218382,253,358,297,252 F,0,217782,218382,1,0 S,0,217782,218382,0.7,0.28 P,0,217782,218382,A
Sprite,Foreground,Centre,"sb\d.png",0,0 M,4,217782,218382,253,358,187,476 F,0,217782,218382,1,0 S,0,217782,218382,0.7,0.28 P,0,217782,218382,A
Sprite,Foreground,Centre,"sb\d.png",0,0 M,4,217782,218382,253,358,346,255 F,0,217782,218382,1,0 S,0,217782,218382,0.7,0.28 P,0,217782,218382,A
Sprite,Foreground,Centre,"sb\d.png",0,0 M,4,217782,218382,253,358,341,479 F,0,217782,218382,1,0 S,0,217782,218382,0.7,0.28 P,0,217782,218382,A
Sprite,Foreground,Centre,"sb\d.png",0,0 M,4,217782,218382,253,358,272,441 F,0,217782,218382,1,0 S,0,217782,218382,0.7,0.28 P,0,217782,218382,A
Sprite,Foreground,Centre,"sb\d.png",0,0 M,4,217782,218382,253,358,346,328 F,0,217782,218382,1,0 S,0,217782,218382,0.7,0.28 P,0,217782,218382,A
Sprite,Foreground,Centre,"sb\d.png",0,0 M,4,217857,218457,227,362,131,233 F,0,217857,218457,1,0 S,0,217857,218457,0.7,0.28 P,0,217857,218457,A
Sprite,Foreground,Centre,"sb\d.png",0,0 M,4,217857,218457,227,362,186,232 F,0,217857,218457,1,0 S,0,217857,218457,0.7,0.28 P,0,217857,218457,A
Sprite,Foreground,Centre,"sb\d.png",0,0 M,4,217857,218457,227,362,214,401 F,0,217857,218457,1,0 S,0,217857,218457,0.7,0.28 P,0,217857,218457,A
Sprite,Foreground,Centre,"sb\d.png",0,0 M,4,217857,218457,227,362,308,442 F,0,217857,218457,1,0 S,0,217857,218457,0.7,0.28 P,0,217857,218457,A
Sprite,Foreground,Centre,"sb\d.png",0,0 M,4,217857,218457,227,362,256,402 F,0,217857,218457,1,0 S,0,217857,218457,0.7,0.28 P,0,217857,218457,A
Sprite,Foreground,Centre,"sb\d.png",0,0 M,4,217857,218457,227,362,239,463 F,0,217857,218457,1,0 S,0,217857,218457,0.7,0.28 P,0,217857,218457,A
Sprite,Foreground,Centre,"sb\d.png",0,0 M,4,217857,218457,227,362,362,429 F,0,217857,218457,1,0 S,0,217857,218457,0.7,0.28 P,0,217857,218457,A
Sprite,Foreground,Centre,"sb\d.png",0,0 M,4,217932,218532,200,365,319,227 F,0,217932,218532,1,0 S,0,217932,218532,0.7,0.28 P,0,217932,218532,A
Sprite,Foreground,Centre,"sb\d.png",0,0 M,4,217932,218532,200,365,55,333 F,0,217932,218532,1,0 S,0,217932,218532,0.7,0.28 P,0,217932,218532,A
Sprite,Foreground,Centre,"sb\d.png",0,0 M,4,217932,218532,200,365,251,389 F,0,217932,218532,1,0 S,0,217932,218532,0.7,0.28 P,0,217932,218532,A
Sprite,Foreground,Centre,"sb\d.png",0,0 M,4,217932,218532,200,365,310,499 F,0,217932,218532,1,0 S,0,217932,218532,0.7,0.28 P,0,217932,218532,A
Sprite,Foreground,Centre,"sb\d.png",0,0 M,4,217932,218532,200,365,213,493 F,0,217932,218532,1,0 S,0,217932,218532,0.7,0.28 P,0,217932,218532,A
Sprite,Foreground,Centre,"sb\d.png",0,0 M,4,217932,218532,200,365,319,437 F,0,217932,218532,1,0 S,0,217932,218532,0.7,0.28 P,0,217932,218532,A
Sprite,Foreground,Centre,"sb\d.png",0,0 M,4,217932,218532,200,365,116,306 F,0,217932,218532,1,0 S,0,217932,218532,0.7,0.28 P,0,217932,218532,A
Sprite,Foreground,Centre,"sb\d.png",0,0 M,4,218082,218682,236,134,149,28 F,0,218082,218682,1,0 S,0,218082,218682,0.7,0.28 P,0,218082,218682,A
Sprite,Foreground,Centre,"sb\d.png",0,0 M,4,218082,218682,236,134,270,153 F,0,218082,218682,1,0 S,0,218082,218682,0.7,0.28 P,0,218082,218682,A
Sprite,Foreground,Centre,"sb\d.png",0,0 M,4,218082,218682,236,134,295,36 F,0,218082,218682,1,0 S,0,218082,218682,0.7,0.28 P,0,218082,218682,A
Sprite,Foreground,Centre,"sb\d.png",0,0 M,4,218082,218682,236,134,356,147 F,0,218082,218682,1,0 S,0,218082,218682,0.7,0.28 P,0,218082,218682,A
Sprite,Foreground,Centre,"sb\d.png",0,0 M,4,218082,218682,236,134,318,26 F,0,218082,218682,1,0 S,0,218082,218682,0.7,0.28 P,0,218082,218682,A
Sprite,Foreground,Centre,"sb\d.png",0,0 M,4,218082,218682,236,134,206,148 F,0,218082,218682,1,0 S,0,218082,218682,0.7,0.28 P,0,218082,218682,A
Sprite,Foreground,Centre,"sb\d.png",0,0 M,4,218082,218682,236,134,257,275 F,0,218082,218682,1,0 S,0,218082,218682,0.7,0.28 P,0,218082,218682,A
Sprite,Foreground,Centre,"sb\d.png",0,0 M,4,218382,218982,83,298,-35,151 F,0,218382,218982,1,0 S,0,218382,218982,0.7,0.28 P,0,218382,218982,A
Sprite,Foreground,Centre,"sb\d.png",0,0 M,4,218382,218982,83,298,114,281 F,0,218382,218982,1,0 S,0,218382,218982,0.7,0.28 P,0,218382,218982,A
Sprite,Foreground,Centre,"sb\d.png",0,0 M,4,218382,218982,83,298,216,174 F,0,218382,218982,1,0 S,0,218382,218982,0.7,0.28 P,0,218382,218982,A
Sprite,Foreground,Centre,"sb\d.png",0,0 M,4,218382,218982,83,298,10,374 F,0,218382,218982,1,0 S,0,218382,218982,0.7,0.28 P,0,218382,218982,A
Sprite,Foreground,Centre,"sb\d.png",0,0 M,4,218382,218982,83,298,199,198 F,0,218382,218982,1,0 S,0,218382,218982,0.7,0.28 P,0,218382,218982,A
Sprite,Foreground,Centre,"sb\d.png",0,0 M,4,218382,218982,83,298,-35,217 F,0,218382,218982,1,0 S,0,218382,218982,0.7,0.28 P,0,218382,218982,A
Sprite,Foreground,Centre,"sb\d.png",0,0 M,4,218382,218982,83,298,93,218 F,0,218382,218982,1,0 S,0,218382,218982,0.7,0.28 P,0,218382,218982,A
Sprite,Foreground,Centre,"sb\d.png",0,0 M,4,218682,219282,238,440,245,420 F,0,218682,219282,1,0 S,0,218682,219282,0.7,0.28 P,0,218682,219282,A
Sprite,Foreground,Centre,"sb\d.png",0,0 M,4,218682,219282,238,440,138,505 F,0,218682,219282,1,0 S,0,218682,219282,0.7,0.28 P,0,218682,219282,A
Sprite,Foreground,Centre,"sb\d.png",0,0 M,4,218682,219282,238,440,210,430 F,0,218682,219282,1,0 S,0,218682,219282,0.7,0.28 P,0,218682,219282,A
Sprite,Foreground,Centre,"sb\d.png",0,0 M,4,218682,219282,238,440,254,424 F,0,218682,219282,1,0 S,0,218682,219282,0.7,0.28 P,0,218682,219282,A
Sprite,Foreground,Centre,"sb\d.png",0,0 M,4,218682,219282,238,440,93,582 F,0,218682,219282,1,0 S,0,218682,219282,0.7,0.28 P,0,218682,219282,A
Sprite,Foreground,Centre,"sb\d.png",0,0 M,4,218682,219282,238,440,130,522 F,0,218682,219282,1,0 S,0,218682,219282,0.7,0.28 P,0,218682,219282,A
Sprite,Foreground,Centre,"sb\d.png",0,0 M,4,218682,219282,238,440,334,396 F,0,218682,219282,1,0 S,0,218682,219282,0.7,0.28 P,0,218682,219282,A
Sprite,Foreground,Centre,"sb\d.png",0,0 M,4,218832,219432,458,330,387,442 F,0,218832,219432,1,0 S,0,218832,219432,0.7,0.28 P,0,218832,219432,A
Sprite,Foreground,Centre,"sb\d.png",0,0 M,4,218832,219432,458,330,605,216 F,0,218832,219432,1,0 S,0,218832,219432,0.7,0.28 P,0,218832,219432,A
Sprite,Foreground,Centre,"sb\d.png",0,0 M,4,218832,219432,458,330,310,449 F,0,218832,219432,1,0 S,0,218832,219432,0.7,0.28 P,0,218832,219432,A
Sprite,Foreground,Centre,"sb\d.png",0,0 M,4,218832,219432,458,330,560,339 F,0,218832,219432,1,0 S,0,218832,219432,0.7,0.28 P,0,218832,219432,A
Sprite,Foreground,Centre,"sb\d.png",0,0 M,4,218832,219432,458,330,404,316 F,0,218832,219432,1,0 S,0,218832,219432,0.7,0.28 P,0,218832,219432,A
Sprite,Foreground,Centre,"sb\d.png",0,0 M,4,218832,219432,458,330,546,220 F,0,218832,219432,1,0 S,0,218832,219432,0.7,0.28 P,0,218832,219432,A
Sprite,Foreground,Centre,"sb\d.png",0,0 M,4,218832,219432,458,330,321,317 F,0,218832,219432,1,0 S,0,218832,219432,0.7,0.28 P,0,218832,219432,A
Sprite,Foreground,Centre,"sb\d.png",0,0 M,4,218907,219507,420,335,348,318 F,0,218907,219507,1,0 S,0,218907,219507,0.7,0.28 P,0,218907,219507,A
Sprite,Foreground,Centre,"sb\d.png",0,0 M,4,218907,219507,420,335,407,324 F,0,218907,219507,1,0 S,0,218907,219507,0.7,0.28 P,0,218907,219507,A
Sprite,Foreground,Centre,"sb\d.png",0,0 M,4,218907,219507,420,335,461,385 F,0,218907,219507,1,0 S,0,218907,219507,0.7,0.28 P,0,218907,219507,A
Sprite,Foreground,Centre,"sb\d.png",0,0 M,4,218907,219507,420,335,275,286 F,0,218907,219507,1,0 S,0,218907,219507,0.7,0.28 P,0,218907,219507,A
Sprite,Foreground,Centre,"sb\d.png",0,0 M,4,218907,219507,420,335,561,390 F,0,218907,219507,1,0 S,0,218907,219507,0.7,0.28 P,0,218907,219507,A
Sprite,Foreground,Centre,"sb\d.png",0,0 M,4,218907,219507,420,335,311,216 F,0,218907,219507,1,0 S,0,218907,219507,0.7,0.28 P,0,218907,219507,A
Sprite,Foreground,Centre,"sb\d.png",0,0 M,4,218907,219507,420,335,394,382 F,0,218907,219507,1,0 S,0,218907,219507,0.7,0.28 P,0,218907,219507,A
Sprite,Foreground,Centre,"sb\d.png",0,0 M,4,218982,219582,382,341,529,379 F,0,218982,219582,1,0 S,0,218982,219582,0.7,0.28 P,0,218982,219582,A
Sprite,Foreground,Centre,"sb\d.png",0,0 M,4,218982,219582,382,341,322,241 F,0,218982,219582,1,0 S,0,218982,219582,0.7,0.28 P,0,218982,219582,A
Sprite,Foreground,Centre,"sb\d.png",0,0 M,4,218982,219582,382,341,311,462 F,0,218982,219582,1,0 S,0,218982,219582,0.7,0.28 P,0,218982,219582,A
Sprite,Foreground,Centre,"sb\d.png",0,0 M,4,218982,219582,382,341,378,194 F,0,218982,219582,1,0 S,0,218982,219582,0.7,0.28 P,0,218982,219582,A
Sprite,Foreground,Centre,"sb\d.png",0,0 M,4,218982,219582,382,341,284,486 F,0,218982,219582,1,0 S,0,218982,219582,0.7,0.28 P,0,218982,219582,A
Sprite,Foreground,Centre,"sb\d.png",0,0 M,4,218982,219582,382,341,298,382 F,0,218982,219582,1,0 S,0,218982,219582,0.7,0.28 P,0,218982,219582,A
Sprite,Foreground,Centre,"sb\d.png",0,0 M,4,218982,219582,382,341,349,488 F,0,218982,219582,1,0 S,0,218982,219582,0.7,0.28 P,0,218982,219582,A
Sprite,Foreground,Centre,"sb\d.png",0,0 M,4,219057,219657,344,346,228,410 F,0,219057,219657,1,0 S,0,219057,219657,0.7,0.28 P,0,219057,219657,A
Sprite,Foreground,Centre,"sb\d.png",0,0 M,4,219057,219657,344,346,470,278 F,0,219057,219657,1,0 S,0,219057,219657,0.7,0.28 P,0,219057,219657,A
Sprite,Foreground,Centre,"sb\d.png",0,0 M,4,219057,219657,344,346,320,225 F,0,219057,219657,1,0 S,0,219057,219657,0.7,0.28 P,0,219057,219657,A
Sprite,Foreground,Centre,"sb\d.png",0,0 M,4,219057,219657,344,346,249,367 F,0,219057,219657,1,0 S,0,219057,219657,0.7,0.28 P,0,219057,219657,A
Sprite,Foreground,Centre,"sb\d.png",0,0 M,4,219057,219657,344,346,349,398 F,0,219057,219657,1,0 S,0,219057,219657,0.7,0.28 P,0,219057,219657,A
Sprite,Foreground,Centre,"sb\d.png",0,0 M,4,219057,219657,344,346,234,242 F,0,219057,219657,1,0 S,0,219057,219657,0.7,0.28 P,0,219057,219657,A
Sprite,Foreground,Centre,"sb\d.png",0,0 M,4,219057,219657,344,346,294,473 F,0,219057,219657,1,0 S,0,219057,219657,0.7,0.28 P,0,219057,219657,A
Sprite,Foreground,Centre,"sb\d.png",0,0 M,4,219132,219732,306,351,427,293 F,0,219132,219732,1,0 S,0,219132,219732,0.7,0.28 P,0,219132,219732,A
Sprite,Foreground,Centre,"sb\d.png",0,0 M,4,219132,219732,306,351,451,472 F,0,219132,219732,1,0 S,0,219132,219732,0.7,0.28 P,0,219132,219732,A
Sprite,Foreground,Centre,"sb\d.png",0,0 M,4,219132,219732,306,351,300,255 F,0,219132,219732,1,0 S,0,219132,219732,0.7,0.28 P,0,219132,219732,A
Sprite,Foreground,Centre,"sb\d.png",0,0 M,4,219132,219732,306,351,318,408 F,0,219132,219732,1,0 S,0,219132,219732,0.7,0.28 P,0,219132,219732,A
Sprite,Foreground,Centre,"sb\d.png",0,0 M,4,219132,219732,306,351,202,389 F,0,219132,219732,1,0 S,0,219132,219732,0.7,0.28 P,0,219132,219732,A
Sprite,Foreground,Centre,"sb\d.png",0,0 M,4,219132,219732,306,351,416,243 F,0,219132,219732,1,0 S,0,219132,219732,0.7,0.28 P,0,219132,219732,A
Sprite,Foreground,Centre,"sb\d.png",0,0 M,4,219132,219732,306,351,447,276 F,0,219132,219732,1,0 S,0,219132,219732,0.7,0.28 P,0,219132,219732,A
Sprite,Foreground,Centre,"sb\d.png",0,0 M,4,219282,219882,547,397,478,389 F,0,219282,219882,1,0 S,0,219282,219882,0.7,0.28 P,0,219282,219882,A
Sprite,Foreground,Centre,"sb\d.png",0,0 M,4,219282,219882,547,397,469,247 F,0,219282,219882,1,0 S,0,219282,219882,0.7,0.28 P,0,219282,219882,A
Sprite,Foreground,Centre,"sb\d.png",0,0 M,4,219282,219882,547,397,479,255 F,0,219282,219882,1,0 S,0,219282,219882,0.7,0.28 P,0,219282,219882,A
Sprite,Foreground,Centre,"sb\d.png",0,0 M,4,219282,219882,547,397,464,324 F,0,219282,219882,1,0 S,0,219282,219882,0.7,0.28 P,0,219282,219882,A
Sprite,Foreground,Centre,"sb\d.png",0,0 M,4,219282,219882,547,397,625,506 F,0,219282,219882,1,0 S,0,219282,219882,0.7,0.28 P,0,219282,219882,A
Sprite,Foreground,Centre,"sb\d.png",0,0 M,4,219282,219882,547,397,601,342 F,0,219282,219882,1,0 S,0,219282,219882,0.7,0.28 P,0,219282,219882,A
Sprite,Foreground,Centre,"sb\d.png",0,0 M,4,219282,219882,547,397,539,372 F,0,219282,219882,1,0 S,0,219282,219882,0.7,0.28 P,0,219282,219882,A
Sprite,Foreground,Centre,"sb\d.png",0,0 M,4,219582,220182,377,164,260,201 F,0,219582,220182,1,0 S,0,219582,220182,0.7,0.28 P,0,219582,220182,A
Sprite,Foreground,Centre,"sb\d.png",0,0 M,4,219582,220182,377,164,236,47 F,0,219582,220182,1,0 S,0,219582,220182,0.7,0.28 P,0,219582,220182,A
Sprite,Foreground,Centre,"sb\d.png",0,0 M,4,219582,220182,377,164,397,182 F,0,219582,220182,1,0 S,0,219582,220182,0.7,0.28 P,0,219582,220182,A
Sprite,Foreground,Centre,"sb\d.png",0,0 M,4,219582,220182,377,164,259,274 F,0,219582,220182,1,0 S,0,219582,220182,0.7,0.28 P,0,219582,220182,A
Sprite,Foreground,Centre,"sb\d.png",0,0 M,4,219582,220182,377,164,526,109 F,0,219582,220182,1,0 S,0,219582,220182,0.7,0.28 P,0,219582,220182,A
Sprite,Foreground,Centre,"sb\d.png",0,0 M,4,219582,220182,377,164,273,77 F,0,219582,220182,1,0 S,0,219582,220182,0.7,0.28 P,0,219582,220182,A
Sprite,Foreground,Centre,"sb\d.png",0,0 M,4,219582,220182,377,164,362,140 F,0,219582,220182,1,0 S,0,219582,220182,0.7,0.28 P,0,219582,220182,A
Sprite,Foreground,Centre,"sb\d.png",0,0 M,4,219882,220482,539,68,556,6 F,0,219882,220482,1,0 S,0,219882,220482,0.7,0.28 P,0,219882,220482,A
Sprite,Foreground,Centre,"sb\d.png",0,0 M,4,219882,220482,539,68,510,2 F,0,219882,220482,1,0 S,0,219882,220482,0.7,0.28 P,0,219882,220482,A
Sprite,Foreground,Centre,"sb\d.png",0,0 M,4,219882,220482,539,68,426,198 F,0,219882,220482,1,0 S,0,219882,220482,0.7,0.28 P,0,219882,220482,A
Sprite,Foreground,Centre,"sb\d.png",0,0 M,4,219882,220482,539,68,479,-69 F,0,219882,220482,1,0 S,0,219882,220482,0.7,0.28 P,0,219882,220482,A
Sprite,Foreground,Centre,"sb\d.png",0,0 M,4,219882,220482,539,68,518,-42 F,0,219882,220482,1,0 S,0,219882,220482,0.7,0.28 P,0,219882,220482,A
Sprite,Foreground,Centre,"sb\d.png",0,0 M,4,219882,220482,539,68,652,10 F,0,219882,220482,1,0 S,0,219882,220482,0.7,0.28 P,0,219882,220482,A
Sprite,Foreground,Centre,"sb\d.png",0,0 M,4,219882,220482,539,68,599,111 F,0,219882,220482,1,0 S,0,219882,220482,0.7,0.28 P,0,219882,220482,A
Sprite,Foreground,Centre,"sb\d.png",0,0 M,4,220032,220632,357,93,371,-21 F,0,220032,220632,1,0 S,0,220032,220632,0.7,0.28 P,0,220032,220632,A
Sprite,Foreground,Centre,"sb\d.png",0,0 M,4,220032,220632,357,93,273,-8 F,0,220032,220632,1,0 S,0,220032,220632,0.7,0.28 P,0,220032,220632,A
Sprite,Foreground,Centre,"sb\d.png",0,0 M,4,220032,220632,357,93,419,-21 F,0,220032,220632,1,0 S,0,220032,220632,0.7,0.28 P,0,220032,220632,A
Sprite,Foreground,Centre,"sb\d.png",0,0 M,4,220032,220632,357,93,381,101 F,0,220032,220632,1,0 S,0,220032,220632,0.7,0.28 P,0,220032,220632,A
Sprite,Foreground,Centre,"sb\d.png",0,0 M,4,220032,220632,357,93,385,170 F,0,220032,220632,1,0 S,0,220032,220632,0.7,0.28 P,0,220032,220632,A
Sprite,Foreground,Centre,"sb\d.png",0,0 M,4,220032,220632,357,93,379,65 F,0,220032,220632,1,0 S,0,220032,220632,0.7,0.28 P,0,220032,220632,A
Sprite,Foreground,Centre,"sb\d.png",0,0 M,4,220032,220632,357,93,250,63 F,0,220032,220632,1,0 S,0,220032,220632,0.7,0.28 P,0,220032,220632,A
Sprite,Foreground,Centre,"sb\d.png",0,0 M,4,220107,220707,319,90,311,217 F,0,220107,220707,1,0 S,0,220107,220707,0.7,0.28 P,0,220107,220707,A
Sprite,Foreground,Centre,"sb\d.png",0,0 M,4,220107,220707,319,90,423,-41 F,0,220107,220707,1,0 S,0,220107,220707,0.7,0.28 P,0,220107,220707,A
Sprite,Foreground,Centre,"sb\d.png",0,0 M,4,220107,220707,319,90,341,181 F,0,220107,220707,1,0 S,0,220107,220707,0.7,0.28 P,0,220107,220707,A
Sprite,Foreground,Centre,"sb\d.png",0,0 M,4,220107,220707,319,90,378,79 F,0,220107,220707,1,0 S,0,220107,220707,0.7,0.28 P,0,220107,220707,A
Sprite,Foreground,Centre,"sb\d.png",0,0 M,4,220107,220707,319,90,306,60 F,0,220107,220707,1,0 S,0,220107,220707,0.7,0.28 P,0,220107,220707,A
Sprite,Foreground,Centre,"sb\d.png",0,0 M,4,220107,220707,319,90,226,102 F,0,220107,220707,1,0 S,0,220107,220707,0.7,0.28 P,0,220107,220707,A
Sprite,Foreground,Centre,"sb\d.png",0,0 M,4,220107,220707,319,90,203,-40 F,0,220107,220707,1,0 S,0,220107,220707,0.7,0.28 P,0,220107,220707,A
Sprite,Foreground,Centre,"sb\d.png",0,0 M,4,220182,220782,282,88,189,207 F,0,220182,220782,1,0 S,0,220182,220782,0.7,0.28 P,0,220182,220782,A
Sprite,Foreground,Centre,"sb\d.png",0,0 M,4,220182,220782,282,88,201,16 F,0,220182,220782,1,0 S,0,220182,220782,0.7,0.28 P,0,220182,220782,A
Sprite,Foreground,Centre,"sb\d.png",0,0 M,4,220182,220782,282,88,390,76 F,0,220182,220782,1,0 S,0,220182,220782,0.7,0.28 P,0,220182,220782,A
Sprite,Foreground,Centre,"sb\d.png",0,0 M,4,220182,220782,282,88,227,201 F,0,220182,220782,1,0 S,0,220182,220782,0.7,0.28 P,0,220182,220782,A
Sprite,Foreground,Centre,"sb\d.png",0,0 M,4,220182,220782,282,88,161,234 F,0,220182,220782,1,0 S,0,220182,220782,0.7,0.28 P,0,220182,220782,A
Sprite,Foreground,Centre,"sb\d.png",0,0 M,4,220182,220782,282,88,283,36 F,0,220182,220782,1,0 S,0,220182,220782,0.7,0.28 P,0,220182,220782,A
Sprite,Foreground,Centre,"sb\d.png",0,0 M,4,220182,220782,282,88,383,-53 F,0,220182,220782,1,0 S,0,220182,220782,0.7,0.28 P,0,220182,220782,A
Sprite,Foreground,Centre,"sb\d.png",0,0 M,4,220257,220857,245,86,305,130 F,0,220257,220857,1,0 S,0,220257,220857,0.7,0.28 P,0,220257,220857,A
Sprite,Foreground,Centre,"sb\d.png",0,0 M,4,220257,220857,245,86,306,150 F,0,220257,220857,1,0 S,0,220257,220857,0.7,0.28 P,0,220257,220857,A
Sprite,Foreground,Centre,"sb\d.png",0,0 M,4,220257,220857,245,86,331,205 F,0,220257,220857,1,0 S,0,220257,220857,0.7,0.28 P,0,220257,220857,A
Sprite,Foreground,Centre,"sb\d.png",0,0 M,4,220257,220857,245,86,265,88 F,0,220257,220857,1,0 S,0,220257,220857,0.7,0.28 P,0,220257,220857,A
Sprite,Foreground,Centre,"sb\d.png",0,0 M,4,220257,220857,245,86,180,180 F,0,220257,220857,1,0 S,0,220257,220857,0.7,0.28 P,0,220257,220857,A
Sprite,Foreground,Centre,"sb\d.png",0,0 M,4,220257,220857,245,86,314,204 F,0,220257,220857,1,0 S,0,220257,220857,0.7,0.28 P,0,220257,220857,A
Sprite,Foreground,Centre,"sb\d.png",0,0 M,4,220257,220857,245,86,378,-40 F,0,220257,220857,1,0 S,0,220257,220857,0.7,0.28 P,0,220257,220857,A
Sprite,Foreground,Centre,"sb\d.png",0,0 M,4,220332,220932,208,83,257,178 F,0,220332,220932,1,0 S,0,220332,220932,0.7,0.28 P,0,220332,220932,A
Sprite,Foreground,Centre,"sb\d.png",0,0 M,4,220332,220932,208,83,350,-18 F,0,220332,220932,1,0 S,0,220332,220932,0.7,0.28 P,0,220332,220932,A
Sprite,Foreground,Centre,"sb\d.png",0,0 M,4,220332,220932,208,83,59,87 F,0,220332,220932,1,0 S,0,220332,220932,0.7,0.28 P,0,220332,220932,A
Sprite,Foreground,Centre,"sb\d.png",0,0 M,4,220332,220932,208,83,159,141 F,0,220332,220932,1,0 S,0,220332,220932,0.7,0.28 P,0,220332,220932,A
Sprite,Foreground,Centre,"sb\d.png",0,0 M,4,220332,220932,208,83,216,26 F,0,220332,220932,1,0 S,0,220332,220932,0.7,0.28 P,0,220332,220932,A
Sprite,Foreground,Centre,"sb\d.png",0,0 M,4,220332,220932,208,83,222,137 F,0,220332,220932,1,0 S,0,220332,220932,0.7,0.28 P,0,220332,220932,A
Sprite,Foreground,Centre,"sb\d.png",0,0 M,4,220332,220932,208,83,82,112 F,0,220332,220932,1,0 S,0,220332,220932,0.7,0.28 P,0,220332,220932,A
Sprite,Foreground,Centre,"sb\d.png",0,0 M,4,220482,221082,64,236,162,343 F,0,220482,221082,1,0 S,0,220482,221082,0.7,0.28 P,0,220482,221082,A
Sprite,Foreground,Centre,"sb\d.png",0,0 M,4,220482,221082,64,236,82,159 F,0,220482,221082,1,0 S,0,220482,221082,0.7,0.28 P,0,220482,221082,A
Sprite,Foreground,Centre,"sb\d.png",0,0 M,4,220482,221082,64,236,203,286 F,0,220482,221082,1,0 S,0,220482,221082,0.7,0.28 P,0,220482,221082,A
Sprite,Foreground,Centre,"sb\d.png",0,0 M,4,220482,221082,64,236,143,329 F,0,220482,221082,1,0 S,0,220482,221082,0.7,0.28 P,0,220482,221082,A
Sprite,Foreground,Centre,"sb\d.png",0,0 M,4,220482,221082,64,236,122,228 F,0,220482,221082,1,0 S,0,220482,221082,0.7,0.28 P,0,220482,221082,A
Sprite,Foreground,Centre,"sb\d.png",0,0 M,4,220482,221082,64,236,139,150 F,0,220482,221082,1,0 S,0,220482,221082,0.7,0.28 P,0,220482,221082,A
Sprite,Foreground,Centre,"sb\d.png",0,0 M,4,220482,221082,64,236,63,290 F,0,220482,221082,1,0 S,0,220482,221082,0.7,0.28 P,0,220482,221082,A
Sprite,Foreground,Centre,"sb\d.png",0,0 M,4,220782,221382,208,83,241,57 F,0,220782,221382,1,0 S,0,220782,221382,0.7,0.28 P,0,220782,221382,A
Sprite,Foreground,Centre,"sb\d.png",0,0 M,4,220782,221382,208,83,216,222 F,0,220782,221382,1,0 S,0,220782,221382,0.7,0.28 P,0,220782,221382,A
Sprite,Foreground,Centre,"sb\d.png",0,0 M,4,220782,221382,208,83,212,4 F,0,220782,221382,1,0 S,0,220782,221382,0.7,0.28 P,0,220782,221382,A
Sprite,Foreground,Centre,"sb\d.png",0,0 M,4,220782,221382,208,83,122,16 F,0,220782,221382,1,0 S,0,220782,221382,0.7,0.28 P,0,220782,221382,A
Sprite,Foreground,Centre,"sb\d.png",0,0 M,4,220782,221382,208,83,62,34 F,0,220782,221382,1,0 S,0,220782,221382,0.7,0.28 P,0,220782,221382,A
Sprite,Foreground,Centre,"sb\d.png",0,0 M,4,220782,221382,208,83,154,30 F,0,220782,221382,1,0 S,0,220782,221382,0.7,0.28 P,0,220782,221382,A
Sprite,Foreground,Centre,"sb\d.png",0,0 M,4,220782,221382,208,83,265,-66 F,0,220782,221382,1,0 S,0,220782,221382,0.7,0.28 P,0,220782,221382,A
Sprite,Foreground,Centre,"sb\d.png",0,0 M,4,221082,221682,270,284,155,252 F,0,221082,221682,1,0 S,0,221082,221682,0.7,0.28 P,0,221082,221682,A
Sprite,Foreground,Centre,"sb\d.png",0,0 M,4,221082,221682,270,284,170,166 F,0,221082,221682,1,0 S,0,221082,221682,0.7,0.28 P,0,221082,221682,A
Sprite,Foreground,Centre,"sb\d.png",0,0 M,4,221082,221682,270,284,365,425 F,0,221082,221682,1,0 S,0,221082,221682,0.7,0.28 P,0,221082,221682,A
Sprite,Foreground,Centre,"sb\d.png",0,0 M,4,221082,221682,270,284,324,262 F,0,221082,221682,1,0 S,0,221082,221682,0.7,0.28 P,0,221082,221682,A
Sprite,Foreground,Centre,"sb\d.png",0,0 M,4,221082,221682,270,284,195,279 F,0,221082,221682,1,0 S,0,221082,221682,0.7,0.28 P,0,221082,221682,A
Sprite,Foreground,Centre,"sb\d.png",0,0 M,4,221082,221682,270,284,398,217 F,0,221082,221682,1,0 S,0,221082,221682,0.7,0.28 P,0,221082,221682,A
Sprite,Foreground,Centre,"sb\d.png",0,0 M,4,221082,221682,270,284,214,389 F,0,221082,221682,1,0 S,0,221082,221682,0.7,0.28 P,0,221082,221682,A
Sprite,Foreground,Centre,"sb\d.png",0,0 M,4,221232,221832,414,62,301,61 F,0,221232,221832,1,0 S,0,221232,221832,0.7,0.28 P,0,221232,221832,A
Sprite,Foreground,Centre,"sb\d.png",0,0 M,4,221232,221832,414,62,388,149 F,0,221232,221832,1,0 S,0,221232,221832,0.7,0.28 P,0,221232,221832,A
Sprite,Foreground,Centre,"sb\d.png",0,0 M,4,221232,221832,414,62,268,108 F,0,221232,221832,1,0 S,0,221232,221832,0.7,0.28 P,0,221232,221832,A
Sprite,Foreground,Centre,"sb\d.png",0,0 M,4,221232,221832,414,62,288,-55 F,0,221232,221832,1,0 S,0,221232,221832,0.7,0.28 P,0,221232,221832,A
Sprite,Foreground,Centre,"sb\d.png",0,0 M,4,221232,221832,414,62,499,86 F,0,221232,221832,1,0 S,0,221232,221832,0.7,0.28 P,0,221232,221832,A
Sprite,Foreground,Centre,"sb\d.png",0,0 M,4,221232,221832,414,62,313,165 F,0,221232,221832,1,0 S,0,221232,221832,0.7,0.28 P,0,221232,221832,A
Sprite,Foreground,Centre,"sb\d.png",0,0 M,4,221232,221832,414,62,378,77 F,0,221232,221832,1,0 S,0,221232,221832,0.7,0.28 P,0,221232,221832,A
Sprite,Foreground,Centre,"sb\d.png",0,0 M,4,221307,221907,420,101,523,18 F,0,221307,221907,1,0 S,0,221307,221907,0.7,0.28 P,0,221307,221907,A
Sprite,Foreground,Centre,"sb\d.png",0,0 M,4,221307,221907,420,101,547,142 F,0,221307,221907,1,0 S,0,221307,221907,0.7,0.28 P,0,221307,221907,A
Sprite,Foreground,Centre,"sb\d.png",0,0 M,4,221307,221907,420,101,562,178 F,0,221307,221907,1,0 S,0,221307,221907,0.7,0.28 P,0,221307,221907,A
Sprite,Foreground,Centre,"sb\d.png",0,0 M,4,221307,221907,420,101,477,41 F,0,221307,221907,1,0 S,0,221307,221907,0.7,0.28 P,0,221307,221907,A
Sprite,Foreground,Centre,"sb\d.png",0,0 M,4,221307,221907,420,101,362,144 F,0,221307,221907,1,0 S,0,221307,221907,0.7,0.28 P,0,221307,221907,A
Sprite,Foreground,Centre,"sb\d.png",0,0 M,4,221307,221907,420,101,389,108 F,0,221307,221907,1,0 S,0,221307,221907,0.7,0.28 P,0,221307,221907,A
Sprite,Foreground,Centre,"sb\d.png",0,0 M,4,221307,221907,420,101,270,6 F,0,221307,221907,1,0 S,0,221307,221907,0.7,0.28 P,0,221307,221907,A
Sprite,Foreground,Centre,"sb\d.png",0,0 M,4,221382,221982,427,140,325,2 F,0,221382,221982,1,0 S,0,221382,221982,0.7,0.28 P,0,221382,221982,A
Sprite,Foreground,Centre,"sb\d.png",0,0 M,4,221382,221982,427,140,287,61 F,0,221382,221982,1,0 S,0,221382,221982,0.7,0.28 P,0,221382,221982,A
Sprite,Foreground,Centre,"sb\d.png",0,0 M,4,221382,221982,427,140,553,98 F,0,221382,221982,1,0 S,0,221382,221982,0.7,0.28 P,0,221382,221982,A
Sprite,Foreground,Centre,"sb\d.png",0,0 M,4,221382,221982,427,140,322,144 F,0,221382,221982,1,0 S,0,221382,221982,0.7,0.28 P,0,221382,221982,A
Sprite,Foreground,Centre,"sb\d.png",0,0 M,4,221382,221982,427,140,553,149 F,0,221382,221982,1,0 S,0,221382,221982,0.7,0.28 P,0,221382,221982,A
Sprite,Foreground,Centre,"sb\d.png",0,0 M,4,221382,221982,427,140,370,1 F,0,221382,221982,1,0 S,0,221382,221982,0.7,0.28 P,0,221382,221982,A
Sprite,Foreground,Centre,"sb\d.png",0,0 M,4,221382,221982,427,140,554,-9 F,0,221382,221982,1,0 S,0,221382,221982,0.7,0.28 P,0,221382,221982,A
Sprite,Foreground,Centre,"sb\d.png",0,0 M,4,221457,222057,434,179,467,204 F,0,221457,222057,1,0 S,0,221457,222057,0.7,0.28 P,0,221457,222057,A
Sprite,Foreground,Centre,"sb\d.png",0,0 M,4,221457,222057,434,179,566,320 F,0,221457,222057,1,0 S,0,221457,222057,0.7,0.28 P,0,221457,222057,A
Sprite,Foreground,Centre,"sb\d.png",0,0 M,4,221457,222057,434,179,460,68 F,0,221457,222057,1,0 S,0,221457,222057,0.7,0.28 P,0,221457,222057,A
Sprite,Foreground,Centre,"sb\d.png",0,0 M,4,221457,222057,434,179,459,37 F,0,221457,222057,1,0 S,0,221457,222057,0.7,0.28 P,0,221457,222057,A
Sprite,Foreground,Centre,"sb\d.png",0,0 M,4,221457,222057,434,179,452,116 F,0,221457,222057,1,0 S,0,221457,222057,0.7,0.28 P,0,221457,222057,A
Sprite,Foreground,Centre,"sb\d.png",0,0 M,4,221457,222057,434,179,374,195 F,0,221457,222057,1,0 S,0,221457,222057,0.7,0.28 P,0,221457,222057,A
Sprite,Foreground,Centre,"sb\d.png",0,0 M,4,221457,222057,434,179,332,276 F,0,221457,222057,1,0 S,0,221457,222057,0.7,0.28 P,0,221457,222057,A
Sprite,Foreground,Centre,"sb\d.png",0,0 M,4,221532,222132,441,218,348,299 F,0,221532,222132,1,0 S,0,221532,222132,0.7,0.28 P,0,221532,222132,A
Sprite,Foreground,Centre,"sb\d.png",0,0 M,4,221532,222132,441,218,408,214 F,0,221532,222132,1,0 S,0,221532,222132,0.7,0.28 P,0,221532,222132,A
Sprite,Foreground,Centre,"sb\d.png",0,0 M,4,221532,222132,441,218,487,337 F,0,221532,222132,1,0 S,0,221532,222132,0.7,0.28 P,0,221532,222132,A
Sprite,Foreground,Centre,"sb\d.png",0,0 M,4,221532,222132,441,218,576,290 F,0,221532,222132,1,0 S,0,221532,222132,0.7,0.28 P,0,221532,222132,A
Sprite,Foreground,Centre,"sb\d.png",0,0 M,4,221532,222132,441,218,454,346 F,0,221532,222132,1,0 S,0,221532,222132,0.7,0.28 P,0,221532,222132,A
Sprite,Foreground,Centre,"sb\d.png",0,0 M,4,221532,222132,441,218,567,74 F,0,221532,222132,1,0 S,0,221532,222132,0.7,0.28 P,0,221532,222132,A
Sprite,Foreground,Centre,"sb\d.png",0,0 M,4,221532,222132,441,218,410,166 F,0,221532,222132,1,0 S,0,221532,222132,0.7,0.28 P,0,221532,222132,A
Sprite,Foreground,Centre,"sb\d.png",0,0 M,4,221682,222282,517,392,457,359 F,0,221682,222282,1,0 S,0,221682,222282,0.7,0.28 P,0,221682,222282,A
Sprite,Foreground,Centre,"sb\d.png",0,0 M,4,221682,222282,517,392,465,523 F,0,221682,222282,1,0 S,0,221682,222282,0.7,0.28 P,0,221682,222282,A
Sprite,Foreground,Centre,"sb\d.png",0,0 M,4,221682,222282,517,392,617,448 F,0,221682,222282,1,0 S,0,221682,222282,0.7,0.28 P,0,221682,222282,A
Sprite,Foreground,Centre,"sb\d.png",0,0 M,4,221682,222282,517,392,574,458 F,0,221682,222282,1,0 S,0,221682,222282,0.7,0.28 P,0,221682,222282,A
Sprite,Foreground,Centre,"sb\d.png",0,0 M,4,221682,222282,517,392,577,370 F,0,221682,222282,1,0 S,0,221682,222282,0.7,0.28 P,0,221682,222282,A
Sprite,Foreground,Centre,"sb\d.png",0,0 M,4,221682,222282,517,392,648,502 F,0,221682,222282,1,0 S,0,221682,222282,0.7,0.28 P,0,221682,222282,A
Sprite,Foreground,Centre,"sb\d.png",0,0 M,4,221682,222282,517,392,547,282 F,0,221682,222282,1,0 S,0,221682,222282,0.7,0.28 P,0,221682,222282,A
Sprite,Foreground,Centre,"sb\d.png",0,0 M,4,221982,222582,353,224,347,297 F,0,221982,222582,1,0 S,0,221982,222582,0.7,0.28 P,0,221982,222582,A
Sprite,Foreground,Centre,"sb\d.png",0,0 M,4,221982,222582,353,224,483,184 F,0,221982,222582,1,0 S,0,221982,222582,0.7,0.28 P,0,221982,222582,A
Sprite,Foreground,Centre,"sb\d.png",0,0 M,4,221982,222582,353,224,263,172 F,0,221982,222582,1,0 S,0,221982,222582,0.7,0.28 P,0,221982,222582,A
Sprite,Foreground,Centre,"sb\d.png",0,0 M,4,221982,222582,353,224,299,119 F,0,221982,222582,1,0 S,0,221982,222582,0.7,0.28 P,0,221982,222582,A
Sprite,Foreground,Centre,"sb\d.png",0,0 M,4,221982,222582,353,224,245,320 F,0,221982,222582,1,0 S,0,221982,222582,0.7,0.28 P,0,221982,222582,A
Sprite,Foreground,Centre,"sb\d.png",0,0 M,4,221982,222582,353,224,317,82 F,0,221982,222582,1,0 S,0,221982,222582,0.7,0.28 P,0,221982,222582,A
Sprite,Foreground,Centre,"sb\d.png",0,0 M,4,221982,222582,353,224,219,335 F,0,221982,222582,1,0 S,0,221982,222582,0.7,0.28 P,0,221982,222582,A
Sprite,Foreground,Centre,"sb\d.png",0,0 M,4,222282,222882,321,68,182,-78 F,0,222282,222882,1,0 S,0,222282,222882,0.7,0.28 P,0,222282,222882,A
Sprite,Foreground,Centre,"sb\d.png",0,0 M,4,222282,222882,321,68,186,88 F,0,222282,222882,1,0 S,0,222282,222882,0.7,0.28 P,0,222282,222882,A
Sprite,Foreground,Centre,"sb\d.png",0,0 M,4,222282,222882,321,68,391,-6 F,0,222282,222882,1,0 S,0,222282,222882,0.7,0.28 P,0,222282,222882,A
Sprite,Foreground,Centre,"sb\d.png",0,0 M,4,222282,222882,321,68,389,-32 F,0,222282,222882,1,0 S,0,222282,222882,0.7,0.28 P,0,222282,222882,A
Sprite,Foreground,Centre,"sb\d.png",0,0 M,4,222282,222882,321,68,459,27 F,0,222282,222882,1,0 S,0,222282,222882,0.7,0.28 P,0,222282,222882,A
Sprite,Foreground,Centre,"sb\d.png",0,0 M,4,222282,222882,321,68,387,60 F,0,222282,222882,1,0 S,0,222282,222882,0.7,0.28 P,0,222282,222882,A
Sprite,Foreground,Centre,"sb\d.png",0,0 M,4,222282,222882,321,68,211,59 F,0,222282,222882,1,0 S,0,222282,222882,0.7,0.28 P,0,222282,222882,A
Sprite,Foreground,Centre,"sb\d.png",0,0 M,4,222432,223032,188,189,58,328 F,0,222432,223032,1,0 S,0,222432,223032,0.7,0.28 P,0,222432,223032,A
Sprite,Foreground,Centre,"sb\d.png",0,0 M,4,222432,223032,188,189,203,274 F,0,222432,223032,1,0 S,0,222432,223032,0.7,0.28 P,0,222432,223032,A
Sprite,Foreground,Centre,"sb\d.png",0,0 M,4,222432,223032,188,189,127,284 F,0,222432,223032,1,0 S,0,222432,223032,0.7,0.28 P,0,222432,223032,A
Sprite,Foreground,Centre,"sb\d.png",0,0 M,4,222432,223032,188,189,115,279 F,0,222432,223032,1,0 S,0,222432,223032,0.7,0.28 P,0,222432,223032,A
Sprite,Foreground,Centre,"sb\d.png",0,0 M,4,222432,223032,188,189,335,205 F,0,222432,223032,1,0 S,0,222432,223032,0.7,0.28 P,0,222432,223032,A
Sprite,Foreground,Centre,"sb\d.png",0,0 M,4,222432,223032,188,189,284,59 F,0,222432,223032,1,0 S,0,222432,223032,0.7,0.28 P,0,222432,223032,A
Sprite,Foreground,Centre,"sb\d.png",0,0 M,4,222432,223032,188,189,40,83 F,0,222432,223032,1,0 S,0,222432,223032,0.7,0.28 P,0,222432,223032,A
Sprite,Foreground,Centre,"sb\d.png",0,0 M,4,222507,223107,188,189,113,190 F,0,222507,223107,1,0 S,0,222507,223107,0.7,0.28 P,0,222507,223107,A
Sprite,Foreground,Centre,"sb\d.png",0,0 M,4,222507,223107,188,189,204,281 F,0,222507,223107,1,0 S,0,222507,223107,0.7,0.28 P,0,222507,223107,A
Sprite,Foreground,Centre,"sb\d.png",0,0 M,4,222507,223107,188,189,227,284 F,0,222507,223107,1,0 S,0,222507,223107,0.7,0.28 P,0,222507,223107,A
Sprite,Foreground,Centre,"sb\d.png",0,0 M,4,222507,223107,188,189,243,245 F,0,222507,223107,1,0 S,0,222507,223107,0.7,0.28 P,0,222507,223107,A
Sprite,Foreground,Centre,"sb\d.png",0,0 M,4,222507,223107,188,189,150,149 F,0,222507,223107,1,0 S,0,222507,223107,0.7,0.28 P,0,222507,223107,A
Sprite,Foreground,Centre,"sb\d.png",0,0 M,4,222507,223107,188,189,78,142 F,0,222507,223107,1,0 S,0,222507,223107,0.7,0.28 P,0,222507,223107,A
Sprite,Foreground,Centre,"sb\d.png",0,0 M,4,222507,223107,188,189,159,132 F,0,222507,223107,1,0 S,0,222507,223107,0.7,0.28 P,0,222507,223107,A
Sprite,Foreground,Centre,"sb\d.png",0,0 M,4,222582,223182,188,189,273,210 F,0,222582,223182,1,0 S,0,222582,223182,0.7,0.28 P,0,222582,223182,A
Sprite,Foreground,Centre,"sb\d.png",0,0 M,4,222582,223182,188,189,231,256 F,0,222582,223182,1,0 S,0,222582,223182,0.7,0.28 P,0,222582,223182,A
Sprite,Foreground,Centre,"sb\d.png",0,0 M,4,222582,223182,188,189,96,294 F,0,222582,223182,1,0 S,0,222582,223182,0.7,0.28 P,0,222582,223182,A
Sprite,Foreground,Centre,"sb\d.png",0,0 M,4,222582,223182,188,189,62,91 F,0,222582,223182,1,0 S,0,222582,223182,0.7,0.28 P,0,222582,223182,A
Sprite,Foreground,Centre,"sb\d.png",0,0 M,4,222582,223182,188,189,119,218 F,0,222582,223182,1,0 S,0,222582,223182,0.7,0.28 P,0,222582,223182,A
Sprite,Foreground,Centre,"sb\d.png",0,0 M,4,222582,223182,188,189,257,110 F,0,222582,223182,1,0 S,0,222582,223182,0.7,0.28 P,0,222582,223182,A
Sprite,Foreground,Centre,"sb\d.png",0,0 M,4,222582,223182,188,189,221,110 F,0,222582,223182,1,0 S,0,222582,223182,0.7,0.28 P,0,222582,223182,A
Sprite,Foreground,Centre,"sb\d.png",0,0 M,4,222732,223332,353,224,209,223 F,0,222732,223332,1,0 S,0,222732,223332,0.7,0.28 P,0,222732,223332,A
Sprite,Foreground,Centre,"sb\d.png",0,0 M,4,222732,223332,353,224,427,273 F,0,222732,223332,1,0 S,0,222732,223332,0.7,0.28 P,0,222732,223332,A
Sprite,Foreground,Centre,"sb\d.png",0,0 M,4,222732,223332,353,224,277,247 F,0,222732,223332,1,0 S,0,222732,223332,0.7,0.28 P,0,222732,223332,A
Sprite,Foreground,Centre,"sb\d.png",0,0 M,4,222732,223332,353,224,478,211 F,0,222732,223332,1,0 S,0,222732,223332,0.7,0.28 P,0,222732,223332,A
Sprite,Foreground,Centre,"sb\d.png",0,0 M,4,222732,223332,353,224,446,347 F,0,222732,223332,1,0 S,0,222732,223332,0.7,0.28 P,0,222732,223332,A
Sprite,Foreground,Centre,"sb\d.png",0,0 M,4,222732,223332,353,224,455,168 F,0,222732,223332,1,0 S,0,222732,223332,0.7,0.28 P,0,222732,223332,A
Sprite,Foreground,Centre,"sb\d.png",0,0 M,4,222732,223332,353,224,438,188 F,0,222732,223332,1,0 S,0,222732,223332,0.7,0.28 P,0,222732,223332,A
Sprite,Foreground,Centre,"sb\d.png",0,0 M,4,222882,223482,189,277,215,181 F,0,222882,223482,1,0 S,0,222882,223482,0.7,0.28 P,0,222882,223482,A
Sprite,Foreground,Centre,"sb\d.png",0,0 M,4,222882,223482,189,277,233,412 F,0,222882,223482,1,0 S,0,222882,223482,0.7,0.28 P,0,222882,223482,A
Sprite,Foreground,Centre,"sb\d.png",0,0 M,4,222882,223482,189,277,162,411 F,0,222882,223482,1,0 S,0,222882,223482,0.7,0.28 P,0,222882,223482,A
Sprite,Foreground,Centre,"sb\d.png",0,0 M,4,222882,223482,189,277,44,253 F,0,222882,223482,1,0 S,0,222882,223482,0.7,0.28 P,0,222882,223482,A
Sprite,Foreground,Centre,"sb\d.png",0,0 M,4,222882,223482,189,277,311,155 F,0,222882,223482,1,0 S,0,222882,223482,0.7,0.28 P,0,222882,223482,A
Sprite,Foreground,Centre,"sb\d.png",0,0 M,4,222882,223482,189,277,300,173 F,0,222882,223482,1,0 S,0,222882,223482,0.7,0.28 P,0,222882,223482,A
Sprite,Foreground,Centre,"sb\d.png",0,0 M,4,222882,223482,189,277,59,149 F,0,222882,223482,1,0 S,0,222882,223482,0.7,0.28 P,0,222882,223482,A
Sprite,Foreground,Centre,"sb\d.png",0,0 M,4,223182,223782,306,390,226,527 F,0,223182,223782,1,0 S,0,223182,223782,0.7,0.28 P,0,223182,223782,A
Sprite,Foreground,Centre,"sb\d.png",0,0 M,4,223182,223782,306,390,179,358 F,0,223182,223782,1,0 S,0,223182,223782,0.7,0.28 P,0,223182,223782,A
Sprite,Foreground,Centre,"sb\d.png",0,0 M,4,223182,223782,306,390,218,373 F,0,223182,223782,1,0 S,0,223182,223782,0.7,0.28 P,0,223182,223782,A
Sprite,Foreground,Centre,"sb\d.png",0,0 M,4,223182,223782,306,390,356,503 F,0,223182,223782,1,0 S,0,223182,223782,0.7,0.28 P,0,223182,223782,A
Sprite,Foreground,Centre,"sb\d.png",0,0 M,4,223182,223782,306,390,342,380 F,0,223182,223782,1,0 S,0,223182,223782,0.7,0.28 P,0,223182,223782,A
Sprite,Foreground,Centre,"sb\d.png",0,0 M,4,223182,223782,306,390,184,488 F,0,223182,223782,1,0 S,0,223182,223782,0.7,0.28 P,0,223182,223782,A
Sprite,Foreground,Centre,"sb\d.png",0,0 M,4,223182,223782,306,390,274,338 F,0,223182,223782,1,0 S,0,223182,223782,0.7,0.28 P,0,223182,223782,A
Sprite,Foreground,Centre,"sb\d.png",0,0 M,4,223332,223932,395,161,473,231 F,0,223332,223932,1,0 S,0,223332,223932,0.7,0.28 P,0,223332,223932,A
Sprite,Foreground,Centre,"sb\d.png",0,0 M,4,223332,223932,395,161,510,275 F,0,223332,223932,1,0 S,0,223332,223932,0.7,0.28 P,0,223332,223932,A
Sprite,Foreground,Centre,"sb\d.png",0,0 M,4,223332,223932,395,161,264,221 F,0,223332,223932,1,0 S,0,223332,223932,0.7,0.28 P,0,223332,223932,A
Sprite,Foreground,Centre,"sb\d.png",0,0 M,4,223332,223932,395,161,421,37 F,0,223332,223932,1,0 S,0,223332,223932,0.7,0.28 P,0,223332,223932,A
Sprite,Foreground,Centre,"sb\d.png",0,0 M,4,223332,223932,395,161,529,244 F,0,223332,223932,1,0 S,0,223332,223932,0.7,0.28 P,0,223332,223932,A
Sprite,Foreground,Centre,"sb\d.png",0,0 M,4,223332,223932,395,161,493,210 F,0,223332,223932,1,0 S,0,223332,223932,0.7,0.28 P,0,223332,223932,A
Sprite,Foreground,Centre,"sb\d.png",0,0 M,4,223332,223932,395,161,311,190 F,0,223332,223932,1,0 S,0,223332,223932,0.7,0.28 P,0,223332,223932,A
Sprite,Foreground,Centre,"sb\d.png",0,0 M,4,223632,224232,300,378,326,423 F,0,223632,224232,1,0 S,0,223632,224232,0.7,0.28 P,0,223632,224232,A
Sprite,Foreground,Centre,"sb\d.png",0,0 M,4,223632,224232,300,378,387,256 F,0,223632,224232,1,0 S,0,223632,224232,0.7,0.28 P,0,223632,224232,A
Sprite,Foreground,Centre,"sb\d.png",0,0 M,4,223632,224232,300,378,303,480 F,0,223632,224232,1,0 S,0,223632,224232,0.7,0.28 P,0,223632,224232,A
Sprite,Foreground,Centre,"sb\d.png",0,0 M,4,223632,224232,300,378,216,484 F,0,223632,224232,1,0 S,0,223632,224232,0.7,0.28 P,0,223632,224232,A
Sprite,Foreground,Centre,"sb\d.png",0,0 M,4,223632,224232,300,378,400,361 F,0,223632,224232,1,0 S,0,223632,224232,0.7,0.28 P,0,223632,224232,A
Sprite,Foreground,Centre,"sb\d.png",0,0 M,4,223632,224232,300,378,182,330 F,0,223632,224232,1,0 S,0,223632,224232,0.7,0.28 P,0,223632,224232,A
Sprite,Foreground,Centre,"sb\d.png",0,0 M,4,223632,224232,300,378,363,441 F,0,223632,224232,1,0 S,0,223632,224232,0.7,0.28 P,0,223632,224232,A
Sprite,Foreground,Centre,"sb\d.png",0,0 M,4,223782,224382,225,128,243,32 F,0,223782,224382,1,0 S,0,223782,224382,0.7,0.28 P,0,223782,224382,A
Sprite,Foreground,Centre,"sb\d.png",0,0 M,4,223782,224382,225,128,331,152 F,0,223782,224382,1,0 S,0,223782,224382,0.7,0.28 P,0,223782,224382,A
Sprite,Foreground,Centre,"sb\d.png",0,0 M,4,223782,224382,225,128,241,185 F,0,223782,224382,1,0 S,0,223782,224382,0.7,0.28 P,0,223782,224382,A
Sprite,Foreground,Centre,"sb\d.png",0,0 M,4,223782,224382,225,128,273,30 F,0,223782,224382,1,0 S,0,223782,224382,0.7,0.28 P,0,223782,224382,A
Sprite,Foreground,Centre,"sb\d.png",0,0 M,4,223782,224382,225,128,137,275 F,0,223782,224382,1,0 S,0,223782,224382,0.7,0.28 P,0,223782,224382,A
Sprite,Foreground,Centre,"sb\d.png",0,0 M,4,223782,224382,225,128,102,87 F,0,223782,224382,1,0 S,0,223782,224382,0.7,0.28 P,0,223782,224382,A
Sprite,Foreground,Centre,"sb\d.png",0,0 M,4,223782,224382,225,128,221,22 F,0,223782,224382,1,0 S,0,223782,224382,0.7,0.28 P,0,223782,224382,A
Sprite,Foreground,Centre,"sb\d.png",0,0 M,4,224082,224682,305,366,157,306 F,0,224082,224682,1,0 S,0,224082,224682,0.7,0.28 P,0,224082,224682,A
Sprite,Foreground,Centre,"sb\d.png",0,0 M,4,224082,224682,305,366,325,378 F,0,224082,224682,1,0 S,0,224082,224682,0.7,0.28 P,0,224082,224682,A
Sprite,Foreground,Centre,"sb\d.png",0,0 M,4,224082,224682,305,366,222,236 F,0,224082,224682,1,0 S,0,224082,224682,0.7,0.28 P,0,224082,224682,A
Sprite,Foreground,Centre,"sb\d.png",0,0 M,4,224082,224682,305,366,241,506 F,0,224082,224682,1,0 S,0,224082,224682,0.7,0.28 P,0,224082,224682,A
Sprite,Foreground,Centre,"sb\d.png",0,0 M,4,224082,224682,305,366,358,216 F,0,224082,224682,1,0 S,0,224082,224682,0.7,0.28 P,0,224082,224682,A
Sprite,Foreground,Centre,"sb\d.png",0,0 M,4,224082,224682,305,366,250,381 F,0,224082,224682,1,0 S,0,224082,224682,0.7,0.28 P,0,224082,224682,A
Sprite,Foreground,Centre,"sb\d.png",0,0 M,4,224082,224682,305,366,186,487 F,0,224082,224682,1,0 S,0,224082,224682,0.7,0.28 P,0,224082,224682,A
Sprite,Foreground,Centre,"sb\d.png",0,0 M,4,224232,224832,417,95,537,77 F,0,224232,224832,1,0 S,0,224232,224832,0.7,0.28 P,0,224232,224832,A
Sprite,Foreground,Centre,"sb\d.png",0,0 M,4,224232,224832,417,95,499,162 F,0,224232,224832,1,0 S,0,224232,224832,0.7,0.28 P,0,224232,224832,A
Sprite,Foreground,Centre,"sb\d.png",0,0 M,4,224232,224832,417,95,563,208 F,0,224232,224832,1,0 S,0,224232,224832,0.7,0.28 P,0,224232,224832,A
Sprite,Foreground,Centre,"sb\d.png",0,0 M,4,224232,224832,417,95,424,175 F,0,224232,224832,1,0 S,0,224232,224832,0.7,0.28 P,0,224232,224832,A
Sprite,Foreground,Centre,"sb\d.png",0,0 M,4,224232,224832,417,95,543,18 F,0,224232,224832,1,0 S,0,224232,224832,0.7,0.28 P,0,224232,224832,A
Sprite,Foreground,Centre,"sb\d.png",0,0 M,4,224232,224832,417,95,300,104 F,0,224232,224832,1,0 S,0,224232,224832,0.7,0.28 P,0,224232,224832,A
Sprite,Foreground,Centre,"sb\d.png",0,0 M,4,224232,224832,417,95,548,69 F,0,224232,224832,1,0 S,0,224232,224832,0.7,0.28 P,0,224232,224832,A
Sprite,Foreground,Centre,"sb\d.png",0,0 M,4,224532,225132,299,354,282,444 F,0,224532,225132,1,0 S,0,224532,225132,0.7,0.28 P,0,224532,225132,A
Sprite,Foreground,Centre,"sb\d.png",0,0 M,4,224532,225132,299,354,150,247 F,0,224532,225132,1,0 S,0,224532,225132,0.7,0.28 P,0,224532,225132,A
Sprite,Foreground,Centre,"sb\d.png",0,0 M,4,224532,225132,299,354,254,226 F,0,224532,225132,1,0 S,0,224532,225132,0.7,0.28 P,0,224532,225132,A
Sprite,Foreground,Centre,"sb\d.png",0,0 M,4,224532,225132,299,354,402,364 F,0,224532,225132,1,0 S,0,224532,225132,0.7,0.28 P,0,224532,225132,A
Sprite,Foreground,Centre,"sb\d.png",0,0 M,4,224532,225132,299,354,412,373 F,0,224532,225132,1,0 S,0,224532,225132,0.7,0.28 P,0,224532,225132,A
Sprite,Foreground,Centre,"sb\d.png",0,0 M,4,224532,225132,299,354,183,397 F,0,224532,225132,1,0 S,0,224532,225132,0.7,0.28 P,0,224532,225132,A
Sprite,Foreground,Centre,"sb\d.png",0,0 M,4,224532,225132,299,354,275,381 F,0,224532,225132,1,0 S,0,224532,225132,0.7,0.28 P,0,224532,225132,A
Sprite,Foreground,Centre,"sb\d.png",0,0 M,4,224682,225282,200,60,200,165 F,0,224682,225282,1,0 S,0,224682,225282,0.7,0.28 P,0,224682,225282,A
Sprite,Foreground,Centre,"sb\d.png",0,0 M,4,224682,225282,200,60,128,-90 F,0,224682,225282,1,0 S,0,224682,225282,0.7,0.28 P,0,224682,225282,A
Sprite,Foreground,Centre,"sb\d.png",0,0 M,4,224682,225282,200,60,225,136 F,0,224682,225282,1,0 S,0,224682,225282,0.7,0.28 P,0,224682,225282,A
Sprite,Foreground,Centre,"sb\d.png",0,0 M,4,224682,225282,200,60,132,140 F,0,224682,225282,1,0 S,0,224682,225282,0.7,0.28 P,0,224682,225282,A
Sprite,Foreground,Centre,"sb\d.png",0,0 M,4,224682,225282,200,60,115,19 F,0,224682,225282,1,0 S,0,224682,225282,0.7,0.28 P,0,224682,225282,A
Sprite,Foreground,Centre,"sb\d.png",0,0 M,4,224682,225282,200,60,162,93 F,0,224682,225282,1,0 S,0,224682,225282,0.7,0.28 P,0,224682,225282,A
Sprite,Foreground,Centre,"sb\d.png",0,0 M,4,224682,225282,200,60,236,-18 F,0,224682,225282,1,0 S,0,224682,225282,0.7,0.28 P,0,224682,225282,A
Sprite,Foreground,Centre,"sb\d.png",0,0 M,4,224982,225582,363,232,326,178 F,0,224982,225582,1,0 S,0,224982,225582,0.7,0.28 P,0,224982,225582,A
Sprite,Foreground,Centre,"sb\d.png",0,0 M,4,224982,225582,363,232,342,290 F,0,224982,225582,1,0 S,0,224982,225582,0.7,0.28 P,0,224982,225582,A
Sprite,Foreground,Centre,"sb\d.png",0,0 M,4,224982,225582,363,232,252,344 F,0,224982,225582,1,0 S,0,224982,225582,0.7,0.28 P,0,224982,225582,A
Sprite,Foreground,Centre,"sb\d.png",0,0 M,4,224982,225582,363,232,370,345 F,0,224982,225582,1,0 S,0,224982,225582,0.7,0.28 P,0,224982,225582,A
Sprite,Foreground,Centre,"sb\d.png",0,0 M,4,224982,225582,363,232,512,133 F,0,224982,225582,1,0 S,0,224982,225582,0.7,0.28 P,0,224982,225582,A
Sprite,Foreground,Centre,"sb\d.png",0,0 M,4,224982,225582,363,232,272,90 F,0,224982,225582,1,0 S,0,224982,225582,0.7,0.28 P,0,224982,225582,A
Sprite,Foreground,Centre,"sb\d.png",0,0 M,4,224982,225582,363,232,231,192 F,0,224982,225582,1,0 S,0,224982,225582,0.7,0.28 P,0,224982,225582,A
//Storyboard Layer 4 (Overlay)
//Storyboard Sound Samples

[TimingPoints]
9582,300,4,2,2,60,1,0
9582,-200,4,2,2,60,0,0
20637,319.148936170213,4,2,2,60,1,0
20637,-200,4,2,2,60,0,0
20956,315.789473684211,4,2,2,60,1,0
20956,-200,4,2,2,60,0,0
21271,310.077519379845,4,2,2,60,1,0
21271,-200,4,2,2,60,0,0
21582,300,4,2,2,65,1,0
21582,-133.333333333333,4,2,2,65,0,0
40782,-133.333333333333,4,2,2,55,0,0
44382,-133.333333333333,4,2,2,45,0,0
44982,-133.333333333333,4,2,2,55,0,0
49182,-133.333333333333,4,2,2,45,0,0
49782,-133.333333333333,4,2,2,55,0,0
50382,-117.647058823529,4,2,2,60,0,0
59982,-100,4,2,1,85,0,0
76782,-133.333333333333,4,2,1,75,0,0
78582,-133.333333333333,4,2,1,70,0,0
79182,-100,4,2,1,60,0,0
83007,-100,4,2,1,70,0,0
83082,-100,4,2,1,60,0,0
88182,-100,4,2,1,70,0,0
88482,-100,4,2,1,60,0,0
90357,-100,4,2,1,70,0,0
90432,-100,4,2,1,60,0,0
97182,-133.333333333333,4,2,1,60,0,0
98382,-100,4,2,1,75,0,0
112782,-133.333333333333,4,2,1,65,0,0
114882,-133.333333333333,4,2,2,65,0,0
117582,-90.9090909090909,4,2,1,75,0,0
124782,-125,4,2,2,65,0,0
127182,-90.9090909090909,4,2,1,75,0,0
131982,-125,4,2,1,65,0,0
139182,-166.666666666667,4,2,2,45,0,0
158382,-133.333333333333,4,2,2,45,0,0
167982,-133.333333333333,4,2,2,55,0,0
184782,318.302387267904,4,2,2,35,1,0
184782,-300,4,2,2,35,0,0
184942,300,4,2,2,35,1,0
184942,-300,4,2,2,35,0,0
187182,300,4,2,1,80,1,1
187182,-80,4,2,1,80,0,1
203982,-100,4,2,1,80,0,0
206382,-80,4,2,1,80,0,1
223182,-86.9565217391304,4,2,1,75,0,0
224982,-133.333333333333,4,2,1,75,0,0
225582,-100,4,2,1,75,0,0
244332,-66.6666666666667,4,2,1,65,0,0
244632,-50,4,2,1,65,0,0
244782,-58.8235294117647,4,2,1,65,0,0
245007,-58.8235294117647,4,2,1,5,0,0
245082,-58.8235294117647,4,2,1,35,0,0
249582,-58.8235294117647,4,2,1,5,0,0

[Colours]
Combo1 : 223,223,223
Combo2 : 149,255,218
Combo3 : 36,74,255

[HitObjects]
256,192,5982,12,0,9432,0:0:0:0:
146,116,9582,6,0,P|144:140|150:162,1,42.5,6|0,0:2|0:0,0:0:0:0:
257,217,9882,2,0,P|237:203|215:197,1,42.5,2|0,0:0|0:0,0:0:0:0:
115,291,10182,1,2,0:0:0:0:
115,291,10332,2,0,L|209:276,1,85,2|0,0:0|0:0,0:0:0:0:
263,206,10782,6,0,L|357:221,1,85,2|0,0:0|0:0,0:0:0:0:
454,282,11232,1,2,0:0:0:0:
487,190,11382,1,2,0:0:0:0:
310,291,11682,1,2,0:0:0:0:
263,206,11832,2,0,P|248:192|225:181,1,42.5,2|0,0:0|0:0,0:0:0:0:
140,198,12132,1,2,0:0:0:0:
140,198,12282,6,0,P|193:185|227:151,1,85,2|0,0:0|0:0,0:0:0:0:
273,79,12732,2,0,P|296:80|329:92,1,42.5,2|0,0:0|0:0,0:0:0:0:
368,145,13032,1,2,0:0:0:0:
454,74,13182,6,0,P|475:109|479:162,1,85,2|0,0:2|0:2,0:0:0:0:
501,243,13632,2,0,P|485:282|455:311,1,85,2|0,0:2|0:2,0:0:0:0:
370,332,14082,1,2,0:0:0:0:
292,286,14232,5,2,0:0:0:0:
292,286,14382,2,0,L|283:229,1,42.5,0|0,0:2|0:0,0:0:0:0:
213,341,14682,2,0,L|206:382,1,42.5,2|0,0:0|0:0,0:0:0:0:
122,252,14982,1,0,0:0:0:0:
122,252,15132,2,0,L|106:153,1,85,2|2,0:0|0:0,0:0:0:0:
145,56,15582,6,0,L|156:116,1,42.5,2|0,0:0|0:0,0:0:0:0:
218,170,15882,1,2,0:0:0:0:
218,170,16032,2,0,P|260:167|313:139,1,85,2|0,0:0|0:0,0:0:0:0:
372,59,16482,1,2,0:0:0:0:
427,176,16632,1,2,0:0:0:0:
497,66,16782,5,2,0:2:0:0:
497,66,16932,2,0,P|502:43|518:19,2,42.5,2|0|0,0:0|0:0|0:2,0:0:0:0:
427,176,17382,1,2,0:0:0:0:
372,59,17532,2,0,P|366:36|350:12,2,42.5,2|0|2,0:2|0:0|0:0,0:0:0:0:
299,141,17982,6,0,P|260:119|202:125,1,85,2|0,0:2|0:2,0:0:0:0:
154,215,18432,2,0,P|115:237|57:231,1,85,2|0,0:2|0:2,0:0:0:0:
0,105,18882,1,2,0:0:0:0:
65,222,19032,1,10,0:0:0:0:
329,184,20637,6,0,P|298:204|259:203,1,63.75,2|0,0:0|0:0,0:0:0:0:
196,150,20956,6,0,B|190:125|190:125|193:127|193:127|189:112|189:112|191:114|191:114|188:97,1,63.75,2|0,0:0|0:0,0:0:0:0:
162,68,21271,2,0,P|143:93|117:107,1,42.5,2|0,0:0|0:0,0:0:0:0:
0,117,21582,6,0,P|31:142|44:168,1,63.7500024318696,6|0,1:2|1:2,0:0:0:0:
24,273,21882,1,0,0:0:0:0:
24,273,22032,1,2,0:2:0:0:
137,212,22182,2,0,P|188:213|231:227,1,95.6250036478044,0|0,1:2|0:0,0:0:0:0:
262,291,22482,6,0,P|296:293|337:279,1,63.7500024318696,2|0,0:2|0:0,0:0:0:0:
451,214,22782,2,0,L|442:358,1,127.500004863739,2|2,0:2|0:2,0:0:0:0:
310,74,23382,2,0,L|319:218,1,127.500004863739,2|2,0:2|0:2,0:0:0:0:
465,62,23832,1,0,1:2:0:0:
465,62,23907,1,0,1:2:0:0:
465,62,23982,6,0,L|247:53,1,191.250007295609,2|0,1:2|0:0,0:0:0:0:
130,98,24582,2,0,L|196:95,1,63.7500024318696,0|0,1:0|0:0,0:0:0:0:
334,132,24882,2,0,L|270:129,1,63.7500024318696,2|0,0:2|0:0,0:0:0:0:
160,190,25182,2,0,P|204:241|217:328,1,127.500004863739,2|2,0:2|0:2,0:0:0:0:
58,378,25782,2,0,P|14:327|1:240,1,127.500004863739,2|2,0:2|0:2,0:0:0:0:
75,73,26382,5,0,1:2:0:0:
75,73,26532,2,0,L|65:10,2,63.7500024318696,0|0|0,1:2|0:0|0:0,0:0:0:0:
23,146,26982,1,0,1:2:0:0:
23,146,27282,2,0,L|14:253,1,95.6250036478044
55,306,27582,6,0,P|75:281|102:265,1,63.7500024318696,2|0,0:2|0:0,0:0:0:0:
224,254,27882,2,0,L|361:268,2,127.500004863739,2|2|2,0:2|0:2|0:2,0:0:0:0:
102,264,28632,5,0,1:2:0:0:
102,264,28707,1,0,1:2:0:0:
102,264,28782,2,0,L|94:127,1,127.500004863739,2|0,1:2|0:0,0:0:0:0:
161,13,29232,1,2,0:2:0:0:
161,13,29382,2,0,L|164:81,1,63.7500024318696,8|0,1:2|0:0,0:0:0:0:
239,166,29682,6,0,P|264:77|357:25,1,191.250007295609,2|0,0:2|0:0,0:0:0:0:
410,150,30282,2,0,P|377:144|343:128,1,63.7500024318696,2|0,0:2|0:0,0:0:0:0:
504,83,30582,2,0,L|480:223,1,127.500004863739,2|2,0:2|0:2,0:0:0:0:
356,332,31182,6,0,L|362:364,2,31.8750012159348,2|0|0,1:2|0:0|1:2,0:0:0:0:
322,202,31632,1,0,0:0:0:0:
322,202,31782,2,0,L|240:209,1,63.7500024318696,2|0,1:2|0:0,0:0:0:0:
168,212,32082,6,0,P|153:164|138:131,1,63.7500024318696,2|0,0:2|0:0,0:0:0:0:
70,120,32382,2,0,P|85:72|100:39,1,63.7500024318696,2|0,0:2|0:0,0:0:0:0:
185,221,32682,2,0,P|170:173|155:140,1,63.7500024318696,2|0,0:2|0:0,0:0:0:0:
53,129,32982,2,0,P|68:81|83:48,1,63.7500024318696,2|0,0:2|0:0,0:0:0:0:
202,230,33282,5,2,0:2:0:0:
322,202,33432,1,0,1:2:0:0:
322,202,33507,1,0,1:2:0:0:
322,202,33582,2,0,L|458:215,1,127.500004863739,2|0,1:2|0:0,0:0:0:0:
508,305,34032,1,2,0:2:0:0:
508,305,34182,2,0,L|444:298,1,63.7500024318696,0|0,1:2|0:0,0:0:0:0:
329,331,34482,6,0,L|193:342,1,127.500004863739,2|2,0:2|0:2,0:0:0:0:
201,341,35082,2,0,P|189:307|169:276,1,63.7500024318696,2|0,0:2|0:0,0:0:0:0:
102,218,35382,2,0,P|85:245|75:275,1,63.7500024318696,2|0,0:2|0:0,0:0:0:0:
189,180,35682,2,0,P|178:149|162:122,1,63.7500024318696,2|0,0:2|0:0,0:0:0:0:
43,93,35982,5,0,1:2:0:0:
43,93,36132,1,0,1:2:0:0:
226,25,36432,1,0,1:0:0:0:
226,25,36582,2,0,L|236:103,1,63.7500024318696,0|0,1:2|0:0,0:0:0:0:
277,178,36882,2,0,P|317:135|376:225,1,191.250007295609,2|0,0:2|0:0,0:0:0:0:
440,283,37482,6,0,P|468:235|472:160,2,127.500004863739,2|2|2,0:2|0:2|0:2,0:0:0:0:
267,332,38232,1,0,1:2:0:0:
267,332,38307,1,0,1:2:0:0:
267,332,38382,6,0,L|121:311,1,127.500004863739,2|0,1:2|0:0,0:0:0:0:
11,262,38832,1,2,0:2:0:0:
11,262,38982,2,0,L|94:255,1,63.7500024318696,0|0,1:2|0:0,0:0:0:0:
187,175,39282,2,0,P|133:107|120:-8,1,191.250007295609,2|0,0:2|0:0,0:0:0:0:
309,63,39882,6,0,P|263:50|234:30,1,63.7500024318696,2|0,0:2|0:0,0:0:0:0:
375,136,40182,2,0,P|327:143|293:137,1,63.7500024318696,2|0,0:2|0:0,0:0:0:0:
489,169,40482,2,0,P|449:195|415:205,1,63.7500024318696,2|0,0:2|0:0,0:0:0:0:
326,304,40782,6,0,P|295:294|258:294,1,63.7500024318696,14|0,0:2|0:0,0:0:0:0:
180,346,41082,2,0,L|170:388,2,31.8750012159348
178,236,41382,2,0,L|168:194,2,31.8750012159348,2|0|0,1:2|1:0|1:0,0:0:0:0:
338,297,41682,2,0,L|349:227,1,63.7500024318696
323,82,41982,6,0,P|309:94|291:104,3,31.8750012159348,2|0|2|2,0:2|0:0|0:0|0:0,0:0:0:0:
229,140,42282,2,0,P|210:138|190:132,3,31.8750012159348,2|0|0|0,0:2|0:0|0:0|0:0,0:0:0:0:
139,83,42582,2,0,B|144:43,2,31.8750012159348,2|0|0,1:2|1:0|1:0,0:0:0:0:
39,194,42882,2,0,L|45:242,3,31.8750012159348,2|0|0|0,0:2|0:0|0:0|0:0,0:0:0:0:
95,285,43182,6,0,P|141:289|170:299,1,63.7500024318696,2|0,0:2|0:0,0:0:0:0:
282,375,43482,2,0,L|291:328,1,31.8750012159348,2|2,0:2|0:0,0:0:0:0:
345,292,43632,2,0,L|338:258,1,31.8750012159348,2|2,0:0|0:0,0:0:0:0:
286,192,43782,2,0,L|290:160,2,31.8750012159348,0|0|0,1:2|1:0|1:0,0:0:0:0:
165,302,44082,1,2,0:2:0:0:
165,302,44232,1,2,0:2:0:0:
86,245,44382,6,0,L|90:214,1,31.8750012159348,0|0,3:2|0:0,0:0:0:0:
96,98,44532,2,0,L|92:59,2,31.8750012159348,0|0|0,3:0|3:0|3:0,0:0:0:0:
107,200,44832,1,0,3:0:0:0:
208,99,44982,1,2,1:2:0:0:
208,99,45057,1,2,1:2:0:0:
208,99,45132,1,2,1:2:0:0:
300,187,45282,2,0,P|317:192|335:194,3,31.8750012159348,2|0|0|0,0:2|0:0|0:0|0:0,0:0:0:0:
432,179,45582,6,0,P|419:191|408:205,3,31.8750012159348,2|0|0|0,1:2|0:0|0:0|0:0,0:0:0:0:
376,301,45882,2,0,P|371:283|364:267,3,31.8750012159348,2|0|0|0,1:2|0:0|0:0|0:0,0:0:0:0:
300,187,46182,1,2,1:2:0:0:
300,187,46257,1,2,1:2:0:0:
300,187,46332,2,0,P|293:201|288:223,1,31.8750012159348,2|2,1:2|0:2,0:2:0:0:
255,293,46482,5,2,0:2:0:0:
246,292,46557,1,2,0:0:0:0:
238,291,46632,1,2,0:0:0:0:
230,290,46707,1,2,0:0:0:0:
224,288,46782,2,0,P|202:284|185:284,3,31.8750012159348,2|0|2|2,1:2|1:2|1:2|0:2,0:0:0:0:
124,258,47082,2,0,P|105:270|93:282,3,31.8750012159348,2|0|0|0,0:2|0:0|1:0|0:0,0:0:0:0:
37,316,47382,2,0,L|33:351,2,31.8750012159348,2|0|0,1:2|1:0|1:0,0:0:0:0:
53,168,47682,5,2,0:2:0:0:
47,145,47757,1,2,0:2:0:0:
36,126,47832,1,2,0:2:0:0:
20,110,47907,1,2,0:2:0:0:
2,100,47982,1,2,1:2:0:0:
45,242,48132,1,0,0:0:0:0:
131,114,48282,2,0,P|156:104|179:98,3,31.8750012159348,2|0|0|0,0:2|0:0|1:0|0:0,0:0:0:0:
246,51,48582,5,2,1:2:0:0:
246,51,48657,1,0,1:0:0:0:
246,51,48732,2,0,P|261:54|277:56,1,31.8750012159348,0|0,1:0|0:0,0:0:0:0:
392,17,48882,2,0,P|381:28|371:41,1,31.8750012159348,2|2,0:2|0:2,0:0:0:0:
349,160,49032,2,0,P|344:144|337:130,1,31.8750012159348,2|2,0:2|0:2,0:0:0:0:
182,106,49182,5,0,3:2:0:0:
164,214,49332,2,0,B|158:254,2,31.8750012159348,2|2|2,3:0|3:0|3:2,0:0:0:0:
282,87,49632,1,0,3:0:0:0:
282,87,49782,2,0,B|276:47,2,31.8750012159348,2|0|0,1:2|1:0|1:0,0:0:0:0:
311,250,50082,1,2,0:2:0:0:
398,171,50232,1,2,3:2:0:0:
235,213,50382,6,0,P|195:217|161:213,1,72.2500013780594,2|0,0:2|0:0,0:0:0:0:
65,103,50682,2,0,L|69:139,3,36.1250006890297,2|2|2|2,0:2|0:2|0:2|0:2,0:0:0:0:
20,212,50982,1,2,1:2:0:0:
16,235,51057,1,2,1:2:0:0:
12,259,51132,1,2,1:2:0:0:
8,282,51207,1,2,0:2:0:0:
4,306,51282,2,0,L|-2:351,1,36.1250006890297,2|2,0:2|0:2,0:0:0:0:
115,275,51432,2,0,L|120:239,1,36.1250006890297,2|2,0:2|0:2,0:0:0:0:
191,359,51582,6,0,P|211:349|229:338,3,36.1250006890297,2|0|0|0,0:2|0:0|0:0|0:0,0:0:0:0:
279,293,51882,2,0,P|300:301|321:306,3,36.1250006890297,2|2|2|2,0:2|0:0|0:2|0:0,0:0:0:0:
388,310,52182,2,0,P|398:329|411:346,2,36.1250006890297,2|0|0,1:2|1:0|1:0,0:0:0:0:
358,174,52482,2,0,L|367:123,3,36.1250006890297,2|2|2|2,0:2|0:2|0:2|0:2,0:0:0:0:
422,83,52782,2,0,L|411:-3,1,72.2500013780594,2|0,0:2|0:0,0:0:0:0:
275,167,53082,5,2,0:2:0:0:
242,180,53157,1,2,0:2:0:0:
206,179,53232,1,2,0:2:0:0:
175,161,53307,1,2,0:2:0:0:
147,138,53382,1,2,1:2:0:0:
109,121,53457,1,2,1:2:0:0:
68,123,53532,1,2,1:2:0:0:
33,144,53607,1,2,0:2:0:0:
10,177,53682,2,0,P|4:202|6:226,1,36.1250006890297,2|0,0:2|0:0,0:0:0:0:
52,305,53832,6,0,P|94:314|134:308,1,72.2500013780594,2|2,0:2|3:2,0:0:0:0:
220,252,54132,2,0,P|198:249|177:251,2,36.1250006890297,0|0|2,3:0|3:0|3:2,0:0:0:0:
316,316,54432,1,2,3:2:0:0:
374,216,54582,1,2,1:2:0:0:
374,216,54657,1,2,1:2:0:0:
374,216,54732,1,2,1:2:0:0:
228,331,54882,1,2,0:2:0:0:
395,379,55032,1,2,0:2:0:0:
395,379,55107,1,2,0:0:0:0:
394,379,55182,6,0,L|440:370,3,36.1250006890297,2|0|2|2,0:2|0:0|0:2|0:2,0:0:0:0:
512,296,55482,2,0,L|466:287,3,36.1250006890297,2|2|2|2,3:2|0:2|0:2|0:2,0:0:0:0:
374,216,55782,2,0,L|420:207,1,36.1250006890297,2|2,3:2|1:2,0:0:0:0:
498,135,55932,5,2,1:2:0:0:
468,137,56007,1,2,0:2:0:0:
438,132,56082,1,2,0:2:0:0:
411,120,56157,1,2,0:2:0:0:
388,101,56232,1,2,0:2:0:0:
371,76,56307,1,2,0:2:0:0:
361,48,56382,2,0,L|355:-10,2,36.1250006890297,2|0|0,0:2|0:0|0:0,0:0:0:0:
296,195,56682,5,2,0:2:0:0:
273,210,56757,1,0,0:0:0:0:
249,222,56832,1,0,0:0:0:0:
223,230,56907,1,0,0:0:0:0:
195,233,56982,2,0,P|176:235|157:235,3,36.1250006890297,2|0|0|0,1:2|1:0|1:0|0:0,0:0:0:0:
33,175,57282,2,0,L|27:139,1,36.1250006890297,2|2,0:2|0:2,0:0:0:0:
65,284,57432,2,0,L|59:319,1,36.1250006890297,2|2,0:2|0:2,0:0:0:0:
114,130,57582,5,0,3:0:0:0:
182,330,57807,1,0,1:0:0:0:
243,133,58032,1,0,1:0:0:0:
265,252,58182,5,0,3:0:0:0:
314,84,58407,1,0,1:0:0:0:
369,250,58632,1,0,1:0:0:0:
401,144,58782,5,0,3:0:0:0:
445,284,59007,1,0,1:0:0:0:
484,145,59232,1,0,1:0:0:0:
365,241,59382,6,0,P|355:273|361:319,1,72.2500013780594,2|0,3:2|1:2,0:0:0:0:
234,281,59682,2,0,P|238:321|264:365,1,72.2500013780594,0|0,3:2|1:2,0:0:0:0:
125,184,59982,6,0,L|39:198,1,85,4|0,3:1|0:0,0:0:0:0:
232,273,60282,1,10,0:0:0:0:
227,67,60432,2,0,P|209:104|203:153,1,85
310,300,60732,1,0,3:2:0:0:
444,212,60882,1,10,0:2:0:0:
444,212,60957,1,2,0:2:0:0:
444,212,61032,1,2,0:2:0:0:
444,212,61107,1,2,0:2:0:0:
444,212,61182,6,0,P|402:224|353:229,1,85,0|0,3:2|0:0,0:0:0:0:
167,181,61482,1,10,0:0:0:0:
305,309,61632,1,2,0:0:0:0:
305,309,61707,1,0,0:0:0:0:
305,309,61782,1,0,0:0:0:0:
150,345,61932,1,0,3:2:0:0:
288,181,62082,1,10,0:0:0:0:
431,342,62232,1,0,0:0:0:0:
431,342,62307,1,2,0:0:0:0:
431,342,62382,6,0,P|429:294|411:234,1,85,0|0,3:2|0:0,0:0:0:0:
326,112,62682,1,10,0:0:0:0:
263,261,62832,1,2,0:2:0:0:
263,261,62907,1,2,0:2:0:0:
263,261,62982,1,2,0:2:0:0:
244,83,63132,1,0,3:2:0:0:
345,290,63282,1,8,0:0:0:0:
446,166,63432,1,2,0:0:0:0:
446,166,63507,1,2,0:0:0:0:
446,166,63582,6,0,P|460:133|466:71,1,85,2|0,3:2|0:0,0:0:0:0:
229,179,63882,1,10,0:0:0:0:
420,258,64032,2,0,P|455:253|511:225,1,85,0|0,3:2|0:0,0:0:0:0:
229,179,64332,1,0,3:2:0:0:
293,360,64482,1,10,0:0:0:0:
332,146,64632,1,0,3:2:0:0:
181,377,64782,6,0,P|131:378|81:367,1,85,2|0,3:2|0:0,0:0:0:0:
37,332,65007,1,0,0:0:0:0:
37,332,65082,1,10,0:0:0:0:
126,151,65232,2,0,P|140:193|136:240,1,85
37,332,65532,1,0,3:2:0:0:
247,290,65682,1,10,0:2:0:0:
273,287,65757,1,2,0:2:0:0:
299,284,65832,1,2,0:2:0:0:
326,281,65907,1,2,0:2:0:0:
352,278,65982,6,0,L|401:289,2,42.5,2|0|0,3:2|0:0|0:0,0:0:0:0:
247,141,66282,2,0,P|262:89|304:54,1,85,10|0,0:0|0:0,0:0:0:0:
354,47,66507,1,0,0:0:0:0:
354,47,66582,1,0,0:0:0:0:
267,215,66732,1,0,3:2:0:0:
120,80,66882,2,0,P|80:56|35:42,1,85,10|0,0:0|0:0,0:0:0:0:
42,247,67182,6,0,P|84:229|121:200,1,85,0|0,3:2|0:0,0:0:0:0:
192,32,67482,1,10,0:0:0:0:
308,216,67632,1,2,0:2:0:0:
308,216,67707,1,0,0:2:0:0:
308,216,67782,1,0,0:2:0:0:
95,197,67932,1,0,0:2:0:0:
283,123,68082,1,10,0:0:0:0:
304,122,68157,1,0,0:0:0:0:
325,126,68232,1,2,0:0:0:0:
344,132,68307,1,0,0:0:0:0:
364,142,68382,6,0,P|391:178|406:218,1,85,2|0,3:2|0:0,0:0:0:0:
466,351,68682,1,8,0:0:0:0:
500,185,68832,2,0,L|464:364,1,170,2|0,3:2|0:0,0:0:0:0:
379,197,69282,1,8,0:0:0:0:
235,336,69432,1,0,0:0:0:0:
235,336,69507,1,0,0:0:0:0:
235,336,69582,6,0,P|190:336|150:321,1,85,0|0,3:2|0:0,0:0:0:0:
91,130,69882,1,10,0:0:0:0:
287,230,70032,2,0,P|248:252|205:259,1,85
33,188,70332,1,0,3:2:0:0:
222,90,70482,5,10,0:0:0:0:
220,111,70557,1,2,0:0:0:0:
219,132,70632,1,2,0:0:0:0:
217,153,70707,1,2,0:0:0:0:
216,174,70782,2,0,L|207:272,1,85,2|0,3:2|0:0,0:0:0:0:
114,64,71082,1,10,0:0:0:0:
330,126,71232,1,2,0:0:0:0:
330,126,71307,1,2,0:0:0:0:
330,126,71382,1,2,0:0:0:0:
71,152,71532,1,0,3:2:0:0:
230,6,71682,2,0,L|221:104,1,85,8|0,0:0|0:0,0:0:0:0:
68,226,71982,6,0,L|59:127,1,85,0|0,3:2|0:0,0:0:0:0:
242,273,72282,1,10,0:0:0:0:
223,282,72357,1,2,0:0:0:0:
202,286,72432,1,2,0:0:0:0:
181,285,72507,1,2,0:0:0:0:
160,280,72582,1,2,0:0:0:0:
330,126,72732,1,0,3:2:0:0:
371,355,72882,2,0,P|337:325|314:276,1,85,8|2,0:0|0:0,0:0:0:0:
449,157,73182,6,0,L|436:271,1,85,0|0,3:2|0:0,0:0:0:0:
430,261,73407,1,0,0:0:0:0:
430,261,73482,1,10,0:0:0:0:
319,55,73632,2,0,L|332:169,1,85,2|0,3:2|0:0,0:0:0:0:
245,292,73932,1,0,3:2:0:0:
160,138,74082,1,10,0:0:0:0:
144,125,74157,1,2,0:0:0:0:
126,114,74232,1,2,0:0:0:0:
106,106,74307,1,2,0:0:0:0:
86,101,74382,6,0,L|-1:91,1,85,2|0,3:2|0:0,0:0:0:0:
204,221,74682,1,10,0:0:0:0:
260,45,74832,2,0,L|173:55,1,85
347,200,75132,1,0,3:2:0:0:
494,34,75282,1,10,0:0:0:0:
472,33,75357,1,2,0:0:0:0:
451,36,75432,1,2,0:0:0:0:
432,44,75507,1,2,0:0:0:0:
414,55,75582,6,0,L|403:159,1,85,2|0,3:2|0:0,0:0:0:0:
395,316,75882,1,10,0:0:0:0:
347,187,76032,1,0,0:0:0:0:
347,187,76107,1,0,0:0:0:0:
347,187,76182,1,0,0:0:0:0:
472,333,76332,1,0,3:2:0:0:
268,180,76482,2,0,P|223:174|158:188,1,85,10|0,0:0|0:0,0:0:0:0:
0,342,76782,5,0,3:2:0:0:
226,302,77007,1,0,1:2:0:0:
24,206,77232,1,0,1:2:0:0:
110,284,77382,5,0,1:2:0:0:
170,113,77607,1,0,1:2:0:0:
24,206,77832,1,2,1:2:0:0:
114,188,77982,5,2,1:2:0:0:
35,55,78207,1,0,1:2:0:0:
24,206,78432,1,2,1:2:0:0:
57,137,78582,5,8,0:0:0:0:
219,188,78882,5,8,0:0:0:0:
57,137,79032,1,0,3:0:0:0:
290,243,79182,6,0,P|305:194|301:148,1,85,4|0,3:1|0:0,0:0:0:0:
227,16,79482,1,10,0:2:0:0:
227,16,79557,1,2,0:2:0:0:
227,16,79632,1,2,0:2:0:0:
219,188,79782,1,0,3:2:0:0:
96,12,79932,1,2,3:2:0:0:
306,85,80082,1,10,0:2:0:0:
336,90,80157,1,2,0:2:0:0:
368,88,80232,1,2,0:2:0:0:
399,79,80307,1,2,0:2:0:0:
425,62,80382,5,2,3:2:0:0:
410,90,80457,1,2,0:2:0:0:
402,121,80532,1,2,0:2:0:0:
402,153,80607,1,2,0:2:0:0:
409,184,80682,2,0,L|426:224,3,42.5,10|2|2|2,0:2|0:2|0:2|0:2,0:0:0:0:
512,264,80982,2,0,P|497:302|490:352,1,85,2|0,0:2|3:2,0:0:0:0:
372,384,81282,1,10,0:0:0:0:
368,352,81357,1,2,0:0:0:0:
357,323,81432,1,2,0:0:0:0:
338,297,81507,1,2,0:0:0:0:
313,278,81582,6,0,P|271:263|225:260,1,85,2|0,3:2|0:0,0:0:0:0:
27,297,81882,1,10,0:0:0:0:
58,325,81957,1,2,0:0:0:0:
98,337,82032,1,2,0:0:0:0:
140,331,82107,1,2,0:0:0:0:
174,307,82182,1,2,0:0:0:0:
203,294,82257,1,2,0:0:0:0:
235,290,82332,1,2,3:2:0:0:
266,294,82407,1,2,0:0:0:0:
295,307,82482,2,0,P|310:321|322:341,3,42.5,10|2|2|2,0:0|0:0|0:0|0:0,0:0:0:0:
397,372,82782,6,0,P|401:351|412:332,3,42.5,2|0|0|0,3:2|0:0|0:0|0:0,0:0:0:0:
476,274,83082,1,8,0:0:0:0:
295,335,83232,1,2,3:2:0:0:
486,384,83382,1,2,0:0:0:0:
486,384,83457,1,2,0:0:0:0:
486,384,83532,1,2,0:0:0:0:
290,215,83682,1,10,0:0:0:0:
279,184,83757,1,2,0:0:0:0:
273,153,83832,1,2,0:0:0:0:
270,121,83907,1,2,0:0:0:0:
271,90,83982,5,2,3:2:0:0:
459,38,84132,1,2,0:0:0:0:
459,38,84207,1,2,0:0:0:0:
459,38,84282,2,0,P|469:79|469:126,1,85,8|0,0:0|0:0,0:0:0:0:
390,279,84582,1,2,0:0:0:0:
271,90,84732,1,2,3:2:0:0:
147,203,84882,1,10,0:0:0:0:
128,210,84957,1,2,0:0:0:0:
107,215,85032,1,2,0:0:0:0:
86,217,85107,1,2,0:0:0:0:
65,217,85182,6,0,P|36:214|11:206,2,42.5,2|0|0,3:2|0:0|0:0,0:0:0:0:
187,307,85482,2,0,P|215:301|241:298,3,42.5,10|2|2|2,0:0|0:0|0:0|0:0,0:0:0:0:
293,240,85782,2,0,P|335:248|377:247,1,85,2|2,0:0|3:2,0:0:0:0:
477,173,86082,1,10,0:0:0:0:
489,144,86157,1,0,0:0:0:0:
491,113,86232,1,2,0:0:0:0:
481,82,86307,1,2,0:0:0:0:
462,59,86382,6,0,P|421:34|364:29,1,85,2|0,3:2|0:0,0:0:0:0:
260,83,86682,2,0,P|236:82|209:72,3,42.5,8|0|2|0,0:0|0:0|3:2|0:0,0:0:0:0:
119,15,86982,2,0,P|130:36|134:64,1,42.5,2|0,0:0|0:0,0:0:0:0:
139,153,87132,1,2,0:0:0:0:
137,160,87207,1,2,0:0:0:0:
136,167,87282,1,10,3:2:0:0:
136,174,87357,1,2,0:0:0:0:
135,181,87432,1,2,0:0:0:0:
134,188,87507,1,2,0:0:0:0:
134,195,87582,6,0,L|123:285,1,85,2|0,3:2|0:0,0:0:0:0:
249,78,87882,1,10,0:0:0:0:
264,197,88032,1,2,3:2:0:0:
264,197,88182,2,0,L|272:281,1,85
369,367,88482,6,0,L|373:324,1,42.5,8|0,3:2|0:0,0:0:0:0:
280,246,88632,2,0,L|284:288,1,42.5
429,269,88782,6,0,P|434:246|436:227,3,42.5,2|0|0|0,3:2|0:0|0:0|0:0,0:0:0:0:
488,165,89082,2,0,P|477:146|464:129,3,42.5,10|0|0|0,0:0|0:0|0:0|0:0,0:0:0:0:
446,57,89382,1,2,0:0:0:0:
415,45,89457,1,0,0:0:0:0:
383,43,89532,1,2,3:2:0:0:
354,53,89607,1,2,0:0:0:0:
328,73,89682,1,10,0:0:0:0:
296,97,89757,1,2,0:0:0:0:
254,106,89832,1,2,0:0:0:0:
213,94,89907,1,2,0:0:0:0:
182,65,89982,6,0,P|175:42|173:24,3,42.5,2|2|2|2,3:2|0:0|0:0|0:0,0:0:0:0:
89,5,90282,2,0,P|86:26|79:46,3,42.5,10|0|2|2,0:0|0:0|3:2|0:0,0:0:0:0:
20,114,90582,2,0,P|52:144|73:198,1,85,2|0,0:0|3:2,0:0:0:0:
0,320,90882,1,10,0:0:0:0:
12,303,90957,1,2,0:0:0:0:
28,288,91032,1,2,0:0:0:0:
46,277,91107,1,2,0:0:0:0:
66,270,91182,6,0,P|112:261|164:273,1,85,2|0,3:2|0:0,0:0:0:0:
263,384,91482,1,10,0:0:0:0:
289,366,91557,1,2,0:0:0:0:
309,342,91632,1,2,0:0:0:0:
322,313,91707,1,2,0:0:0:0:
327,281,91782,1,2,0:0:0:0:
347,292,91857,1,2,0:0:0:0:
368,297,91932,1,2,3:2:0:0:
389,297,92007,1,2,0:0:0:0:
410,293,92082,2,0,P|433:288|454:279,3,42.5,10|2|2|2,0:0|0:0|0:0|0:0,0:0:0:0:
499,220,92382,6,0,P|502:177|495:135,1,85,2|0,3:2|0:0,0:0:0:0:
345,95,92682,2,0,P|341:137|348:179,1,85,8|2,0:0|3:2,0:0:0:0:
479,67,92982,2,0,P|479:41|472:11,2,42.5,2|2|2,0:0|0:0|3:2,0:0:0:0:
337,185,93282,1,10,0:0:0:0:
309,187,93357,1,2,0:0:0:0:
283,190,93432,1,2,3:2:0:0:
257,193,93507,1,2,0:0:0:0:
231,197,93582,5,2,3:2:0:0:
418,229,93732,1,2,3:2:0:0:
235,98,93882,2,0,P|227:72|226:50,3,42.5,10|0|0|0,0:0|0:0|0:0|0:0,0:0:0:0:
158,14,94182,1,2,0:0:0:0:
142,30,94257,1,2,0:0:0:0:
123,42,94332,1,2,3:2:0:0:
101,50,94407,1,2,0:0:0:0:
79,54,94482,1,10,0:0:0:0:
116,79,94557,1,2,0:0:0:0:
138,119,94632,1,2,0:0:0:0:
140,164,94707,1,2,0:0:0:0:
127,209,94782,6,0,L|119:254,2,42.5,0|0|0,3:2|0:0|0:0,0:0:0:0:
158,14,95082,1,8,0:0:0:0:
281,157,95232,1,0,3:2:0:0:
307,165,95307,1,0,0:0:0:0:
334,166,95382,1,2,0:0:0:0:
361,159,95457,1,0,0:0:0:0:
386,147,95532,1,2,3:2:0:0:
313,0,95682,1,10,0:0:0:0:
327,28,95757,1,2,0:0:0:0:
348,52,95832,1,2,0:0:0:0:
374,69,95907,1,2,0:0:0:0:
404,80,95982,5,2,3:2:0:0:
505,208,96132,1,0,0:0:0:0:
505,208,96207,1,0,0:0:0:0:
505,208,96282,2,0,P|497:250|512:290,1,85,10|0,0:0|3:2,0:0:0:0:
358,384,96582,1,0,0:0:0:0:
366,355,96657,1,0,0:0:0:0:
367,326,96732,1,2,0:0:0:0:
363,296,96807,1,2,0:0:0:0:
351,272,96882,1,10,3:2:0:0:
333,232,96957,1,2,0:0:0:0:
319,190,97032,1,2,0:0:0:0:
315,147,97107,1,2,0:0:0:0:
313,106,97182,6,0,L|321:13,1,63.7500024318696,2|0,3:2|0:0,0:0:0:0:
428,0,97482,2,0,L|437:71,1,63.7500024318696,10|0,0:0|3:2,0:0:0:0:
234,144,98082,5,10,3:2:0:0:
234,144,98157,1,2,0:0:0:0:
234,144,98232,1,2,0:0:0:0:
234,144,98307,1,2,0:0:0:0:
234,144,98382,6,0,P|236:119|244:86,2,42.5,4|0|0,3:1|0:0|0:0,0:0:0:0:
253,292,98682,2,0,P|218:275|168:270,1,85,10|0,0:0|0:0,0:0:0:0:
14,306,98982,2,0,P|46:284|75:243,1,85,0|0,0:0|3:2,0:0:0:0:
108,65,99282,1,10,0:0:0:0:
111,86,99357,1,2,0:0:0:0:
116,106,99432,1,2,0:0:0:0:
121,127,99507,1,2,0:0:0:0:
125,148,99582,6,0,L|133:192,3,42.5,2|2|2|2,3:2|0:0|0:0|0:0,0:0:0:0:
172,269,99882,2,0,L|158:362,1,85,10|0,0:0|3:2,0:0:0:0:
258,200,100182,2,0,L|244:106,1,85,0|0,0:0|3:2,0:0:0:0:
308,26,100482,1,10,0:0:0:0:
327,34,100557,1,2,0:0:0:0:
349,40,100632,1,2,0:0:0:0:
371,44,100707,1,2,0:0:0:0:
394,42,100782,6,0,L|480:28,1,85,2|0,3:2|0:0,0:0:0:0:
410,180,101082,1,10,0:0:0:0:
407,206,101157,1,2,0:0:0:0:
404,232,101232,1,2,0:0:0:0:
401,258,101307,1,2,0:0:0:0:
397,284,101382,2,0,L|387:404,1,85,2|2,0:0|3:2,0:0:0:0:
271,207,101682,1,8,0:0:0:0:
177,343,101832,1,0,0:0:0:0:
177,343,101907,1,0,0:0:0:0:
177,343,101982,6,0,L|167:384,2,42.5,0|0|0,3:2|0:0|0:0,0:0:0:0:
152,171,102282,1,8,0:0:0:0:
275,348,102432,1,0,3:2:0:0:
275,348,102507,1,0,3:2:0:0:
275,348,102582,1,2,0:0:0:0:
89,272,102732,1,0,3:2:0:0:
267,175,102882,1,10,0:0:0:0:
288,168,102957,1,2,0:0:0:0:
309,165,103032,1,2,3:2:0:0:
333,167,103107,1,2,0:0:0:0:
354,172,103182,6,0,P|390:188|413:207,3,42.5,2|0|0|0,3:2|0:0|0:0|0:0,0:0:0:0:
480,194,103482,2,0,P|476:153|481:124,3,42.5,8|0|0|0,0:0|0:0|0:0|0:0,0:0:0:0:
444,69,103782,1,2,0:0:0:0:
418,87,103857,1,2,0:0:0:0:
387,94,103932,1,2,3:2:0:0:
355,90,104007,1,2,0:0:0:0:
328,74,104082,1,10,0:0:0:0:
290,56,104157,1,2,0:0:0:0:
248,55,104232,1,2,0:0:0:0:
208,70,104307,1,2,0:0:0:0:
179,100,104382,6,0,P|165:145|164:196,1,85,2|2,3:2|0:0,0:0:0:0:
230,357,104682,1,10,0:0:0:0:
278,175,104832,1,0,0:0:0:0:
278,175,104907,1,0,0:0:0:0:
278,175,104982,1,0,0:0:0:0:
132,294,105132,1,0,3:2:0:0:
336,257,105282,1,8,0:0:0:0:
91,221,105432,1,0,0:0:0:0:
91,221,105507,1,0,0:0:0:0:
91,221,105582,5,0,3:2:0:0:
230,357,105732,2,0,L|273:352,3,42.5,0|0|8|0,0:0|0:0|0:0|0:0,0:0:0:0:
374,281,106032,2,0,L|331:276,1,42.5,0|0,3:2|0:0,0:0:0:0:
481,325,106182,1,2,0:0:0:0:
465,297,106257,1,2,0:0:0:0:
461,266,106332,1,2,0:0:0:0:
469,235,106407,1,2,0:0:0:0:
488,209,106482,1,10,0:0:0:0:
507,172,106557,1,2,0:0:0:0:
512,130,106632,1,2,0:0:0:0:
501,89,106707,1,2,0:0:0:0:
476,56,106782,6,0,P|434:39|371:43,1,85,2|0,3:2|0:0,0:0:0:0:
228,81,107082,1,8,0:0:0:0:
324,104,107232,1,0,3:2:0:0:
324,104,107382,2,0,L|314:4,1,85
213,194,107682,2,0,L|203:294,1,85,8|0,0:0|3:2,0:0:0:0:
104,375,107982,6,0,P|98:353|80:321,3,42.5,0|0|0|0,3:2|0:0|0:0|0:0,0:0:0:0:
24,287,108282,2,0,P|35:269|46:233,3,42.5,8|0|0|0,0:0|0:0|0:0|0:0,0:0:0:0:
29,167,108582,2,0,P|72:159|114:139,1,85,2|2,0:0|0:0,0:0:0:0:
193,51,108882,1,10,0:0:0:0:
221,52,108957,1,2,0:0:0:0:
249,55,109032,1,2,0:0:0:0:
277,56,109107,1,2,0:0:0:0:
305,59,109182,6,0,P|331:60|358:59,3,42.5,2|2|2|0,3:2|0:0|0:0|0:0,0:0:0:0:
473,27,109482,2,0,P|451:63|438:103,1,85,8|0,0:0|0:0,0:0:0:0:
382,224,109782,2,0,P|371:183|350:145,1,85,0|0,0:0|3:2,0:0:0:0:
276,331,110082,1,8,0:0:0:0:
481,284,110232,1,0,0:0:0:0:
481,284,110307,1,0,0:0:0:0:
481,284,110382,6,0,P|490:262|495:235,3,42.5,2|0|0|0,3:2|0:0|0:0|0:0,0:0:0:0:
499,149,110682,1,10,0:0:0:0:
496,123,110757,1,2,0:0:0:0:
493,98,110832,1,2,0:0:0:0:
490,72,110907,1,2,0:0:0:0:
488,47,110982,1,2,0:0:0:0:
405,222,111132,1,0,3:2:0:0:
227,160,111282,2,0,P|272:143|311:137,1,85,8|0,0:0|0:0,0:0:0:0:
103,261,111582,5,2,3:2:0:0:
77,113,111732,1,0,0:0:0:0:
201,308,111882,1,10,0:0:0:0:
227,160,112032,1,2,0:0:0:0:
103,261,112182,5,0,3:2:0:0:
316,191,112332,1,0,3:2:0:0:
153,114,112482,1,10,0:0:0:0:
147,142,112557,1,2,0:0:0:0:
149,172,112632,1,2,0:0:0:0:
158,199,112707,1,2,0:0:0:0:
174,225,112782,1,2,3:2:0:0:
229,269,114882,6,0,P|263:258|297:258,1,63.7500024318696,0|0,3:2|0:0,0:0:0:0:
407,324,115182,5,0,3:2:0:0:
268,172,115407,1,0,1:2:0:0:
457,253,115632,1,0,1:2:0:0:
298,238,115782,5,0,1:2:0:0:
499,193,116007,1,0,1:2:0:0:
334,316,116232,1,0,1:2:0:0:
426,186,116382,5,0,1:2:0:0:
364,383,116607,1,0,1:2:0:0:
340,179,116832,1,0,1:2:0:0:
443,266,116982,6,0,P|412:263|374:244,1,63.7500024318696,0|0,3:0|1:0,0:0:0:0:
420,285,117282,2,0,P|392:271|363:239,1,63.7500024318696,0|0,3:0|1:0,0:0:0:0:
238,50,117582,6,0,P|187:53|136:69,1,93.5000028533936,4|0,3:1|0:0,0:0:0:0:
276,226,117882,2,0,P|298:179|307:129,1,93.5000028533936,10|0,0:0|0:0,0:0:0:0:
104,184,118182,1,2,0:0:0:0:
185,264,118332,1,0,3:2:0:0:
137,69,118482,1,10,0:0:0:0:
8,209,118632,2,0,P|-1:262|4:320,1,93.5000028533936,2|0,0:0|3:2,0:0:0:0:
214,147,118932,5,2,0:0:0:0:
27,94,119082,1,8,0:0:0:0:
185,264,119232,1,0,0:0:0:0:
215,269,119307,1,0,0:0:0:0:
247,264,119382,1,2,0:0:0:0:
276,249,119457,1,0,0:0:0:0:
298,226,119532,1,0,3:2:0:0:
104,184,119682,1,10,0:0:0:0:
202,363,119832,1,2,0:0:0:0:
202,363,119907,1,0,0:0:0:0:
202,363,119982,6,0,P|259:357|314:335,1,93.5000028533936,2|0,3:2|0:0,0:0:0:0:
359,167,120282,2,0,P|306:171|256:191,1,93.5000028533936,10|0,0:0|0:0,0:0:0:0:
407,340,120582,1,2,0:0:0:0:
482,177,120732,1,0,3:2:0:0:
288,310,120882,1,10,0:0:0:0:
508,384,121032,2,0,P|515:333|502:281,1,93.5000028533936,2|0,0:0|3:2,0:0:0:0:
359,167,121332,5,2,0:0:0:0:
407,340,121482,1,8,0:0:0:0:
482,177,121632,1,0,0:0:0:0:
491,145,121707,1,0,0:0:0:0:
492,113,121782,1,2,0:0:0:0:
487,80,121857,1,0,0:0:0:0:
474,50,121932,1,0,3:2:0:0:
364,280,122082,1,10,0:0:0:0:
232,117,122232,1,0,0:0:0:0:
232,117,122307,1,0,0:0:0:0:
232,117,122382,6,0,L|341:132,1,93.5000028533936,0|0,3:2|0:0,0:0:0:0:
105,187,122682,2,0,P|89:137|84:87,1,93.5000028533936,10|0,0:0|0:0,0:0:0:0:
261,231,122982,1,2,0:0:0:0:
132,306,123132,1,0,3:2:0:0:
232,117,123282,1,10,0:0:0:0:
359,304,123432,2,0,P|314:329|263:336,1,93.5000028533936,0|0,0:0|3:2,0:0:0:0:
359,145,123732,5,2,0:0:0:0:
477,326,123882,1,8,0:0:0:0:
512,145,124032,1,0,0:0:0:0:
488,161,124107,1,0,0:0:0:0:
468,180,124182,1,2,0:0:0:0:
448,199,124257,1,0,0:0:0:0:
430,221,124332,1,0,3:2:0:0:
360,384,124482,1,10,0:0:0:0:
269,242,124632,1,2,0:0:0:0:
269,242,124707,1,0,0:0:0:0:
269,242,124782,6,0,P|302:253|345:281,1,68,2|0,3:2|0:0,0:0:0:0:
188,278,125082,2,0,P|181:243|183:191,1,68,2|0,0:0|0:0,0:0:0:0:
260,331,125382,2,0,P|233:354|152:363,1,102,2|0,0:0|0:0,0:0:0:0:
147,359,125682,1,2,0:0:0:0:
9,308,125832,1,2,0:0:0:0:
188,278,126132,5,2,0:0:0:0:
188,278,126282,2,0,P|201:237|201:197,1,68,2|0,0:0|0:0,0:0:0:0:
333,202,126582,2,0,P|315:132|275:70,1,136,2|2,0:0|0:0,0:0:0:0:
0,31,127182,6,0,L|103:42,1,93.5000028533936,2|0,3:2|0:0,0:0:0:0:
284,65,127482,1,10,0:0:0:0:
96,183,127632,1,0,0:0:0:0:
96,183,127707,1,0,0:0:0:0:
96,183,127782,2,0,L|90:125,1,46.7500014266968,2|0,0:0|0:0,0:0:0:0:
92,40,127932,1,0,3:2:0:0:
158,261,128082,1,10,0:0:0:0:
244,148,128232,2,0,P|259:102|288:59,1,93.5000028533936,2|0,0:0|3:2,0:0:0:0:
512,192,128532,5,2,0:0:0:0:
340,136,128682,1,8,0:0:0:0:
469,67,128832,1,2,0:0:0:0:
469,67,128907,1,0,0:0:0:0:
469,67,128982,6,0,L|461:130,1,46.7500014266968,0|0,3:2|0:0,0:0:0:0:
411,247,129132,2,0,L|403:183,1,46.7500014266968,0|0,3:2|0:0,0:0:0:0:
310,18,129282,2,0,L|302:81,1,46.7500014266968,10|0,3:2|0:0,0:0:0:0:
252,198,129432,2,0,L|244:134,1,46.7500014266968,0|0,3:2|0:0,0:0:0:0:
141,13,129582,6,0,L|125:140,1,93.5000028533936,0|0,3:2|0:0,0:0:0:0:
80,276,129882,2,0,L|64:148,1,93.5000028533936,10|0,0:0|0:0,0:0:0:0:
212,40,130182,2,0,L|200:129,1,46.7500014266968,2|0,0:0|0:0,0:0:0:0:
185,238,130332,1,0,3:2:0:0:
46,93,130482,1,10,0:0:0:0:
259,171,130632,2,0,P|307:172|351:152,1,93.5000028533936,2|0,0:0|3:2,0:0:0:0:
409,34,130932,5,2,0:0:0:0:
409,34,131007,1,0,0:0:0:0:
409,34,131082,2,0,P|402:58|400:81,1,46.7500014266968,10|0,0:0|0:0,0:0:0:0:
463,228,131232,1,0,0:0:0:0:
463,228,131307,1,0,0:0:0:0:
463,228,131382,6,0,L|457:180,1,46.7500014266968,0|0,3:2|0:0,0:0:0:0:
409,34,131532,2,0,L|403:80,1,46.7500014266968,0|0,3:2|0:0,0:0:0:0:
353,257,131682,2,0,L|347:209,1,46.7500014266968,8|0,3:2|0:0,0:0:0:0:
293,11,131832,2,0,L|287:57,1,46.7500014266968,0|0,3:2|0:0,0:0:0:0:
236,300,131982,5,0,3:2:0:0:
256,192,133632,12,2,136632,0:0:0:0:
320,165,136782,6,0,P|317:125|342:77,1,68,10|0,3:2|0:0,0:0:0:0:
417,41,137007,2,0,P|384:63|330:66,1,68
251,15,137232,2,0,P|270:24|287:44,1,34
177,118,137382,6,0,P|144:140|90:143,1,68,2|0,0:0|0:0,0:0:0:0:
18,96,137607,2,0,P|54:114|83:159,1,68
80,253,137832,2,0,P|78:233|87:207,1,34,2|0,0:0|0:0,0:0:0:0:
219,235,137982,6,0,P|254:252|284:297,1,68,2|0,0:0|0:0,0:0:0:0:
280,384,138207,2,0,P|277:343|302:295,1,68
385,251,138432,2,0,P|368:261|341:266,1,34,2|0,0:0|0:0,0:0:0:0:
196,318,138582,5,2,3:2:0:0:
314,178,138732,1,0,3:2:0:0:
364,353,138882,1,0,3:2:0:0:
372,351,138957,1,0,3:2:0:0:
380,349,139032,1,0,3:2:0:0:
389,348,139107,1,0,3:2:0:0:
395,346,139182,6,0,L|427:88,1,254.999992218018,6|0,3:2|0:0,0:0:0:0:
510,122,140082,2,0,P|452:179|337:73,1,254.999992218018,2|0,0:0|0:0,0:0:0:0:
229,57,140982,2,0,P|229:144|255:217,1,152.999995330811,2|0,0:0|0:0,0:0:0:0:
337,273,141507,1,0,0:0:0:0:
345,267,141582,6,0,P|359:162|261:202,1,254.999992218018,2|0,3:2|0:0,0:0:0:0:
252,294,142407,1,0,0:0:0:0:
256,306,142482,2,0,P|343:357|435:325,1,203.999993774414,2|0,3:2|0:0,0:0:0:0:
512,194,143382,2,0,P|515:165|509:134,1,50.9999984436036,2|0,0:0|0:0,0:0:0:0:
439,113,143682,2,0,P|435:141|441:172,1,50.9999984436036,2|0,0:0|0:0,0:0:0:0:
368,294,143982,5,14,0:0:0:0:
307,108,144132,1,10,0:0:0:0:
311,311,144432,5,10,0:0:0:0:
365,91,144582,1,10,0:0:0:0:
386,317,144882,5,10,0:0:0:0:
290,85,145032,1,10,0:0:0:0:
302,337,145332,5,10,0:0:0:0:
374,65,145482,1,10,0:0:0:0:
279,248,145782,5,10,0:0:0:0:
109,112,146382,5,10,0:0:0:0:
170,298,146532,1,10,0:0:0:0:
166,95,146832,5,10,0:0:0:0:
112,315,146982,1,10,0:0:0:0:
91,89,147282,5,10,0:0:0:0:
187,321,147432,1,10,0:0:0:0:
175,69,147732,5,10,0:0:0:0:
103,341,147882,1,10,0:0:0:0:
4,155,148182,5,10,0:0:0:0:
107,221,148782,6,0,P|201:119|156:23,1,254.999992218018,6|0,3:2|0:0,0:0:0:0:
87,111,149682,2,0,L|362:82,1,254.999992218018,2|0,0:0|0:0,0:0:0:0:
492,100,150582,2,0,L|320:82,1,152.999995330811,2|0,0:0|0:0,0:0:0:0:
290,161,151107,1,0,0:0:0:0:
305,164,151182,6,0,P|374:249|265:257,1,254.999992218018,2|0,3:2|0:0,0:0:0:0:
190,243,152082,2,0,L|182:307,1,50.9999984436036,2|0,3:2|0:0,0:0:0:0:
107,205,152382,2,0,L|115:269,1,50.9999984436036,2|0,0:0|0:0,0:0:0:0:
36,168,152682,2,0,L|28:232,1,50.9999984436036,2|0,0:0|0:0,0:0:0:0:
136,129,152982,2,0,L|121:9,1,101.999996887207,2|0,0:0|0:0,0:0:0:0:
58,245,153582,5,14,0:0:0:0:
289,196,153732,1,10,0:0:0:0:
54,188,154032,5,10,0:0:0:0:
292,255,154182,1,10,0:0:0:0:
37,269,154482,5,10,0:0:0:0:
309,173,154632,1,10,0:0:0:0:
36,168,154932,5,10,0:0:0:0:
311,274,155082,1,10,0:0:0:0:
48,158,155232,1,10,0:0:0:0:
323,266,155382,1,10,0:0:0:0:
158,153,155982,5,10,0:0:0:0:
389,104,156132,1,10,0:0:0:0:
154,96,156432,5,10,0:0:0:0:
392,163,156582,1,10,0:0:0:0:
137,177,156882,5,10,0:0:0:0:
409,81,157032,1,10,0:0:0:0:
136,76,157332,5,10,0:0:0:0:
411,182,157482,1,10,0:0:0:0:
148,66,157632,1,10,0:0:0:0:
423,174,157782,1,10,0:0:0:0:
423,174,158382,6,0,P|414:205|412:246,1,63.7500024318696,6|2,0:0|0:0,0:0:0:0:
330,328,158682,2,0,P|327:296|318:265,1,63.7500024318696,2|2,0:0|0:0,0:0:0:0:
241,192,158982,1,2,1:2:0:0:
241,192,159057,1,0,1:2:0:0:
241,192,159132,1,0,1:2:0:0:
153,248,159282,2,0,P|113:250|70:228,1,63.7500024318696,2|2,0:0|0:0,0:0:0:0:
0,83,159732,6,0,P|0:66|2:50,2,31.8750012159348,2|0|2,0:0|0:0|0:0,0:0:0:0:
35,189,160032,1,2,0:0:0:0:
105,45,160182,1,2,1:2:0:0:
105,45,160257,1,0,1:2:0:0:
105,45,160332,1,2,1:2:0:0:
173,110,160482,2,0,P|204:122|250:128,1,63.7500024318696,2|2,0:0|0:0,0:0:0:0:
386,34,160782,6,0,P|360:54|331:91,1,63.7500024318696,2|2,0:0|0:0,0:0:0:0:
333,160,161082,1,2,0:0:0:0:
366,235,161232,1,2,0:0:0:0:
474,131,161382,1,2,1:2:0:0:
474,131,161457,1,0,1:2:0:0:
474,131,161532,1,2,1:2:0:0:
333,160,161682,2,0,L|405:167,1,63.7500024318696,2|2,0:0|0:0,0:0:0:0:
465,56,161982,5,2,1:2:0:0:
465,56,162132,2,0,L|469:18,2,31.8750012159348,2|2|2,1:2|1:2|1:2,0:0:0:0:
336,163,162432,1,2,1:2:0:0:
336,163,162582,2,0,L|340:201,2,31.8750012159348,2|0|0,1:2|1:2|1:2,0:0:0:0:
266,70,162882,2,0,P|232:56|184:51,1,63.7500024318696,2|0,0:0|0:0,0:0:0:0:
202,208,163182,6,0,P|235:202|263:192,1,63.7500024318696,2|2,0:0|0:0,0:0:0:0:
340,99,163482,2,0,P|334:130|335:162,1,63.7500024318696,2|2,0:0|0:0,0:0:0:0:
396,259,163782,1,2,1:2:0:0:
396,259,163857,1,0,1:2:0:0:
396,259,163932,1,2,0:0:0:0:
480,170,164082,2,0,P|455:149|427:134,1,63.7500024318696,2|2,0:0|0:0,0:0:0:0:
312,165,164382,5,2,0:0:0:0:
312,165,164532,2,0,P|333:159|357:145,2,31.8750012159348,2|0|2,0:0|0:0|0:0,0:0:0:0:
163,152,164832,1,2,0:0:0:0:
258,227,164982,1,2,1:2:0:0:
258,227,165057,1,0,1:2:0:0:
258,227,165132,1,2,1:2:0:0:
293,91,165282,2,0,P|299:60|300:23,1,63.7500024318696,2|2,0:0|0:0,0:0:0:0:
163,152,165582,6,0,P|164:183|170:215,1,63.7500024318696,2|2,0:0|0:0,0:0:0:0:
269,309,165882,2,0,P|275:278|276:241,1,63.7500024318696,2|2,0:0|0:0,0:0:0:0:
201,372,166182,1,2,1:2:0:0:
201,372,166257,1,0,1:2:0:0:
201,372,166332,1,2,1:2:0:0:
354,357,166482,2,0,P|313:338|271:334,1,63.7500024318696,2|2,0:0|0:0,0:0:0:0:
201,372,166782,5,2,1:2:0:0:
138,283,166932,2,0,P|134:263|134:242,2,31.8750012159348,2|0|2,1:2|1:2|1:2,0:0:0:0:
201,372,167232,1,2,1:2:0:0:
276,245,167382,1,2,1:2:0:0:
276,245,167457,1,0,1:2:0:0:
276,245,167532,1,0,1:2:0:0:
415,323,167682,2,0,P|382:337|332:338,1,63.7500024318696,2|0,0:0|1:2,0:0:0:0:
469,197,167982,6,0,P|479:237|470:281,1,63.7500024318696,6|2,3:2|0:0,0:0:0:0:
372,120,168282,2,0,L|515:98,1,127.500004863739,2|2,0:0|0:0,0:0:0:0:
397,238,168732,2,0,L|312:227,1,63.7500024318696,2|0,0:0|0:0,0:0:0:0:
246,220,169032,1,2,0:0:0:0:
372,120,169182,5,2,0:0:0:0:
285,135,169332,2,0,L|222:145,1,63.7500024318696,2|0,0:0|0:0,0:0:0:0:
100,198,169632,2,0,L|162:204,1,63.7500024318696,2|0,0:0|0:0,0:0:0:0:
30,140,169932,1,2,0:0:0:0:
84,279,170082,1,2,0:0:0:0:
128,104,170232,1,2,0:0:0:0:
1,244,170382,6,0,P|-4:277|5:315,1,63.7500024318696,2|2,0:0|0:0,0:0:0:0:
70,378,170682,2,0,P|144:341|195:340,1,127.500004863739,2|2,0:0|0:0,0:0:0:0:
344,370,171132,2,0,P|307:376|273:368,1,63.7500024318696,2|0,0:0|0:0,0:0:0:0:
353,255,171432,1,2,0:0:0:0:
439,344,171582,5,2,0:0:0:0:
469,261,171732,2,0,P|480:195|474:131,1,127.500004863739,2|0,0:0|0:0,0:0:0:0:
471,123,172082,2,0,B|423:147|423:147|362:129,1,106.250004053116,2|0,0:0|0:0,0:0:0:0:
254,125,172482,1,2,0:0:0:0:
254,125,172632,2,0,P|259:84|285:56,1,63.7500024318696,2|2,0:0|0:0,0:0:0:0:
372,132,172932,5,2,0:0:0:0:
295,213,173082,2,0,P|237:215|172:171,1,127.500004863739,2|0,0:0|0:0,0:0:0:0:
92,87,173532,2,0,P|57:91|25:114,1,63.7500024318696,2|0,0:0|0:0,0:0:0:0:
0,213,173832,1,2,0:0:0:0:
82,166,173982,5,2,0:0:0:0:
174,186,174132,2,0,P|209:181|243:162,1,63.7500024318696,2|0,0:0|0:0,0:0:0:0:
311,75,174432,2,0,L|323:212,1,127.500004863739,2|2,0:0|0:0,0:0:0:0:
395,257,174882,2,0,L|398:193,2,63.7500024318696,2|2|0,0:0|0:0|0:0,0:0:0:0:
299,350,175332,5,2,0:0:0:0:
299,350,175482,2,0,L|296:286,1,63.7500024318696,2|0,0:0|0:0,0:0:0:0:
209,181,175782,1,2,0:0:0:0:
209,181,175932,2,0,L|206:245,1,63.7500024318696,2|0,0:0|0:0,0:0:0:0:
135,343,176232,1,2,0:0:0:0:
88,231,176382,6,0,P|72:198|38:166,2,63.7500024318696,2|0|0,0:0|0:0|0:0,0:0:0:0:
214,262,176832,2,0,P|259:227|333:217,1,127.500004863739,2|2,0:0|0:0,0:0:0:0:
431,311,177282,2,0,P|405:278|400:246,1,63.7500024318696,2|0,0:0|0:0,0:0:0:0:
482,161,177582,6,0,P|508:194|513:226,1,63.7500024318696,2|2,0:0|0:0,0:0:0:0:
440,324,177882,2,0,P|374:297|304:307,1,127.500004863739,2|0,0:0|0:0,0:0:0:0:
200,366,178332,2,0,P|164:357|134:330,1,63.7500024318696,2|0,0:0|0:0,0:0:0:0:
124,253,178632,1,2,0:0:0:0:
4,350,178782,5,2,0:0:0:0:
51,215,178932,1,2,0:0:0:0:
51,215,179007,1,2,0:0:0:0:
51,215,179082,1,2,0:0:0:0:
143,341,179232,2,0,P|169:359|200:366,1,63.7500024318696,2|0,0:0|0:0,0:0:0:0:
309,308,179532,1,2,0:0:0:0:
197,284,179682,1,2,0:0:0:0:
329,384,179832,1,2,0:0:0:0:
378,226,179982,6,0,P|404:202|436:196,1,63.7500024318696,2|0,0:0|0:0,0:0:0:0:
512,327,180282,1,2,0:0:0:0:
504,325,180357,1,2,0:0:0:0:
496,324,180432,1,2,0:0:0:0:
488,322,180507,1,2,0:0:0:0:
480,321,180582,1,2,0:0:0:0:
472,319,180657,1,2,0:0:0:0:
463,317,180732,2,0,L|386:300,1,63.7500024318696,2|0,0:0|0:0,0:0:0:0:
291,282,181032,1,2,0:0:0:0:
347,146,181182,6,0,P|365:178|368:221,1,63.7500024318696,2|0,0:0|0:0,0:0:0:0:
291,282,181482,1,2,0:0:0:0:
273,283,181557,1,2,0:0:0:0:
255,279,181632,1,2,0:0:0:0:
239,272,181707,1,2,0:0:0:0:
225,261,181782,2,0,P|202:226|201:187,1,63.7500024318696,2|0,0:0|0:0,0:0:0:0:
247,93,182082,1,2,0:0:0:0:
285,196,182232,1,2,0:0:0:0:
154,121,182532,5,2,0:0:0:0:
136,120,182607,1,2,0:0:0:0:
118,124,182682,1,2,0:0:0:0:
102,131,182757,1,2,0:0:0:0:
88,142,182832,1,2,0:0:0:0:
46,247,182982,1,2,0:0:0:0:
0,139,183132,2,0,P|22:207|36:277,1,127.500004863739,2|0,0:0|0:0,0:0:0:0:
98,353,183582,6,0,P|120:284|134:214,1,127.500004863739,2|0,0:0|0:0,0:0:0:0:
207,164,184032,2,0,P|219:197|229:230,1,63.7500024318696,2|0,0:0|0:0,0:0:0:0:
328,334,184332,5,2,0:0:0:0:
422,245,184482,1,2,0:0:0:0:
485,358,184632,1,2,0:0:0:0:
340,253,184782,6,0,L|334:213,1,28.3333333333333,2|2,3:2|0:0,0:0:0:0:
235,205,185242,2,0,L|229:165,1,28.3333333333333,2|0,0:0|0:0,0:0:0:0:
117,112,185692,2,0,L|125:168,1,56.6666666666667,2|0,0:0|0:0,0:0:0:0:
139,250,186142,2,0,L|143:278,1,28.3333333333333,2|0,0:0|0:0,0:0:0:0:
157,359,186592,1,2,0:0:0:0:
418,54,187182,6,0,L|296:42,1,106.25,6|0,3:1|0:0,0:0:0:0:
88,24,187482,1,8,0:0:0:0:
245,222,187632,1,2,0:0:0:0:
238,179,187707,1,0,0:0:0:0:
233,137,187782,1,2,0:0:0:0:
226,94,187857,1,0,0:0:0:0:
222,53,187932,1,0,3:2:0:0:
46,154,188082,2,0,L|166:172,1,106.25,10|0,0:0|0:0,0:0:0:0:
327,37,188382,6,0,L|207:55,1,106.25,0|0,3:2|0:0,0:0:0:0:
386,250,188682,1,10,0:0:0:0:
467,24,188832,1,0,0:0:0:0:
437,46,188907,1,0,0:0:0:0:
414,75,188982,1,2,0:0:0:0:
397,108,189057,1,0,0:0:0:0:
388,144,189132,1,0,3:2:0:0:
510,286,189282,2,0,L|496:164,1,106.25,10|0,0:0|0:0,0:0:0:0:
303,52,189582,6,0,L|289:174,1,106.25,2|0,3:2|0:0,0:0:0:0:
263,379,189882,1,10,0:0:0:0:
128,181,190032,1,2,0:0:0:0:
165,186,190107,1,0,0:0:0:0:
201,197,190182,1,0,0:0:0:0:
236,210,190257,1,0,0:0:0:0:
269,228,190332,1,0,3:2:0:0:
27,340,190482,2,0,P|26:279|44:219,1,106.25,10|0,0:0|0:0,0:0:0:0:
191,92,190782,6,0,P|202:143|200:196,1,106.25,0|0,3:2|0:0,0:0:0:0:
60,10,191082,1,8,0:0:0:0:
297,44,191232,1,0,0:0:0:0:
297,44,191307,1,0,0:0:0:0:
297,44,191382,2,0,L|358:38,2,53.125,2|0|0,0:0|0:0|3:2,0:0:0:0:
108,106,191682,2,0,L|1:93,1,106.25,10|0,0:0|0:0,0:0:0:0:
190,284,191982,6,0,P|214:243|224:169,1,106.25,2|0,3:2|0:0,0:0:0:0:
155,17,192282,1,8,0:0:0:0:
0,189,192432,1,2,0:0:0:0:
33,195,192507,1,0,0:0:0:0:
67,201,192582,1,0,0:0:0:0:
101,207,192657,1,0,0:0:0:0:
135,213,192732,1,0,3:2:0:0:
323,346,192882,2,0,L|207:357,1,106.25,10|0,0:0|0:0,0:0:0:0:
377,237,193182,6,0,L|440:243,2,53.125,0|0|0,3:2|0:0|0:0,0:0:0:0:
114,302,193482,1,8,0:0:0:0:
222,86,193632,1,0,0:0:0:0:
241,118,193707,1,0,0:0:0:0:
255,152,193782,1,2,0:0:0:0:
266,188,193857,1,0,0:0:0:0:
272,224,193932,1,0,3:2:0:0:
69,128,194082,1,10,0:0:0:0:
323,82,194232,1,0,0:0:0:0:
323,82,194307,1,0,0:0:0:0:
323,82,194382,5,2,3:2:0:0:
178,197,194532,1,2,3:2:0:0:
432,151,194682,1,8,0:0:0:0:
194,50,194832,1,2,3:2:0:0:
371,302,194982,5,2,3:2:0:0:
424,41,195132,1,0,0:0:0:0:
424,41,195207,1,0,3:2:0:0:
424,41,195282,1,10,0:0:0:0:
179,212,195432,1,2,3:2:0:0:
189,220,195732,5,2,3:2:0:0:
327,0,195882,1,10,0:0:0:0:
375,287,196032,1,0,3:2:0:0:
148,121,196182,2,0,P|204:124|255:144,1,106.25,2|0,3:2|0:0,0:0:0:0:
49,217,196482,2,0,P|23:167|15:112,1,106.25,10|0,0:0|0:0,0:0:0:0:
182,255,196782,6,0,L|165:388,1,106.25,2|0,3:2|0:0,0:0:0:0:
15,118,197082,1,8,0:0:0:0:
310,189,197232,1,2,0:0:0:0:
284,215,197307,1,0,0:0:0:0:
253,236,197382,1,2,0:0:0:0:
219,250,197457,1,0,0:0:0:0:
182,255,197532,1,0,3:2:0:0:
207,21,197682,2,0,P|218:83|220:146,1,106.25,10|0,0:0|0:0,0:0:0:0:
3,222,197982,6,0,P|6:169|16:116,1,106.25,0|0,3:2|0:0,0:0:0:0:
167,353,198282,1,10,0:0:0:0:
324,208,198432,1,0,0:0:0:0:
286,212,198507,1,0,0:0:0:0:
249,218,198582,1,2,0:0:0:0:
213,224,198657,1,0,0:0:0:0:
176,230,198732,1,0,3:2:0:0:
36,103,198882,2,0,L|146:124,1,106.25,10|2,0:0|0:0,0:0:0:0:
0,311,199182,6,0,P|7:249|38:186,1,106.25,2|0,3:2|0:0,0:0:0:0:
167,353,199482,1,10,0:0:0:0:
286,212,199632,1,2,0:0:0:0:
315,199,199707,1,0,0:0:0:0:
346,193,199782,1,0,0:0:0:0:
378,195,199857,1,0,0:0:0:0:
409,203,199932,1,0,3:2:0:0:
245,381,200082,2,0,L|236:264,1,106.25,10|0,0:0|0:0,0:0:0:0:
174,80,200382,6,0,L|165:197,1,106.25,0|0,3:2|0:0,0:0:0:0:
300,1,200682,1,8,0:0:0:0:
408,196,200832,1,0,0:0:0:0:
408,196,200907,1,0,0:0:0:0:
408,196,200982,2,0,P|417:226|422:252,2,53.125,2|0|0,0:0|0:0|3:2,0:0:0:0:
280,89,201282,2,0,L|163:80,1,106.25,10|0,0:0|0:0,0:0:0:0:
76,259,201582,6,0,L|193:250,1,106.25,2|0,3:2|0:0,0:0:0:0:
0,104,201882,1,8,0:0:0:0:
62,326,202032,1,2,0:0:0:0:
68,292,202107,1,0,0:0:0:0:
76,259,202182,1,0,0:0:0:0:
83,226,202257,1,0,0:0:0:0:
90,193,202332,1,0,3:2:0:0:
258,316,202482,2,0,P|204:337|143:331,1,106.25,10|0,0:0|0:0,0:0:0:0:
246,114,202782,6,0,P|298:112|347:132,1,106.25,0|0,3:2|0:0,0:0:0:0:
90,193,203082,1,8,0:0:0:0:
166,16,203232,1,0,0:0:0:0:
166,16,203307,1,0,0:0:0:0:
166,16,203382,2,0,P|168:51|164:81,2,53.125,2|0|0,0:0|0:0|3:2,0:0:0:0:
243,218,203682,2,0,P|236:161|247:108,1,106.25,10|0,0:0|0:0,0:0:0:0:
354,329,203982,5,0,3:2:0:0:
99,355,204132,1,0,3:2:0:0:
402,268,204432,5,0,3:2:0:0:
127,220,204582,1,0,3:2:0:0:
383,124,204882,5,0,3:2:0:0:
85,157,205032,1,0,3:2:0:0:
437,68,205332,5,0,3:2:0:0:
114,12,205482,1,0,3:2:0:0:
213,225,205782,6,0,L|203:154,2,42.5,0|0|0,3:2|0:0|0:0,0:0:0:0:
284,342,206082,2,0,L|274:413,2,42.5
334,211,206382,6,0,L|458:194,1,106.25,6|0,3:1|0:0,0:0:0:0:
284,342,206682,1,8,0:0:0:0:
110,235,206832,1,2,0:0:0:0:
143,239,206907,1,0,0:0:0:0:
175,243,206982,1,2,0:0:0:0:
208,247,207057,1,0,0:0:0:0:
242,252,207132,1,0,3:2:0:0:
17,299,207282,2,0,P|0:248|2:184,1,106.25,10|0,0:0|0:0,0:0:0:0:
199,140,207582,6,0,P|198:192|181:243,1,106.25,0|0,3:2|0:0,0:0:0:0:
37,36,207882,1,10,0:0:0:0:
244,79,208032,1,0,0:0:0:0:
277,78,208107,1,0,0:0:0:0:
310,75,208182,1,2,0:0:0:0:
344,69,208257,1,0,0:0:0:0:
376,62,208332,1,0,3:2:0:0:
145,7,208482,2,0,P|128:57|126:110,1,106.25,10|0,0:0|0:0,0:0:0:0:
330,299,208782,6,0,P|352:235|349:179,1,106.25,2|0,3:2|0:0,0:0:0:0:
126,110,209082,1,10,0:0:0:0:
187,337,209232,1,2,0:0:0:0:
213,316,209307,1,0,0:0:0:0:
237,292,209382,1,0,0:0:0:0:
258,265,209457,1,0,0:0:0:0:
273,235,209532,1,0,3:2:0:0:
65,280,209682,2,0,P|64:324|79:391,1,106.25,10|0,0:0|0:0,0:0:0:0:
143,165,209982,6,0,L|6:149,1,106.25,0|0,3:2|0:0,0:0:0:0:
258,265,210282,1,8,0:0:0:0:
230,59,210432,1,0,0:0:0:0:
230,59,210507,1,0,0:0:0:0:
230,59,210582,2,0,L|221:0,2,53.125,2|0|0,0:0|0:0|3:2,0:0:0:0:
351,143,210882,2,0,P|397:116|450:110,1,106.25,10|0,0:0|0:0,0:0:0:0:
442,312,211182,6,0,L|421:196,1,106.25,2|0,3:2|0:0,0:0:0:0:
287,379,211482,1,10,0:0:0:0:
118,286,211632,1,2,0:0:0:0:
151,270,211707,1,0,0:0:0:0:
187,259,211782,1,0,0:0:0:0:
224,254,211857,1,0,0:0:0:0:
261,254,211932,1,0,3:2:0:0:
442,312,212082,2,0,P|415:270|404:194,1,106.25,10|0,0:0|0:0,0:0:0:0:
509,27,212382,6,0,P|498:78|470:123,1,106.25,0|0,3:2|0:0,0:0:0:0:
301,258,212682,1,8,0:0:0:0:
335,8,212832,1,0,0:0:0:0:
347,31,212907,1,0,0:0:0:0:
356,56,212982,1,2,0:0:0:0:
360,82,213057,1,0,0:0:0:0:
359,109,213132,1,0,3:0:0:0:
197,263,213282,2,0,P|174:215|171:162,1,106.25,10|0,0:0|0:0,0:0:0:0:
383,261,213582,5,2,3:2:0:0:
383,261,213657,1,0,0:0:0:0:
383,261,213732,1,2,0:0:0:0:
129,320,213882,1,8,0:0:0:0:
268,80,214032,1,2,0:0:0:0:
265,106,214107,1,0,0:0:0:0:
263,132,214182,1,2,0:0:0:0:
261,159,214257,1,0,0:0:0:0:
259,185,214332,1,0,3:2:0:0:
52,372,214482,2,0,L|43:255,1,106.25,10|2,0:0|0:0,0:0:0:0:
32,65,214782,5,0,3:2:0:0:
32,65,214857,1,0,0:0:0:0:
32,65,214932,1,0,0:0:0:0:
156,326,215082,2,0,L|164:220,1,106.25,10|2,0:0|0:0,0:0:0:0:
244,45,215382,1,2,0:0:0:0:
9,167,215532,1,0,3:2:0:0:
277,271,215682,2,0,L|269:165,1,106.25,10|0,0:0|0:0,0:0:0:0:
110,26,215982,6,0,L|102:132,1,106.25,2|0,3:2|0:0,0:0:0:0:
83,358,216282,1,8,0:0:0:0:
275,191,216432,1,2,0:0:0:0:
243,191,216507,1,0,0:0:0:0:
212,194,216582,1,2,0:0:0:0:
181,203,216657,1,0,0:0:0:0:
151,213,216732,1,0,3:2:0:0:
341,356,216882,2,0,P|358:299|354:246,1,106.25,10|0,0:0|0:0,0:0:0:0:
317,22,217182,6,0,P|315:74|331:125,1,106.25,0|0,3:2|0:0,0:0:0:0:
480,265,217482,1,10,0:0:0:0:
242,295,217632,1,0,0:0:0:0:
215,298,217707,1,0,0:0:0:0:
189,302,217782,1,2,0:0:0:0:
163,306,217857,1,0,0:0:0:0:
136,309,217932,1,0,3:2:0:0:
172,78,218082,2,0,P|223:109|265:173,1,106.25,10|0,0:0|0:0,0:0:0:0:
19,242,218382,6,0,P|20:182|54:113,1,106.25,2|0,3:2|0:0,0:0:0:0:
174,384,218682,1,8,0:0:0:0:
394,274,218832,1,2,0:0:0:0:
356,279,218907,1,0,0:0:0:0:
318,285,218982,1,0,0:0:0:0:
280,290,219057,1,0,0:0:0:0:
242,295,219132,1,0,3:2:0:0:
483,341,219282,2,0,P|500:291|496:229,1,106.25,10|0,0:0|0:0,0:0:0:0:
313,108,219582,6,0,P|311:160|328:210,1,106.25,0|0,3:2|0:0,0:0:0:0:
475,12,219882,1,8,0:0:0:0:
293,37,220032,1,0,0:0:0:0:
255,34,220107,1,0,0:0:0:0:
218,32,220182,1,2,0:0:0:0:
181,30,220257,1,0,0:0:0:0:
144,27,220332,1,0,3:2:0:0:
0,180,220482,2,0,L|132:170,1,106.25,10|0,0:0|0:0,0:0:0:0:
144,27,220782,6,0,L|12:17,1,106.25,2|0,3:2|0:0,0:0:0:0:
206,228,221082,1,8,0:0:0:0:
350,6,221232,1,2,0:0:0:0:
356,45,221307,1,0,0:0:0:0:
363,84,221382,1,0,0:0:0:0:
370,123,221457,1,0,0:0:0:0:
377,162,221532,1,0,3:2:0:0:
453,336,221682,2,0,L|472:225,1,106.25,10|0,0:0|0:0,0:0:0:0:
289,168,221982,6,0,L|299:225,2,53.125,0|0|0,3:2|0:0|0:0,0:0:0:0:
257,12,222282,1,10,0:0:0:0:
124,133,222432,1,0,0:0:0:0:
124,133,222507,1,0,0:0:0:0:
124,133,222582,2,0,L|68:126,1,53.125,2|0,0:0|0:0,0:0:0:0:
289,168,222732,2,0,L|345:161,1,53.125,0|0,3:2|0:0,0:0:0:0:
125,221,222882,2,0,L|13:207,1,106.25,10|0,0:0|0:0,0:0:0:0:
242,334,223182,5,0,3:2:0:0:
331,105,223332,1,0,3:2:0:0:
236,322,223632,5,0,3:2:0:0:
161,72,223782,1,0,3:2:0:0:
241,310,224082,5,0,3:2:0:0:
353,39,224232,1,0,3:2:0:0:
235,298,224532,5,0,3:2:0:0:
136,4,224682,1,0,3:2:0:0:
299,176,224982,5,2,3:2:0:0:
299,176,225582,6,0,L|313:266,1,85,0|0,3:2|0:0,0:0:0:0:
337,45,225882,1,10,0:0:0:0:
182,90,226032,1,0,0:0:0:0:
191,90,226107,1,0,0:0:0:0:
202,92,226182,1,0,0:0:0:0:
212,93,226257,1,0,0:0:0:0:
223,95,226332,1,2,3:2:0:0:
81,162,226482,2,0,P|68:120|60:54,1,85,10|0,0:0|0:0,0:0:0:0:
163,238,226782,6,0,P|156:279|143:320,1,85,2|0,3:2|0:0,0:0:0:0:
81,162,227082,1,8,0:0:0:0:
218,185,227232,1,2,0:0:0:0:
228,184,227307,1,0,0:0:0:0:
239,183,227382,1,0,0:0:0:0:
249,182,227457,1,0,0:0:0:0:
260,181,227532,1,0,3:2:0:0:
425,172,227682,2,0,L|329:177,1,85,10|2,0:0|0:0,0:0:0:0:
484,239,227982,6,0,P|509:197|505:138,1,85,0|0,3:2|0:0,0:0:0:0:
480,34,228282,1,10,0:0:0:0:
357,92,228432,1,0,0:0:0:0:
367,92,228507,1,0,0:0:0:0:
378,93,228582,1,0,0:0:0:0:
388,94,228657,1,0,0:0:0:0:
399,95,228732,1,2,3:2:0:0:
277,29,228882,2,0,L|177:36,1,85,10|0,0:0|0:0,0:0:0:0:
40,15,229182,6,0,P|59:65|59:122,1,85,2|0,3:2|0:0,0:0:0:0:
22,248,229482,1,8,0:0:0:0:
106,170,229632,1,2,0:0:0:0:
116,167,229707,1,0,0:0:0:0:
126,165,229782,1,0,0:0:0:0:
137,163,229857,1,0,0:0:0:0:
147,161,229932,1,0,3:2:0:0:
22,248,230082,2,0,P|3:207|-4:155,1,85,10|2,0:0|0:0,0:0:0:0:
103,248,230382,6,0,P|97:290|81:329,1,85,0|0,3:2|0:0,0:0:0:0:
231,206,230682,1,10,0:0:0:0:
321,276,230832,1,0,0:0:0:0:
331,274,230907,1,0,0:0:0:0:
342,273,230982,1,0,0:0:0:0:
352,272,231057,1,0,0:0:0:0:
363,271,231132,1,2,3:2:0:0:
497,237,231282,2,0,P|461:231|416:206,1,85,10|0,0:0|0:0,0:0:0:0:
332,90,231582,6,0,P|344:124|345:175,1,85,2|0,3:2|0:0,0:0:0:0:
280,349,231882,1,8,0:0:0:0:
231,206,232032,1,2,0:0:0:0:
241,208,232107,1,0,0:0:0:0:
252,209,232182,1,0,0:0:0:0:
262,210,232257,1,0,0:0:0:0:
273,211,232332,1,0,3:2:0:0:
145,262,232482,2,0,L|130:155,1,85,10|2,0:0|0:0,0:0:0:0:
44,76,232782,6,0,L|29:183,1,85,0|0,3:2|0:0,0:0:0:0:
132,10,233082,1,10,0:0:0:0:
216,72,233232,1,0,0:0:0:0:
226,71,233307,1,0,0:0:0:0:
237,70,233382,1,0,0:0:0:0:
247,69,233457,1,0,0:0:0:0:
258,68,233532,1,2,3:2:0:0:
364,149,233682,2,0,L|275:139,1,85,10|0,0:0|0:0,0:0:0:0:
440,92,233982,6,0,P|454:149|450:195,1,85,2|0,3:2|0:0,0:0:0:0:
411,324,234282,1,8,0:0:0:0:
284,243,234432,1,2,0:0:0:0:
295,242,234507,1,0,0:0:0:0:
306,241,234582,1,0,0:0:0:0:
316,240,234657,1,0,0:0:0:0:
327,239,234732,1,0,3:2:0:0:
213,340,234882,2,0,P|157:330|112:300,1,85,10|2,0:0|0:0,0:0:0:0:
177,175,235182,6,0,P|196:227|192:282,1,85,0|0,3:2|0:0,0:0:0:0:
47,135,235482,1,10,0:0:0:0:
196,52,235632,1,0,0:0:0:0:
194,62,235707,1,0,0:0:0:0:
193,73,235782,1,0,0:0:0:0:
191,83,235857,1,0,0:0:0:0:
191,94,235932,1,2,3:2:0:0:
287,202,236082,2,0,P|282:158|273:101,1,85,10|0,0:0|0:0,0:0:0:0:
382,41,236382,6,0,P|374:80|368:142,1,85,2|0,3:2|0:0,0:0:0:0:
405,254,236682,1,10,0:0:0:0:
246,209,236832,1,2,0:0:0:0:
256,207,236907,1,0,0:0:0:0:
266,205,236982,1,0,0:0:0:0:
277,203,237057,1,0,0:0:0:0:
287,202,237132,1,0,3:2:0:0:
237,306,237282,2,0,L|127:293,1,85,10|2,0:0|0:0,0:0:0:0:
81,204,237582,6,0,L|165:194,1,85,0|0,3:2|0:0,0:0:0:0:
63,339,237882,1,8,0:0:0:0:
0,221,238032,1,0,0:0:0:0:
1,210,238107,1,0,0:0:0:0:
2,199,238182,1,2,0:0:0:0:
3,189,238257,1,0,0:0:0:0:
4,178,238332,1,2,3:2:0:0:
63,49,238482,2,0,P|76:98|100:132,1,85,8|0,0:0|0:0,0:0:0:0:
247,60,238782,6,0,P|198:46|156:50,1,85,2|0,3:2|0:0,0:0:0:0:
288,179,239082,1,8,0:0:0:0:
394,89,239232,1,2,0:0:0:0:
383,90,239307,1,0,0:0:0:0:
372,92,239382,1,0,0:0:0:0:
362,93,239457,1,0,0:0:0:0:
351,95,239532,1,0,3:2:0:0:
203,166,239682,2,0,L|299:180,1,85,10|2,0:0|0:0,0:0:0:0:
423,249,239982,6,0,L|327:263,1,85,0|0,3:2|0:0,0:0:0:0:
486,170,240282,1,10,0:0:0:0:
503,269,240432,1,0,0:0:0:0:
504,279,240507,1,0,0:0:0:0:
506,290,240582,1,0,0:0:0:0:
507,300,240657,1,0,0:0:0:0:
509,311,240732,1,2,3:2:0:0:
486,170,240882,2,0,L|474:67,1,85,8|0,0:0|0:0,0:0:0:0:
381,7,241182,6,0,L|369:110,1,85,2|0,3:2|0:0,0:0:0:0:
349,253,241482,1,8,0:0:0:0:
229,172,241632,1,2,0:0:0:0:
239,170,241707,1,0,0:0:0:0:
249,168,241782,1,0,0:0:0:0:
260,166,241857,1,0,0:0:0:0:
270,165,241932,1,0,3:2:0:0:
132,217,242082,2,0,P|134:169|144:125,1,85,10|2,0:0|0:0,0:0:0:0:
210,286,242382,6,0,P|167:308|124:321,1,85,0|0,3:2|0:0,0:0:0:0:
229,172,242682,1,10,0:0:0:0:
351,255,242832,1,0,0:0:0:0:
332,251,242907,1,0,0:0:0:0:
313,247,242982,1,0,0:0:0:0:
294,243,243057,1,0,0:0:0:0:
275,239,243132,1,2,3:2:0:0:
426,117,243282,2,0,P|425:159|409:209,1,85,8|0,0:0|0:0,0:0:0:0:
485,355,243582,6,0,P|486:313|502:263,1,85,2|0,3:2|0:0,0:0:0:0:
426,117,243882,1,8,0:0:0:0:
275,239,244032,1,2,0:0:0:0:
247,241,244107,1,0,0:0:0:0:
219,239,244182,1,0,0:0:0:0:
193,231,244257,1,0,0:0:0:0:
167,220,244332,2,0,B|135:202|135:202|118:176,1,63.7500024318696,0|0,3:2|0:0,0:0:0:0:
94,38,244482,2,0,B|118:65|118:65|126:94,1,63.7500024318696,10|0,0:0|0:0,0:0:0:0:
62,232,244632,6,0,B|44:188|44:188|48:139,1,85
194,44,244782,6,0,B|224:98|184:145|184:145|224:98|296:117,1,216.750004134178,4|0,3:1|0:0,0:0:0:0:
256,192,245082,12,0,249582,0:0:0:0:
