osu file format v14

[General]
AudioFilename: audio.mp3
AudioLeadIn: 0
PreviewTime: 184782
Countdown: 0
SampleSet: Soft
StackLeniency: 0.7
Mode: 0
LetterboxInBreaks: 0
EpilepsyWarning: 1
WidescreenStoryboard: 1

[Editor]
Bookmarks: 187187
DistanceSpacing: 1.2
BeatDivisor: 4
GridSize: 4
TimelineZoom: 3.399999

[Metadata]
Title:Fortuna Redux
TitleUnicode:Fortuna Redux
Artist:Fractal Dreamers
ArtistUnicode:Fractal Dreamers
Creator:DTM9 Nowa
Version:Expert
Source:osu!
Tags:Helblinde Kingdom of Silence EP artcore dnb Featured Artist mappers' guild Mapping With Rewards 2017 mwr Instrumental Electronic
BeatmapID:1506911
BeatmapSetID:712974

[Difficulty]
HPDrainRate:6
CircleSize:4
OverallDifficulty:8
ApproachRate:9.2
SliderMultiplier:1.6
SliderTickRate:1

[Events]
//Background and Video events
0,0,"Fractal.jpg",0,0
//Break Periods
//Storyboard Layer 0 (Background)
//Storyboard Layer 1 (Fail)
//Storyboard Layer 2 (Pass)
//Storyboard Layer 3 (Foreground)
Sprite,Foreground,Centre,"sb/hl.png",0,0 S,2,114882,115782,0.7,0.14 F,2,114882,115782,1,0 P,0,114882,115782,A C,0,114882,,36,74,255 M,0,114882,114919,198,296,196.0175,310.8684 M,0,114919,114957,196.0175,310.8684,194.0351,325.7368 M,0,114957,114994,194.0351,325.7368,192.0526,340.6053 M,0,114994,115032,192.0526,340.6053,190.0702,355.4737
Sprite,Foreground,Centre,"sb/hl.png",276,196 S,2,115182,115932,0.7,0.14 F,2,115182,115932,1,0 P,0,115182,115932,A C,0,115182,,223,223,223
Sprite,Foreground,Centre,"sb/hl.png",93,152 S,2,115407,116157,0.7,0.14 F,2,115407,116157,1,0 P,0,115407,116157,A C,0,115407,,223,223,223
Sprite,Foreground,Centre,"sb/hl.png",213,285 S,2,115632,116382,0.7,0.14 F,2,115632,116382,1,0 P,0,115632,116382,A C,0,115632,,223,223,223
Sprite,Foreground,Centre,"sb/hl.png",175,201 S,2,115782,116532,0.7,0.14 F,2,115782,116532,1,0 P,0,115782,116532,A C,0,115782,,149,255,218
Sprite,Foreground,Centre,"sb/hl.png",64,317 S,2,116007,116757,0.7,0.14 F,2,116007,116757,1,0 P,0,116007,116757,A C,0,116007,,149,255,218
Sprite,Foreground,Centre,"sb/hl.png",213,285 S,2,116232,116982,0.7,0.14 F,2,116232,116982,1,0 P,0,116232,116982,A C,0,116232,,149,255,218
Sprite,Foreground,Centre,"sb/hl.png",136,278 S,2,116382,117132,0.7,0.14 F,2,116382,117132,1,0 P,0,116382,117132,A C,0,116382,,36,74,255
Sprite,Foreground,Centre,"sb/hl.png",172,414 S,2,116607,117357,0.7,0.14 F,2,116607,117357,1,0 P,0,116607,117357,A C,0,116607,,36,74,255
Sprite,Foreground,Centre,"sb/hl.png",213,285 S,2,116832,117582,0.7,0.14 F,2,116832,117582,1,0 P,0,116832,117582,A C,0,116832,,36,74,255
Sprite,Foreground,Centre,"sb/hl.png",0,0 S,2,116982,117882,0.7,0.14 F,2,116982,117882,1,0 P,0,116982,117882,A C,0,116982,,223,223,223 M,0,116982,117019,292,345,306.9759,344.8406 M,0,117019,117057,306.9759,344.8406,321.8675,343.3508 M,0,117057,117094,321.8675,343.3508,336.5255,340.2601 M,0,117094,117132,336.5255,340.2601,350.7316,335.4777
Sprite,Foreground,Centre,"sb/hl.png",0,0 S,2,117282,118182,0.7,0.14 F,2,117282,118182,1,0 P,0,117282,118182,A C,0,117282,,223,223,223 M,0,117282,117319,384,409,397.0429,401.655 M,0,117319,117357,397.0429,401.655,409.2594,393.0286 M,0,117357,117394,409.2594,393.0286,420.3288,382.9408 M,0,117394,117432,420.3288,382.9408,429.9149,371.4219
Sprite,Foreground,Centre,"sb/hl.png",0,0 S,2,136782,137682,0.7,0.14 F,2,136782,137682,1,0 P,0,136782,137682,A C,0,136782,,149,255,218 M,0,136782,136819,346,181,361.5883,184.2932 M,0,136819,136857,361.5883,184.2932,377.4602,184.9694 M,0,136857,136894,377.4602,184.9694,393.1737,182.5684 M,0,136894,136932,393.1737,182.5684,408.1418,177.1748
Sprite,Foreground,Centre,"sb/hl.png",0,0 S,2,137007,137907,0.7,0.14 F,2,137007,137907,1,0 P,0,137007,137907,A C,0,137007,,149,255,218 M,0,137007,137044,466,99,455.1339,110.6455 M,0,137044,137082,455.1339,110.6455,446.429,123.9255 M,0,137082,137119,446.429,123.9255,440.5352,138.6819 M,0,137119,137157,440.5352,138.6819,437.6919,154.3322
Sprite,Foreground,Centre,"sb/hl.png",0,0 S,2,137232,138057,0.7,0.14 F,2,137232,138057,1,0 P,0,137232,138057,A C,0,137232,,149,255,218 M,0,137232,137269,481,252,474.4494,237.5445 M,0,137269,137307,474.4494,237.5445,464.9032,224.9715
Sprite,Foreground,Centre,"sb/hl.png",0,0 S,2,137382,138282,0.7,0.14 F,2,137382,138282,1,0 P,0,137382,138282,A C,0,137382,,36,74,255 M,0,137382,137419,366,290,355.1339,301.6455 M,0,137419,137457,355.1339,301.6455,346.429,314.9255 M,0,137457,137494,346.429,314.9255,340.5352,329.6819 M,0,137494,137532,340.5352,329.6819,337.6919,345.3322
Sprite,Foreground,Centre,"sb/hl.png",0,0 S,2,137607,138507,0.7,0.14 F,2,137607,138507,1,0 P,0,137607,138507,A C,0,137607,,36,74,255 M,0,137607,137644,377,435,372.0779,419.8465 M,0,137644,137682,372.0779,419.8465,364.7955,405.725 M,0,137682,137719,364.7955,405.725,354.957,393.2323 M,0,137719,137757,354.957,393.2323,342.9109,382.8219
Sprite,Foreground,Centre,"sb/hl.png",0,0 S,2,137832,138657,0.7,0.14 F,2,137832,138657,1,0 P,0,137832,138657,A C,0,137832,,36,74,255 M,0,137832,137869,237,372,252.7871,373.4098 M,0,137869,137907,252.7871,373.4098,268.343,370.9525
Sprite,Foreground,Centre,"sb/hl.png",0,0 S,2,137982,138882,0.7,0.14 F,2,137982,138882,1,0 P,0,137982,138882,A C,0,137982,,223,223,223 M,0,137982,138019,261,253,256.0779,237.8465 M,0,138019,138057,256.0779,237.8465,248.7955,223.725 M,0,138057,138094,248.7955,223.725,238.957,211.2323 M,0,138094,138132,238.957,211.2323,226.9109,200.8219
Sprite,Foreground,Centre,"sb/hl.png",0,0 S,2,138207,139107,0.7,0.14 F,2,138207,139107,1,0 P,0,138207,139107,A C,0,138207,,223,223,223 M,0,138207,138244,130,190,145.699,192.7518 M,0,138244,138282,145.699,192.7518,161.593,192.9487 M,0,138282,138319,161.593,192.9487,177.2495,190.1709 M,0,138319,138357,177.2495,190.1709,192.1192,184.5129
Sprite,Foreground,Centre,"sb/hl.png",0,0 S,2,138432,139257,0.7,0.14 F,2,138432,139257,1,0 P,0,138432,139257,A C,0,138432,,223,223,223 M,0,138432,138469,255,101,245.0039,113.2184 M,0,138469,138507,245.0039,113.2184,238.8536,127.6145
Sprite,Foreground,Centre,"sb/hl.png",182,269 S,2,138582,139332,0.7,0.14 F,2,138582,139332,1,0 P,0,138582,139332,A C,0,138582,,149,255,218
Sprite,Foreground,Centre,"sb/hl.png",307,169 S,2,138732,139482,0.7,0.14 F,2,138732,139482,1,0 P,0,138732,139482,A C,0,138732,,149,255,218
Sprite,Foreground,Centre,"sb/hl.png",152,115 S,2,138882,139632,0.7,0.14 F,2,138882,139632,1,0 P,0,138882,139632,A C,0,138882,,149,255,218
Sprite,Foreground,Centre,"sb/hl.png",144,113 S,2,138957,139707,0.7,0.14 F,2,138957,139707,1,0 P,0,138957,139707,A C,0,138957,,149,255,218
Sprite,Foreground,Centre,"sb/hl.png",136,111 S,2,139032,139782,0.7,0.14 F,2,139032,139782,1,0 P,0,139032,139782,A C,0,139032,,149,255,218
Sprite,Foreground,Centre,"sb/hl.png",127,110 S,2,139107,139857,0.7,0.14 F,2,139107,139857,1,0 P,0,139107,139857,A C,0,139107,,149,255,218
Sprite,Foreground,Centre,"sb/hl.png",0,0 S,2,139182,140682,0.7,0.14 F,2,139182,140682,1,0 P,0,139182,140682,A C,0,139182,,36,74,255 M,0,139182,139219,121,108,130.9513,107.0147 M,0,139219,139257,130.9513,107.0147,140.9027,106.0294 M,0,139257,139294,140.9027,106.0294,150.854,105.0442 M,0,139294,139332,150.854,105.0442,160.8054,104.0589 M,0,139332,139369,160.8054,104.0589,170.7567,103.0736 M,0,139369,139407,170.7567,103.0736,180.7081,102.0883 M,0,139407,139444,180.7081,102.0883,190.6594,101.103 M,0,139444,139482,190.6594,101.103,200.6107,100.1178 M,0,139482,139519,200.6107,100.1178,210.5621,99.13247 M,0,139519,139557,210.5621,99.13247,220.5134,98.14719 M,0,139557,139594,220.5134,98.14719,230.4648,97.1619 M,0,139594,139632,230.4648,97.1619,240.4161,96.17662 M,0,139632,139669,240.4161,96.17662,250.3675,95.19135 M,0,139669,139707,250.3675,95.19135,260.3188,94.20605 M,0,139707,139744,260.3188,94.20605,270.2701,93.22078 M,0,139744,139782,270.2701,93.22078,280.2215,92.2355 M,0,139782,139819,280.2215,92.2355,290.1728,91.25021 M,0,139819,139857,290.1728,91.25021,300.1242,90.26494 M,0,139857,139894,300.1242,90.26494,310.0755,89.27965 M,0,139894,139932,310.0755,89.27965,320.0269,88.29437
Sprite,Foreground,Centre,"sb/hl.png",0,0 S,2,140082,141582,0.7,0.14 F,2,140082,141582,1,0 P,0,140082,141582,A C,0,140082,,36,74,255 M,0,140082,140119,414,130,404.5667,133.2288 M,0,140119,140157,404.5667,133.2288,395.6505,137.659 M,0,140157,140194,395.6505,137.659,387.3997,143.214 M,0,140194,140232,387.3997,143.214,379.9519,149.7993 M,0,140232,140269,379.9519,149.7993,373.2579,157.1516 M,0,140269,140307,373.2579,157.1516,367.9494,165.575 M,0,140307,140344,367.9494,165.575,363.7946,174.6126 M,0,140344,140382,363.7946,174.6126,360.8617,184.1118 M,0,140382,140419,360.8617,184.1118,358.963,193.8731 M,0,140419,140457,358.963,193.8731,358.8134,203.8292 M,0,140457,140494,358.8134,203.8292,359.9687,213.709 M,0,140494,140532,359.9687,213.709,362.4076,223.3471 M,0,140532,140569,362.4076,223.3471,365.8584,232.6747 M,0,140569,140607,365.8584,232.6747,370.9121,241.2546 M,0,140607,140644,370.9121,241.2546,377.0403,249.0903 M,0,140644,140682,377.0403,249.0903,384.1386,256.0513 M,0,140682,140719,384.1386,256.0513,391.9351,262.2281 M,0,140719,140757,391.9351,262.2281,400.716,266.925 M,0,140757,140794,400.716,266.925,410.0269,270.4271 M,0,140794,140832,410.0269,270.4271,419.711,272.6773
Sprite,Foreground,Centre,"sb/hl.png",0,0 S,2,140982,142181,0.7,0.14 F,2,140982,142181,1,0 P,0,140982,142181,A C,0,140982,,36,74,255 M,0,140982,141019,508,292,496.0246,292.7676 M,0,141019,141057,496.0246,292.7676,484.0492,293.5353 M,0,141057,141094,484.0492,293.5353,472.0737,294.303 M,0,141094,141132,472.0737,294.303,460.0983,295.0706 M,0,141132,141169,460.0983,295.0706,448.1229,295.8383 M,0,141169,141207,448.1229,295.8383,436.1475,296.6059 M,0,141207,141244,436.1475,296.6059,424.1721,297.3736 M,0,141244,141282,424.1721,297.3736,412.1967,298.1412 M,0,141282,141319,412.1967,298.1412,400.2212,298.9089 M,0,141319,141357,400.2212,298.9089,388.2458,299.6765 M,0,141357,141394,388.2458,299.6765,376.2704,300.4442 M,0,141394,141431,376.2704,300.4442,364.295,301.2119
Sprite,Foreground,Centre,"sb/hl.png",289,318 S,2,141507,142257,0.7,0.14 F,2,141507,142257,1,0 P,0,141507,142257,A C,0,141507,,36,74,255
Sprite,Foreground,Centre,"sb/hl.png",0,0 S,2,141582,143082,0.7,0.14 F,2,141582,143082,1,0 P,0,141582,143082,A C,0,141582,,223,223,223 M,0,141582,141619,281,318,290.7646,319.82 M,0,141619,141657,290.7646,319.82,300.6619,319.6383 M,0,141657,141694,300.6619,319.6383,310.2958,317.4722 M,0,141694,141732,310.2958,317.4722,319.2814,313.4151 M,0,141732,141769,319.2814,313.4151,327.6461,308.0902 M,0,141769,141807,327.6461,308.0902,334.1185,300.5731 M,0,141807,141844,334.1185,300.5731,338.9301,291.9335 M,0,141844,141882,338.9301,291.9335,341.896,282.5219 M,0,141882,141919,341.896,282.5219,342.9026,272.7176 M,0,141919,141957,342.9026,272.7176,342.3976,262.8449 M,0,141957,141994,342.3976,262.8449,339.1552,253.4828 M,0,141994,142032,339.1552,253.4828,334.1078,244.989 M,0,142032,142069,334.1078,244.989,327.4644,237.6997 M,0,142069,142107,327.4644,237.6997,319.8421,231.3151 M,0,142107,142144,319.8421,231.3151,310.6797,227.487 M,0,142144,142182,310.6797,227.487,300.9669,225.5876 M,0,142182,142219,300.9669,225.5876,291.0945,225.6835 M,0,142219,142257,291.0945,225.6835,281.4582,227.7641 M,0,142257,142294,281.4582,227.7641,272.1761,231.233 M,0,142294,142332,272.1761,231.233,264.1085,237.0782
Sprite,Foreground,Centre,"sb/hl.png",197,282 S,2,142407,143157,0.7,0.14 F,2,142407,143157,1,0 P,0,142407,143157,A C,0,142407,,223,223,223
Sprite,Foreground,Centre,"sb/hl.png",0,0 S,2,142482,143832,0.7,0.14 F,2,142482,143832,1,0 P,0,142482,143832,A C,0,142482,,223,223,223 M,0,142482,142519,191,288,190.0519,278.045 M,0,142519,142557,190.0519,278.045,189.1038,268.0901 M,0,142557,142594,189.1038,268.0901,188.1557,258.1351 M,0,142594,142632,188.1557,258.1351,187.2076,248.1802 M,0,142632,142669,187.2076,248.1802,186.2596,238.2252 M,0,142669,142707,186.2596,238.2252,185.3115,228.2703 M,0,142707,142744,185.3115,228.2703,184.3634,218.3153 M,0,142744,142782,184.3634,218.3153,183.4153,208.3604 M,0,142782,142819,183.4153,208.3604,182.4672,198.4054 M,0,142819,142857,182.4672,198.4054,181.5191,188.4505 M,0,142857,142894,181.5191,188.4505,180.571,178.4955 M,0,142894,142932,180.571,178.4955,179.6229,168.5405 M,0,142932,142969,179.6229,168.5405,178.6748,158.5856 M,0,142969,143007,178.6748,158.5856,177.7267,148.6306 M,0,143007,143044,177.7267,148.6306,176.7786,138.6757 M,0,143044,143082,176.7786,138.6757,175.8305,128.7207
Sprite,Foreground,Centre,"sb/hl.png",0,0 S,2,143382,144282,0.7,0.14 F,2,143382,144282,1,0 P,0,143382,144282,A C,0,143382,,149,255,218 M,0,143382,143419,175,128,176.1684,137.9315 M,0,143419,143457,176.1684,137.9315,177.3368,147.863 M,0,143457,143494,177.3368,147.863,178.5052,157.7945 M,0,143494,143532,178.5052,157.7945,179.6736,167.726
Sprite,Foreground,Centre,"sb/hl.png",0,0 S,2,143682,144582,0.7,0.14 F,2,143682,144582,1,0 P,0,143682,144582,A C,0,143682,,149,255,218 M,0,143682,143719,270,191,268.7284,200.9188 M,0,143719,143757,268.7284,200.9188,267.4567,210.8376 M,0,143757,143794,267.4567,210.8376,266.1851,220.7565 M,0,143794,143832,266.1851,220.7565,265,230
Sprite,Foreground,Centre,"sb/hl.png",347,318 S,2,143982,144732,0.7,0.14 F,2,143982,144732,1,0 P,0,143982,144732,A C,0,143982,,36,74,255
Sprite,Foreground,Centre,"sb/hl.png",395,159 S,2,144132,144882,0.7,0.14 F,2,144132,144882,1,0 P,0,144132,144882,A C,0,144132,,36,74,255
Sprite,Foreground,Centre,"sb/hl.png",404,335 S,2,144432,145182,0.7,0.14 F,2,144432,145182,1,0 P,0,144432,145182,A C,0,144432,,223,223,223
Sprite,Foreground,Centre,"sb/hl.png",337,142 S,2,144582,145332,0.7,0.14 F,2,144582,145332,1,0 P,0,144582,145332,A C,0,144582,,223,223,223
Sprite,Foreground,Centre,"sb/hl.png",329,340 S,2,144882,145632,0.7,0.14 F,2,144882,145632,1,0 P,0,144882,145632,A C,0,144882,,149,255,218
Sprite,Foreground,Centre,"sb/hl.png",412,136 S,2,145032,145782,0.7,0.14 F,2,145032,145782,1,0 P,0,145032,145782,A C,0,145032,,149,255,218
Sprite,Foreground,Centre,"sb/hl.png",413,361 S,2,145332,146082,0.7,0.14 F,2,145332,146082,1,0 P,0,145332,146082,A C,0,145332,,36,74,255
Sprite,Foreground,Centre,"sb/hl.png",328,116 S,2,145482,146232,0.7,0.14 F,2,145482,146232,1,0 P,0,145482,146232,A C,0,145482,,36,74,255
Sprite,Foreground,Centre,"sb/hl.png",440,279 S,2,145782,146532,0.7,0.14 F,2,145782,146532,1,0 P,0,145782,146532,A C,0,145782,,223,223,223
Sprite,Foreground,Centre,"sb/hl.png",169,170 S,2,146382,147132,0.7,0.14 F,2,146382,147132,1,0 P,0,146382,147132,A C,0,146382,,149,255,218
Sprite,Foreground,Centre,"sb/hl.png",217,329 S,2,146532,147282,0.7,0.14 F,2,146532,147282,1,0 P,0,146532,147282,A C,0,146532,,149,255,218
Sprite,Foreground,Centre,"sb/hl.png",226,153 S,2,146832,147582,0.7,0.14 F,2,146832,147582,1,0 P,0,146832,147582,A C,0,146832,,36,74,255
Sprite,Foreground,Centre,"sb/hl.png",159,346 S,2,146982,147732,0.7,0.14 F,2,146982,147732,1,0 P,0,146982,147732,A C,0,146982,,36,74,255
Sprite,Foreground,Centre,"sb/hl.png",154,162 S,2,147282,148032,0.7,0.14 F,2,147282,148032,1,0 P,0,147282,148032,A C,0,147282,,223,223,223
Sprite,Foreground,Centre,"sb/hl.png",230,336 S,2,147432,148182,0.7,0.14 F,2,147432,148182,1,0 P,0,147432,148182,A C,0,147432,,223,223,223
Sprite,Foreground,Centre,"sb/hl.png",238,141 S,2,147732,148482,0.7,0.14 F,2,147732,148482,1,0 P,0,147732,148482,A C,0,147732,,149,255,218
Sprite,Foreground,Centre,"sb/hl.png",146,356 S,2,147882,148632,0.7,0.14 F,2,147882,148632,1,0 P,0,147882,148632,A C,0,147882,,149,255,218
Sprite,Foreground,Centre,"sb/hl.png",262,209 S,2,148182,148932,0.7,0.14 F,2,148182,148932,1,0 P,0,148182,148932,A C,0,148182,,36,74,255
Sprite,Foreground,Centre,"sb/hl.png",0,0 S,2,148782,150282,0.7,0.14 F,2,148782,150282,1,0 P,0,148782,150282,A C,0,148782,,223,223,223 M,0,148782,148819,171,277,180.9738,277.7227 M,0,148819,148857,180.9738,277.7227,190.9477,278.4455 M,0,148857,148894,190.9477,278.4455,200.9215,279.1682 M,0,148894,148932,200.9215,279.1682,210.8954,279.891 M,0,148932,148969,210.8954,279.891,220.8692,280.6137 M,0,148969,149007,220.8692,280.6137,230.8431,281.3365 M,0,149007,149044,230.8431,281.3365,240.8169,282.0592 M,0,149044,149082,240.8169,282.0592,250.7908,282.7819 M,0,149082,149119,250.7908,282.7819,260.7646,283.5047 M,0,149119,149157,260.7646,283.5047,270.7385,284.2274 M,0,149157,149194,270.7385,284.2274,280.7123,284.9502 M,0,149194,149232,280.7123,284.9502,290.6862,285.6729 M,0,149232,149269,290.6862,285.6729,300.66,286.3957 M,0,149269,149307,300.66,286.3957,310.6339,287.1184 M,0,149307,149344,310.6339,287.1184,320.6077,287.8411 M,0,149344,149382,320.6077,287.8411,330.5815,288.5639 M,0,149382,149419,330.5815,288.5639,340.5554,289.2866 M,0,149419,149457,340.5554,289.2866,350.5292,290.0094 M,0,149457,149494,350.5292,290.0094,360.5031,290.7321 M,0,149494,149532,360.5031,290.7321,370.477,291.4548
Sprite,Foreground,Centre,"sb/hl.png",0,0 S,2,149682,151182,0.7,0.14 F,2,149682,151182,1,0 P,0,149682,151182,A C,0,149682,,223,223,223 M,0,149682,149719,468,302,464.6035,292.5945 M,0,149719,149757,464.6035,292.5945,461.2071,283.1889 M,0,149757,149794,461.2071,283.1889,457.8107,273.7834 M,0,149794,149832,457.8107,273.7834,454.4142,264.3778 M,0,149832,149869,454.4142,264.3778,451.0178,254.9723 M,0,149869,149907,451.0178,254.9723,447.6213,245.5668 M,0,149907,149944,447.6213,245.5668,444.2249,236.1612 M,0,149944,149982,444.2249,236.1612,443.0684,226.7203 M,0,149982,150019,443.0684,226.7203,446.1658,217.2121 M,0,150019,150057,446.1658,217.2121,449.2632,207.7038 M,0,150057,150094,449.2632,207.7038,452.3605,198.1956 M,0,150094,150132,452.3605,198.1956,455.4579,188.6874 M,0,150132,150169,455.4579,188.6874,458.5553,179.1792 M,0,150169,150207,458.5553,179.1792,461.6526,169.6709 M,0,150207,150244,461.6526,169.6709,464.75,160.1627 M,0,150244,150282,464.75,160.1627,467.8474,150.6545 M,0,150282,150319,467.8474,150.6545,470.9448,141.1463 M,0,150319,150357,470.9448,141.1463,474.0421,131.6381 M,0,150357,150394,474.0421,131.6381,477.1395,122.1298 M,0,150394,150432,477.1395,122.1298,480.2369,112.6216
Sprite,Foreground,Centre,"sb/hl.png",0,0 S,2,150582,151632,0.7,0.14 F,2,150582,151632,1,0 P,0,150582,151632,A C,0,150582,,223,223,223 M,0,150582,150619,572,188,568.968,197.5293 M,0,150619,150657,568.968,197.5293,565.9359,207.0585 M,0,150657,150694,565.9359,207.0585,562.9039,216.5878 M,0,150694,150732,562.9039,216.5878,559.8718,226.117 M,0,150732,150769,559.8718,226.117,556.8398,235.6463 M,0,150769,150807,556.8398,235.6463,553.8077,245.1756 M,0,150807,150844,553.8077,245.1756,550.7758,254.7048 M,0,150844,150882,550.7758,254.7048,547.7437,264.2341
Sprite,Foreground,Centre,"sb/hl.png",472,378 S,2,151032,151782,0.7,0.14 F,2,151032,151782,1,0 P,0,151032,151782,A C,0,151032,,223,223,223
Sprite,Foreground,Centre,"sb/hl.png",463,379 S,2,151107,151857,0.7,0.14 F,2,151107,151857,1,0 P,0,151107,151857,A C,0,151107,,223,223,223
Sprite,Foreground,Centre,"sb/hl.png",0,0 S,2,151182,152682,0.7,0.14 F,2,151182,152682,1,0 P,0,151182,152682,A C,0,151182,,149,255,218 M,0,151182,151219,453,380,445.6955,373.1794 M,0,151219,151257,445.6955,373.1794,437.9856,366.8256 M,0,151257,151294,437.9856,366.8256,429.8994,360.9622 M,0,151294,151332,429.8994,360.9622,421.4673,355.6109 M,0,151332,151369,421.4673,355.6109,412.8159,350.6073 M,0,151369,151407,412.8159,350.6073,403.7437,346.4166 M,0,151407,151444,403.7437,346.4166,394.4325,342.7962 M,0,151444,151482,394.4325,342.7962,384.9173,339.7592 M,0,151482,151519,384.9173,339.7592,375.2339,337.3169 M,0,151519,151557,375.2339,337.3169,365.4497,335.2851 M,0,151557,151594,365.4497,335.2851,355.522,334.1455 M,0,151594,151632,355.522,334.1455,345.5457,333.6222 M,0,151632,151669,345.5457,333.6222,335.5583,333.7169 M,0,151669,151707,335.5583,333.7169,325.5972,334.4291 M,0,151707,151744,325.5972,334.4291,315.6712,335.5742 M,0,151744,151782,315.6712,335.5742,305.8862,337.5999 M,0,151782,151819,305.8862,337.5999,296.248,340.2262 M,0,151819,151857,296.248,340.2262,286.7925,343.4429 M,0,151857,151894,286.7925,343.4429,277.5552,347.2379 M,0,151894,151932,277.5552,347.2379,268.4807,351.4229
Sprite,Foreground,Centre,"sb/hl.png",0,0 S,2,152082,152982,0.7,0.14 F,2,152082,152982,1,0 P,0,152082,152982,A C,0,152082,,149,255,218 M,0,152082,152119,159,415,157.356,405.136 M,0,152119,152157,157.356,405.136,155.712,395.2721 M,0,152157,152194,155.712,395.2721,154.068,385.4082 M,0,152194,152232,154.068,385.4082,152.424,375.5443
Sprite,Foreground,Centre,"sb/hl.png",0,0 S,2,152382,153282,0.7,0.14 F,2,152382,153282,1,0 P,0,152382,153282,A C,0,152382,,149,255,218 M,0,152382,152419,70,307,68.47943,316.8837 M,0,152419,152457,68.47943,316.8837,66.95885,326.7674 M,0,152457,152494,66.95885,326.7674,65.43829,336.6512 M,0,152494,152532,65.43829,336.6512,64,346
Sprite,Foreground,Centre,"sb/hl.png",0,0 S,2,152682,153582,0.7,0.14 F,2,152682,153582,1,0 P,0,152682,153582,A C,0,152682,,149,255,218 M,0,152682,152719,166,271,164.356,261.136 M,0,152719,152757,164.356,261.136,162.712,251.2721 M,0,152757,152794,162.712,251.2721,161.068,241.4082 M,0,152794,152832,161.068,241.4082,159.424,231.5443
Sprite,Foreground,Centre,"sb/hl.png",0,0 S,2,152982,154032,0.7,0.14 F,2,152982,154032,1,0 P,0,152982,154032,A C,0,152982,,149,255,218 M,0,152982,153019,85,154,83.30093,163.8546 M,0,153019,153057,83.30093,163.8546,81.60186,173.7092 M,0,153057,153094,81.60186,173.7092,79.90279,183.5638 M,0,153094,153132,79.90279,183.5638,78.20372,193.4184 M,0,153132,153169,78.20372,193.4184,76.50465,203.273 M,0,153169,153207,76.50465,203.273,74.80559,213.1276 M,0,153207,153244,74.80559,213.1276,73.10651,222.9822 M,0,153244,153282,73.10651,222.9822,71.40745,232.8368
Sprite,Foreground,Centre,"sb/hl.png",207,358 S,2,153582,154332,0.7,0.14 F,2,153582,154332,1,0 P,0,153582,154332,A C,0,153582,,36,74,255
Sprite,Foreground,Centre,"sb/hl.png",365,315 S,2,153732,154482,0.7,0.14 F,2,153732,154482,1,0 P,0,153732,154482,A C,0,153732,,36,74,255
Sprite,Foreground,Centre,"sb/hl.png",203,301 S,2,154032,154782,0.7,0.14 F,2,154032,154782,1,0 P,0,154032,154782,A C,0,154032,,223,223,223
Sprite,Foreground,Centre,"sb/hl.png",368,374 S,2,154182,154932,0.7,0.14 F,2,154182,154932,1,0 P,0,154182,154932,A C,0,154182,,223,223,223
Sprite,Foreground,Centre,"sb/hl.png",186,382 S,2,154482,155232,0.7,0.14 F,2,154482,155232,1,0 P,0,154482,155232,A C,0,154482,,149,255,218
Sprite,Foreground,Centre,"sb/hl.png",385,292 S,2,154632,155382,0.7,0.14 F,2,154632,155382,1,0 P,0,154632,155382,A C,0,154632,,149,255,218
Sprite,Foreground,Centre,"sb/hl.png",186,290 S,2,154932,155682,0.7,0.14 F,2,154932,155682,1,0 P,0,154932,155682,A C,0,154932,,36,74,255
Sprite,Foreground,Centre,"sb/hl.png",375,389 S,2,155082,155832,0.7,0.14 F,2,155082,155832,1,0 P,0,155082,155832,A C,0,155082,,36,74,255
Sprite,Foreground,Centre,"sb/hl.png",198,280 S,2,155232,155982,0.7,0.14 F,2,155232,155982,1,0 P,0,155232,155982,A C,0,155232,,36,74,255
Sprite,Foreground,Centre,"sb/hl.png",387,381 S,2,155382,156132,0.7,0.14 F,2,155382,156132,1,0 P,0,155382,156132,A C,0,155382,,36,74,255
Sprite,Foreground,Centre,"sb/hl.png",237,138 S,2,155982,156732,0.7,0.14 F,2,155982,156732,1,0 P,0,155982,156732,A C,0,155982,,223,223,223
Sprite,Foreground,Centre,"sb/hl.png",391,188 S,2,156132,156882,0.7,0.14 F,2,156132,156882,1,0 P,0,156132,156882,A C,0,156132,,223,223,223
Sprite,Foreground,Centre,"sb/hl.png",233,195 S,2,156432,157182,0.7,0.14 F,2,156432,157182,1,0 P,0,156432,157182,A C,0,156432,,149,255,218
Sprite,Foreground,Centre,"sb/hl.png",394,129 S,2,156582,157332,0.7,0.14 F,2,156582,157332,1,0 P,0,156582,157332,A C,0,156582,,149,255,218
Sprite,Foreground,Centre,"sb/hl.png",216,114 S,2,156882,157632,0.7,0.14 F,2,156882,157632,1,0 P,0,156882,157632,A C,0,156882,,36,74,255
Sprite,Foreground,Centre,"sb/hl.png",411,211 S,2,157032,157782,0.7,0.14 F,2,157032,157782,1,0 P,0,157032,157782,A C,0,157032,,36,74,255
Sprite,Foreground,Centre,"sb/hl.png",216,205 S,2,157332,158082,0.7,0.14 F,2,157332,158082,1,0 P,0,157332,158082,A C,0,157332,,223,223,223
Sprite,Foreground,Centre,"sb/hl.png",405,115 S,2,157482,158232,0.7,0.14 F,2,157482,158232,1,0 P,0,157482,158232,A C,0,157482,,223,223,223
Sprite,Foreground,Centre,"sb/hl.png",228,215 S,2,157632,158382,0.7,0.14 F,2,157632,158382,1,0 P,0,157632,158382,A C,0,157632,,223,223,223
Sprite,Foreground,Centre,"sb/hl.png",417,123 S,2,157782,158532,0.7,0.14 F,2,157782,158532,1,0 P,0,157782,158532,A C,0,157782,,223,223,223
Sprite,Foreground,Centre,"sb/hl.png",0,0 S,2,158382,159282,0.7,0.14 F,2,158382,159282,1,0 P,0,158382,159282,A C,0,158382,,149,255,218 M,0,158382,158419,514,219,509.0248,233.1347 M,0,158419,158457,509.0248,233.1347,505.0679,247.5808 M,0,158457,158494,505.0679,247.5808,502.3744,262.3257 M,0,158494,158532,502.3744,262.3257,501.2994,277.271
Sprite,Foreground,Centre,"sb/hl.png",0,0 S,2,158682,159582,0.7,0.14 F,2,158682,159582,1,0 P,0,158682,159582,A C,0,158682,,149,255,218 M,0,158682,158719,429,352,427.4592,337.0922 M,0,158719,158757,427.4592,337.0922,424.9208,322.3282 M,0,158757,158794,424.9208,322.3282,421.1919,307.812 M,0,158794,158832,421.1919,307.812,416.2479,293.6563
Sprite,Foreground,Centre,"sb/hl.png",345,214 S,2,158982,159732,0.7,0.14 F,2,158982,159732,1,0 P,0,158982,159732,A C,0,158982,,149,255,218
Sprite,Foreground,Centre,"sb/hl.png",345,214 S,2,159057,159807,0.7,0.14 F,2,159057,159807,1,0 P,0,159057,159807,A C,0,159057,,149,255,218
Sprite,Foreground,Centre,"sb/hl.png",345,214 S,2,159132,159882,0.7,0.14 F,2,159132,159882,1,0 P,0,159132,159882,A C,0,159132,,149,255,218
Sprite,Foreground,Centre,"sb/hl.png",0,0 S,2,159282,160182,0.7,0.14 F,2,159282,160182,1,0 P,0,159282,160182,A C,0,159282,,149,255,218 M,0,159282,159319,269,286,254.0392,284.9159 M,0,159319,159357,254.0392,284.9159,239.0785,283.8318 M,0,159357,159394,239.0785,283.8318,224.1177,282.7477 M,0,159394,159432,224.1177,282.7477,209.1569,281.6635
Sprite,Foreground,Centre,"sb/hl.png",0,0 S,2,159732,160632,0.7,0.14 F,2,159732,160632,1,0 P,0,159732,160632,A C,0,159732,,36,74,255 M,0,159732,159769,106,207,91.10955,208.7662 M,0,159769,159807,91.10955,208.7662,77,210 M,0,159807,159844,77,210,91.10955,208.7662 M,0,159844,159882,91.10955,208.7662,106,207
Sprite,Foreground,Centre,"sb/hl.png",191,174 S,2,160032,160782,0.7,0.14 F,2,160032,160782,1,0 P,0,160032,160782,A C,0,160032,,36,74,255
Sprite,Foreground,Centre,"sb/hl.png",269,286 S,2,160182,160932,0.7,0.14 F,2,160182,160932,1,0 P,0,160182,160932,A C,0,160182,,36,74,255
Sprite,Foreground,Centre,"sb/hl.png",269,286 S,2,160257,161007,0.7,0.14 F,2,160257,161007,1,0 P,0,160257,161007,A C,0,160257,,36,74,255
Sprite,Foreground,Centre,"sb/hl.png",269,286 S,2,160332,161082,0.7,0.14 F,2,160332,161082,1,0 P,0,160332,161082,A C,0,160332,,36,74,255
Sprite,Foreground,Centre,"sb/hl.png",0,0 S,2,160482,161382,0.7,0.14 F,2,160482,161382,1,0 P,0,160482,161382,A C,0,160482,,36,74,255 M,0,160482,160519,335,223,348.424,216.3906 M,0,160519,160557,348.424,216.3906,362.5031,211.3827 M,0,160557,160594,362.5031,211.3827,377.1583,208.3746 M,0,160594,160632,377.1583,208.3746,392.1066,207.8055
Sprite,Foreground,Centre,"sb/hl.png",0,0 S,2,160782,161682,0.7,0.14 F,2,160782,161682,1,0 P,0,160782,161682,A C,0,160782,,223,223,223 M,0,160782,160819,432,335,419.5522,326.6993 M,0,160819,160857,419.5522,326.6993,408.1742,317.0146 M,0,160857,160894,408.1742,317.0146,398.2586,305.811 M,0,160894,160932,398.2586,305.811,390.3623,293.1072
Sprite,Foreground,Centre,"sb/hl.png",483,184 S,2,161082,161832,0.7,0.14 F,2,161082,161832,1,0 P,0,161082,161832,A C,0,161082,,223,223,223
Sprite,Foreground,Centre,"sb/hl.png",466,261 S,2,161232,161982,0.7,0.14 F,2,161232,161982,1,0 P,0,161232,161982,A C,0,161232,,223,223,223
Sprite,Foreground,Centre,"sb/hl.png",424,137 S,2,161382,162132,0.7,0.14 F,2,161382,162132,1,0 P,0,161382,162132,A C,0,161382,,223,223,223
Sprite,Foreground,Centre,"sb/hl.png",424,137 S,2,161457,162207,0.7,0.14 F,2,161457,162207,1,0 P,0,161457,162207,A C,0,161457,,223,223,223
Sprite,Foreground,Centre,"sb/hl.png",424,137 S,2,161532,162282,0.7,0.14 F,2,161532,162282,1,0 P,0,161532,162282,A C,0,161532,,223,223,223
Sprite,Foreground,Centre,"sb/hl.png",0,0 S,2,161682,162582,0.7,0.14 F,2,161682,162582,1,0 P,0,161682,162582,A C,0,161682,,223,223,223 M,0,161682,161719,335,223,320.0518,221.7543 M,0,161719,161757,320.0518,221.7543,305.1036,220.5086 M,0,161757,161794,305.1036,220.5086,290.1555,219.263 M,0,161794,161832,290.1555,219.263,275.2072,218.0173
Sprite,Foreground,Centre,"sb/hl.png",162,181 S,2,161982,162732,0.7,0.14 F,2,161982,162732,1,0 P,0,161982,162732,A C,0,161982,,149,255,218
Sprite,Foreground,Centre,"sb/hl.png",0,0 S,2,162132,163032,0.7,0.14 F,2,162132,163032,1,0 P,0,162132,163032,A C,0,162132,,149,255,218 M,0,162132,162169,162,181,147.058,179.6816 M,0,162169,162207,147.058,179.6816,132.1161,178.3632 M,0,162207,162244,132.1161,178.3632,147.058,179.6816 M,0,162244,162282,147.058,179.6816,162,181
Sprite,Foreground,Centre,"sb/hl.png",273,134 S,2,162432,163182,0.7,0.14 F,2,162432,163182,1,0 P,0,162432,163182,A C,0,162432,,149,255,218
Sprite,Foreground,Centre,"sb/hl.png",0,0 S,2,162582,163482,0.7,0.14 F,2,162582,163482,1,0 P,0,162582,163482,A C,0,162582,,149,255,218 M,0,162582,162619,273,134,287.942,132.6816 M,0,162619,162657,287.942,132.6816,302.8839,131.3632 M,0,162657,162694,302.8839,131.3632,287.942,132.6816 M,0,162694,162732,287.942,132.6816,273,134
Sprite,Foreground,Centre,"sb/hl.png",0,0 S,2,162882,163782,0.7,0.14 F,2,162882,163782,1,0 P,0,162882,163782,A C,0,162882,,149,255,218 M,0,162882,162919,162,181,147.0213,180.2011 M,0,162919,162957,147.0213,180.2011,132.0426,179.4023 M,0,162957,162994,132.0426,179.4023,117.0639,178.6034 M,0,162994,163032,117.0639,178.6034,102.0852,177.8045
Sprite,Foreground,Centre,"sb/hl.png",0,0 S,2,163182,164082,0.7,0.14 F,2,163182,164082,1,0 P,0,163182,164082,A C,0,163182,,36,74,255 M,0,163182,163219,184,273,190.0734,286.6976 M,0,163219,163257,190.0734,286.6976,195.062,300.8168 M,0,163257,163294,195.062,300.8168,198.7176,315.3454 M,0,163294,163332,198.7176,315.3454,201,330
Sprite,Foreground,Centre,"sb/hl.png",0,0 S,2,163482,164382,0.7,0.14 F,2,163482,164382,1,0 P,0,163482,164382,A C,0,163482,,36,74,255 M,0,163482,163519,264,425,264.8463,410.0508 M,0,163519,163557,264.8463,410.0508,267.167,395.2735 M,0,163557,163594,267.167,395.2735,271.2305,380.8652 M,0,163594,163632,271.2305,380.8652,276.9876,367.0271
Sprite,Foreground,Centre,"sb/hl.png",345,278 S,2,163782,164532,0.7,0.14 F,2,163782,164532,1,0 P,0,163782,164532,A C,0,163782,,36,74,255
Sprite,Foreground,Centre,"sb/hl.png",345,278 S,2,163857,164607,0.7,0.14 F,2,163857,164607,1,0 P,0,163857,164607,A C,0,163857,,36,74,255
Sprite,Foreground,Centre,"sb/hl.png",345,278 S,2,163932,164682,0.7,0.14 F,2,163932,164682,1,0 P,0,163932,164682,A C,0,163932,,36,74,255
Sprite,Foreground,Centre,"sb/hl.png",0,0 S,2,164082,164982,0.7,0.14 F,2,164082,164982,1,0 P,0,164082,164982,A C,0,164082,,36,74,255 M,0,164082,164119,446,368,431.0346,368.2626 M,0,164119,164157,431.0346,368.2626,416.1381,366.9641 M,0,164157,164194,416.1381,366.9641,401.5056,363.7843 M,0,164194,164232,401.5056,363.7843,387.4445,358.603
Sprite,Foreground,Centre,"sb/hl.png",0,0 S,2,164382,165282,0.7,0.14 F,2,164382,165282,1,0 P,0,164382,165282,A C,0,164382,,223,223,223 M,0,164382,164419,516,257,513.7749,271.834 M,0,164419,164457,513.7749,271.834,511.5498,286.6681 M,0,164457,164494,511.5498,286.6681,509.3247,301.5021 M,0,164494,164532,509.3247,301.5021,507.0996,316.3362
Sprite,Foreground,Centre,"sb/hl.png",0,0 S,2,164682,165582,0.7,0.14 F,2,164682,165582,1,0 P,0,164682,165582,A C,0,164682,,223,223,223 M,0,164682,164719,420,182,422.0154,196.864 M,0,164719,164757,422.0154,196.864,424.0309,211.728 M,0,164757,164794,424.0309,211.728,426.0464,226.5919 M,0,164794,164832,426.0464,226.5919,428,241
Sprite,Foreground,Centre,"sb/hl.png",529,158 S,2,164982,165732,0.7,0.14 F,2,164982,165732,1,0 P,0,164982,165732,A C,0,164982,,223,223,223
Sprite,Foreground,Centre,"sb/hl.png",529,158 S,2,165057,165807,0.7,0.14 F,2,165057,165807,1,0 P,0,165057,165807,A C,0,165057,,223,223,223
Sprite,Foreground,Centre,"sb/hl.png",529,158 S,2,165132,165882,0.7,0.14 F,2,165132,165882,1,0 P,0,165132,165882,A C,0,165132,,223,223,223
Sprite,Foreground,Centre,"sb/hl.png",0,0 S,2,165282,166182,0.7,0.14 F,2,165282,166182,1,0 P,0,165282,166182,A C,0,165282,,223,223,223 M,0,165282,165319,433,97,418.0276,97.45326 M,0,165319,165357,418.0276,97.45326,403.1645,99.2186 M,0,165357,165394,403.1645,99.2186,388.5612,102.5381 M,0,165394,165432,388.5612,102.5381,374.3759,107.3783
Sprite,Foreground,Centre,"sb/hl.png",0,0 S,2,165582,166482,0.7,0.14 F,2,165582,166482,1,0 P,0,165582,166482,A C,0,165582,,149,255,218 M,0,165582,165619,411,241,412.9825,226.1316 M,0,165619,165657,412.9825,226.1316,414.9649,211.2632 M,0,165657,165694,414.9649,211.2632,416.9474,196.3947 M,0,165694,165732,416.9474,196.3947,418.9298,181.5263
Sprite,Foreground,Centre,"sb/hl.png",0,0 S,2,165882,166782,0.7,0.14 F,2,165882,166782,1,0 P,0,165882,166782,A C,0,165882,,149,255,218 M,0,165882,165919,307,251,309.0154,265.864 M,0,165919,165957,309.0154,265.864,311.0309,280.728 M,0,165957,165994,311.0309,280.728,313.0464,295.5919 M,0,165994,166032,313.0464,295.5919,315,310
Sprite,Foreground,Centre,"sb/hl.png",332,418 S,2,166182,166932,0.7,0.14 F,2,166182,166932,1,0 P,0,166182,166932,A C,0,166182,,149,255,218
Sprite,Foreground,Centre,"sb/hl.png",332,418 S,2,166257,167007,0.7,0.14 F,2,166257,167007,1,0 P,0,166257,167007,A C,0,166257,,149,255,218
Sprite,Foreground,Centre,"sb/hl.png",332,418 S,2,166332,167082,0.7,0.14 F,2,166332,167082,1,0 P,0,166332,167082,A C,0,166332,,149,255,218
Sprite,Foreground,Centre,"sb/hl.png",0,0 S,2,166482,167382,0.7,0.14 F,2,166482,167382,1,0 P,0,166482,167382,A C,0,166482,,149,255,218 M,0,166482,166519,457,370,443.2618,364.0484 M,0,166519,166557,443.2618,364.0484,429.0229,359.4619 M,0,166557,166594,429.0229,359.4619,414.3246,356.5829 M,0,166594,166632,414.3246,356.5829,399.3708,355.883
Sprite,Foreground,Centre,"sb/hl.png",258,379 S,2,166782,167532,0.7,0.14 F,2,166782,167532,1,0 P,0,166782,167532,A C,0,166782,,36,74,255
Sprite,Foreground,Centre,"sb/hl.png",0,0 S,2,166932,167832,0.7,0.14 F,2,166932,167832,1,0 P,0,166932,167832,A C,0,166932,,36,74,255 M,0,166932,166969,312,271,314.2916,256.2076 M,0,166969,167007,314.2916,256.2076,315.3771,241.2655 M,0,167007,167044,315.3771,241.2655,314.2916,256.2076 M,0,167044,167082,314.2916,256.2076,312,271
Sprite,Foreground,Centre,"sb/hl.png",258,379 S,2,167232,167982,0.7,0.14 F,2,167232,167982,1,0 P,0,167232,167982,A C,0,167232,,36,74,255
Sprite,Foreground,Centre,"sb/hl.png",187,292 S,2,167382,168132,0.7,0.14 F,2,167382,168132,1,0 P,0,167382,168132,A C,0,167382,,36,74,255
Sprite,Foreground,Centre,"sb/hl.png",187,292 S,2,167457,168207,0.7,0.14 F,2,167457,168207,1,0 P,0,167457,168207,A C,0,167457,,36,74,255
Sprite,Foreground,Centre,"sb/hl.png",187,292 S,2,167532,168282,0.7,0.14 F,2,167532,168282,1,0 P,0,167532,168282,A C,0,167532,,36,74,255
Sprite,Foreground,Centre,"sb/hl.png",0,0 S,2,167682,168582,0.7,0.14 F,2,167682,168582,1,0 P,0,167682,168582,A C,0,167682,,36,74,255 M,0,167682,167719,114,393,128.1194,398.0138 M,0,167719,167757,128.1194,398.0138,142.5711,401.9385 M,0,167757,167794,142.5711,401.9385,157.3327,404.5181 M,0,167794,167832,157.3327,404.5181,172.2876,405.4184
Sprite,Foreground,Centre,"sb/hl.png",0,0 S,2,167982,168882,0.7,0.14 F,2,167982,168882,1,0 P,0,167982,168882,A C,0,167982,,223,223,223 M,0,167982,168019,320,366,304.0362,366.8399 M,0,168019,168057,304.0362,366.8399,288.2038,368.9736 M,0,168057,168094,288.2038,368.9736,272.6402,372.5789 M,0,168094,168132,272.6402,372.5789,257.4229,377.4754
Sprite,Foreground,Centre,"sb/hl.png",0,0 S,2,168282,169332,0.7,0.14 F,2,168282,169332,1,0 P,0,168282,169332,A C,0,168282,,223,223,223 M,0,168282,168319,418,428,419.6384,412.0841 M,0,168319,168357,419.6384,412.0841,421.2768,396.1682 M,0,168357,168394,421.2768,396.1682,422.9152,380.2523 M,0,168394,168432,422.9152,380.2523,424.5536,364.3364 M,0,168432,168469,424.5536,364.3364,426.192,348.4205 M,0,168469,168507,426.192,348.4205,427.8304,332.5046 M,0,168507,168544,427.8304,332.5046,429.4688,316.5887 M,0,168544,168582,429.4688,316.5887,431.1072,300.6729
Sprite,Foreground,Centre,"sb/hl.png",0,0 S,2,168732,169632,0.7,0.14 F,2,168732,169632,1,0 P,0,168732,169632,A C,0,168732,,223,223,223 M,0,168732,168769,308,228,309.517,243.9279 M,0,168769,168807,309.517,243.9279,311.0339,259.8559 M,0,168807,168844,311.0339,259.8559,312.5508,275.7838 M,0,168844,168882,312.5508,275.7838,314.0678,291.7117
Sprite,Foreground,Centre,"sb/hl.png",320,366 S,2,169032,169782,0.7,0.14 F,2,169032,169782,1,0 P,0,169032,169782,A C,0,169032,,223,223,223
Sprite,Foreground,Centre,"sb/hl.png",212,251 S,2,169182,169932,0.7,0.14 F,2,169182,169932,1,0 P,0,169182,169932,A C,0,169182,,149,255,218
Sprite,Foreground,Centre,"sb/hl.png",0,0 S,2,169332,170232,0.7,0.14 F,2,169332,170232,1,0 P,0,169332,170232,A C,0,169332,,149,255,218 M,0,169332,169369,212,251,210.2331,266.9022 M,0,169369,169407,210.2331,266.9022,208.4662,282.8043 M,0,169407,169444,208.4662,282.8043,206.6993,298.7064 M,0,169444,169482,206.6993,298.7064,205,314
Sprite,Foreground,Centre,"sb/hl.png",0,0 S,2,169632,170532,0.7,0.14 F,2,169632,170532,1,0 P,0,169632,170532,A C,0,169632,,149,255,218 M,0,169632,169669,108,369,106.2604,353.0948 M,0,169669,169707,106.2604,353.0948,104.5208,337.1897 M,0,169707,169744,104.5208,337.1897,102.7811,321.2845 M,0,169744,169782,102.7811,321.2845,101.0415,305.3794
Sprite,Foreground,Centre,"sb/hl.png",87,215 S,2,169932,170682,0.7,0.14 F,2,169932,170682,1,0 P,0,169932,170682,A C,0,169932,,149,255,218
Sprite,Foreground,Centre,"sb/hl.png",205,314 S,2,170082,170832,0.7,0.14 F,2,170082,170832,1,0 P,0,170082,170832,A C,0,170082,,149,255,218
Sprite,Foreground,Centre,"sb/hl.png",222,178 S,2,170232,170982,0.7,0.14 F,2,170232,170982,1,0 P,0,170232,170982,A C,0,170232,,149,255,218
Sprite,Foreground,Centre,"sb/hl.png",0,0 S,2,170382,171282,0.7,0.14 F,2,170382,171282,1,0 P,0,170382,171282,A C,0,170382,,36,74,255 M,0,170382,170419,101,305,102.7396,320.9052 M,0,170419,170457,102.7396,320.9052,104.4792,336.8103 M,0,170457,170494,104.4792,336.8103,106.2189,352.7155 M,0,170494,170532,106.2189,352.7155,107.9585,368.6206
Sprite,Foreground,Centre,"sb/hl.png",0,0 S,2,170682,171732,0.7,0.14 F,2,170682,171732,1,0 P,0,170682,171732,A C,0,170682,,36,74,255 M,0,170682,170719,198,440,209.2595,428.6723 M,0,170719,170757,209.2595,428.6723,221.7422,418.7418 M,0,170757,170794,221.7422,418.7418,235.437,410.5632 M,0,170794,170832,235.437,410.5632,250.0997,404.2823 M,0,170832,170869,250.0997,404.2823,265.4688,400.0112 M,0,170869,170907,265.4688,400.0112,281.2704,397.8261 M,0,170907,170944,281.2704,397.8261,297.2228,397.7661 M,0,170944,170982,297.2228,397.7661,313.0414,399.8324
Sprite,Foreground,Centre,"sb/hl.png",0,0 S,2,171132,172032,0.7,0.14 F,2,171132,172032,1,0 P,0,171132,172032,A C,0,171132,,36,74,255 M,0,171132,171169,445,433,429.2386,435.4793 M,0,171169,171207,429.2386,435.4793,413.3167,435.6057 M,0,171207,171244,413.3167,435.6057,397.6017,433.0438 M,0,171244,171282,397.6017,433.0438,382.4117,428.1635
Sprite,Foreground,Centre,"sb/hl.png",420,312 S,2,171432,172182,0.7,0.14 F,2,171432,172182,1,0 P,0,171432,172182,A C,0,171432,,36,74,255
Sprite,Foreground,Centre,"sb/hl.png",530,397 S,2,171582,172332,0.7,0.14 F,2,171582,172332,1,0 P,0,171582,172332,A C,0,171582,,223,223,223
Sprite,Foreground,Centre,"sb/hl.png",0,0 S,2,171732,172782,0.7,0.14 F,2,171732,172782,1,0 P,0,171732,172782,A C,0,171732,,223,223,223 M,0,171732,171769,530,397,531.58,381.0782 M,0,171769,171807,531.58,381.0782,533.16,365.1564 M,0,171807,171844,533.16,365.1564,534.7401,349.2346 M,0,171844,171882,534.7401,349.2346,536.3201,333.3128 M,0,171882,171919,536.3201,333.3128,537.9001,317.3911 M,0,171919,171957,537.9001,317.3911,539.4802,301.4692 M,0,171957,171994,539.4802,301.4692,541.0602,285.5475 M,0,171994,172032,541.0602,285.5475,542.6402,269.6257
Sprite,Foreground,Centre,"sb/hl.png",0,0 S,2,172082,173082,0.7,0.14 F,2,172082,173082,1,0 P,0,172082,173082,A C,0,172082,,223,223,223 M,0,172082,172119,566,256,565.0279,240.0296 M,0,172119,172157,565.0279,240.0296,564.0558,224.0591 M,0,172157,172194,564.0558,224.0591,563.0836,208.0887 M,0,172194,172232,563.0836,208.0887,562.1116,192.1182 M,0,172232,172269,562.1116,192.1182,561.1394,176.1478 M,0,172269,172307,561.1394,176.1478,560.1674,160.1773 M,0,172307,172332,560.1674,160.1773,559.5192,149.5304
Sprite,Foreground,Centre,"sb/hl.png",478,77 S,2,172482,173232,0.7,0.14 F,2,172482,173232,1,0 P,0,172482,173232,A C,0,172482,,223,223,223
Sprite,Foreground,Centre,"sb/hl.png",0,0 S,2,172632,173532,0.7,0.14 F,2,172632,173532,1,0 P,0,172632,173532,A C,0,172632,,223,223,223 M,0,172632,172669,478,77,474.815,92.67979 M,0,172669,172707,474.815,92.67979,471.6301,108.3596 M,0,172707,172744,471.6301,108.3596,468.4451,124.0394 M,0,172744,172782,468.4451,124.0394,465.2602,139.7192
Sprite,Foreground,Centre,"sb/hl.png",426,233 S,2,172932,173682,0.7,0.14 F,2,172932,173682,1,0 P,0,172932,173682,A C,0,172932,,149,255,218
Sprite,Foreground,Centre,"sb/hl.png",0,0 S,2,173082,174132,0.7,0.14 F,2,173082,174132,1,0 P,0,173082,174132,A C,0,173082,,149,255,218 M,0,173082,173119,325,169,326.4899,184.9305 M,0,173119,173157,326.4899,184.9305,327.9798,200.861 M,0,173157,173194,327.9798,200.861,329.4697,216.7914 M,0,173194,173232,329.4697,216.7914,330.9596,232.7219 M,0,173232,173269,330.9596,232.7219,332.4495,248.6524 M,0,173269,173307,332.4495,248.6524,333.9394,264.5829 M,0,173307,173344,333.9394,264.5829,335.4293,280.5134 M,0,173344,173382,335.4293,280.5134,336.9192,296.4438
Sprite,Foreground,Centre,"sb/hl.png",0,0 S,2,173532,174582,0.7,0.14 F,2,173532,174582,1,0 P,0,173532,174582,A C,0,173532,,149,255,218 M,0,173532,173569,352,438,348.1863,422.5064 M,0,173569,173607,348.1863,422.5064,342.2403,407.734 M,0,173607,173644,342.2403,407.734,333.9717,394.1234 M,0,173644,173682,333.9717,394.1234,323.5996,382.0362 M,0,173682,173719,323.5996,382.0362,311.3989,371.7941 M,0,173719,173757,311.3989,371.7941,297.693,363.6697 M,0,173757,173794,297.693,363.6697,282.8452,357.8798 M,0,173794,173832,282.8452,357.8798,267.2495,354.5795
Sprite,Foreground,Centre,"sb/hl.png",144,416 S,2,173982,174732,0.7,0.14 F,2,173982,174732,1,0 P,0,173982,174732,A C,0,173982,,36,74,255
Sprite,Foreground,Centre,"sb/hl.png",0,0 S,2,174132,175032,0.7,0.14 F,2,174132,175032,1,0 P,0,174132,175032,A C,0,174132,,36,74,255 M,0,174132,174169,144,416,159.5847,412.5254 M,0,174169,174207,159.5847,412.5254,174.6141,407.2039 M,0,174207,174244,174.6141,407.2039,188.7551,399.8368 M,0,174244,174282,188.7551,399.8368,201.8655,390.7219
Sprite,Foreground,Centre,"sb/hl.png",0,0 S,2,174432,175482,0.7,0.14 F,2,174432,175482,1,0 P,0,174432,175482,A C,0,174432,,36,74,255 M,0,174432,174469,282,234,272.6564,246.9441 M,0,174469,174507,272.6564,246.9441,265.0452,260.9473 M,0,174507,174544,265.0452,260.9473,259.5706,275.9169 M,0,174544,174582,259.5706,275.9169,256.3515,291.5294 M,0,174582,174619,256.3515,291.5294,255.4581,307.4476 M,0,174619,174657,255.4581,307.4476,256.9104,323.3275 M,0,174657,174694,256.9104,323.3275,260.678,338.8258 M,0,174694,174732,260.678,338.8258,266.6806,353.6071
Sprite,Foreground,Centre,"sb/hl.png",368,434 S,2,174882,175632,0.7,0.14 F,2,174882,175632,1,0 P,0,174882,175632,A C,0,174882,,36,74,255
Sprite,Foreground,Centre,"sb/hl.png",0,0 S,2,175032,175932,0.7,0.14 F,2,175032,175932,1,0 P,0,175032,175932,A C,0,175032,,36,74,255 M,0,175032,175069,368,434,383.4142,429.7998 M,0,175069,175107,383.4142,429.7998,398.2845,424.007 M,0,175107,175144,398.2845,424.007,412.3441,416.4558 M,0,175144,175182,412.3441,416.4558,425.3861,407.2571
Sprite,Foreground,Centre,"sb/hl.png",454,286 S,2,175332,176082,0.7,0.14 F,2,175332,176082,1,0 P,0,175332,176082,A C,0,175332,,223,223,223
Sprite,Foreground,Centre,"sb/hl.png",0,0 S,2,175482,176532,0.7,0.14 F,2,175482,176532,1,0 P,0,175482,176532,A C,0,175482,,223,223,223 M,0,175482,175519,454,286,452.8141,301.956 M,0,175519,175557,452.8141,301.956,451.6282,317.912 M,0,175557,175594,451.6282,317.912,450.4423,333.868 M,0,175594,175632,450.4423,333.868,449.2563,349.824 M,0,175632,175669,449.2563,349.824,448.0704,365.7799 M,0,175669,175707,448.0704,365.7799,446.8845,381.7359 M,0,175707,175744,446.8845,381.7359,445.6986,397.6919 M,0,175744,175782,445.6986,397.6919,444.5127,413.6479
Sprite,Foreground,Centre,"sb/hl.png",0,0 S,2,175932,176982,0.7,0.14 F,2,175932,176982,1,0 P,0,175932,176982,A C,0,175932,,223,223,223 M,0,175932,175969,558,244,559.131,259.96 M,0,175969,176007,559.131,259.96,560.2621,275.92 M,0,176007,176044,560.2621,275.92,561.3931,291.8799 M,0,176044,176082,561.3931,291.8799,562.524,307.8399 M,0,176082,176119,562.524,307.8399,563.6552,323.7999 M,0,176119,176157,563.6552,323.7999,564.7861,339.7599 M,0,176157,176194,564.7861,339.7599,565.9171,355.7198 M,0,176194,176232,565.9171,355.7198,567,371
Sprite,Foreground,Centre,"sb/hl.png",0,0 S,2,176382,177432,0.7,0.14 F,2,176382,177432,1,0 P,0,176382,177432,A C,0,176382,,149,255,218 M,0,176382,176419,466,205,467.2659,189.0502 M,0,176419,176457,467.2659,189.0502,468.5317,173.1003 M,0,176457,176494,468.5317,173.1003,469.7976,157.1505 M,0,176494,176532,469.7976,157.1505,471,142 M,0,176532,176569,471,142,469.7976,157.1505 M,0,176569,176607,469.7976,157.1505,468.5317,173.1003 M,0,176607,176644,468.5317,173.1003,467.2659,189.0502 M,0,176644,176682,467.2659,189.0502,466,205
Sprite,Foreground,Centre,"sb/hl.png",0,0 S,2,176832,177882,0.7,0.14 F,2,176832,177882,1,0 P,0,176832,177882,A C,0,176832,,149,255,218 M,0,176832,176869,376,270,361.0115,275.5375 M,0,176869,176907,361.0115,275.5375,345.5499,279.5074 M,0,176907,176944,345.5499,279.5074,329.7299,281.6408 M,0,176944,176982,329.7299,281.6408,313.769,281.9083 M,0,176982,177019,313.769,281.9083,297.8864,280.3062 M,0,177019,177057,297.8864,280.3062,282.3004,276.8566 M,0,177057,177094,282.3004,276.8566,267.2252,271.6068 M,0,177094,177132,267.2252,271.6068,252.8678,264.629
Sprite,Foreground,Centre,"sb/hl.png",0,0 S,2,177282,178332,0.7,0.14 F,2,177282,178332,1,0 P,0,177282,178332,A C,0,177282,,149,255,218 M,0,177282,177319,179,202,178.7995,217.9914 M,0,177319,177357,178.7995,217.9914,177.7861,233.9477 M,0,177357,177394,177.7861,233.9477,175.8044,249.8157 M,0,177394,177432,175.8044,249.8157,173,265 M,0,177432,177469,173,265,175.8044,249.8157 M,0,177469,177507,175.8044,249.8157,177.7861,233.9477 M,0,177507,177544,177.7861,233.9477,178.7995,217.9914 M,0,177544,177582,178.7995,217.9914,179,202
Sprite,Foreground,Centre,"sb/hl.png",137,102 S,2,177732,178482,0.7,0.14 F,2,177732,178482,1,0 P,0,177732,178482,A C,0,177732,,36,74,255
Sprite,Foreground,Centre,"sb/hl.png",0,0 S,2,177882,178782,0.7,0.14 F,2,177882,178782,1,0 P,0,177882,178782,A C,0,177882,,36,74,255 M,0,177882,177919,295,120,279.1383,122.0993 M,0,177919,177957,279.1383,122.0993,263.2766,124.1987 M,0,177957,177994,263.2766,124.1987,247.415,126.298 M,0,177994,178032,247.415,126.298,231.5533,128.3974
Sprite,Foreground,Centre,"sb/hl.png",107,227 S,2,178182,178932,0.7,0.14 F,2,178182,178932,1,0 P,0,178182,178932,A C,0,178182,,36,74,255
Sprite,Foreground,Centre,"sb/hl.png",0,0 S,2,178332,179232,0.7,0.14 F,2,178332,179232,1,0 P,0,178332,179232,A C,0,178332,,36,74,255 M,0,178332,178369,297,242,281.1383,244.0993 M,0,178369,178407,281.1383,244.0993,265.2766,246.1987 M,0,178407,178444,265.2766,246.1987,249.415,248.298 M,0,178444,178482,249.415,248.298,233.5533,250.3974
Sprite,Foreground,Centre,"sb/hl.png",116,334 S,2,178632,179382,0.7,0.14 F,2,178632,179382,1,0 P,0,178632,179382,A C,0,178632,,36,74,255
Sprite,Foreground,Centre,"sb/hl.png",116,334 S,2,178707,179457,0.7,0.14 F,2,178707,179457,1,0 P,0,178707,179457,A C,0,178707,,36,74,255
Sprite,Foreground,Centre,"sb/hl.png",0,0 S,2,178782,179682,0.7,0.14 F,2,178782,179682,1,0 P,0,178782,179682,A C,0,178782,,223,223,223 M,0,178782,178819,116,334,131.8725,336.0156 M,0,178819,178857,131.8725,336.0156,147.7451,338.0311 M,0,178857,178894,147.7451,338.0311,163.6176,340.0467 M,0,178894,178932,163.6176,340.0467,179,342
Sprite,Foreground,Centre,"sb/hl.png",0,0 S,2,179082,179907,0.7,0.14 F,2,179082,179907,1,0 P,0,179082,179907,A C,0,179082,,223,223,223 M,0,179082,179119,295,411,279.4962,414.5155 M,0,179119,179157,279.4962,414.5155,263.6152,415.2053
Sprite,Foreground,Centre,"sb/hl.png",0,0 S,2,179232,180132,0.7,0.14 F,2,179232,180132,1,0 P,0,179232,180132,A C,0,179232,,223,223,223 M,0,179232,179269,360,347,375.9392,348.0184 M,0,179269,179307,375.9392,348.0184,391.6788,350.6313 M,0,179307,179344,391.6788,350.6313,407.0013,355.115 M,0,179344,179382,407.0013,355.115,421,361
Sprite,Foreground,Centre,"sb/hl.png",527,435 S,2,179532,180282,0.7,0.14 F,2,179532,180282,1,0 P,0,179532,180282,A C,0,179532,,223,223,223
Sprite,Foreground,Centre,"sb/hl.png",527,435 S,2,179607,180357,0.7,0.14 F,2,179607,180357,1,0 P,0,179607,180357,A C,0,179607,,223,223,223
Sprite,Foreground,Centre,"sb/hl.png",0,0 S,2,179682,180507,0.7,0.14 F,2,179682,180507,1,0 P,0,179682,180507,A C,0,179682,,223,223,223 M,0,179682,179719,527,435,524.3696,419.2177 M,0,179719,179757,524.3696,419.2177,521.7393,403.4354
Sprite,Foreground,Centre,"sb/hl.png",0,0 S,2,179832,180657,0.7,0.14 F,2,179832,180657,1,0 P,0,179832,180657,A C,0,179832,,223,223,223 M,0,179832,179869,531,269,527.9597,284.7085 M,0,179869,179907,527.9597,284.7085,525,300
Sprite,Foreground,Centre,"sb/hl.png",0,0 S,2,179982,180882,0.7,0.14 F,2,179982,180882,1,0 P,0,179982,180882,A C,0,179982,,149,255,218 M,0,179982,180019,421,361,406.1799,355.0161 M,0,180019,180057,406.1799,355.0161,390.8824,350.4308 M,0,180057,180094,390.8824,350.4308,375.186,347.4879 M,0,180094,180132,375.186,347.4879,359.2716,346.0139
Sprite,Foreground,Centre,"sb/hl.png",246,389 S,2,180282,181032,0.7,0.14 F,2,180282,181032,1,0 P,0,180282,181032,A C,0,180282,,149,255,218
Sprite,Foreground,Centre,"sb/hl.png",246,389 S,2,180357,181107,0.7,0.14 F,2,180357,181107,1,0 P,0,180357,181107,A C,0,180357,,149,255,218
Sprite,Foreground,Centre,"sb/hl.png",0,0 S,2,180432,181407,0.7,0.14 F,2,180432,181407,1,0 P,0,180432,181407,A C,0,180432,,149,255,218 M,0,180432,180469,246,389,230.0233,388.1364 M,0,180469,180507,230.0233,388.1364,214.0466,387.2728 M,0,180507,180544,214.0466,387.2728,230.0233,388.1364 M,0,180544,180582,230.0233,388.1364,246,389 M,0,180582,180619,246,389,230.0233,388.1364 M,0,180619,180657,230.0233,388.1364,214.0466,387.2728
Sprite,Foreground,Centre,"sb/hl.png",0,0 S,2,180732,181632,0.7,0.14 F,2,180732,181632,1,0 P,0,180732,181632,A C,0,180732,,149,255,218 M,0,180732,180769,141,350,133.8016,335.7755 M,0,180769,180807,133.8016,335.7755,128.9394,320.636 M,0,180807,180844,128.9394,320.636,126.9211,304.8593 M,0,180844,180882,126.9211,304.8593,127.8161,288.9728
Sprite,Foreground,Centre,"sb/hl.png",264,264 S,2,181032,181782,0.7,0.14 F,2,181032,181782,1,0 P,0,181032,181782,A C,0,181032,,36,74,255
Sprite,Foreground,Centre,"sb/hl.png",264,264 S,2,181107,181857,0.7,0.14 F,2,181107,181857,1,0 P,0,181107,181857,A C,0,181107,,36,74,255
Sprite,Foreground,Centre,"sb/hl.png",0,0 S,2,181182,182082,0.7,0.14 F,2,181182,182082,1,0 P,0,181182,182082,A C,0,181182,,36,74,255 M,0,181182,181219,264,264,254.9558,277.1337 M,0,181219,181257,254.9558,277.1337,244.0632,288.7285 M,0,181257,181294,244.0632,288.7285,231.3054,298.2397 M,0,181294,181332,231.3054,298.2397,217.0737,305.3732
Sprite,Foreground,Centre,"sb/hl.png",128,201 S,2,181482,182232,0.7,0.14 F,2,181482,182232,1,0 P,0,181482,182232,A C,0,181482,,36,74,255
Sprite,Foreground,Centre,"sb/hl.png",143,201 S,2,181557,182307,0.7,0.14 F,2,181557,182307,1,0 P,0,181557,182307,A C,0,181557,,36,74,255
Sprite,Foreground,Centre,"sb/hl.png",159,204 S,2,181632,182382,0.7,0.14 F,2,181632,182382,1,0 P,0,181632,182382,A C,0,181632,,36,74,255
Sprite,Foreground,Centre,"sb/hl.png",174,211 S,2,181707,182457,0.7,0.14 F,2,181707,182457,1,0 P,0,181707,182457,A C,0,181707,,36,74,255
Sprite,Foreground,Centre,"sb/hl.png",187,219 S,2,181782,182532,0.7,0.14 F,2,181782,182532,1,0 P,0,181782,182532,A C,0,181782,,36,74,255
Sprite,Foreground,Centre,"sb/hl.png",234,317 S,2,181932,182682,0.7,0.14 F,2,181932,182682,1,0 P,0,181932,182682,A C,0,181932,,36,74,255
Sprite,Foreground,Centre,"sb/hl.png",0,0 S,2,182082,182982,0.7,0.14 F,2,182082,182982,1,0 P,0,182082,182982,A C,0,182082,,36,74,255 M,0,182082,182119,297,190,310.5393,181.5954 M,0,182119,182157,310.5393,181.5954,325.1543,175.3369 M,0,182157,182194,325.1543,175.3369,340.6782,171.7961 M,0,182194,182232,340.6782,171.7961,356,171
Sprite,Foreground,Centre,"sb/hl.png",458,203 S,2,182382,183132,0.7,0.14 F,2,182382,183132,1,0 P,0,182382,183132,A C,0,182382,,223,223,223
Sprite,Foreground,Centre,"sb/hl.png",359,284 S,2,182532,183282,0.7,0.14 F,2,182532,183282,1,0 P,0,182532,183282,A C,0,182532,,223,223,223
Sprite,Foreground,Centre,"sb/hl.png",355,277 S,2,182607,183357,0.7,0.14 F,2,182607,183357,1,0 P,0,182607,183357,A C,0,182607,,223,223,223
Sprite,Foreground,Centre,"sb/hl.png",351,270 S,2,182682,183432,0.7,0.14 F,2,182682,183432,1,0 P,0,182682,183432,A C,0,182682,,223,223,223
Sprite,Foreground,Centre,"sb/hl.png",349,262 S,2,182757,183507,0.7,0.14 F,2,182757,183507,1,0 P,0,182757,183507,A C,0,182757,,223,223,223
Sprite,Foreground,Centre,"sb/hl.png",347,254 S,2,182832,183582,0.7,0.14 F,2,182832,183582,1,0 P,0,182832,183582,A C,0,182832,,223,223,223
Sprite,Foreground,Centre,"sb/hl.png",424,136 S,2,182982,183732,0.7,0.14 F,2,182982,183732,1,0 P,0,182982,183732,A C,0,182982,,223,223,223
Sprite,Foreground,Centre,"sb/hl.png",492,270 S,2,183132,183882,0.7,0.14 F,2,183132,183882,1,0 P,0,183132,183882,A C,0,183132,,223,223,223
Sprite,Foreground,Centre,"sb/hl.png",0,0 S,2,183282,184257,0.7,0.14 F,2,183282,184257,1,0 P,0,183282,184257,A C,0,183282,,149,255,218 M,0,183282,183319,359,284,343.136,285.6084 M,0,183319,183357,343.136,285.6084,327.2364,284.972 M,0,183357,183394,327.2364,284.972,343.136,285.6084 M,0,183394,183432,343.136,285.6084,359,284 M,0,183432,183469,359,284,343.136,285.6084 M,0,183469,183507,343.136,285.6084,327.2364,284.972
Sprite,Foreground,Centre,"sb/hl.png",0,0 S,2,183582,184482,0.7,0.14 F,2,183582,184482,1,0 P,0,183582,184482,A C,0,183582,,149,255,218 M,0,183582,183619,245,291,232.5236,281.0545 M,0,183619,183657,232.5236,281.0545,221.593,269.4758 M,0,183657,183694,221.593,269.4758,212.6915,256.2709 M,0,183694,183732,212.6915,256.2709,206.0569,241.7909
Sprite,Foreground,Centre,"sb/hl.png",259,100 S,2,183882,184632,0.7,0.14 F,2,183882,184632,1,0 P,0,183882,184632,A C,0,183882,,149,255,218
Sprite,Foreground,Centre,"sb/hl.png",259,100 S,2,183957,184707,0.7,0.14 F,2,183957,184707,1,0 P,0,183957,184707,A C,0,183957,,149,255,218
Sprite,Foreground,Centre,"sb/hl.png",0,0 S,2,184032,184932,0.7,0.14 F,2,184032,184932,1,0 P,0,184032,184932,A C,0,184032,,149,255,218 M,0,184032,184069,259,100,257.9826,115.8964 M,0,184069,184107,257.9826,115.8964,254.241,131.3281 M,0,184107,184144,254.241,131.3281,247.4674,145.6963 M,0,184144,184182,247.4674,145.6963,237.9349,158.4139
Sprite,Foreground,Centre,"sb/hl.png",117,232 S,2,184332,185082,0.7,0.14 F,2,184332,185082,1,0 P,0,184332,185082,A C,0,184332,,149,255,218
Sprite,Foreground,Centre,"sb/hl.png",181,104 S,2,184482,185232,0.7,0.14 F,2,184482,185232,1,0 P,0,184482,185232,A C,0,184482,,149,255,218
Sprite,Foreground,Centre,"sb/hl.png",245,275 S,2,184632,185382,0.7,0.14 F,2,184632,185382,1,0 P,0,184632,185382,A C,0,184632,,149,255,218
Sprite,Foreground,Centre,"sb/hl.png",0,0 S,2,184782,185691,0.7,0.14 F,2,184782,185691,1,0 P,0,184782,185691,A C,0,184782,,36,74,255 M,0,184782,184821,332,187,332.7102,193.6287 M,0,184821,184861,332.7102,193.6287,333.4204,200.2575 M,0,184861,184901,333.4204,200.2575,334.1307,206.8862 M,0,184901,184941,334.1307,206.8862,334.8409,213.5149
Sprite,Foreground,Centre,"sb/hl.png",0,0 S,2,185242,186142,0.7,0.14 F,2,185242,186142,1,0 P,0,185242,186142,A C,0,185242,,36,74,255 M,0,185242,185279,421,314,421.7102,307.3713 M,0,185279,185317,421.7102,307.3713,422.4204,300.7426 M,0,185317,185354,422.4204,300.7426,423.1307,294.1138 M,0,185354,185392,423.1307,294.1138,423.8409,287.4851
Sprite,Foreground,Centre,"sb/hl.png",0,0 S,2,185692,186742,0.7,0.14 F,2,185692,186742,1,0 P,0,185692,186742,A C,0,185692,,36,74,255 M,0,185692,185729,320,183,320.7102,189.6287 M,0,185729,185767,320.7102,189.6287,321.4204,196.2575 M,0,185767,185804,321.4204,196.2575,322.1307,202.8862 M,0,185804,185842,322.1307,202.8862,322.8409,209.5149 M,0,185842,185879,322.8409,209.5149,323.5511,216.1436 M,0,185879,185917,323.5511,216.1436,324.2613,222.7724 M,0,185917,185954,324.2613,222.7724,324.9716,229.4011 M,0,185954,185992,324.9716,229.4011,325.6818,236.0298
Sprite,Foreground,Centre,"sb/hl.png",0,0 S,2,186142,187042,0.7,0.14 F,2,186142,187042,1,0 P,0,186142,187042,A C,0,186142,,36,74,255 M,0,186142,186179,333,309,333.7102,315.6287 M,0,186179,186217,333.7102,315.6287,334.4204,322.2574 M,0,186217,186254,334.4204,322.2574,335.1307,328.8862 M,0,186254,186292,335.1307,328.8862,335.8409,335.5149
Sprite,Foreground,Centre,"sb/hl.png",435,209 S,2,186592,187342,0.7,0.14 F,2,186592,187342,1,0 P,0,186592,187342,A C,0,186592,,36,74,255
Sprite,Foreground,Centre,"sb/hl.png",0,0 S,2,9582,10482,0.7,0.14 F,2,9582,10482,1,0 P,0,9582,10482,A C,0,9582,,149,255,218 M,0,9582,9619,166,192,167.5044,201.8862 M,0,9619,9657,167.5044,201.8862,169.0089,211.7724 M,0,9657,9694,169.0089,211.7724,170.5133,221.6586 M,0,9694,9732,170.5133,221.6586,172.0177,231.5448
Sprite,Foreground,Centre,"sb/hl.png",0,0 S,2,9882,10782,0.7,0.14 F,2,9882,10782,1,0 P,0,9882,10782,A C,0,9882,,149,255,218 M,0,9882,9919,253,212,254.5044,221.8862 M,0,9919,9957,254.5044,221.8862,256.0089,231.7724 M,0,9957,9994,256.0089,231.7724,257.5132,241.6586 M,0,9994,10032,257.5132,241.6586,259.0177,251.5448
Sprite,Foreground,Centre,"sb/hl.png",334,319 S,2,10182,10932,0.7,0.14 F,2,10182,10932,1,0 P,0,10182,10932,A C,0,10182,,149,255,218
Sprite,Foreground,Centre,"sb/hl.png",0,0 S,2,10332,11382,0.7,0.14 F,2,10332,11382,1,0 P,0,10332,11382,A C,0,10332,,149,255,218 M,0,10332,10369,334,319,343.3592,322.4537 M,0,10369,10407,343.3592,322.4537,353.0511,324.7674 M,0,10407,10444,353.0511,324.7674,362.9413,325.911 M,0,10444,10482,362.9413,325.911,372.8928,325.8699 M,0,10482,10519,372.8928,325.8699,382.8044,324.9036 M,0,10519,10557,382.8044,324.9036,392.4323,322.3262 M,0,10557,10594,392.4323,322.3262,401.6768,318.6254 M,0,10594,10632,401.6768,318.6254,410.4106,313.8539
Sprite,Foreground,Centre,"sb/hl.png",0,0 S,2,10782,11832,0.7,0.14 F,2,10782,11832,1,0 P,0,10782,11832,A C,0,10782,,36,74,255 M,0,10782,10819,444,232,434.6408,228.5462 M,0,10819,10857,434.6408,228.5462,424.9489,226.2326 M,0,10857,10894,424.9489,226.2326,415.0587,225.089 M,0,10894,10932,415.0587,225.089,405.1072,225.1301 M,0,10932,10969,405.1072,225.1301,395.1956,226.0964 M,0,10969,11007,395.1956,226.0964,385.5677,228.6738 M,0,11007,11044,385.5677,228.6738,376.3232,232.3745 M,0,11044,11082,376.3232,232.3745,367.5894,237.1462
Sprite,Foreground,Centre,"sb/hl.png",500,301 S,2,11232,11982,0.7,0.14 F,2,11232,11982,1,0 P,0,11232,11982,A C,0,11232,,36,74,255
Sprite,Foreground,Centre,"sb/hl.png",536,217 S,2,11382,12132,0.7,0.14 F,2,11382,12132,1,0 P,0,11382,12132,A C,0,11382,,36,74,255
Sprite,Foreground,Centre,"sb/hl.png",406,314 S,2,11682,12432,0.7,0.14 F,2,11682,12432,1,0 P,0,11682,12432,A C,0,11682,,36,74,255
Sprite,Foreground,Centre,"sb/hl.png",0,0 S,2,11832,12732,0.7,0.14 F,2,11832,12732,1,0 P,0,11832,12732,A C,0,11832,,36,74,255 M,0,11832,11869,406,314,404.2762,323.8503 M,0,11869,11907,404.2762,323.8503,402.5524,333.7006 M,0,11907,11944,402.5524,333.7006,400.8286,343.5509 M,0,11944,11982,400.8286,343.5509,399.1048,353.4012
Sprite,Foreground,Centre,"sb/hl.png",315,383 S,2,12132,12882,0.7,0.14 F,2,12132,12882,1,0 P,0,12132,12882,A C,0,12132,,36,74,255
Sprite,Foreground,Centre,"sb/hl.png",0,0 S,2,12282,13332,0.7,0.14 F,2,12282,13332,1,0 P,0,12282,13332,A C,0,12282,,223,223,223 M,0,12282,12319,315,383,313.6489,373.0917 M,0,12319,12357,313.6489,373.0917,312.2977,363.1834 M,0,12357,12394,312.2977,363.1834,310.9466,353.2751 M,0,12394,12432,310.9466,353.2751,309.5955,343.3668 M,0,12432,12469,309.5955,343.3668,308.2443,333.4585 M,0,12469,12507,308.2443,333.4585,306.8932,323.5502 M,0,12507,12544,306.8932,323.5502,305.5421,313.6419 M,0,12544,12582,305.5421,313.6419,304.1909,303.7336
Sprite,Foreground,Centre,"sb/hl.png",0,0 S,2,12732,13782,0.7,0.14 F,2,12732,13782,1,0 P,0,12732,13782,A C,0,12732,,223,223,223 M,0,12732,12769,211,273,212.3511,282.9083 M,0,12769,12807,212.3511,282.9083,213.7023,292.8166 M,0,12807,12844,213.7023,292.8166,215.0534,302.7249 M,0,12844,12882,215.0534,302.7249,216.4045,312.6332 M,0,12882,12919,216.4045,312.6332,217.7557,322.5415 M,0,12919,12957,217.7557,322.5415,219.1068,332.4498 M,0,12957,12994,219.1068,332.4498,220.4579,342.3581 M,0,12994,13032,220.4579,342.3581,221.8091,352.2664
Sprite,Foreground,Centre,"sb/hl.png",0,0 S,2,13182,14232,0.7,0.14 F,2,13182,14232,1,0 P,0,13182,14232,A C,0,13182,,149,255,218 M,0,13182,13219,321,387,330.8633,388.4885 M,0,13219,13257,330.8633,388.4885,340.8222,388.7627 M,0,13257,13294,340.8222,388.7627,350.7314,387.8209 M,0,13294,13332,350.7314,387.8209,360.4468,385.6781 M,0,13332,13369,360.4468,385.6781,369.933,382.6425 M,0,13369,13407,369.933,382.6425,378.7697,378.0331 M,0,13407,13444,378.7697,378.0331,386.9699,372.386 M,0,13444,13482,386.9699,372.386,394.4152,365.7849
Sprite,Foreground,Centre,"sb/hl.png",0,0 S,2,13632,14682,0.7,0.14 F,2,13632,14682,1,0 P,0,13632,14682,A C,0,13632,,149,255,218 M,0,13632,13669,461,287,470.8633,285.5115 M,0,13669,13707,470.8633,285.5115,480.8222,285.2373 M,0,13707,13744,480.8222,285.2373,490.7314,286.1791 M,0,13744,13782,490.7314,286.1791,500.4468,288.3219 M,0,13782,13819,500.4468,288.3219,509.933,291.3575 M,0,13819,13857,509.933,291.3575,518.7697,295.9669 M,0,13857,13894,518.7697,295.9669,526.9699,301.614 M,0,13894,13932,526.9699,301.614,534.4152,308.2151
Sprite,Foreground,Centre,"sb/hl.png",567,391 S,2,14082,14832,0.7,0.14 F,2,14082,14832,1,0 P,0,14082,14832,A C,0,14082,,149,255,218
Sprite,Foreground,Centre,"sb/hl.png",465,408 S,2,14232,14982,0.7,0.14 F,2,14232,14982,1,0 P,0,14232,14982,A C,0,14232,,36,74,255
Sprite,Foreground,Centre,"sb/hl.png",0,0 S,2,14382,15282,0.7,0.14 F,2,14382,15282,1,0 P,0,14382,15282,A C,0,14382,,36,74,255 M,0,14382,14419,465,408,467.1243,398.2282 M,0,14419,14457,467.1243,398.2282,469.2486,388.4565 M,0,14457,14494,469.2486,388.4565,471.3729,378.6847 M,0,14494,14532,471.3729,378.6847,473.4972,368.9129
Sprite,Foreground,Centre,"sb/hl.png",0,0 S,2,14682,15582,0.7,0.14 F,2,14682,15582,1,0 P,0,14682,15582,A C,0,14682,,36,74,255 M,0,14682,14719,382,360,383.683,350.1426 M,0,14719,14757,383.683,350.1426,385.3659,340.2853 M,0,14757,14794,385.3659,340.2853,387.0489,330.4279 M,0,14794,14832,387.0489,330.4279,388.7319,320.5706
Sprite,Foreground,Centre,"sb/hl.png",308,260 S,2,14982,15732,0.7,0.14 F,2,14982,15732,1,0 P,0,14982,15732,A C,0,14982,,36,74,255
Sprite,Foreground,Centre,"sb/hl.png",0,0 S,2,15132,16182,0.7,0.14 F,2,15132,16182,1,0 P,0,15132,16182,A C,0,15132,,36,74,255 M,0,15132,15169,308,260,306.1238,269.8224 M,0,15169,15207,306.1238,269.8224,304.2476,279.6448 M,0,15207,15244,304.2476,279.6448,302.3714,289.4673 M,0,15244,15282,302.3714,289.4673,300.4952,299.2897 M,0,15282,15319,300.4952,299.2897,298.619,309.1121 M,0,15319,15357,298.619,309.1121,296.7429,318.9345 M,0,15357,15394,296.7429,318.9345,294.8666,328.7569 M,0,15394,15432,294.8666,328.7569,292.9905,338.5793
Sprite,Foreground,Centre,"sb/hl.png",0,0 S,2,15582,16482,0.7,0.14 F,2,15582,16482,1,0 P,0,15582,16482,A C,0,15582,,223,223,223 M,0,15582,15619,210,393,208.1289,383.1766 M,0,15619,15657,208.1289,383.1766,206.2578,373.3532 M,0,15657,15694,206.2578,373.3532,204.3866,363.5298 M,0,15694,15732,204.3866,363.5298,202.5155,353.7065
Sprite,Foreground,Centre,"sb/hl.png",0,0 S,2,16032,17082,0.7,0.14 F,2,16032,17082,1,0 P,0,16032,17082,A C,0,16032,,223,223,223 M,0,16032,16069,96,230,105.9844,230.0085 M,0,16069,16107,105.9844,230.0085,115.9084,231.0296 M,0,16107,16144,115.9084,231.0296,125.6712,233.0516 M,0,16144,16182,125.6712,233.0516,135.1736,236.0529 M,0,16182,16219,135.1736,236.0529,144.319,240.0024 M,0,16219,16257,144.319,240.0024,153.0146,244.8593 M,0,16257,16294,153.0146,244.8593,161.3264,250.3623 M,0,16294,16332,161.3264,250.3623,168.8823,256.8976
Sprite,Foreground,Centre,"sb/hl.png",216,348 S,2,16482,17232,0.7,0.14 F,2,16482,17232,1,0 P,0,16482,17232,A C,0,16482,,223,223,223
Sprite,Foreground,Centre,"sb/hl.png",0,0 S,2,16632,17532,0.7,0.14 F,2,16632,17532,1,0 P,0,16632,17532,A C,0,16632,,149,255,218 M,0,16632,16669,298,263,300.0305,253.2143 M,0,16669,16707,300.0305,253.2143,301.4826,243.3291 M,0,16707,16744,301.4826,243.3291,302.3517,233.3777 M,0,16744,16782,302.3517,233.3777,302.635,223.3934
Sprite,Foreground,Centre,"sb/hl.png",0,0 S,2,16932,17832,0.7,0.14 F,2,16932,17832,1,0 P,0,16932,17832,A C,0,16932,,149,255,218 M,0,16932,16969,386,237,385.0509,246.9546 M,0,16969,17007,385.0509,246.9546,383.8795,256.8853 M,0,17007,17044,383.8795,256.8853,382.4915,266.7882 M,0,17044,17082,382.4915,266.7882,381,276
Sprite,Foreground,Centre,"sb/hl.png",493,393 S,2,17382,18132,0.7,0.14 F,2,17382,18132,1,0 P,0,17382,18132,A C,0,17382,,149,255,218
Sprite,Foreground,Centre,"sb/hl.png",0,0 S,2,17532,18582,0.7,0.14 F,2,17532,18582,1,0 P,0,17532,18582,A C,0,17532,,149,255,218 M,0,17532,17569,493,393,492.7458,383.0094 M,0,17569,17607,492.7458,383.0094,491.88,373.0563 M,0,17607,17644,491.88,373.0563,490.406,363.1772 M,0,17644,17682,490.406,363.1772,488.3295,353.4084 M,0,17682,17719,488.3295,353.4084,485.8322,343.7332 M,0,17719,17757,485.8322,343.7332,482.4872,334.317 M,0,17757,17794,482.4872,334.317,478.5724,325.1263 M,0,17794,17832,478.5724,325.1263,474.1024,316.1945
Sprite,Foreground,Centre,"sb/hl.png",0,0 S,2,17982,19032,0.7,0.14 F,2,17982,19032,1,0 P,0,17982,19032,A C,0,17982,,36,74,255 M,0,17982,18019,381,276,371.0888,274.6704 M,0,18019,18057,371.0888,274.6704,361.1776,273.3409 M,0,18057,18094,361.1776,273.3409,351.2663,272.0114 M,0,18094,18132,351.2663,272.0114,341.3551,270.6818 M,0,18132,18169,341.3551,270.6818,331.4439,269.3522 M,0,18169,18207,331.4439,269.3522,321.5327,268.0227 M,0,18207,18244,321.5327,268.0227,311.6215,266.6931 M,0,18244,18282,311.6215,266.6931,301.7102,265.3636
Sprite,Foreground,Centre,"sb/hl.png",0,0 S,2,18432,19482,0.7,0.14 F,2,18432,19482,1,0 P,0,18432,19482,A C,0,18432,,36,74,255 M,0,18432,18469,232,208,222.0888,209.3296 M,0,18469,18507,222.0888,209.3296,212.1776,210.6591 M,0,18507,18544,212.1776,210.6591,202.2663,211.9887 M,0,18544,18582,202.2663,211.9887,192.3551,213.3182 M,0,18582,18619,192.3551,213.3182,182.4439,214.6478 M,0,18619,18657,182.4439,214.6478,172.5327,215.9773 M,0,18657,18694,172.5327,215.9773,162.6215,217.3069 M,0,18694,18732,162.6215,217.3069,152.7102,218.6364
Sprite,Foreground,Centre,"sb/hl.png",92,307 S,2,18882,19632,0.7,0.14 F,2,18882,19632,1,0 P,0,18882,19632,A C,0,18882,,36,74,255
Sprite,Foreground,Centre,"sb/hl.png",70,151 S,2,19032,19782,0.7,0.14 F,2,19032,19782,1,0 P,0,19032,19782,A C,0,19032,,36,74,255
Sprite,Foreground,Centre,"sb/hl.png",0,0 S,2,20637,21626,0.7,0.14 F,2,20637,21626,1,0 P,0,20637,21626,A C,0,20637,,223,223,223 M,0,20637,20676,392,271,382.1079,272.3989 M,0,20676,20716,382.1079,272.3989,372.1422,273.0307 M,0,20716,20756,372.1422,273.0307,362.1611,272.8923 M,0,20756,20796,362.1611,272.8923,352.223,271.985 M,0,20796,20836,352.223,271.985,342.3856,270.3144 M,0,20836,20876,342.3856,270.3144,332.6438,268.1128
Sprite,Foreground,Centre,"sb/hl.png",0,0 S,2,20956,21942,0.7,0.14 F,2,20956,21942,1,0 P,0,20956,21942,A C,0,20956,,149,255,218 M,0,20956,20995,259,231,258.6431,240.9936 M,0,20995,21034,258.6431,240.9936,258.2862,250.9873 M,0,21034,21074,258.2862,250.9873,257.1136,260.7729 M,0,21074,21113,257.1136,260.7729,255,270.2739 M,0,21113,21153,255,270.2739,255,280.2739 M,0,21153,21192,255,280.2739,255,290.2739
Sprite,Foreground,Centre,"sb/hl.png",0,0 S,2,21271,22176,0.7,0.14 F,2,21271,22176,1,0 P,0,21271,22176,A C,0,21271,,149,255,218 M,0,21271,21309,243,309,244.0653,318.9431 M,0,21309,21348,244.0653,318.9431,245.1307,328.8862 M,0,21348,21387,245.1307,328.8862,246.196,338.8293 M,0,21387,21426,246.196,338.8293,247.2613,348.7724
Sprite,Foreground,Centre,"sb/hl.png",0,0 S,2,21582,22482,0.7,0.14 F,2,21582,22482,1,0 P,0,21582,22482,A C,0,21582,,36,74,255 M,0,21582,21619,104,274,102.3231,259.094 M,0,21619,21657,102.3231,259.094,100.6462,244.1881 M,0,21657,21694,100.6462,244.1881,98.96924,229.2821 M,0,21694,21732,98.96924,229.2821,97.29231,214.3761
Sprite,Foreground,Centre,"sb/hl.png",86,105 S,2,21882,22632,0.7,0.14 F,2,21882,22632,1,0 P,0,21882,22632,A C,0,21882,,36,74,255
Sprite,Foreground,Centre,"sb/hl.png",86,105 S,2,22032,22782,0.7,0.14 F,2,22032,22782,1,0 P,0,22032,22782,A C,0,22032,,36,74,255
Sprite,Foreground,Centre,"sb/hl.png",0,0 S,2,22182,23082,0.7,0.14 F,2,22182,23082,1,0 P,0,22182,23082,A C,0,22182,,36,74,255 M,0,22182,22219,177,165,191.7614,167.5359 M,0,22219,22257,191.7614,167.5359,206.6765,168.7934 M,0,22257,22294,206.6765,168.7934,221.6572,168.4819 M,0,22294,22332,221.6572,168.4819,236.4593,166.2032
Sprite,Foreground,Centre,"sb/hl.png",0,0 S,2,22482,23832,0.7,0.14 F,2,22482,23832,1,0 P,0,22482,23832,A C,0,22482,,223,223,223 M,0,22482,22519,346,145,342.9964,159.6962 M,0,22519,22557,342.9964,159.6962,339.9928,174.3924 M,0,22557,22594,339.9928,174.3924,336.9892,189.0886 M,0,22594,22632,336.9892,189.0886,333.9856,203.7848 M,0,22632,22669,333.9856,203.7848,330.982,218.481 M,0,22669,22707,330.982,218.481,327.9784,233.1772 M,0,22707,22744,327.9784,233.1772,324.9748,247.8734 M,0,22744,22782,324.9748,247.8734,321.9712,262.5696 M,0,22782,22819,321.9712,262.5696,324.9748,247.8734 M,0,22819,22857,324.9748,247.8734,327.9784,233.1772 M,0,22857,22894,327.9784,233.1772,330.982,218.481 M,0,22894,22932,330.982,218.481,333.9856,203.7848 M,0,22932,22969,333.9856,203.7848,336.9892,189.0886 M,0,22969,23007,336.9892,189.0886,339.9928,174.3924 M,0,23007,23044,339.9928,174.3924,342.9964,159.6962 M,0,23044,23082,342.9964,159.6962,346,145
Sprite,Foreground,Centre,"sb/hl.png",0,0 S,2,23382,24432,0.7,0.14 F,2,23382,24432,1,0 P,0,23382,24432,A C,0,23382,,223,223,223 M,0,23382,23419,466,57,469.0142,71.69404 M,0,23419,23457,469.0142,71.69404,472.0283,86.38808 M,0,23457,23494,472.0283,86.38808,475.0425,101.0821 M,0,23494,23532,475.0425,101.0821,478.0566,115.7762 M,0,23532,23569,478.0566,115.7762,481.0708,130.4702 M,0,23569,23607,481.0708,130.4702,484.085,145.1642 M,0,23607,23644,484.085,145.1642,487.0991,159.8583 M,0,23644,23682,487.0991,159.8583,490,174
Sprite,Foreground,Centre,"sb/hl.png",490,277 S,2,23832,24582,0.7,0.14 F,2,23832,24582,1,0 P,0,23832,24582,A C,0,23832,,223,223,223
Sprite,Foreground,Centre,"sb/hl.png",490,277 S,2,23907,24657,0.7,0.14 F,2,23907,24657,1,0 P,0,23907,24657,A C,0,23907,,223,223,223
Sprite,Foreground,Centre,"sb/hl.png",0,0 S,2,23982,25182,0.7,0.14 F,2,23982,25182,1,0 P,0,23982,25182,A C,0,23982,,149,255,218 M,0,23982,24019,490,277,487.002,262.3026 M,0,24019,24057,487.002,262.3026,484.0041,247.6053 M,0,24057,24094,484.0041,247.6053,481.0061,232.9079 M,0,24094,24132,481.0061,232.9079,478.0081,218.2106 M,0,24132,24169,478.0081,218.2106,475.0102,203.5132 M,0,24169,24207,475.0102,203.5132,472.0122,188.8159 M,0,24207,24244,472.0122,188.8159,469.0142,174.1185 M,0,24244,24282,469.0142,174.1185,466.0163,159.4212 M,0,24282,24319,466.0163,159.4212,463.0183,144.7238 M,0,24319,24357,463.0183,144.7238,460.0203,130.0265 M,0,24357,24394,460.0203,130.0265,457.0224,115.3291 M,0,24394,24432,457.0224,115.3291,454.0244,100.6317
Sprite,Foreground,Centre,"sb/hl.png",0,0 S,2,24582,25632,0.7,0.14 F,2,24582,25632,1,0 P,0,24582,25632,A C,0,24582,,149,255,218 M,0,24582,24619,361,63,350.9676,74.10461 M,0,24619,24657,350.9676,74.10461,339.6733,83.88696 M,0,24657,24694,339.6733,83.88696,327.0923,91.95686 M,0,24694,24732,327.0923,91.95686,313.4799,98.14819 M,0,24732,24769,313.4799,98.14819,299.1124,102.3323 M,0,24769,24807,299.1124,102.3323,284.2819,104.4204 M,0,24807,24844,284.2819,104.4204,269.3235,104.006 M,0,24844,24882,269.3235,104.006,254.5592,101.7212
Sprite,Foreground,Centre,"sb/hl.png",0,0 S,2,25182,26232,0.7,0.14 F,2,25182,26232,1,0 P,0,25182,26232,A C,0,25182,,36,74,255 M,0,25182,25219,102,61,104.673,75.7599 M,0,25219,25257,104.673,75.7599,107.3461,90.51981 M,0,25257,25294,107.3461,90.51981,110.0192,105.2797 M,0,25294,25332,110.0192,105.2797,112.6922,120.0396 M,0,25332,25369,112.6922,120.0396,115.3653,134.7995 M,0,25369,25407,115.3653,134.7995,118.0383,149.5594 M,0,25407,25444,118.0383,149.5594,120.7114,164.3193 M,0,25444,25482,120.7114,164.3193,123.3844,179.0793
Sprite,Foreground,Centre,"sb/hl.png",0,0 S,2,25782,26832,0.7,0.14 F,2,25782,26832,1,0 P,0,25782,26832,A C,0,25782,,36,74,255 M,0,25782,25819,220,300,222.673,285.2401 M,0,25819,25857,222.673,285.2401,225.3461,270.4802 M,0,25857,25894,225.3461,270.4802,228.0192,255.7203 M,0,25894,25932,228.0192,255.7203,230.6922,240.9604 M,0,25932,25969,230.6922,240.9604,233.3653,226.2005 M,0,25969,26007,233.3653,226.2005,236.0383,211.4406 M,0,26007,26044,236.0383,211.4406,238.7114,196.6807 M,0,26044,26082,238.7114,196.6807,241.3844,181.9207
Sprite,Foreground,Centre,"sb/hl.png",109,357 S,2,26382,27132,0.7,0.14 F,2,26382,27132,1,0 P,0,26382,27132,A C,0,26382,,223,223,223
Sprite,Foreground,Centre,"sb/hl.png",109,357 S,2,26532,27282,0.7,0.14 F,2,26532,27282,1,0 P,0,26532,27282,A C,0,26532,,223,223,223
Sprite,Foreground,Centre,"sb/hl.png",220,300 S,2,26832,27582,0.7,0.14 F,2,26832,27582,1,0 P,0,26832,27582,A C,0,26832,,223,223,223
Sprite,Foreground,Centre,"sb/hl.png",0,0 S,2,26982,28032,0.7,0.14 F,2,26982,28032,1,0 P,0,26982,28032,A C,0,26982,,223,223,223 M,0,26982,27019,220,300,234.8317,302.2408 M,0,27019,27057,234.8317,302.2408,249.6634,304.4815 M,0,27057,27094,249.6634,304.4815,264.4951,306.7223 M,0,27094,27132,264.4951,306.7223,279.3268,308.963 M,0,27132,27169,279.3268,308.963,294.1584,311.2038 M,0,27169,27207,294.1584,311.2038,308.9901,313.4445 M,0,27207,27244,308.9901,313.4445,323.8218,315.6853 M,0,27244,27282,323.8218,315.6853,338.6535,317.9261
Sprite,Foreground,Centre,"sb/hl.png",0,0 S,2,27582,28632,0.7,0.14 F,2,27582,28632,1,0 P,0,27582,28632,A C,0,27582,,149,255,218 M,0,27582,27619,493,343,489.5271,328.4092 M,0,27619,27657,489.5271,328.4092,486.4132,313.7385 M,0,27657,27694,486.4132,313.7385,483.7296,298.9825 M,0,27694,27732,483.7296,298.9825,481.4787,284.1535 M,0,27732,27769,481.4787,284.1535,479.752,269.2549 M,0,27769,27807,479.752,269.2549,478.4042,254.3182 M,0,27807,27844,478.4042,254.3182,477.4939,239.3481 M,0,27844,27882,477.4939,239.3481,477.0219,224.357
Sprite,Foreground,Centre,"sb/hl.png",0,0 S,2,28182,29232,0.7,0.14 F,2,28182,29232,1,0 P,0,28182,29232,A C,0,28182,,149,255,218 M,0,28182,28219,400,60,399.3105,74.9826 M,0,28219,28257,399.3105,74.9826,398.2635,89.94362 M,0,28257,28294,398.2635,89.94362,396.789,104.8692 M,0,28294,28332,396.789,104.8692,394.8883,119.7475 M,0,28332,28369,394.8883,119.7475,392.4635,134.5486 M,0,28369,28407,392.4635,134.5486,389.6819,149.2859 M,0,28407,28444,389.6819,149.2859,386.48,163.9383 M,0,28444,28482,386.48,163.9383,383,178
Sprite,Foreground,Centre,"sb/hl.png",317,265 S,2,28632,29382,0.7,0.14 F,2,28632,29382,1,0 P,0,28632,29382,A C,0,28632,,149,255,218
Sprite,Foreground,Centre,"sb/hl.png",317,265 S,2,28707,29457,0.7,0.14 F,2,28707,29457,1,0 P,0,28707,29457,A C,0,28707,,149,255,218
Sprite,Foreground,Centre,"sb/hl.png",0,0 S,2,28782,29982,0.7,0.14 F,2,28782,29982,1,0 P,0,28782,29982,A C,0,28782,,36,74,255 M,0,28782,28819,317,265,302.0579,263.6838 M,0,28819,28857,302.0579,263.6838,287.1157,262.3677 M,0,28857,28894,287.1157,262.3677,272.1736,261.0516 M,0,28894,28932,272.1736,261.0516,257.2314,259.7354 M,0,28932,28969,257.2314,259.7354,242.2893,258.4193 M,0,28969,29007,242.2893,258.4193,227.3471,257.1031 M,0,29007,29044,227.3471,257.1031,212.405,255.787 M,0,29044,29082,212.405,255.787,197.4628,254.4708 M,0,29082,29119,197.4628,254.4708,182.5207,253.1547 M,0,29119,29157,182.5207,253.1547,167.5785,251.8385 M,0,29157,29194,167.5785,251.8385,152.6364,250.5224 M,0,29194,29232,152.6364,250.5224,137.6942,249.2062
Sprite,Foreground,Centre,"sb/hl.png",64,242 S,2,29382,30132,0.7,0.14 F,2,29382,30132,1,0 P,0,29382,30132,A C,0,29382,,36,74,255
Sprite,Foreground,Centre,"sb/hl.png",0,0 S,2,29682,30732,0.7,0.14 F,2,29682,30732,1,0 P,0,29682,30732,A C,0,29682,,36,74,255 M,0,29682,29719,123,139,137.9384,137.642 M,0,29719,29757,137.9384,137.642,152.8768,136.2839 M,0,29757,29794,152.8768,136.2839,167.8152,134.9259 M,0,29794,29832,167.8152,134.9259,182.7536,133.5679 M,0,29832,29869,182.7536,133.5679,197.692,132.2098 M,0,29869,29907,197.692,132.2098,212.6304,130.8518 M,0,29907,29944,212.6304,130.8518,227.5688,129.4937 M,0,29944,29982,227.5688,129.4937,242.5072,128.1357
Sprite,Foreground,Centre,"sb/hl.png",0,0 S,2,30282,31632,0.7,0.14 F,2,30282,31632,1,0 P,0,30282,31632,A C,0,30282,,36,74,255 M,0,30282,30319,298,262,283.0598,260.662 M,0,30319,30357,283.0598,260.662,268.1196,259.3242 M,0,30357,30394,268.1196,259.3242,253.1794,257.9862 M,0,30394,30432,253.1794,257.9862,238.2392,256.6483 M,0,30432,30469,238.2392,256.6483,223.2989,255.3103 M,0,30469,30507,223.2989,255.3103,208.3587,253.9724 M,0,30507,30544,208.3587,253.9724,193.4185,252.6345 M,0,30544,30582,193.4185,252.6345,178.4783,251.2966 M,0,30582,30619,178.4783,251.2966,193.4185,252.6345 M,0,30619,30657,193.4185,252.6345,208.3587,253.9724 M,0,30657,30694,208.3587,253.9724,223.2989,255.3103 M,0,30694,30732,223.2989,255.3103,238.2391,256.6483 M,0,30732,30769,238.2391,256.6483,253.1794,257.9862 M,0,30769,30807,253.1794,257.9862,268.1196,259.3242 M,0,30807,30844,268.1196,259.3242,283.0598,260.662 M,0,30844,30882,283.0598,260.662,298,262
Sprite,Foreground,Centre,"sb/hl.png",385,132 S,2,31182,31932,0.7,0.14 F,2,31182,31932,1,0 P,0,31182,31932,A C,0,31182,,223,223,223
Sprite,Foreground,Centre,"sb/hl.png",385,132 S,2,31332,32082,0.7,0.14 F,2,31332,32082,1,0 P,0,31332,32082,A C,0,31332,,223,223,223
Sprite,Foreground,Centre,"sb/hl.png",298,262 S,2,31632,32382,0.7,0.14 F,2,31632,32382,1,0 P,0,31632,32382,A C,0,31632,,223,223,223
Sprite,Foreground,Centre,"sb/hl.png",0,0 S,2,31782,32682,0.7,0.14 F,2,31782,32682,1,0 P,0,31782,32682,A C,0,31782,,223,223,223 M,0,31782,31819,298,262,300.6652,276.7613 M,0,31819,31857,300.6652,276.7613,303.3305,291.5226 M,0,31857,31894,303.3305,291.5226,305.9957,306.2839 M,0,31894,31932,305.9957,306.2839,308.6609,321.0453
Sprite,Foreground,Centre,"sb/hl.png",337,432 S,2,32082,32832,0.7,0.14 F,2,32082,32832,1,0 P,0,32082,32832,A C,0,32082,,149,255,218
Sprite,Foreground,Centre,"sb/hl.png",337,432 S,2,32382,33132,0.7,0.14 F,2,32382,33132,1,0 P,0,32382,33132,A C,0,32382,,149,255,218
Sprite,Foreground,Centre,"sb/hl.png",415,307 S,2,32682,33432,0.7,0.14 F,2,32682,33432,1,0 P,0,32682,33432,A C,0,32682,,149,255,218
Sprite,Foreground,Centre,"sb/hl.png",415,307 S,2,32982,33732,0.7,0.14 F,2,32982,33732,1,0 P,0,32982,33732,A C,0,32982,,149,255,218
Sprite,Foreground,Centre,"sb/hl.png",247,398 S,2,33282,34032,0.7,0.14 F,2,33282,34032,1,0 P,0,33282,34032,A C,0,33282,,149,255,218
Sprite,Foreground,Centre,"sb/hl.png",178,351 S,2,33432,34182,0.7,0.14 F,2,33432,34182,1,0 P,0,33432,34182,A C,0,33432,,36,74,255
Sprite,Foreground,Centre,"sb/hl.png",178,351 S,2,33507,34257,0.7,0.14 F,2,33507,34257,1,0 P,0,33507,34257,A C,0,33507,,36,74,255
Sprite,Foreground,Centre,"sb/hl.png",0,0 S,2,33582,34782,0.7,0.14 F,2,33582,34782,1,0 P,0,33582,34782,A C,0,33582,,36,74,255 M,0,33582,33619,178,351,179.2254,336.0501 M,0,33619,33657,179.2254,336.0501,180.4508,321.1003 M,0,33657,33694,180.4508,321.1003,181.6762,306.1504 M,0,33694,33732,181.6762,306.1504,182.9016,291.2006 M,0,33732,33769,182.9016,291.2006,184.127,276.2507 M,0,33769,33807,184.127,276.2507,185.3524,261.3008 M,0,33807,33844,185.3524,261.3008,186.5778,246.351 M,0,33844,33882,186.5778,246.351,187.8032,231.4011 M,0,33882,33919,187.8032,231.4011,189.0286,216.4512 M,0,33919,33957,189.0286,216.4512,190.254,201.5014 M,0,33957,33994,190.254,201.5014,191.4794,186.5515 M,0,33994,34032,191.4794,186.5515,192.7048,171.6016
Sprite,Foreground,Centre,"sb/hl.png",0,0 S,2,34182,35532,0.7,0.14 F,2,34182,35532,1,0 P,0,34182,35532,A C,0,34182,,36,74,255 M,0,34182,34219,103,137,104.2093,151.9512 M,0,34219,34257,104.2093,151.9512,105.4186,166.9023 M,0,34257,34294,105.4186,166.9023,106.6279,181.8535 M,0,34294,34332,106.6279,181.8535,107.8371,196.8047 M,0,34332,34369,107.8371,196.8047,109.0464,211.7559 M,0,34369,34407,109.0464,211.7559,110.2557,226.7071 M,0,34407,34444,110.2557,226.7071,111.465,241.6582 M,0,34444,34482,111.465,241.6582,112.6743,256.6094 M,0,34482,34519,112.6743,256.6094,111.465,241.6582 M,0,34519,34557,111.465,241.6582,110.2557,226.7071 M,0,34557,34594,110.2557,226.7071,109.0464,211.7559 M,0,34594,34632,109.0464,211.7559,107.8371,196.8047 M,0,34632,34669,107.8371,196.8047,106.6279,181.8535 M,0,34669,34707,106.6279,181.8535,105.4186,166.9024 M,0,34707,34744,105.4186,166.9024,104.2093,151.9512 M,0,34744,34782,104.2093,151.9512,103,137
Sprite,Foreground,Centre,"sb/hl.png",238,61 S,2,35082,35832,0.7,0.14 F,2,35082,35832,1,0 P,0,35082,35832,A C,0,35082,,223,223,223
Sprite,Foreground,Centre,"sb/hl.png",314,196 S,2,35382,36132,0.7,0.14 F,2,35382,36132,1,0 P,0,35382,36132,A C,0,35382,,223,223,223
Sprite,Foreground,Centre,"sb/hl.png",151,68 S,2,35682,36432,0.7,0.14 F,2,35682,36432,1,0 P,0,35682,36432,A C,0,35682,,223,223,223
Sprite,Foreground,Centre,"sb/hl.png",401,189 S,2,35982,36732,0.7,0.14 F,2,35982,36732,1,0 P,0,35982,36732,A C,0,35982,,149,255,218
Sprite,Foreground,Centre,"sb/hl.png",401,189 S,2,36132,36882,0.7,0.14 F,2,36132,36882,1,0 P,0,36132,36882,A C,0,36132,,149,255,218
Sprite,Foreground,Centre,"sb/hl.png",260,255 S,2,36432,37182,0.7,0.14 F,2,36432,37182,1,0 P,0,36432,37182,A C,0,36432,,149,255,218
Sprite,Foreground,Centre,"sb/hl.png",0,0 S,2,36582,37482,0.7,0.14 F,2,36582,37482,1,0 P,0,36582,37482,A C,0,36582,,149,255,218 M,0,36582,36619,260,255,245.218,257.2923 M,0,36619,36657,245.218,257.2923,230.2906,257.567 M,0,36657,36694,230.2906,257.567,215.5021,255.4848 M,0,36694,36732,215.5021,255.4848,201.2202,251.0955
Sprite,Foreground,Centre,"sb/hl.png",0,0 S,2,36882,37932,0.7,0.14 F,2,36882,37932,1,0 P,0,36882,37932,A C,0,36882,,149,255,218 M,0,36882,36919,124,205,125.4702,219.9278 M,0,36919,36957,125.4702,219.9278,126.9403,234.8556 M,0,36957,36994,126.9403,234.8556,128.4105,249.7833 M,0,36994,37032,128.4105,249.7833,129.8806,264.7111 M,0,37032,37069,129.8806,264.7111,131.3508,279.6389 M,0,37069,37107,131.3508,279.6389,132.821,294.5667 M,0,37107,37144,132.821,294.5667,134.2911,309.4944 M,0,37144,37182,134.2911,309.4944,135.7613,324.4222
Sprite,Foreground,Centre,"sb/hl.png",249,431 S,2,37482,38232,0.7,0.14 F,2,37482,38232,1,0 P,0,37482,38232,A C,0,37482,,36,74,255
Sprite,Foreground,Centre,"sb/hl.png",337,302 S,2,37782,38532,0.7,0.14 F,2,37782,38532,1,0 P,0,37782,38532,A C,0,37782,,36,74,255
Sprite,Foreground,Centre,"sb/hl.png",166,406 S,2,38082,38832,0.7,0.14 F,2,38082,38832,1,0 P,0,38082,38832,A C,0,38082,,36,74,255
Sprite,Foreground,Centre,"sb/hl.png",135,324 S,2,38232,38982,0.7,0.14 F,2,38232,38982,1,0 P,0,38232,38982,A C,0,38232,,36,74,255
Sprite,Foreground,Centre,"sb/hl.png",135,324 S,2,38307,39057,0.7,0.14 F,2,38307,39057,1,0 P,0,38307,39057,A C,0,38307,,36,74,255
Sprite,Foreground,Centre,"sb/hl.png",0,0 S,2,38382,39582,0.7,0.14 F,2,38382,39582,1,0 P,0,38382,39582,A C,0,38382,,223,223,223 M,0,38382,38419,135,324,127.1777,311.2196 M,0,38419,38457,127.1777,311.2196,120.4321,297.8515 M,0,38457,38494,120.4321,297.8515,115.0017,283.8945 M,0,38494,38532,115.0017,283.8945,110.937,269.4764 M,0,38532,38569,110.937,269.4764,108.2763,254.7292 M,0,38569,38607,108.2763,254.7292,107.0452,239.788 M,0,38607,38644,107.0452,239.788,107.5293,224.8118 M,0,38644,38682,107.5293,224.8118,109.2473,209.9374 M,0,38682,38719,109.2473,209.9374,112.3876,195.2946 M,0,38719,38757,112.3876,195.2946,116.922,181.018 M,0,38757,38794,116.922,181.018,122.8098,167.2388 M,0,38794,38832,122.8098,167.2388,129.998,154.084
Sprite,Foreground,Centre,"sb/hl.png",0,0 S,2,38982,39882,0.7,0.14 F,2,38982,39882,1,0 P,0,38982,39882,A C,0,38982,,223,223,223 M,0,38982,39019,276,160,264.4647,169.4674 M,0,39019,39057,264.4647,169.4674,251.5954,176.9556 M,0,39057,39094,251.5954,176.9556,237.467,181.8196 M,0,39094,39132,237.467,181.8196,222.6049,183.117
Sprite,Foreground,Centre,"sb/hl.png",0,0 S,2,39282,40332,0.7,0.14 F,2,39282,40332,1,0 P,0,39282,40332,A C,0,39282,,223,223,223 M,0,39282,39319,110,57,124.8714,55.32228 M,0,39319,39357,124.8714,55.32228,139.8125,55.4831 M,0,39357,39394,139.8125,55.4831,154.5798,57.78582 M,0,39394,39432,154.5798,57.78582,168.8698,62.18458 M,0,39432,39469,168.8698,62.18458,182.3879,68.59099 M,0,39469,39507,182.3879,68.59099,194.8552,76.87576 M,0,39507,39544,194.8552,76.87576,206.0135,86.87126 M,0,39544,39582,206.0135,86.87126,215.5603,98.42155
Sprite,Foreground,Centre,"sb/hl.png",0,0 S,2,39882,41232,0.7,0.14 F,2,39882,41232,1,0 P,0,39882,41232,A C,0,39882,,223,223,223 M,0,39882,39919,361,119,373.5097,110.7633 M,0,39919,39957,373.5097,110.7633,386.7372,103.7682 M,0,39957,39994,386.7372,103.7682,400.6737,98.30821 M,0,39994,40032,400.6737,98.30821,415.1438,94.45357 M,0,40032,40069,415.1438,94.45357,429.9653,92.25481 M,0,40069,40107,429.9653,92.25481,444.9406,92.03793 M,0,40107,40144,444.9406,92.03793,459.8482,93.30803 M,0,40144,40182,459.8482,93.30803,474.5618,96.11134 M,0,40182,40219,474.5618,96.11134,459.8482,93.30804 M,0,40219,40257,459.8482,93.30804,444.9406,92.03794 M,0,40257,40294,444.9406,92.03794,429.9653,92.25481 M,0,40294,40332,429.9653,92.25481,415.1438,94.45357 M,0,40332,40369,415.1438,94.45357,400.6737,98.30821 M,0,40369,40407,400.6737,98.30821,386.7372,103.7682 M,0,40407,40444,386.7372,103.7682,373.5097,110.7633 M,0,40444,40482,373.5097,110.7633,361,119
Sprite,Foreground,Centre,"sb/ring.png",104,274 S,19,21582,22332,0.125,0.55 F,6,21582,22332,0.7,0
Sprite,Foreground,Centre,"sb/ring.png",435,209 S,19,187182,187682,0.125,0.55 F,6,187182,187682,0.7,0
Sprite,Foreground,Centre,"sb/ring.png",199,277 S,19,40782,41532,0.125,0.55 F,6,40782,41532,0.7,0
Sprite,Foreground,Centre,"sb/ring.png",528,248 S,19,59982,60732,0.125,0.55 F,6,59982,60732,0.7,0
Sprite,Foreground,Centre,"sb/hl.png",493,161 S,2,57582,58332,0.7,0.14 F,2,57582,58332,1,0 P,0,57582,58332,A C,0,57582,,149,255,218
Sprite,Foreground,Centre,"sb/hl.png",442,305 S,2,57807,58557,0.7,0.14 F,2,57807,58557,1,0 P,0,57807,58557,A C,0,57807,,149,255,218
Sprite,Foreground,Centre,"sb/hl.png",341,190 S,2,58032,58782,0.7,0.14 F,2,58032,58782,1,0 P,0,58032,58782,A C,0,58032,,149,255,218
Sprite,Foreground,Centre,"sb/hl.png",419,220 S,2,58182,58932,0.7,0.14 F,2,58182,58932,1,0 P,0,58182,58932,A C,0,58182,,36,74,255
Sprite,Foreground,Centre,"sb/hl.png",374,351 S,2,58407,59157,0.7,0.14 F,2,58407,59157,1,0 P,0,58407,59157,A C,0,58407,,36,74,255
Sprite,Foreground,Centre,"sb/hl.png",282,247 S,2,58632,59382,0.7,0.14 F,2,58632,59382,1,0 P,0,58632,59382,A C,0,58632,,36,74,255
Sprite,Foreground,Centre,"sb/hl.png",354,276 S,2,58782,59532,0.7,0.14 F,2,58782,59532,1,0 P,0,58782,59532,A C,0,58782,,223,223,223
Sprite,Foreground,Centre,"sb/hl.png",314,393 S,2,59007,59757,0.7,0.14 F,2,59007,59757,1,0 P,0,59007,59757,A C,0,59007,,223,223,223
Sprite,Foreground,Centre,"sb/hl.png",231,299 S,2,59232,59982,0.7,0.14 F,2,59232,59982,1,0 P,0,59232,59982,A C,0,59232,,223,223,223
Sprite,Foreground,Centre,"sb/hl.png",0,0 S,2,59382,60582,0.7,0.14 F,2,59382,60582,1,0 P,0,59382,60582,A C,0,59382,,149,255,218 M,0,59382,59419,305,381,321.3301,385.6378 M,0,59419,59457,321.3301,385.6378,338.1663,387.7464 M,0,59457,59494,338.1663,387.7464,355.1204,387.2794 M,0,59494,59532,355.1204,387.2794,371.802,384.2497 M,0,59532,59569,371.802,384.2497,355.1204,387.2794 M,0,59569,59607,355.1204,387.2794,338.1663,387.7464 M,0,59607,59644,338.1663,387.7464,321.3301,385.6378 M,0,59644,59682,321.3301,385.6378,305,381 M,0,59682,59719,305,381,321.3301,385.6378 M,0,59719,59757,321.3301,385.6378,338.1663,387.7464 M,0,59757,59794,338.1663,387.7464,355.1204,387.2794 M,0,59794,59832,355.1204,387.2794,371.802,384.2497
Sprite,Foreground,Centre,"sb/hl.png",325,264 S,2,76782,77532,0.7,0.14 F,2,76782,77532,1,0 P,0,76782,77532,A C,0,76782,,36,74,255
Sprite,Foreground,Centre,"sb/hl.png",417,407 S,2,77007,77757,0.7,0.14 F,2,77007,77757,1,0 P,0,77007,77757,A C,0,77007,,36,74,255
Sprite,Foreground,Centre,"sb/hl.png",396,239 S,2,77232,77982,0.7,0.14 F,2,77232,77982,1,0 P,0,77232,77982,A C,0,77232,,36,74,255
Sprite,Foreground,Centre,"sb/hl.png",325,264 S,2,77382,78132,0.7,0.14 F,2,77382,78132,1,0 P,0,77382,78132,A C,0,77382,,223,223,223
Sprite,Foreground,Centre,"sb/hl.png",494,256 S,2,77607,78357,0.7,0.14 F,2,77607,78357,1,0 P,0,77607,78357,A C,0,77607,,223,223,223
Sprite,Foreground,Centre,"sb/hl.png",338,191 S,2,77832,78582,0.7,0.14 F,2,77832,78582,1,0 P,0,77832,78582,A C,0,77832,,223,223,223
Sprite,Foreground,Centre,"sb/hl.png",396,239 S,2,77982,78732,0.7,0.14 F,2,77982,78732,1,0 P,0,77982,78732,A C,0,77982,,149,255,218
Sprite,Foreground,Centre,"sb/hl.png",473,89 S,2,78207,78957,0.7,0.14 F,2,78207,78957,1,0 P,0,78207,78957,A C,0,78207,,149,255,218
Sprite,Foreground,Centre,"sb/hl.png",339,192 S,2,78432,79182,0.7,0.14 F,2,78432,79182,1,0 P,0,78432,79182,A C,0,78432,,149,255,218
Sprite,Foreground,Centre,"sb/ring.png",457,196 S,19,78582,79332,0.125,0.55 F,6,78582,79332,0.7,0
Sprite,Foreground,Centre,"sb/ring.png",457,196 S,19,78882,79632,0.125,0.55 F,6,78882,79632,0.7,0
Sprite,Foreground,Centre,"sb/ring.png",346,68 S,19,79032,79782,0.125,0.55 F,6,79032,79782,0.7,0
Sprite,Foreground,Centre,"sb/ring.png",330,280 S,19,79182,79932,0.125,0.55 F,6,79182,79932,0.7,0
Sprite,Foreground,Centre,"sb/ring.png",338,284 S,19,98382,99132,0.125,0.55 F,6,98382,99132,0.7,0
Sprite,Foreground,Centre,"sb/ring.png",531,256 S,19,117582,118332,0.125,0.55 F,6,117582,118332,0.7,0
Sprite,Foreground,Centre,"sb/ring.png",259,350 S,19,128982,129732,0.125,0.55 F,6,128982,129732,0.7,0
Sprite,Foreground,Centre,"sb/ring.png",107,308 S,19,129132,129882,0.125,0.55 F,6,129132,129882,0.7,0
Sprite,Foreground,Centre,"sb/ring.png",269,274 S,19,129282,130032,0.125,0.55 F,6,129282,130032,0.7,0
Sprite,Foreground,Centre,"sb/ring.png",106,231 S,19,129432,130182,0.125,0.55 F,6,129432,130182,0.7,0
Sprite,Foreground,Centre,"sb/ring.png",295,199 S,19,129582,130332,0.125,0.55 F,6,129582,130332,0.7,0
Sprite,Foreground,Centre,"sb/ring.png",121,108 S,19,139182,140682,0.125,0.55 F,6,139182,140682,0.7,0
Sprite,Foreground,Centre,"sb/ring.png",337,413 S,19,131382,132882,0.125,0.55 F,6,131382,132882,0.7,0
Sprite,Foreground,Centre,"sb/ring.png",297,254 S,19,131532,133032,0.125,0.55 F,6,131532,133032,0.7,0
Sprite,Foreground,Centre,"sb/ring.png",255,426 S,19,131682,133182,0.125,0.55 F,6,131682,133182,0.7,0
Sprite,Foreground,Centre,"sb/ring.png",212,263 S,19,131832,133332,0.125,0.55 F,6,131832,133332,0.7,0
Sprite,Foreground,Centre,"sb/ring.png",170,439 S,19,131982,133482,0.125,0.55 F,6,131982,133482,0.7,0
Sprite,Foreground,Centre,"sb/ring.png",347,318 S,19,143982,144482,0.125,0.55 F,6,143982,144482,0.7,0
Sprite,Foreground,Centre,"sb/ring.png",395,159 S,19,144132,144632,0.125,0.55 F,6,144132,144632,0.7,0
Sprite,Foreground,Centre,"sb/ring.png",404,335 S,19,144432,144932,0.125,0.55 F,6,144432,144932,0.7,0
Sprite,Foreground,Centre,"sb/ring.png",337,142 S,19,144582,145082,0.125,0.55 F,6,144582,145082,0.7,0
Sprite,Foreground,Centre,"sb/ring.png",329,340 S,19,144882,145382,0.125,0.55 F,6,144882,145382,0.7,0
Sprite,Foreground,Centre,"sb/ring.png",412,136 S,19,145032,145532,0.125,0.55 F,6,145032,145532,0.7,0
Sprite,Foreground,Centre,"sb/ring.png",413,361 S,19,145332,145832,0.125,0.55 F,6,145332,145832,0.7,0
Sprite,Foreground,Centre,"sb/ring.png",328,116 S,19,145482,145982,0.125,0.55 F,6,145482,145982,0.7,0
Sprite,Foreground,Centre,"sb/ring.png",440,279 S,19,145782,146282,0.125,0.55 F,6,145782,146282,0.7,0
Sprite,Foreground,Centre,"sb/ring.png",169,170 S,19,146382,146882,0.125,0.55 F,6,146382,146882,0.7,0
Sprite,Foreground,Centre,"sb/ring.png",217,329 S,19,146532,147032,0.125,0.55 F,6,146532,147032,0.7,0
Sprite,Foreground,Centre,"sb/ring.png",226,153 S,19,146832,147332,0.125,0.55 F,6,146832,147332,0.7,0
Sprite,Foreground,Centre,"sb/ring.png",159,346 S,19,146982,147482,0.125,0.55 F,6,146982,147482,0.7,0
Sprite,Foreground,Centre,"sb/ring.png",154,162 S,19,147282,147782,0.125,0.55 F,6,147282,147782,0.7,0
Sprite,Foreground,Centre,"sb/ring.png",230,336 S,19,147432,147932,0.125,0.55 F,6,147432,147932,0.7,0
Sprite,Foreground,Centre,"sb/ring.png",238,141 S,19,147732,148232,0.125,0.55 F,6,147732,148232,0.7,0
Sprite,Foreground,Centre,"sb/ring.png",146,356 S,19,147882,148382,0.125,0.55 F,6,147882,148382,0.7,0
Sprite,Foreground,Centre,"sb/ring.png",262,209 S,19,148182,148682,0.125,0.55 F,6,148182,148682,0.7,0
Sprite,Foreground,Centre,"sb/ring.png",207,358 S,19,153582,154082,0.125,0.55 F,6,153582,154082,0.7,0
Sprite,Foreground,Centre,"sb/ring.png",365,315 S,19,153732,154232,0.125,0.55 F,6,153732,154232,0.7,0
Sprite,Foreground,Centre,"sb/ring.png",203,301 S,19,154032,154532,0.125,0.55 F,6,154032,154532,0.7,0
Sprite,Foreground,Centre,"sb/ring.png",368,374 S,19,154182,154682,0.125,0.55 F,6,154182,154682,0.7,0
Sprite,Foreground,Centre,"sb/ring.png",186,382 S,19,154482,154982,0.125,0.55 F,6,154482,154982,0.7,0
Sprite,Foreground,Centre,"sb/ring.png",385,292 S,19,154632,155132,0.125,0.55 F,6,154632,155132,0.7,0
Sprite,Foreground,Centre,"sb/ring.png",186,290 S,19,154932,155432,0.125,0.55 F,6,154932,155432,0.7,0
Sprite,Foreground,Centre,"sb/ring.png",375,389 S,19,155082,155582,0.125,0.55 F,6,155082,155582,0.7,0
Sprite,Foreground,Centre,"sb/ring.png",198,280 S,19,155232,155732,0.125,0.55 F,6,155232,155732,0.7,0
Sprite,Foreground,Centre,"sb/ring.png",387,381 S,19,155382,155882,0.125,0.55 F,6,155382,155882,0.7,0
Sprite,Foreground,Centre,"sb/ring.png",237,138 S,19,155982,156482,0.125,0.55 F,6,155982,156482,0.7,0
Sprite,Foreground,Centre,"sb/ring.png",391,188 S,19,156132,156632,0.125,0.55 F,6,156132,156632,0.7,0
Sprite,Foreground,Centre,"sb/ring.png",233,195 S,19,156432,156932,0.125,0.55 F,6,156432,156932,0.7,0
Sprite,Foreground,Centre,"sb/ring.png",394,129 S,19,156582,157082,0.125,0.55 F,6,156582,157082,0.7,0
Sprite,Foreground,Centre,"sb/ring.png",216,114 S,19,156882,157382,0.125,0.55 F,6,156882,157382,0.7,0
Sprite,Foreground,Centre,"sb/ring.png",411,211 S,19,157032,157532,0.125,0.55 F,6,157032,157532,0.7,0
Sprite,Foreground,Centre,"sb/ring.png",216,205 S,19,157332,157832,0.125,0.55 F,6,157332,157832,0.7,0
Sprite,Foreground,Centre,"sb/ring.png",405,115 S,19,157482,157982,0.125,0.55 F,6,157482,157982,0.7,0
Sprite,Foreground,Centre,"sb/ring.png",228,215 S,19,157632,158132,0.125,0.55 F,6,157632,158132,0.7,0
Sprite,Foreground,Centre,"sb/ring.png",417,123 S,19,157782,158282,0.125,0.55 F,6,157782,158282,0.7,0
Sprite,Foreground,Centre,"sb/ring.png",353,131 S,19,194382,194882,0.125,0.55 F,6,194382,194882,0.7,0
Sprite,Foreground,Centre,"sb/ring.png",519,194 S,19,194532,195032,0.125,0.55 F,6,194532,195032,0.7,0
Sprite,Foreground,Centre,"sb/ring.png",287,174 S,19,194832,195332,0.125,0.55 F,6,194832,195332,0.7,0
Sprite,Foreground,Centre,"sb/ring.png",420,87 S,19,194982,195482,0.125,0.55 F,6,194982,195482,0.7,0
Sprite,Foreground,Centre,"sb/ring.png",351,248 S,19,195132,195632,0.125,0.55 F,6,195132,195632,0.7,0
Sprite,Foreground,Centre,"sb/ring.png",351,248 S,19,195207,195707,0.125,0.55 F,6,195207,195707,0.7,0
Sprite,Foreground,Centre,"sb/ring.png",351,248 S,19,195282,195782,0.125,0.55 F,6,195282,195782,0.7,0
Sprite,Foreground,Centre,"sb/ring.png",244,108 S,19,195432,195932,0.125,0.55 F,6,195432,195932,0.7,0
Sprite,Foreground,Centre,"sb/ring.png",244,108 S,19,195732,196232,0.125,0.55 F,6,195732,196232,0.7,0
Sprite,Foreground,Centre,"sb/ring.png",220,285 S,19,195882,196382,0.125,0.55 F,6,195882,196382,0.7,0
Sprite,Foreground,Centre,"sb/ring.png",140,180 S,19,196032,196532,0.125,0.55 F,6,196032,196532,0.7,0
Sprite,Foreground,Centre,"sb/ring.png",220,285 S,19,196182,196682,0.125,0.55 F,6,196182,196682,0.7,0
Sprite,Foreground,Centre,"sb/ring.png",165,69 S,19,203982,204482,0.125,0.55 F,6,203982,204482,0.7,0
Sprite,Foreground,Centre,"sb/ring.png",308,88 S,19,204132,204632,0.125,0.55 F,6,204132,204632,0.7,0
Sprite,Foreground,Centre,"sb/ring.png",227,164 S,19,204432,204932,0.125,0.55 F,6,204432,204932,0.7,0
Sprite,Foreground,Centre,"sb/ring.png",382,142 S,19,204582,205082,0.125,0.55 F,6,204582,205082,0.7,0
Sprite,Foreground,Centre,"sb/ring.png",155,211 S,19,204882,205382,0.125,0.55 F,6,204882,205382,0.7,0
Sprite,Foreground,Centre,"sb/ring.png",336,238 S,19,205032,205532,0.125,0.55 F,6,205032,205532,0.7,0
Sprite,Foreground,Centre,"sb/ring.png",106,311 S,19,205332,205832,0.125,0.55 F,6,205332,205832,0.7,0
Sprite,Foreground,Centre,"sb/ring.png",261,291 S,19,205482,205982,0.125,0.55 F,6,205482,205982,0.7,0
Sprite,Foreground,Centre,"sb/ring.png",87,202 S,19,205782,206282,0.125,0.55 F,6,205782,206282,0.7,0
Sprite,Foreground,Centre,"sb/ring.png",341,155 S,19,206382,206882,0.125,0.55 F,6,206382,206882,0.7,0
Sprite,Foreground,Centre,"sb/ring.png",378,125 S,19,223182,223682,0.125,0.55 F,6,223182,223682,0.7,0
Sprite,Foreground,Centre,"sb/ring.png",350,246 S,19,223332,223832,0.125,0.55 F,6,223332,223832,0.7,0
Sprite,Foreground,Centre,"sb/ring.png",287,99 S,19,223632,224132,0.125,0.55 F,6,223632,224132,0.7,0
Sprite,Foreground,Centre,"sb/ring.png",317,261 S,19,223782,224282,0.125,0.55 F,6,223782,224282,0.7,0
Sprite,Foreground,Centre,"sb/ring.png",254,84 S,19,224082,224582,0.125,0.55 F,6,224082,224582,0.7,0
Sprite,Foreground,Centre,"sb/ring.png",222,256 S,19,224232,224732,0.125,0.55 F,6,224232,224732,0.7,0
Sprite,Foreground,Centre,"sb/ring.png",163,110 S,19,224532,225032,0.125,0.55 F,6,224532,225032,0.7,0
Sprite,Foreground,Centre,"sb/ring.png",189,271 S,19,224682,225182,0.125,0.55 F,6,224682,225182,0.7,0
Sprite,Foreground,Centre,"sb/ring.png",255,85 S,19,224982,225482,0.125,0.55 F,6,224982,225482,0.7,0
Sprite,Foreground,Centre,"sb/ring.png",182,288 S,19,225582,226082,0.125,0.55 F,6,225582,226082,0.7,0
Sprite,Foreground,Centre,"sb/ring.png",354,385 S,19,244782,246282,0.125,0.55 F,6,244782,246282,0.7,0
Sprite,Foreground,Centre,"sb/d.png",0,0 M,4,187182,187782,435,209,502,304 F,0,187182,187782,1,0 S,0,187182,187782,0.7,0.28 P,0,187182,187782,A
Sprite,Foreground,Centre,"sb/d.png",0,0 M,4,187182,187782,435,209,515,226 F,0,187182,187782,1,0 S,0,187182,187782,0.7,0.28 P,0,187182,187782,A
Sprite,Foreground,Centre,"sb/d.png",0,0 M,4,187182,187782,435,209,346,226 F,0,187182,187782,1,0 S,0,187182,187782,0.7,0.28 P,0,187182,187782,A
Sprite,Foreground,Centre,"sb/d.png",0,0 M,4,187182,187782,435,209,556,191 F,0,187182,187782,1,0 S,0,187182,187782,0.7,0.28 P,0,187182,187782,A
Sprite,Foreground,Centre,"sb/d.png",0,0 M,4,187182,187782,435,209,578,141 F,0,187182,187782,1,0 S,0,187182,187782,0.7,0.28 P,0,187182,187782,A
Sprite,Foreground,Centre,"sb/d.png",0,0 M,4,187182,187782,435,209,372,199 F,0,187182,187782,1,0 S,0,187182,187782,0.7,0.28 P,0,187182,187782,A
Sprite,Foreground,Centre,"sb/d.png",0,0 M,4,187182,187782,435,209,474,199 F,0,187182,187782,1,0 S,0,187182,187782,0.7,0.28 P,0,187182,187782,A
Sprite,Foreground,Centre,"sb/d.png",0,0 M,4,187482,188082,196,267,340,126 F,0,187482,188082,1,0 S,0,187482,188082,0.7,0.28 P,0,187482,188082,A
Sprite,Foreground,Centre,"sb/d.png",0,0 M,4,187482,188082,196,267,304,415 F,0,187482,188082,1,0 S,0,187482,188082,0.7,0.28 P,0,187482,188082,A
Sprite,Foreground,Centre,"sb/d.png",0,0 M,4,187482,188082,196,267,249,211 F,0,187482,188082,1,0 S,0,187482,188082,0.7,0.28 P,0,187482,188082,A
Sprite,Foreground,Centre,"sb/d.png",0,0 M,4,187482,188082,196,267,291,371 F,0,187482,188082,1,0 S,0,187482,188082,0.7,0.28 P,0,187482,188082,A
Sprite,Foreground,Centre,"sb/d.png",0,0 M,4,187482,188082,196,267,343,126 F,0,187482,188082,1,0 S,0,187482,188082,0.7,0.28 P,0,187482,188082,A
Sprite,Foreground,Centre,"sb/d.png",0,0 M,4,187482,188082,196,267,255,274 F,0,187482,188082,1,0 S,0,187482,188082,0.7,0.28 P,0,187482,188082,A
Sprite,Foreground,Centre,"sb/d.png",0,0 M,4,187482,188082,196,267,326,323 F,0,187482,188082,1,0 S,0,187482,188082,0.7,0.28 P,0,187482,188082,A
Sprite,Foreground,Centre,"sb/d.png",0,0 M,4,187632,188232,245,104,259,-22 F,0,187632,188232,1,0 S,0,187632,188232,0.7,0.28 P,0,187632,188232,A
Sprite,Foreground,Centre,"sb/d.png",0,0 M,4,187632,188232,245,104,151,89 F,0,187632,188232,1,0 S,0,187632,188232,0.7,0.28 P,0,187632,188232,A
Sprite,Foreground,Centre,"sb/d.png",0,0 M,4,187632,188232,245,104,184,250 F,0,187632,188232,1,0 S,0,187632,188232,0.7,0.28 P,0,187632,188232,A
Sprite,Foreground,Centre,"sb/d.png",0,0 M,4,187632,188232,245,104,287,182 F,0,187632,188232,1,0 S,0,187632,188232,0.7,0.28 P,0,187632,188232,A
Sprite,Foreground,Centre,"sb/d.png",0,0 M,4,187632,188232,245,104,104,68 F,0,187632,188232,1,0 S,0,187632,188232,0.7,0.28 P,0,187632,188232,A
Sprite,Foreground,Centre,"sb/d.png",0,0 M,4,187632,188232,245,104,197,241 F,0,187632,188232,1,0 S,0,187632,188232,0.7,0.28 P,0,187632,188232,A
Sprite,Foreground,Centre,"sb/d.png",0,0 M,4,187632,188232,245,104,246,168 F,0,187632,188232,1,0 S,0,187632,188232,0.7,0.28 P,0,187632,188232,A
Sprite,Foreground,Centre,"sb/d.png",0,0 M,4,187707,188307,247,126,132,58 F,0,187707,188307,1,0 S,0,187707,188307,0.7,0.28 P,0,187707,188307,A
Sprite,Foreground,Centre,"sb/d.png",0,0 M,4,187707,188307,247,126,369,214 F,0,187707,188307,1,0 S,0,187707,188307,0.7,0.28 P,0,187707,188307,A
Sprite,Foreground,Centre,"sb/d.png",0,0 M,4,187707,188307,247,126,198,113 F,0,187707,188307,1,0 S,0,187707,188307,0.7,0.28 P,0,187707,188307,A
Sprite,Foreground,Centre,"sb/d.png",0,0 M,4,187707,188307,247,126,141,42 F,0,187707,188307,1,0 S,0,187707,188307,0.7,0.28 P,0,187707,188307,A
Sprite,Foreground,Centre,"sb/d.png",0,0 M,4,187707,188307,247,126,220,191 F,0,187707,188307,1,0 S,0,187707,188307,0.7,0.28 P,0,187707,188307,A
Sprite,Foreground,Centre,"sb/d.png",0,0 M,4,187707,188307,247,126,282,122 F,0,187707,188307,1,0 S,0,187707,188307,0.7,0.28 P,0,187707,188307,A
Sprite,Foreground,Centre,"sb/d.png",0,0 M,4,187707,188307,247,126,155,239 F,0,187707,188307,1,0 S,0,187707,188307,0.7,0.28 P,0,187707,188307,A
Sprite,Foreground,Centre,"sb/d.png",0,0 M,4,187782,188382,250,149,347,219 F,0,187782,188382,1,0 S,0,187782,188382,0.7,0.28 P,0,187782,188382,A
Sprite,Foreground,Centre,"sb/d.png",0,0 M,4,187782,188382,250,149,357,202 F,0,187782,188382,1,0 S,0,187782,188382,0.7,0.28 P,0,187782,188382,A
Sprite,Foreground,Centre,"sb/d.png",0,0 M,4,187782,188382,250,149,287,64 F,0,187782,188382,1,0 S,0,187782,188382,0.7,0.28 P,0,187782,188382,A
Sprite,Foreground,Centre,"sb/d.png",0,0 M,4,187782,188382,250,149,368,267 F,0,187782,188382,1,0 S,0,187782,188382,0.7,0.28 P,0,187782,188382,A
Sprite,Foreground,Centre,"sb/d.png",0,0 M,4,187782,188382,250,149,125,250 F,0,187782,188382,1,0 S,0,187782,188382,0.7,0.28 P,0,187782,188382,A
Sprite,Foreground,Centre,"sb/d.png",0,0 M,4,187782,188382,250,149,151,192 F,0,187782,188382,1,0 S,0,187782,188382,0.7,0.28 P,0,187782,188382,A
Sprite,Foreground,Centre,"sb/d.png",0,0 M,4,187782,188382,250,149,348,64 F,0,187782,188382,1,0 S,0,187782,188382,0.7,0.28 P,0,187782,188382,A
Sprite,Foreground,Centre,"sb/d.png",0,0 M,4,187857,188457,253,172,402,166 F,0,187857,188457,1,0 S,0,187857,188457,0.7,0.28 P,0,187857,188457,A
Sprite,Foreground,Centre,"sb/d.png",0,0 M,4,187857,188457,253,172,298,237 F,0,187857,188457,1,0 S,0,187857,188457,0.7,0.28 P,0,187857,188457,A
Sprite,Foreground,Centre,"sb/d.png",0,0 M,4,187857,188457,253,172,345,52 F,0,187857,188457,1,0 S,0,187857,188457,0.7,0.28 P,0,187857,188457,A
Sprite,Foreground,Centre,"sb/d.png",0,0 M,4,187857,188457,253,172,321,237 F,0,187857,188457,1,0 S,0,187857,188457,0.7,0.28 P,0,187857,188457,A
Sprite,Foreground,Centre,"sb/d.png",0,0 M,4,187857,188457,253,172,140,293 F,0,187857,188457,1,0 S,0,187857,188457,0.7,0.28 P,0,187857,188457,A
Sprite,Foreground,Centre,"sb/d.png",0,0 M,4,187857,188457,253,172,159,165 F,0,187857,188457,1,0 S,0,187857,188457,0.7,0.28 P,0,187857,188457,A
Sprite,Foreground,Centre,"sb/d.png",0,0 M,4,187857,188457,253,172,265,119 F,0,187857,188457,1,0 S,0,187857,188457,0.7,0.28 P,0,187857,188457,A
Sprite,Foreground,Centre,"sb/d.png",0,0 M,4,187932,188532,256,196,307,186 F,0,187932,188532,1,0 S,0,187932,188532,0.7,0.28 P,0,187932,188532,A
Sprite,Foreground,Centre,"sb/d.png",0,0 M,4,187932,188532,256,196,356,288 F,0,187932,188532,1,0 S,0,187932,188532,0.7,0.28 P,0,187932,188532,A
Sprite,Foreground,Centre,"sb/d.png",0,0 M,4,187932,188532,256,196,344,275 F,0,187932,188532,1,0 S,0,187932,188532,0.7,0.28 P,0,187932,188532,A
Sprite,Foreground,Centre,"sb/d.png",0,0 M,4,187932,188532,256,196,387,134 F,0,187932,188532,1,0 S,0,187932,188532,0.7,0.28 P,0,187932,188532,A
Sprite,Foreground,Centre,"sb/d.png",0,0 M,4,187932,188532,256,196,262,245 F,0,187932,188532,1,0 S,0,187932,188532,0.7,0.28 P,0,187932,188532,A
Sprite,Foreground,Centre,"sb/d.png",0,0 M,4,187932,188532,256,196,205,132 F,0,187932,188532,1,0 S,0,187932,188532,0.7,0.28 P,0,187932,188532,A
Sprite,Foreground,Centre,"sb/d.png",0,0 M,4,187932,188532,256,196,352,112 F,0,187932,188532,1,0 S,0,187932,188532,0.7,0.28 P,0,187932,188532,A
Sprite,Foreground,Centre,"sb/d.png",0,0 M,4,188082,188682,90,278,-4,148 F,0,188082,188682,1,0 S,0,188082,188682,0.7,0.28 P,0,188082,188682,A
Sprite,Foreground,Centre,"sb/d.png",0,0 M,4,188082,188682,90,278,127,335 F,0,188082,188682,1,0 S,0,188082,188682,0.7,0.28 P,0,188082,188682,A
Sprite,Foreground,Centre,"sb/d.png",0,0 M,4,188082,188682,90,278,129,406 F,0,188082,188682,1,0 S,0,188082,188682,0.7,0.28 P,0,188082,188682,A
Sprite,Foreground,Centre,"sb/d.png",0,0 M,4,188082,188682,90,278,6,406 F,0,188082,188682,1,0 S,0,188082,188682,0.7,0.28 P,0,188082,188682,A
Sprite,Foreground,Centre,"sb/d.png",0,0 M,4,188082,188682,90,278,-41,398 F,0,188082,188682,1,0 S,0,188082,188682,0.7,0.28 P,0,188082,188682,A
Sprite,Foreground,Centre,"sb/d.png",0,0 M,4,188082,188682,90,278,143,156 F,0,188082,188682,1,0 S,0,188082,188682,0.7,0.28 P,0,188082,188682,A
Sprite,Foreground,Centre,"sb/d.png",0,0 M,4,188082,188682,90,278,-16,160 F,0,188082,188682,1,0 S,0,188082,188682,0.7,0.28 P,0,188082,188682,A
Sprite,Foreground,Centre,"sb/d.png",0,0 M,4,188382,188982,264,315,296,450 F,0,188382,188982,1,0 S,0,188382,188982,0.7,0.28 P,0,188382,188982,A
Sprite,Foreground,Centre,"sb/d.png",0,0 M,4,188382,188982,264,315,261,209 F,0,188382,188982,1,0 S,0,188382,188982,0.7,0.28 P,0,188382,188982,A
Sprite,Foreground,Centre,"sb/d.png",0,0 M,4,188382,188982,264,315,317,335 F,0,188382,188982,1,0 S,0,188382,188982,0.7,0.28 P,0,188382,188982,A
Sprite,Foreground,Centre,"sb/d.png",0,0 M,4,188382,188982,264,315,181,350 F,0,188382,188982,1,0 S,0,188382,188982,0.7,0.28 P,0,188382,188982,A
Sprite,Foreground,Centre,"sb/d.png",0,0 M,4,188382,188982,264,315,115,273 F,0,188382,188982,1,0 S,0,188382,188982,0.7,0.28 P,0,188382,188982,A
Sprite,Foreground,Centre,"sb/d.png",0,0 M,4,188382,188982,264,315,369,183 F,0,188382,188982,1,0 S,0,188382,188982,0.7,0.28 P,0,188382,188982,A
Sprite,Foreground,Centre,"sb/d.png",0,0 M,4,188382,188982,264,315,198,376 F,0,188382,188982,1,0 S,0,188382,188982,0.7,0.28 P,0,188382,188982,A
Sprite,Foreground,Centre,"sb/d.png",0,0 M,4,188682,189282,250,149,387,295 F,0,188682,189282,1,0 S,0,188682,189282,0.7,0.28 P,0,188682,189282,A
Sprite,Foreground,Centre,"sb/d.png",0,0 M,4,188682,189282,250,149,216,155 F,0,188682,189282,1,0 S,0,188682,189282,0.7,0.28 P,0,188682,189282,A
Sprite,Foreground,Centre,"sb/d.png",0,0 M,4,188682,189282,250,149,184,150 F,0,188682,189282,1,0 S,0,188682,189282,0.7,0.28 P,0,188682,189282,A
Sprite,Foreground,Centre,"sb/d.png",0,0 M,4,188682,189282,250,149,259,16 F,0,188682,189282,1,0 S,0,188682,189282,0.7,0.28 P,0,188682,189282,A
Sprite,Foreground,Centre,"sb/d.png",0,0 M,4,188682,189282,250,149,184,147 F,0,188682,189282,1,0 S,0,188682,189282,0.7,0.28 P,0,188682,189282,A
Sprite,Foreground,Centre,"sb/d.png",0,0 M,4,188682,189282,250,149,353,182 F,0,188682,189282,1,0 S,0,188682,189282,0.7,0.28 P,0,188682,189282,A
Sprite,Foreground,Centre,"sb/d.png",0,0 M,4,188682,189282,250,149,131,221 F,0,188682,189282,1,0 S,0,188682,189282,0.7,0.28 P,0,188682,189282,A
Sprite,Foreground,Centre,"sb/d.png",0,0 M,4,188832,189432,373,273,343,403 F,0,188832,189432,1,0 S,0,188832,189432,0.7,0.28 P,0,188832,189432,A
Sprite,Foreground,Centre,"sb/d.png",0,0 M,4,188832,189432,373,273,262,332 F,0,188832,189432,1,0 S,0,188832,189432,0.7,0.28 P,0,188832,189432,A
Sprite,Foreground,Centre,"sb/d.png",0,0 M,4,188832,189432,373,273,407,372 F,0,188832,189432,1,0 S,0,188832,189432,0.7,0.28 P,0,188832,189432,A
Sprite,Foreground,Centre,"sb/d.png",0,0 M,4,188832,189432,373,273,428,293 F,0,188832,189432,1,0 S,0,188832,189432,0.7,0.28 P,0,188832,189432,A
Sprite,Foreground,Centre,"sb/d.png",0,0 M,4,188832,189432,373,273,274,178 F,0,188832,189432,1,0 S,0,188832,189432,0.7,0.28 P,0,188832,189432,A
Sprite,Foreground,Centre,"sb/d.png",0,0 M,4,188832,189432,373,273,405,198 F,0,188832,189432,1,0 S,0,188832,189432,0.7,0.28 P,0,188832,189432,A
Sprite,Foreground,Centre,"sb/d.png",0,0 M,4,188832,189432,373,273,522,293 F,0,188832,189432,1,0 S,0,188832,189432,0.7,0.28 P,0,188832,189432,A
Sprite,Foreground,Centre,"sb/d.png",0,0 M,4,188907,189507,395,275,264,204 F,0,188907,189507,1,0 S,0,188907,189507,0.7,0.28 P,0,188907,189507,A
Sprite,Foreground,Centre,"sb/d.png",0,0 M,4,188907,189507,395,275,497,295 F,0,188907,189507,1,0 S,0,188907,189507,0.7,0.28 P,0,188907,189507,A
Sprite,Foreground,Centre,"sb/d.png",0,0 M,4,188907,189507,395,275,438,279 F,0,188907,189507,1,0 S,0,188907,189507,0.7,0.28 P,0,188907,189507,A
Sprite,Foreground,Centre,"sb/d.png",0,0 M,4,188907,189507,395,275,536,148 F,0,188907,189507,1,0 S,0,188907,189507,0.7,0.28 P,0,188907,189507,A
Sprite,Foreground,Centre,"sb/d.png",0,0 M,4,188907,189507,395,275,398,171 F,0,188907,189507,1,0 S,0,188907,189507,0.7,0.28 P,0,188907,189507,A
Sprite,Foreground,Centre,"sb/d.png",0,0 M,4,188907,189507,395,275,489,317 F,0,188907,189507,1,0 S,0,188907,189507,0.7,0.28 P,0,188907,189507,A
Sprite,Foreground,Centre,"sb/d.png",0,0 M,4,188907,189507,395,275,417,290 F,0,188907,189507,1,0 S,0,188907,189507,0.7,0.28 P,0,188907,189507,A
Sprite,Foreground,Centre,"sb/d.png",0,0 M,4,188982,189582,418,277,469,425 F,0,188982,189582,1,0 S,0,188982,189582,0.7,0.28 P,0,188982,189582,A
Sprite,Foreground,Centre,"sb/d.png",0,0 M,4,188982,189582,418,277,358,146 F,0,188982,189582,1,0 S,0,188982,189582,0.7,0.28 P,0,188982,189582,A
Sprite,Foreground,Centre,"sb/d.png",0,0 M,4,188982,189582,418,277,407,271 F,0,188982,189582,1,0 S,0,188982,189582,0.7,0.28 P,0,188982,189582,A
Sprite,Foreground,Centre,"sb/d.png",0,0 M,4,188982,189582,418,277,332,148 F,0,188982,189582,1,0 S,0,188982,189582,0.7,0.28 P,0,188982,189582,A
Sprite,Foreground,Centre,"sb/d.png",0,0 M,4,188982,189582,418,277,337,172 F,0,188982,189582,1,0 S,0,188982,189582,0.7,0.28 P,0,188982,189582,A
Sprite,Foreground,Centre,"sb/d.png",0,0 M,4,188982,189582,418,277,402,262 F,0,188982,189582,1,0 S,0,188982,189582,0.7,0.28 P,0,188982,189582,A
Sprite,Foreground,Centre,"sb/d.png",0,0 M,4,188982,189582,418,277,273,243 F,0,188982,189582,1,0 S,0,188982,189582,0.7,0.28 P,0,188982,189582,A
Sprite,Foreground,Centre,"sb/d.png",0,0 M,4,189057,189657,441,279,535,189 F,0,189057,189657,1,0 S,0,189057,189657,0.7,0.28 P,0,189057,189657,A
Sprite,Foreground,Centre,"sb/d.png",0,0 M,4,189057,189657,441,279,565,137 F,0,189057,189657,1,0 S,0,189057,189657,0.7,0.28 P,0,189057,189657,A
Sprite,Foreground,Centre,"sb/d.png",0,0 M,4,189057,189657,441,279,443,417 F,0,189057,189657,1,0 S,0,189057,189657,0.7,0.28 P,0,189057,189657,A
Sprite,Foreground,Centre,"sb/d.png",0,0 M,4,189057,189657,441,279,589,134 F,0,189057,189657,1,0 S,0,189057,189657,0.7,0.28 P,0,189057,189657,A
Sprite,Foreground,Centre,"sb/d.png",0,0 M,4,189057,189657,441,279,487,212 F,0,189057,189657,1,0 S,0,189057,189657,0.7,0.28 P,0,189057,189657,A
Sprite,Foreground,Centre,"sb/d.png",0,0 M,4,189057,189657,441,279,581,305 F,0,189057,189657,1,0 S,0,189057,189657,0.7,0.28 P,0,189057,189657,A
Sprite,Foreground,Centre,"sb/d.png",0,0 M,4,189057,189657,441,279,522,226 F,0,189057,189657,1,0 S,0,189057,189657,0.7,0.28 P,0,189057,189657,A
Sprite,Foreground,Centre,"sb/d.png",0,0 M,4,189132,189732,464,280,440,422 F,0,189132,189732,1,0 S,0,189132,189732,0.7,0.28 P,0,189132,189732,A
Sprite,Foreground,Centre,"sb/d.png",0,0 M,4,189132,189732,464,280,579,421 F,0,189132,189732,1,0 S,0,189132,189732,0.7,0.28 P,0,189132,189732,A
Sprite,Foreground,Centre,"sb/d.png",0,0 M,4,189132,189732,464,280,390,169 F,0,189132,189732,1,0 S,0,189132,189732,0.7,0.28 P,0,189132,189732,A
Sprite,Foreground,Centre,"sb/d.png",0,0 M,4,189132,189732,464,280,583,183 F,0,189132,189732,1,0 S,0,189132,189732,0.7,0.28 P,0,189132,189732,A
Sprite,Foreground,Centre,"sb/d.png",0,0 M,4,189132,189732,464,280,578,293 F,0,189132,189732,1,0 S,0,189132,189732,0.7,0.28 P,0,189132,189732,A
Sprite,Foreground,Centre,"sb/d.png",0,0 M,4,189132,189732,464,280,549,284 F,0,189132,189732,1,0 S,0,189132,189732,0.7,0.28 P,0,189132,189732,A
Sprite,Foreground,Centre,"sb/d.png",0,0 M,4,189132,189732,464,280,419,427 F,0,189132,189732,1,0 S,0,189132,189732,0.7,0.28 P,0,189132,189732,A
Sprite,Foreground,Centre,"sb/d.png",0,0 M,4,189282,189882,575,149,435,206 F,0,189282,189882,1,0 S,0,189282,189882,0.7,0.28 P,0,189282,189882,A
Sprite,Foreground,Centre,"sb/d.png",0,0 M,4,189282,189882,575,149,461,57 F,0,189282,189882,1,0 S,0,189282,189882,0.7,0.28 P,0,189282,189882,A
Sprite,Foreground,Centre,"sb/d.png",0,0 M,4,189282,189882,575,149,573,173 F,0,189282,189882,1,0 S,0,189282,189882,0.7,0.28 P,0,189282,189882,A
Sprite,Foreground,Centre,"sb/d.png",0,0 M,4,189282,189882,575,149,503,92 F,0,189282,189882,1,0 S,0,189282,189882,0.7,0.28 P,0,189282,189882,A
Sprite,Foreground,Centre,"sb/d.png",0,0 M,4,189282,189882,575,149,497,234 F,0,189282,189882,1,0 S,0,189282,189882,0.7,0.28 P,0,189282,189882,A
Sprite,Foreground,Centre,"sb/d.png",0,0 M,4,189282,189882,575,149,464,182 F,0,189282,189882,1,0 S,0,189282,189882,0.7,0.28 P,0,189282,189882,A
Sprite,Foreground,Centre,"sb/d.png",0,0 M,4,189282,189882,575,149,592,195 F,0,189282,189882,1,0 S,0,189282,189882,0.7,0.28 P,0,189282,189882,A
Sprite,Foreground,Centre,"sb/d.png",0,0 M,4,189582,190182,522,348,474,204 F,0,189582,190182,1,0 S,0,189582,190182,0.7,0.28 P,0,189582,190182,A
Sprite,Foreground,Centre,"sb/d.png",0,0 M,4,189582,190182,522,348,401,461 F,0,189582,190182,1,0 S,0,189582,190182,0.7,0.28 P,0,189582,190182,A
Sprite,Foreground,Centre,"sb/d.png",0,0 M,4,189582,190182,522,348,585,465 F,0,189582,190182,1,0 S,0,189582,190182,0.7,0.28 P,0,189582,190182,A
Sprite,Foreground,Centre,"sb/d.png",0,0 M,4,189582,190182,522,348,567,274 F,0,189582,190182,1,0 S,0,189582,190182,0.7,0.28 P,0,189582,190182,A
Sprite,Foreground,Centre,"sb/d.png",0,0 M,4,189582,190182,522,348,451,340 F,0,189582,190182,1,0 S,0,189582,190182,0.7,0.28 P,0,189582,190182,A
Sprite,Foreground,Centre,"sb/d.png",0,0 M,4,189582,190182,522,348,430,464 F,0,189582,190182,1,0 S,0,189582,190182,0.7,0.28 P,0,189582,190182,A
Sprite,Foreground,Centre,"sb/d.png",0,0 M,4,189582,190182,522,348,519,389 F,0,189582,190182,1,0 S,0,189582,190182,0.7,0.28 P,0,189582,190182,A
Sprite,Foreground,Centre,"sb/d.png",0,0 M,4,189882,190482,397,431,342,391 F,0,189882,190482,1,0 S,0,189882,190482,0.7,0.28 P,0,189882,190482,A
Sprite,Foreground,Centre,"sb/d.png",0,0 M,4,189882,190482,397,431,320,579 F,0,189882,190482,1,0 S,0,189882,190482,0.7,0.28 P,0,189882,190482,A
Sprite,Foreground,Centre,"sb/d.png",0,0 M,4,189882,190482,397,431,430,281 F,0,189882,190482,1,0 S,0,189882,190482,0.7,0.28 P,0,189882,190482,A
Sprite,Foreground,Centre,"sb/d.png",0,0 M,4,189882,190482,397,431,542,569 F,0,189882,190482,1,0 S,0,189882,190482,0.7,0.28 P,0,189882,190482,A
Sprite,Foreground,Centre,"sb/d.png",0,0 M,4,189882,190482,397,431,294,512 F,0,189882,190482,1,0 S,0,189882,190482,0.7,0.28 P,0,189882,190482,A
Sprite,Foreground,Centre,"sb/d.png",0,0 M,4,189882,190482,397,431,274,338 F,0,189882,190482,1,0 S,0,189882,190482,0.7,0.28 P,0,189882,190482,A
Sprite,Foreground,Centre,"sb/d.png",0,0 M,4,189882,190482,397,431,265,314 F,0,189882,190482,1,0 S,0,189882,190482,0.7,0.28 P,0,189882,190482,A
Sprite,Foreground,Centre,"sb/d.png",0,0 M,4,190032,190632,314,281,383,161 F,0,190032,190632,1,0 S,0,190032,190632,0.7,0.28 P,0,190032,190632,A
Sprite,Foreground,Centre,"sb/d.png",0,0 M,4,190032,190632,314,281,415,323 F,0,190032,190632,1,0 S,0,190032,190632,0.7,0.28 P,0,190032,190632,A
Sprite,Foreground,Centre,"sb/d.png",0,0 M,4,190032,190632,314,281,335,203 F,0,190032,190632,1,0 S,0,190032,190632,0.7,0.28 P,0,190032,190632,A
Sprite,Foreground,Centre,"sb/d.png",0,0 M,4,190032,190632,314,281,415,388 F,0,190032,190632,1,0 S,0,190032,190632,0.7,0.28 P,0,190032,190632,A
Sprite,Foreground,Centre,"sb/d.png",0,0 M,4,190032,190632,314,281,298,403 F,0,190032,190632,1,0 S,0,190032,190632,0.7,0.28 P,0,190032,190632,A
Sprite,Foreground,Centre,"sb/d.png",0,0 M,4,190032,190632,314,281,404,269 F,0,190032,190632,1,0 S,0,190032,190632,0.7,0.28 P,0,190032,190632,A
Sprite,Foreground,Centre,"sb/d.png",0,0 M,4,190032,190632,314,281,266,364 F,0,190032,190632,1,0 S,0,190032,190632,0.7,0.28 P,0,190032,190632,A
Sprite,Foreground,Centre,"sb/d.png",0,0 M,4,190107,190707,294,268,272,312 F,0,190107,190707,1,0 S,0,190107,190707,0.7,0.28 P,0,190107,190707,A
Sprite,Foreground,Centre,"sb/d.png",0,0 M,4,190107,190707,294,268,443,300 F,0,190107,190707,1,0 S,0,190107,190707,0.7,0.28 P,0,190107,190707,A
Sprite,Foreground,Centre,"sb/d.png",0,0 M,4,190107,190707,294,268,170,305 F,0,190107,190707,1,0 S,0,190107,190707,0.7,0.28 P,0,190107,190707,A
Sprite,Foreground,Centre,"sb/d.png",0,0 M,4,190107,190707,294,268,441,379 F,0,190107,190707,1,0 S,0,190107,190707,0.7,0.28 P,0,190107,190707,A
Sprite,Foreground,Centre,"sb/d.png",0,0 M,4,190107,190707,294,268,305,159 F,0,190107,190707,1,0 S,0,190107,190707,0.7,0.28 P,0,190107,190707,A
Sprite,Foreground,Centre,"sb/d.png",0,0 M,4,190107,190707,294,268,144,285 F,0,190107,190707,1,0 S,0,190107,190707,0.7,0.28 P,0,190107,190707,A
Sprite,Foreground,Centre,"sb/d.png",0,0 M,4,190107,190707,294,268,345,231 F,0,190107,190707,1,0 S,0,190107,190707,0.7,0.28 P,0,190107,190707,A
Sprite,Foreground,Centre,"sb/d.png",0,0 M,4,190182,190782,273,258,382,205 F,0,190182,190782,1,0 S,0,190182,190782,0.7,0.28 P,0,190182,190782,A
Sprite,Foreground,Centre,"sb/d.png",0,0 M,4,190182,190782,273,258,358,263 F,0,190182,190782,1,0 S,0,190182,190782,0.7,0.28 P,0,190182,190782,A
Sprite,Foreground,Centre,"sb/d.png",0,0 M,4,190182,190782,273,258,371,270 F,0,190182,190782,1,0 S,0,190182,190782,0.7,0.28 P,0,190182,190782,A
Sprite,Foreground,Centre,"sb/d.png",0,0 M,4,190182,190782,273,258,279,156 F,0,190182,190782,1,0 S,0,190182,190782,0.7,0.28 P,0,190182,190782,A
Sprite,Foreground,Centre,"sb/d.png",0,0 M,4,190182,190782,273,258,313,273 F,0,190182,190782,1,0 S,0,190182,190782,0.7,0.28 P,0,190182,190782,A
Sprite,Foreground,Centre,"sb/d.png",0,0 M,4,190182,190782,273,258,217,182 F,0,190182,190782,1,0 S,0,190182,190782,0.7,0.28 P,0,190182,190782,A
Sprite,Foreground,Centre,"sb/d.png",0,0 M,4,190182,190782,273,258,363,246 F,0,190182,190782,1,0 S,0,190182,190782,0.7,0.28 P,0,190182,190782,A
Sprite,Foreground,Centre,"sb/d.png",0,0 M,4,190257,190857,251,253,377,204 F,0,190257,190857,1,0 S,0,190257,190857,0.7,0.28 P,0,190257,190857,A
Sprite,Foreground,Centre,"sb/d.png",0,0 M,4,190257,190857,251,253,158,148 F,0,190257,190857,1,0 S,0,190257,190857,0.7,0.28 P,0,190257,190857,A
Sprite,Foreground,Centre,"sb/d.png",0,0 M,4,190257,190857,251,253,299,164 F,0,190257,190857,1,0 S,0,190257,190857,0.7,0.28 P,0,190257,190857,A
Sprite,Foreground,Centre,"sb/d.png",0,0 M,4,190257,190857,251,253,261,255 F,0,190257,190857,1,0 S,0,190257,190857,0.7,0.28 P,0,190257,190857,A
Sprite,Foreground,Centre,"sb/d.png",0,0 M,4,190257,190857,251,253,332,247 F,0,190257,190857,1,0 S,0,190257,190857,0.7,0.28 P,0,190257,190857,A
Sprite,Foreground,Centre,"sb/d.png",0,0 M,4,190257,190857,251,253,131,234 F,0,190257,190857,1,0 S,0,190257,190857,0.7,0.28 P,0,190257,190857,A
Sprite,Foreground,Centre,"sb/d.png",0,0 M,4,190257,190857,251,253,136,360 F,0,190257,190857,1,0 S,0,190257,190857,0.7,0.28 P,0,190257,190857,A
Sprite,Foreground,Centre,"sb/d.png",0,0 M,4,190332,190932,228,253,246,313 F,0,190332,190932,1,0 S,0,190332,190932,0.7,0.28 P,0,190332,190932,A
Sprite,Foreground,Centre,"sb/d.png",0,0 M,4,190332,190932,228,253,270,107 F,0,190332,190932,1,0 S,0,190332,190932,0.7,0.28 P,0,190332,190932,A
Sprite,Foreground,Centre,"sb/d.png",0,0 M,4,190332,190932,228,253,248,240 F,0,190332,190932,1,0 S,0,190332,190932,0.7,0.28 P,0,190332,190932,A
Sprite,Foreground,Centre,"sb/d.png",0,0 M,4,190332,190932,228,253,376,139 F,0,190332,190932,1,0 S,0,190332,190932,0.7,0.28 P,0,190332,190932,A
Sprite,Foreground,Centre,"sb/d.png",0,0 M,4,190332,190932,228,253,114,187 F,0,190332,190932,1,0 S,0,190332,190932,0.7,0.28 P,0,190332,190932,A
Sprite,Foreground,Centre,"sb/d.png",0,0 M,4,190332,190932,228,253,267,342 F,0,190332,190932,1,0 S,0,190332,190932,0.7,0.28 P,0,190332,190932,A
Sprite,Foreground,Centre,"sb/d.png",0,0 M,4,190332,190932,228,253,154,182 F,0,190332,190932,1,0 S,0,190332,190932,0.7,0.28 P,0,190332,190932,A
Sprite,Foreground,Centre,"sb/d.png",0,0 M,4,190482,191082,175,413,28,396 F,0,190482,191082,1,0 S,0,190482,191082,0.7,0.28 P,0,190482,191082,A
Sprite,Foreground,Centre,"sb/d.png",0,0 M,4,190482,191082,175,413,113,514 F,0,190482,191082,1,0 S,0,190482,191082,0.7,0.28 P,0,190482,191082,A
Sprite,Foreground,Centre,"sb/d.png",0,0 M,4,190482,191082,175,413,271,422 F,0,190482,191082,1,0 S,0,190482,191082,0.7,0.28 P,0,190482,191082,A
Sprite,Foreground,Centre,"sb/d.png",0,0 M,4,190482,191082,175,413,310,323 F,0,190482,191082,1,0 S,0,190482,191082,0.7,0.28 P,0,190482,191082,A
Sprite,Foreground,Centre,"sb/d.png",0,0 M,4,190482,191082,175,413,308,518 F,0,190482,191082,1,0 S,0,190482,191082,0.7,0.28 P,0,190482,191082,A
Sprite,Foreground,Centre,"sb/d.png",0,0 M,4,190482,191082,175,413,293,403 F,0,190482,191082,1,0 S,0,190482,191082,0.7,0.28 P,0,190482,191082,A
Sprite,Foreground,Centre,"sb/d.png",0,0 M,4,190482,191082,175,413,278,369 F,0,190482,191082,1,0 S,0,190482,191082,0.7,0.28 P,0,190482,191082,A
Sprite,Foreground,Centre,"sb/d.png",0,0 M,4,190782,191382,127,224,142,165 F,0,190782,191382,1,0 S,0,190782,191382,0.7,0.28 P,0,190782,191382,A
Sprite,Foreground,Centre,"sb/d.png",0,0 M,4,190782,191382,127,224,102,191 F,0,190782,191382,1,0 S,0,190782,191382,0.7,0.28 P,0,190782,191382,A
Sprite,Foreground,Centre,"sb/d.png",0,0 M,4,190782,191382,127,224,103,272 F,0,190782,191382,1,0 S,0,190782,191382,0.7,0.28 P,0,190782,191382,A
Sprite,Foreground,Centre,"sb/d.png",0,0 M,4,190782,191382,127,224,157,353 F,0,190782,191382,1,0 S,0,190782,191382,0.7,0.28 P,0,190782,191382,A
Sprite,Foreground,Centre,"sb/d.png",0,0 M,4,190782,191382,127,224,250,163 F,0,190782,191382,1,0 S,0,190782,191382,0.7,0.28 P,0,190782,191382,A
Sprite,Foreground,Centre,"sb/d.png",0,0 M,4,190782,191382,127,224,181,176 F,0,190782,191382,1,0 S,0,190782,191382,0.7,0.28 P,0,190782,191382,A
Sprite,Foreground,Centre,"sb/d.png",0,0 M,4,190782,191382,127,224,117,313 F,0,190782,191382,1,0 S,0,190782,191382,0.7,0.28 P,0,190782,191382,A
Sprite,Foreground,Centre,"sb/d.png",0,0 M,4,191082,191682,275,185,190,307 F,0,191082,191682,1,0 S,0,191082,191682,0.7,0.28 P,0,191082,191682,A
Sprite,Foreground,Centre,"sb/d.png",0,0 M,4,191082,191682,275,185,280,293 F,0,191082,191682,1,0 S,0,191082,191682,0.7,0.28 P,0,191082,191682,A
Sprite,Foreground,Centre,"sb/d.png",0,0 M,4,191082,191682,275,185,409,116 F,0,191082,191682,1,0 S,0,191082,191682,0.7,0.28 P,0,191082,191682,A
Sprite,Foreground,Centre,"sb/d.png",0,0 M,4,191082,191682,275,185,274,133 F,0,191082,191682,1,0 S,0,191082,191682,0.7,0.28 P,0,191082,191682,A
Sprite,Foreground,Centre,"sb/d.png",0,0 M,4,191082,191682,275,185,181,113 F,0,191082,191682,1,0 S,0,191082,191682,0.7,0.28 P,0,191082,191682,A
Sprite,Foreground,Centre,"sb/d.png",0,0 M,4,191082,191682,275,185,309,211 F,0,191082,191682,1,0 S,0,191082,191682,0.7,0.28 P,0,191082,191682,A
Sprite,Foreground,Centre,"sb/d.png",0,0 M,4,191082,191682,275,185,397,143 F,0,191082,191682,1,0 S,0,191082,191682,0.7,0.28 P,0,191082,191682,A
Sprite,Foreground,Centre,"sb/d.png",0,0 M,4,191232,191832,163,130,240,216 F,0,191232,191832,1,0 S,0,191232,191832,0.7,0.28 P,0,191232,191832,A
Sprite,Foreground,Centre,"sb/d.png",0,0 M,4,191232,191832,163,130,48,10 F,0,191232,191832,1,0 S,0,191232,191832,0.7,0.28 P,0,191232,191832,A
Sprite,Foreground,Centre,"sb/d.png",0,0 M,4,191232,191832,163,130,197,171 F,0,191232,191832,1,0 S,0,191232,191832,0.7,0.28 P,0,191232,191832,A
Sprite,Foreground,Centre,"sb/d.png",0,0 M,4,191232,191832,163,130,184,224 F,0,191232,191832,1,0 S,0,191232,191832,0.7,0.28 P,0,191232,191832,A
Sprite,Foreground,Centre,"sb/d.png",0,0 M,4,191232,191832,163,130,272,51 F,0,191232,191832,1,0 S,0,191232,191832,0.7,0.28 P,0,191232,191832,A
Sprite,Foreground,Centre,"sb/d.png",0,0 M,4,191232,191832,163,130,126,157 F,0,191232,191832,1,0 S,0,191232,191832,0.7,0.28 P,0,191232,191832,A
Sprite,Foreground,Centre,"sb/d.png",0,0 M,4,191232,191832,163,130,212,4 F,0,191232,191832,1,0 S,0,191232,191832,0.7,0.28 P,0,191232,191832,A
Sprite,Foreground,Centre,"sb/d.png",0,0 M,4,191307,191907,163,130,172,278 F,0,191307,191907,1,0 S,0,191307,191907,0.7,0.28 P,0,191307,191907,A
Sprite,Foreground,Centre,"sb/d.png",0,0 M,4,191307,191907,163,130,60,124 F,0,191307,191907,1,0 S,0,191307,191907,0.7,0.28 P,0,191307,191907,A
Sprite,Foreground,Centre,"sb/d.png",0,0 M,4,191307,191907,163,130,32,25 F,0,191307,191907,1,0 S,0,191307,191907,0.7,0.28 P,0,191307,191907,A
Sprite,Foreground,Centre,"sb/d.png",0,0 M,4,191307,191907,163,130,308,-10 F,0,191307,191907,1,0 S,0,191307,191907,0.7,0.28 P,0,191307,191907,A
Sprite,Foreground,Centre,"sb/d.png",0,0 M,4,191307,191907,163,130,112,-10 F,0,191307,191907,1,0 S,0,191307,191907,0.7,0.28 P,0,191307,191907,A
Sprite,Foreground,Centre,"sb/d.png",0,0 M,4,191307,191907,163,130,168,152 F,0,191307,191907,1,0 S,0,191307,191907,0.7,0.28 P,0,191307,191907,A
Sprite,Foreground,Centre,"sb/d.png",0,0 M,4,191307,191907,163,130,270,47 F,0,191307,191907,1,0 S,0,191307,191907,0.7,0.28 P,0,191307,191907,A
Sprite,Foreground,Centre,"sb/d.png",0,0 M,4,191382,191982,163,130,47,27 F,0,191382,191982,1,0 S,0,191382,191982,0.7,0.28 P,0,191382,191982,A
Sprite,Foreground,Centre,"sb/d.png",0,0 M,4,191382,191982,163,130,245,229 F,0,191382,191982,1,0 S,0,191382,191982,0.7,0.28 P,0,191382,191982,A
Sprite,Foreground,Centre,"sb/d.png",0,0 M,4,191382,191982,163,130,239,52 F,0,191382,191982,1,0 S,0,191382,191982,0.7,0.28 P,0,191382,191982,A
Sprite,Foreground,Centre,"sb/d.png",0,0 M,4,191382,191982,163,130,65,17 F,0,191382,191982,1,0 S,0,191382,191982,0.7,0.28 P,0,191382,191982,A
Sprite,Foreground,Centre,"sb/d.png",0,0 M,4,191382,191982,163,130,66,153 F,0,191382,191982,1,0 S,0,191382,191982,0.7,0.28 P,0,191382,191982,A
Sprite,Foreground,Centre,"sb/d.png",0,0 M,4,191382,191982,163,130,231,228 F,0,191382,191982,1,0 S,0,191382,191982,0.7,0.28 P,0,191382,191982,A
Sprite,Foreground,Centre,"sb/d.png",0,0 M,4,191382,191982,163,130,81,100 F,0,191382,191982,1,0 S,0,191382,191982,0.7,0.28 P,0,191382,191982,A
Sprite,Foreground,Centre,"sb/d.png",0,0 M,4,191682,192282,275,185,138,119 F,0,191682,192282,1,0 S,0,191682,192282,0.7,0.28 P,0,191682,192282,A
Sprite,Foreground,Centre,"sb/d.png",0,0 M,4,191682,192282,275,185,270,142 F,0,191682,192282,1,0 S,0,191682,192282,0.7,0.28 P,0,191682,192282,A
Sprite,Foreground,Centre,"sb/d.png",0,0 M,4,191682,192282,275,185,307,159 F,0,191682,192282,1,0 S,0,191682,192282,0.7,0.28 P,0,191682,192282,A
Sprite,Foreground,Centre,"sb/d.png",0,0 M,4,191682,192282,275,185,363,92 F,0,191682,192282,1,0 S,0,191682,192282,0.7,0.28 P,0,191682,192282,A
Sprite,Foreground,Centre,"sb/d.png",0,0 M,4,191682,192282,275,185,155,75 F,0,191682,192282,1,0 S,0,191682,192282,0.7,0.28 P,0,191682,192282,A
Sprite,Foreground,Centre,"sb/d.png",0,0 M,4,191682,192282,275,185,282,261 F,0,191682,192282,1,0 S,0,191682,192282,0.7,0.28 P,0,191682,192282,A
Sprite,Foreground,Centre,"sb/d.png",0,0 M,4,191682,192282,275,185,237,251 F,0,191682,192282,1,0 S,0,191682,192282,0.7,0.28 P,0,191682,192282,A
Sprite,Foreground,Centre,"sb/d.png",0,0 M,4,191982,192582,480,65,467,-60 F,0,191982,192582,1,0 S,0,191982,192582,0.7,0.28 P,0,191982,192582,A
Sprite,Foreground,Centre,"sb/d.png",0,0 M,4,191982,192582,480,65,505,-73 F,0,191982,192582,1,0 S,0,191982,192582,0.7,0.28 P,0,191982,192582,A
Sprite,Foreground,Centre,"sb/d.png",0,0 M,4,191982,192582,480,65,563,18 F,0,191982,192582,1,0 S,0,191982,192582,0.7,0.28 P,0,191982,192582,A
Sprite,Foreground,Centre,"sb/d.png",0,0 M,4,191982,192582,480,65,539,127 F,0,191982,192582,1,0 S,0,191982,192582,0.7,0.28 P,0,191982,192582,A
Sprite,Foreground,Centre,"sb/d.png",0,0 M,4,191982,192582,480,65,469,78 F,0,191982,192582,1,0 S,0,191982,192582,0.7,0.28 P,0,191982,192582,A
Sprite,Foreground,Centre,"sb/d.png",0,0 M,4,191982,192582,480,65,581,41 F,0,191982,192582,1,0 S,0,191982,192582,0.7,0.28 P,0,191982,192582,A
Sprite,Foreground,Centre,"sb/d.png",0,0 M,4,191982,192582,480,65,601,37 F,0,191982,192582,1,0 S,0,191982,192582,0.7,0.28 P,0,191982,192582,A
Sprite,Foreground,Centre,"sb/d.png",0,0 M,4,192282,192882,475,298,569,322 F,0,192282,192882,1,0 S,0,192282,192882,0.7,0.28 P,0,192282,192882,A
Sprite,Foreground,Centre,"sb/d.png",0,0 M,4,192282,192882,475,298,550,218 F,0,192282,192882,1,0 S,0,192282,192882,0.7,0.28 P,0,192282,192882,A
Sprite,Foreground,Centre,"sb/d.png",0,0 M,4,192282,192882,475,298,602,323 F,0,192282,192882,1,0 S,0,192282,192882,0.7,0.28 P,0,192282,192882,A
Sprite,Foreground,Centre,"sb/d.png",0,0 M,4,192282,192882,475,298,622,163 F,0,192282,192882,1,0 S,0,192282,192882,0.7,0.28 P,0,192282,192882,A
Sprite,Foreground,Centre,"sb/d.png",0,0 M,4,192282,192882,475,298,489,196 F,0,192282,192882,1,0 S,0,192282,192882,0.7,0.28 P,0,192282,192882,A
Sprite,Foreground,Centre,"sb/d.png",0,0 M,4,192282,192882,475,298,614,280 F,0,192282,192882,1,0 S,0,192282,192882,0.7,0.28 P,0,192282,192882,A
Sprite,Foreground,Centre,"sb/d.png",0,0 M,4,192282,192882,475,298,454,425 F,0,192282,192882,1,0 S,0,192282,192882,0.7,0.28 P,0,192282,192882,A
Sprite,Foreground,Centre,"sb/d.png",0,0 M,4,192432,193032,571,179,437,221 F,0,192432,193032,1,0 S,0,192432,193032,0.7,0.28 P,0,192432,193032,A
Sprite,Foreground,Centre,"sb/d.png",0,0 M,4,192432,193032,571,179,513,328 F,0,192432,193032,1,0 S,0,192432,193032,0.7,0.28 P,0,192432,193032,A
Sprite,Foreground,Centre,"sb/d.png",0,0 M,4,192432,193032,571,179,680,165 F,0,192432,193032,1,0 S,0,192432,193032,0.7,0.28 P,0,192432,193032,A
Sprite,Foreground,Centre,"sb/d.png",0,0 M,4,192432,193032,571,179,621,57 F,0,192432,193032,1,0 S,0,192432,193032,0.7,0.28 P,0,192432,193032,A
Sprite,Foreground,Centre,"sb/d.png",0,0 M,4,192432,193032,571,179,718,235 F,0,192432,193032,1,0 S,0,192432,193032,0.7,0.28 P,0,192432,193032,A
Sprite,Foreground,Centre,"sb/d.png",0,0 M,4,192432,193032,571,179,436,293 F,0,192432,193032,1,0 S,0,192432,193032,0.7,0.28 P,0,192432,193032,A
Sprite,Foreground,Centre,"sb/d.png",0,0 M,4,192432,193032,571,179,631,130 F,0,192432,193032,1,0 S,0,192432,193032,0.7,0.28 P,0,192432,193032,A
Sprite,Foreground,Centre,"sb/d.png",0,0 M,4,192507,193107,559,178,653,309 F,0,192507,193107,1,0 S,0,192507,193107,0.7,0.28 P,0,192507,193107,A
Sprite,Foreground,Centre,"sb/d.png",0,0 M,4,192507,193107,559,178,564,83 F,0,192507,193107,1,0 S,0,192507,193107,0.7,0.28 P,0,192507,193107,A
Sprite,Foreground,Centre,"sb/d.png",0,0 M,4,192507,193107,559,178,562,143 F,0,192507,193107,1,0 S,0,192507,193107,0.7,0.28 P,0,192507,193107,A
Sprite,Foreground,Centre,"sb/d.png",0,0 M,4,192507,193107,559,178,522,184 F,0,192507,193107,1,0 S,0,192507,193107,0.7,0.28 P,0,192507,193107,A
Sprite,Foreground,Centre,"sb/d.png",0,0 M,4,192507,193107,559,178,524,115 F,0,192507,193107,1,0 S,0,192507,193107,0.7,0.28 P,0,192507,193107,A
Sprite,Foreground,Centre,"sb/d.png",0,0 M,4,192507,193107,559,178,658,265 F,0,192507,193107,1,0 S,0,192507,193107,0.7,0.28 P,0,192507,193107,A
Sprite,Foreground,Centre,"sb/d.png",0,0 M,4,192507,193107,559,178,627,149 F,0,192507,193107,1,0 S,0,192507,193107,0.7,0.28 P,0,192507,193107,A
Sprite,Foreground,Centre,"sb/d.png",0,0 M,4,192582,193182,548,179,558,156 F,0,192582,193182,1,0 S,0,192582,193182,0.7,0.28 P,0,192582,193182,A
Sprite,Foreground,Centre,"sb/d.png",0,0 M,4,192582,193182,548,179,420,129 F,0,192582,193182,1,0 S,0,192582,193182,0.7,0.28 P,0,192582,193182,A
Sprite,Foreground,Centre,"sb/d.png",0,0 M,4,192582,193182,548,179,672,261 F,0,192582,193182,1,0 S,0,192582,193182,0.7,0.28 P,0,192582,193182,A
Sprite,Foreground,Centre,"sb/d.png",0,0 M,4,192582,193182,548,179,593,276 F,0,192582,193182,1,0 S,0,192582,193182,0.7,0.28 P,0,192582,193182,A
Sprite,Foreground,Centre,"sb/d.png",0,0 M,4,192582,193182,548,179,469,280 F,0,192582,193182,1,0 S,0,192582,193182,0.7,0.28 P,0,192582,193182,A
Sprite,Foreground,Centre,"sb/d.png",0,0 M,4,192582,193182,548,179,565,164 F,0,192582,193182,1,0 S,0,192582,193182,0.7,0.28 P,0,192582,193182,A
Sprite,Foreground,Centre,"sb/d.png",0,0 M,4,192582,193182,548,179,620,245 F,0,192582,193182,1,0 S,0,192582,193182,0.7,0.28 P,0,192582,193182,A
Sprite,Foreground,Centre,"sb/d.png",0,0 M,4,192657,193257,536,182,562,50 F,0,192657,193257,1,0 S,0,192657,193257,0.7,0.28 P,0,192657,193257,A
Sprite,Foreground,Centre,"sb/d.png",0,0 M,4,192657,193257,536,182,440,44 F,0,192657,193257,1,0 S,0,192657,193257,0.7,0.28 P,0,192657,193257,A
Sprite,Foreground,Centre,"sb/d.png",0,0 M,4,192657,193257,536,182,651,228 F,0,192657,193257,1,0 S,0,192657,193257,0.7,0.28 P,0,192657,193257,A
Sprite,Foreground,Centre,"sb/d.png",0,0 M,4,192657,193257,536,182,456,214 F,0,192657,193257,1,0 S,0,192657,193257,0.7,0.28 P,0,192657,193257,A
Sprite,Foreground,Centre,"sb/d.png",0,0 M,4,192657,193257,536,182,578,266 F,0,192657,193257,1,0 S,0,192657,193257,0.7,0.28 P,0,192657,193257,A
Sprite,Foreground,Centre,"sb/d.png",0,0 M,4,192657,193257,536,182,665,45 F,0,192657,193257,1,0 S,0,192657,193257,0.7,0.28 P,0,192657,193257,A
Sprite,Foreground,Centre,"sb/d.png",0,0 M,4,192657,193257,536,182,549,192 F,0,192657,193257,1,0 S,0,192657,193257,0.7,0.28 P,0,192657,193257,A
Sprite,Foreground,Centre,"sb/d.png",0,0 M,4,192732,193332,525,185,452,40 F,0,192732,193332,1,0 S,0,192732,193332,0.7,0.28 P,0,192732,193332,A
Sprite,Foreground,Centre,"sb/d.png",0,0 M,4,192732,193332,525,185,425,57 F,0,192732,193332,1,0 S,0,192732,193332,0.7,0.28 P,0,192732,193332,A
Sprite,Foreground,Centre,"sb/d.png",0,0 M,4,192732,193332,525,185,592,113 F,0,192732,193332,1,0 S,0,192732,193332,0.7,0.28 P,0,192732,193332,A
Sprite,Foreground,Centre,"sb/d.png",0,0 M,4,192732,193332,525,185,542,205 F,0,192732,193332,1,0 S,0,192732,193332,0.7,0.28 P,0,192732,193332,A
Sprite,Foreground,Centre,"sb/d.png",0,0 M,4,192732,193332,525,185,559,250 F,0,192732,193332,1,0 S,0,192732,193332,0.7,0.28 P,0,192732,193332,A
Sprite,Foreground,Centre,"sb/d.png",0,0 M,4,192732,193332,525,185,664,312 F,0,192732,193332,1,0 S,0,192732,193332,0.7,0.28 P,0,192732,193332,A
Sprite,Foreground,Centre,"sb/d.png",0,0 M,4,192732,193332,525,185,580,332 F,0,192732,193332,1,0 S,0,192732,193332,0.7,0.28 P,0,192732,193332,A
Sprite,Foreground,Centre,"sb/d.png",0,0 M,4,192882,193482,393,261,453,315 F,0,192882,193482,1,0 S,0,192882,193482,0.7,0.28 P,0,192882,193482,A
Sprite,Foreground,Centre,"sb/d.png",0,0 M,4,192882,193482,393,261,430,128 F,0,192882,193482,1,0 S,0,192882,193482,0.7,0.28 P,0,192882,193482,A
Sprite,Foreground,Centre,"sb/d.png",0,0 M,4,192882,193482,393,261,435,307 F,0,192882,193482,1,0 S,0,192882,193482,0.7,0.28 P,0,192882,193482,A
Sprite,Foreground,Centre,"sb/d.png",0,0 M,4,192882,193482,393,261,522,207 F,0,192882,193482,1,0 S,0,192882,193482,0.7,0.28 P,0,192882,193482,A
Sprite,Foreground,Centre,"sb/d.png",0,0 M,4,192882,193482,393,261,275,348 F,0,192882,193482,1,0 S,0,192882,193482,0.7,0.28 P,0,192882,193482,A
Sprite,Foreground,Centre,"sb/d.png",0,0 M,4,192882,193482,393,261,514,133 F,0,192882,193482,1,0 S,0,192882,193482,0.7,0.28 P,0,192882,193482,A
Sprite,Foreground,Centre,"sb/d.png",0,0 M,4,192882,193482,393,261,293,388 F,0,192882,193482,1,0 S,0,192882,193482,0.7,0.28 P,0,192882,193482,A
Sprite,Foreground,Centre,"sb/d.png",0,0 M,4,193182,193782,288,99,373,36 F,0,193182,193782,1,0 S,0,193182,193782,0.7,0.28 P,0,193182,193782,A
Sprite,Foreground,Centre,"sb/d.png",0,0 M,4,193182,193782,288,99,258,210 F,0,193182,193782,1,0 S,0,193182,193782,0.7,0.28 P,0,193182,193782,A
Sprite,Foreground,Centre,"sb/d.png",0,0 M,4,193182,193782,288,99,207,-16 F,0,193182,193782,1,0 S,0,193182,193782,0.7,0.28 P,0,193182,193782,A
Sprite,Foreground,Centre,"sb/d.png",0,0 M,4,193182,193782,288,99,307,14 F,0,193182,193782,1,0 S,0,193182,193782,0.7,0.28 P,0,193182,193782,A
Sprite,Foreground,Centre,"sb/d.png",0,0 M,4,193182,193782,288,99,339,93 F,0,193182,193782,1,0 S,0,193182,193782,0.7,0.28 P,0,193182,193782,A
Sprite,Foreground,Centre,"sb/d.png",0,0 M,4,193182,193782,288,99,355,93 F,0,193182,193782,1,0 S,0,193182,193782,0.7,0.28 P,0,193182,193782,A
Sprite,Foreground,Centre,"sb/d.png",0,0 M,4,193182,193782,288,99,186,-45 F,0,193182,193782,1,0 S,0,193182,193782,0.7,0.28 P,0,193182,193782,A
Sprite,Foreground,Centre,"sb/d.png",0,0 M,4,193482,194082,269,248,253,237 F,0,193482,194082,1,0 S,0,193482,194082,0.7,0.28 P,0,193482,194082,A
Sprite,Foreground,Centre,"sb/d.png",0,0 M,4,193482,194082,269,248,141,385 F,0,193482,194082,1,0 S,0,193482,194082,0.7,0.28 P,0,193482,194082,A
Sprite,Foreground,Centre,"sb/d.png",0,0 M,4,193482,194082,269,248,409,171 F,0,193482,194082,1,0 S,0,193482,194082,0.7,0.28 P,0,193482,194082,A
Sprite,Foreground,Centre,"sb/d.png",0,0 M,4,193482,194082,269,248,390,386 F,0,193482,194082,1,0 S,0,193482,194082,0.7,0.28 P,0,193482,194082,A
Sprite,Foreground,Centre,"sb/d.png",0,0 M,4,193482,194082,269,248,165,360 F,0,193482,194082,1,0 S,0,193482,194082,0.7,0.28 P,0,193482,194082,A
Sprite,Foreground,Centre,"sb/d.png",0,0 M,4,193482,194082,269,248,240,364 F,0,193482,194082,1,0 S,0,193482,194082,0.7,0.28 P,0,193482,194082,A
Sprite,Foreground,Centre,"sb/d.png",0,0 M,4,193482,194082,269,248,299,378 F,0,193482,194082,1,0 S,0,193482,194082,0.7,0.28 P,0,193482,194082,A
Sprite,Foreground,Centre,"sb/d.png",0,0 M,4,193632,194232,122,160,244,122 F,0,193632,194232,1,0 S,0,193632,194232,0.7,0.28 P,0,193632,194232,A
Sprite,Foreground,Centre,"sb/d.png",0,0 M,4,193632,194232,122,160,22,205 F,0,193632,194232,1,0 S,0,193632,194232,0.7,0.28 P,0,193632,194232,A
Sprite,Foreground,Centre,"sb/d.png",0,0 M,4,193632,194232,122,160,-1,199 F,0,193632,194232,1,0 S,0,193632,194232,0.7,0.28 P,0,193632,194232,A
Sprite,Foreground,Centre,"sb/d.png",0,0 M,4,193632,194232,122,160,207,106 F,0,193632,194232,1,0 S,0,193632,194232,0.7,0.28 P,0,193632,194232,A
Sprite,Foreground,Centre,"sb/d.png",0,0 M,4,193632,194232,122,160,66,38 F,0,193632,194232,1,0 S,0,193632,194232,0.7,0.28 P,0,193632,194232,A
Sprite,Foreground,Centre,"sb/d.png",0,0 M,4,193632,194232,122,160,180,180 F,0,193632,194232,1,0 S,0,193632,194232,0.7,0.28 P,0,193632,194232,A
Sprite,Foreground,Centre,"sb/d.png",0,0 M,4,193632,194232,122,160,99,155 F,0,193632,194232,1,0 S,0,193632,194232,0.7,0.28 P,0,193632,194232,A
Sprite,Foreground,Centre,"sb/d.png",0,0 M,4,193707,194307,122,160,-26,53 F,0,193707,194307,1,0 S,0,193707,194307,0.7,0.28 P,0,193707,194307,A
Sprite,Foreground,Centre,"sb/d.png",0,0 M,4,193707,194307,122,160,72,58 F,0,193707,194307,1,0 S,0,193707,194307,0.7,0.28 P,0,193707,194307,A
Sprite,Foreground,Centre,"sb/d.png",0,0 M,4,193707,194307,122,160,120,283 F,0,193707,194307,1,0 S,0,193707,194307,0.7,0.28 P,0,193707,194307,A
Sprite,Foreground,Centre,"sb/d.png",0,0 M,4,193707,194307,122,160,233,202 F,0,193707,194307,1,0 S,0,193707,194307,0.7,0.28 P,0,193707,194307,A
Sprite,Foreground,Centre,"sb/d.png",0,0 M,4,193707,194307,122,160,186,294 F,0,193707,194307,1,0 S,0,193707,194307,0.7,0.28 P,0,193707,194307,A
Sprite,Foreground,Centre,"sb/d.png",0,0 M,4,193707,194307,122,160,3,287 F,0,193707,194307,1,0 S,0,193707,194307,0.7,0.28 P,0,193707,194307,A
Sprite,Foreground,Centre,"sb/d.png",0,0 M,4,193707,194307,122,160,-22,256 F,0,193707,194307,1,0 S,0,193707,194307,0.7,0.28 P,0,193707,194307,A
Sprite,Foreground,Centre,"sb/d.png",0,0 M,4,193782,194382,122,160,13,168 F,0,193782,194382,1,0 S,0,193782,194382,0.7,0.28 P,0,193782,194382,A
Sprite,Foreground,Centre,"sb/d.png",0,0 M,4,193782,194382,122,160,112,112 F,0,193782,194382,1,0 S,0,193782,194382,0.7,0.28 P,0,193782,194382,A
Sprite,Foreground,Centre,"sb/d.png",0,0 M,4,193782,194382,122,160,126,198 F,0,193782,194382,1,0 S,0,193782,194382,0.7,0.28 P,0,193782,194382,A
Sprite,Foreground,Centre,"sb/d.png",0,0 M,4,193782,194382,122,160,65,98 F,0,193782,194382,1,0 S,0,193782,194382,0.7,0.28 P,0,193782,194382,A
Sprite,Foreground,Centre,"sb/d.png",0,0 M,4,193782,194382,122,160,66,32 F,0,193782,194382,1,0 S,0,193782,194382,0.7,0.28 P,0,193782,194382,A
Sprite,Foreground,Centre,"sb/d.png",0,0 M,4,193782,194382,122,160,88,169 F,0,193782,194382,1,0 S,0,193782,194382,0.7,0.28 P,0,193782,194382,A
Sprite,Foreground,Centre,"sb/d.png",0,0 M,4,193782,194382,122,160,43,47 F,0,193782,194382,1,0 S,0,193782,194382,0.7,0.28 P,0,193782,194382,A
Sprite,Foreground,Centre,"sb/d.png",0,0 M,4,194082,194682,296,334,191,477 F,0,194082,194682,1,0 S,0,194082,194682,0.7,0.28 P,0,194082,194682,A
Sprite,Foreground,Centre,"sb/d.png",0,0 M,4,194082,194682,296,334,225,304 F,0,194082,194682,1,0 S,0,194082,194682,0.7,0.28 P,0,194082,194682,A
Sprite,Foreground,Centre,"sb/d.png",0,0 M,4,194082,194682,296,334,391,310 F,0,194082,194682,1,0 S,0,194082,194682,0.7,0.28 P,0,194082,194682,A
Sprite,Foreground,Centre,"sb/d.png",0,0 M,4,194082,194682,296,334,431,187 F,0,194082,194682,1,0 S,0,194082,194682,0.7,0.28 P,0,194082,194682,A
Sprite,Foreground,Centre,"sb/d.png",0,0 M,4,194082,194682,296,334,307,256 F,0,194082,194682,1,0 S,0,194082,194682,0.7,0.28 P,0,194082,194682,A
Sprite,Foreground,Centre,"sb/d.png",0,0 M,4,194082,194682,296,334,264,391 F,0,194082,194682,1,0 S,0,194082,194682,0.7,0.28 P,0,194082,194682,A
Sprite,Foreground,Centre,"sb/d.png",0,0 M,4,194082,194682,296,334,165,264 F,0,194082,194682,1,0 S,0,194082,194682,0.7,0.28 P,0,194082,194682,A
Sprite,Foreground,Centre,"sb/d.png",0,0 M,4,194382,194982,353,131,400,47 F,0,194382,194982,1,0 S,0,194382,194982,0.7,0.28 P,0,194382,194982,A
Sprite,Foreground,Centre,"sb/d.png",0,0 M,4,194382,194982,353,131,366,31 F,0,194382,194982,1,0 S,0,194382,194982,0.7,0.28 P,0,194382,194982,A
Sprite,Foreground,Centre,"sb/d.png",0,0 M,4,194382,194982,353,131,386,269 F,0,194382,194982,1,0 S,0,194382,194982,0.7,0.28 P,0,194382,194982,A
Sprite,Foreground,Centre,"sb/d.png",0,0 M,4,194382,194982,353,131,258,217 F,0,194382,194982,1,0 S,0,194382,194982,0.7,0.28 P,0,194382,194982,A
Sprite,Foreground,Centre,"sb/d.png",0,0 M,4,194382,194982,353,131,391,87 F,0,194382,194982,1,0 S,0,194382,194982,0.7,0.28 P,0,194382,194982,A
Sprite,Foreground,Centre,"sb/d.png",0,0 M,4,194382,194982,353,131,218,219 F,0,194382,194982,1,0 S,0,194382,194982,0.7,0.28 P,0,194382,194982,A
Sprite,Foreground,Centre,"sb/d.png",0,0 M,4,194382,194982,353,131,254,194 F,0,194382,194982,1,0 S,0,194382,194982,0.7,0.28 P,0,194382,194982,A
Sprite,Foreground,Centre,"sb/d.png",0,0 M,4,194532,195132,519,194,617,122 F,0,194532,195132,1,0 S,0,194532,195132,0.7,0.28 P,0,194532,195132,A
Sprite,Foreground,Centre,"sb/d.png",0,0 M,4,194532,195132,519,194,601,332 F,0,194532,195132,1,0 S,0,194532,195132,0.7,0.28 P,0,194532,195132,A
Sprite,Foreground,Centre,"sb/d.png",0,0 M,4,194532,195132,519,194,571,268 F,0,194532,195132,1,0 S,0,194532,195132,0.7,0.28 P,0,194532,195132,A
Sprite,Foreground,Centre,"sb/d.png",0,0 M,4,194532,195132,519,194,516,264 F,0,194532,195132,1,0 S,0,194532,195132,0.7,0.28 P,0,194532,195132,A
Sprite,Foreground,Centre,"sb/d.png",0,0 M,4,194532,195132,519,194,573,255 F,0,194532,195132,1,0 S,0,194532,195132,0.7,0.28 P,0,194532,195132,A
Sprite,Foreground,Centre,"sb/d.png",0,0 M,4,194532,195132,519,194,401,223 F,0,194532,195132,1,0 S,0,194532,195132,0.7,0.28 P,0,194532,195132,A
Sprite,Foreground,Centre,"sb/d.png",0,0 M,4,194532,195132,519,194,629,81 F,0,194532,195132,1,0 S,0,194532,195132,0.7,0.28 P,0,194532,195132,A
Sprite,Foreground,Centre,"sb/d.png",0,0 M,4,194832,195432,287,174,433,91 F,0,194832,195432,1,0 S,0,194832,195432,0.7,0.28 P,0,194832,195432,A
Sprite,Foreground,Centre,"sb/d.png",0,0 M,4,194832,195432,287,174,420,271 F,0,194832,195432,1,0 S,0,194832,195432,0.7,0.28 P,0,194832,195432,A
Sprite,Foreground,Centre,"sb/d.png",0,0 M,4,194832,195432,287,174,306,37 F,0,194832,195432,1,0 S,0,194832,195432,0.7,0.28 P,0,194832,195432,A
Sprite,Foreground,Centre,"sb/d.png",0,0 M,4,194832,195432,287,174,327,52 F,0,194832,195432,1,0 S,0,194832,195432,0.7,0.28 P,0,194832,195432,A
Sprite,Foreground,Centre,"sb/d.png",0,0 M,4,194832,195432,287,174,295,89 F,0,194832,195432,1,0 S,0,194832,195432,0.7,0.28 P,0,194832,195432,A
Sprite,Foreground,Centre,"sb/d.png",0,0 M,4,194832,195432,287,174,412,106 F,0,194832,195432,1,0 S,0,194832,195432,0.7,0.28 P,0,194832,195432,A
Sprite,Foreground,Centre,"sb/d.png",0,0 M,4,194832,195432,287,174,419,133 F,0,194832,195432,1,0 S,0,194832,195432,0.7,0.28 P,0,194832,195432,A
Sprite,Foreground,Centre,"sb/d.png",0,0 M,4,194982,195582,420,87,375,210 F,0,194982,195582,1,0 S,0,194982,195582,0.7,0.28 P,0,194982,195582,A
Sprite,Foreground,Centre,"sb/d.png",0,0 M,4,194982,195582,420,87,375,-57 F,0,194982,195582,1,0 S,0,194982,195582,0.7,0.28 P,0,194982,195582,A
Sprite,Foreground,Centre,"sb/d.png",0,0 M,4,194982,195582,420,87,345,9 F,0,194982,195582,1,0 S,0,194982,195582,0.7,0.28 P,0,194982,195582,A
Sprite,Foreground,Centre,"sb/d.png",0,0 M,4,194982,195582,420,87,324,20 F,0,194982,195582,1,0 S,0,194982,195582,0.7,0.28 P,0,194982,195582,A
Sprite,Foreground,Centre,"sb/d.png",0,0 M,4,194982,195582,420,87,410,66 F,0,194982,195582,1,0 S,0,194982,195582,0.7,0.28 P,0,194982,195582,A
Sprite,Foreground,Centre,"sb/d.png",0,0 M,4,194982,195582,420,87,274,31 F,0,194982,195582,1,0 S,0,194982,195582,0.7,0.28 P,0,194982,195582,A
Sprite,Foreground,Centre,"sb/d.png",0,0 M,4,194982,195582,420,87,502,214 F,0,194982,195582,1,0 S,0,194982,195582,0.7,0.28 P,0,194982,195582,A
Sprite,Foreground,Centre,"sb/d.png",0,0 M,4,195132,195732,351,248,362,350 F,0,195132,195732,1,0 S,0,195132,195732,0.7,0.28 P,0,195132,195732,A
Sprite,Foreground,Centre,"sb/d.png",0,0 M,4,195132,195732,351,248,219,102 F,0,195132,195732,1,0 S,0,195132,195732,0.7,0.28 P,0,195132,195732,A
Sprite,Foreground,Centre,"sb/d.png",0,0 M,4,195132,195732,351,248,228,115 F,0,195132,195732,1,0 S,0,195132,195732,0.7,0.28 P,0,195132,195732,A
Sprite,Foreground,Centre,"sb/d.png",0,0 M,4,195132,195732,351,248,440,218 F,0,195132,195732,1,0 S,0,195132,195732,0.7,0.28 P,0,195132,195732,A
Sprite,Foreground,Centre,"sb/d.png",0,0 M,4,195132,195732,351,248,323,165 F,0,195132,195732,1,0 S,0,195132,195732,0.7,0.28 P,0,195132,195732,A
Sprite,Foreground,Centre,"sb/d.png",0,0 M,4,195132,195732,351,248,269,136 F,0,195132,195732,1,0 S,0,195132,195732,0.7,0.28 P,0,195132,195732,A
Sprite,Foreground,Centre,"sb/d.png",0,0 M,4,195132,195732,351,248,223,318 F,0,195132,195732,1,0 S,0,195132,195732,0.7,0.28 P,0,195132,195732,A
Sprite,Foreground,Centre,"sb/d.png",0,0 M,4,195207,195807,351,248,421,264 F,0,195207,195807,1,0 S,0,195207,195807,0.7,0.28 P,0,195207,195807,A
Sprite,Foreground,Centre,"sb/d.png",0,0 M,4,195207,195807,351,248,214,217 F,0,195207,195807,1,0 S,0,195207,195807,0.7,0.28 P,0,195207,195807,A
Sprite,Foreground,Centre,"sb/d.png",0,0 M,4,195207,195807,351,248,442,136 F,0,195207,195807,1,0 S,0,195207,195807,0.7,0.28 P,0,195207,195807,A
Sprite,Foreground,Centre,"sb/d.png",0,0 M,4,195207,195807,351,248,316,328 F,0,195207,195807,1,0 S,0,195207,195807,0.7,0.28 P,0,195207,195807,A
Sprite,Foreground,Centre,"sb/d.png",0,0 M,4,195207,195807,351,248,307,123 F,0,195207,195807,1,0 S,0,195207,195807,0.7,0.28 P,0,195207,195807,A
Sprite,Foreground,Centre,"sb/d.png",0,0 M,4,195207,195807,351,248,305,286 F,0,195207,195807,1,0 S,0,195207,195807,0.7,0.28 P,0,195207,195807,A
Sprite,Foreground,Centre,"sb/d.png",0,0 M,4,195207,195807,351,248,483,310 F,0,195207,195807,1,0 S,0,195207,195807,0.7,0.28 P,0,195207,195807,A
Sprite,Foreground,Centre,"sb/d.png",0,0 M,4,195282,195882,351,248,427,251 F,0,195282,195882,1,0 S,0,195282,195882,0.7,0.28 P,0,195282,195882,A
Sprite,Foreground,Centre,"sb/d.png",0,0 M,4,195282,195882,351,248,443,172 F,0,195282,195882,1,0 S,0,195282,195882,0.7,0.28 P,0,195282,195882,A
Sprite,Foreground,Centre,"sb/d.png",0,0 M,4,195282,195882,351,248,281,311 F,0,195282,195882,1,0 S,0,195282,195882,0.7,0.28 P,0,195282,195882,A
Sprite,Foreground,Centre,"sb/d.png",0,0 M,4,195282,195882,351,248,367,303 F,0,195282,195882,1,0 S,0,195282,195882,0.7,0.28 P,0,195282,195882,A
Sprite,Foreground,Centre,"sb/d.png",0,0 M,4,195282,195882,351,248,248,368 F,0,195282,195882,1,0 S,0,195282,195882,0.7,0.28 P,0,195282,195882,A
Sprite,Foreground,Centre,"sb/d.png",0,0 M,4,195282,195882,351,248,255,362 F,0,195282,195882,1,0 S,0,195282,195882,0.7,0.28 P,0,195282,195882,A
Sprite,Foreground,Centre,"sb/d.png",0,0 M,4,195282,195882,351,248,370,382 F,0,195282,195882,1,0 S,0,195282,195882,0.7,0.28 P,0,195282,195882,A
Sprite,Foreground,Centre,"sb/d.png",0,0 M,4,195432,196032,244,108,244,-5 F,0,195432,196032,1,0 S,0,195432,196032,0.7,0.28 P,0,195432,196032,A
Sprite,Foreground,Centre,"sb/d.png",0,0 M,4,195432,196032,244,108,331,-6 F,0,195432,196032,1,0 S,0,195432,196032,0.7,0.28 P,0,195432,196032,A
Sprite,Foreground,Centre,"sb/d.png",0,0 M,4,195432,196032,244,108,143,92 F,0,195432,196032,1,0 S,0,195432,196032,0.7,0.28 P,0,195432,196032,A
Sprite,Foreground,Centre,"sb/d.png",0,0 M,4,195432,196032,244,108,257,232 F,0,195432,196032,1,0 S,0,195432,196032,0.7,0.28 P,0,195432,196032,A
Sprite,Foreground,Centre,"sb/d.png",0,0 M,4,195432,196032,244,108,210,143 F,0,195432,196032,1,0 S,0,195432,196032,0.7,0.28 P,0,195432,196032,A
Sprite,Foreground,Centre,"sb/d.png",0,0 M,4,195432,196032,244,108,247,152 F,0,195432,196032,1,0 S,0,195432,196032,0.7,0.28 P,0,195432,196032,A
Sprite,Foreground,Centre,"sb/d.png",0,0 M,4,195432,196032,244,108,255,188 F,0,195432,196032,1,0 S,0,195432,196032,0.7,0.28 P,0,195432,196032,A
Sprite,Foreground,Centre,"sb/d.png",0,0 M,4,195732,196332,244,108,240,250 F,0,195732,196332,1,0 S,0,195732,196332,0.7,0.28 P,0,195732,196332,A
Sprite,Foreground,Centre,"sb/d.png",0,0 M,4,195732,196332,244,108,294,97 F,0,195732,196332,1,0 S,0,195732,196332,0.7,0.28 P,0,195732,196332,A
Sprite,Foreground,Centre,"sb/d.png",0,0 M,4,195732,196332,244,108,128,-16 F,0,195732,196332,1,0 S,0,195732,196332,0.7,0.28 P,0,195732,196332,A
Sprite,Foreground,Centre,"sb/d.png",0,0 M,4,195732,196332,244,108,288,227 F,0,195732,196332,1,0 S,0,195732,196332,0.7,0.28 P,0,195732,196332,A
Sprite,Foreground,Centre,"sb/d.png",0,0 M,4,195732,196332,244,108,218,251 F,0,195732,196332,1,0 S,0,195732,196332,0.7,0.28 P,0,195732,196332,A
Sprite,Foreground,Centre,"sb/d.png",0,0 M,4,195732,196332,244,108,352,66 F,0,195732,196332,1,0 S,0,195732,196332,0.7,0.28 P,0,195732,196332,A
Sprite,Foreground,Centre,"sb/d.png",0,0 M,4,195732,196332,244,108,148,-28 F,0,195732,196332,1,0 S,0,195732,196332,0.7,0.28 P,0,195732,196332,A
Sprite,Foreground,Centre,"sb/d.png",0,0 M,4,195882,196482,220,285,188,177 F,0,195882,196482,1,0 S,0,195882,196482,0.7,0.28 P,0,195882,196482,A
Sprite,Foreground,Centre,"sb/d.png",0,0 M,4,195882,196482,220,285,134,412 F,0,195882,196482,1,0 S,0,195882,196482,0.7,0.28 P,0,195882,196482,A
Sprite,Foreground,Centre,"sb/d.png",0,0 M,4,195882,196482,220,285,238,265 F,0,195882,196482,1,0 S,0,195882,196482,0.7,0.28 P,0,195882,196482,A
Sprite,Foreground,Centre,"sb/d.png",0,0 M,4,195882,196482,220,285,150,203 F,0,195882,196482,1,0 S,0,195882,196482,0.7,0.28 P,0,195882,196482,A
Sprite,Foreground,Centre,"sb/d.png",0,0 M,4,195882,196482,220,285,158,202 F,0,195882,196482,1,0 S,0,195882,196482,0.7,0.28 P,0,195882,196482,A
Sprite,Foreground,Centre,"sb/d.png",0,0 M,4,195882,196482,220,285,208,283 F,0,195882,196482,1,0 S,0,195882,196482,0.7,0.28 P,0,195882,196482,A
Sprite,Foreground,Centre,"sb/d.png",0,0 M,4,195882,196482,220,285,119,387 F,0,195882,196482,1,0 S,0,195882,196482,0.7,0.28 P,0,195882,196482,A
Sprite,Foreground,Centre,"sb/d.png",0,0 M,4,196032,196632,140,180,26,87 F,0,196032,196632,1,0 S,0,196032,196632,0.7,0.28 P,0,196032,196632,A
Sprite,Foreground,Centre,"sb/d.png",0,0 M,4,196032,196632,140,180,211,215 F,0,196032,196632,1,0 S,0,196032,196632,0.7,0.28 P,0,196032,196632,A
Sprite,Foreground,Centre,"sb/d.png",0,0 M,4,196032,196632,140,180,42,265 F,0,196032,196632,1,0 S,0,196032,196632,0.7,0.28 P,0,196032,196632,A
Sprite,Foreground,Centre,"sb/d.png",0,0 M,4,196032,196632,140,180,48,84 F,0,196032,196632,1,0 S,0,196032,196632,0.7,0.28 P,0,196032,196632,A
Sprite,Foreground,Centre,"sb/d.png",0,0 M,4,196032,196632,140,180,60,245 F,0,196032,196632,1,0 S,0,196032,196632,0.7,0.28 P,0,196032,196632,A
Sprite,Foreground,Centre,"sb/d.png",0,0 M,4,196032,196632,140,180,219,172 F,0,196032,196632,1,0 S,0,196032,196632,0.7,0.28 P,0,196032,196632,A
Sprite,Foreground,Centre,"sb/d.png",0,0 M,4,196032,196632,140,180,80,210 F,0,196032,196632,1,0 S,0,196032,196632,0.7,0.28 P,0,196032,196632,A
Sprite,Foreground,Centre,"sb/d.png",0,0 M,4,196182,196782,220,285,282,378 F,0,196182,196782,1,0 S,0,196182,196782,0.7,0.28 P,0,196182,196782,A
Sprite,Foreground,Centre,"sb/d.png",0,0 M,4,196182,196782,220,285,147,375 F,0,196182,196782,1,0 S,0,196182,196782,0.7,0.28 P,0,196182,196782,A
Sprite,Foreground,Centre,"sb/d.png",0,0 M,4,196182,196782,220,285,149,283 F,0,196182,196782,1,0 S,0,196182,196782,0.7,0.28 P,0,196182,196782,A
Sprite,Foreground,Centre,"sb/d.png",0,0 M,4,196182,196782,220,285,225,208 F,0,196182,196782,1,0 S,0,196182,196782,0.7,0.28 P,0,196182,196782,A
Sprite,Foreground,Centre,"sb/d.png",0,0 M,4,196182,196782,220,285,190,310 F,0,196182,196782,1,0 S,0,196182,196782,0.7,0.28 P,0,196182,196782,A
Sprite,Foreground,Centre,"sb/d.png",0,0 M,4,196182,196782,220,285,96,166 F,0,196182,196782,1,0 S,0,196182,196782,0.7,0.28 P,0,196182,196782,A
Sprite,Foreground,Centre,"sb/d.png",0,0 M,4,196182,196782,220,285,220,212 F,0,196182,196782,1,0 S,0,196182,196782,0.7,0.28 P,0,196182,196782,A
Sprite,Foreground,Centre,"sb/d.png",0,0 M,4,196482,197082,333,440,387,422 F,0,196482,197082,1,0 S,0,196482,197082,0.7,0.28 P,0,196482,197082,A
Sprite,Foreground,Centre,"sb/d.png",0,0 M,4,196482,197082,333,440,183,476 F,0,196482,197082,1,0 S,0,196482,197082,0.7,0.28 P,0,196482,197082,A
Sprite,Foreground,Centre,"sb/d.png",0,0 M,4,196482,197082,333,440,460,531 F,0,196482,197082,1,0 S,0,196482,197082,0.7,0.28 P,0,196482,197082,A
Sprite,Foreground,Centre,"sb/d.png",0,0 M,4,196482,197082,333,440,415,357 F,0,196482,197082,1,0 S,0,196482,197082,0.7,0.28 P,0,196482,197082,A
Sprite,Foreground,Centre,"sb/d.png",0,0 M,4,196482,197082,333,440,255,363 F,0,196482,197082,1,0 S,0,196482,197082,0.7,0.28 P,0,196482,197082,A
Sprite,Foreground,Centre,"sb/d.png",0,0 M,4,196482,197082,333,440,239,409 F,0,196482,197082,1,0 S,0,196482,197082,0.7,0.28 P,0,196482,197082,A
Sprite,Foreground,Centre,"sb/d.png",0,0 M,4,196482,197082,333,440,438,354 F,0,196482,197082,1,0 S,0,196482,197082,0.7,0.28 P,0,196482,197082,A
Sprite,Foreground,Centre,"sb/d.png",0,0 M,4,196782,197382,529,401,651,400 F,0,196782,197382,1,0 S,0,196782,197382,0.7,0.28 P,0,196782,197382,A
Sprite,Foreground,Centre,"sb/d.png",0,0 M,4,196782,197382,529,401,426,277 F,0,196782,197382,1,0 S,0,196782,197382,0.7,0.28 P,0,196782,197382,A
Sprite,Foreground,Centre,"sb/d.png",0,0 M,4,196782,197382,529,401,419,450 F,0,196782,197382,1,0 S,0,196782,197382,0.7,0.28 P,0,196782,197382,A
Sprite,Foreground,Centre,"sb/d.png",0,0 M,4,196782,197382,529,401,535,395 F,0,196782,197382,1,0 S,0,196782,197382,0.7,0.28 P,0,196782,197382,A
Sprite,Foreground,Centre,"sb/d.png",0,0 M,4,196782,197382,529,401,668,449 F,0,196782,197382,1,0 S,0,196782,197382,0.7,0.28 P,0,196782,197382,A
Sprite,Foreground,Centre,"sb/d.png",0,0 M,4,196782,197382,529,401,447,451 F,0,196782,197382,1,0 S,0,196782,197382,0.7,0.28 P,0,196782,197382,A
Sprite,Foreground,Centre,"sb/d.png",0,0 M,4,196782,197382,529,401,476,514 F,0,196782,197382,1,0 S,0,196782,197382,0.7,0.28 P,0,196782,197382,A
Sprite,Foreground,Centre,"sb/d.png",0,0 M,4,197082,197682,302,293,389,188 F,0,197082,197682,1,0 S,0,197082,197682,0.7,0.28 P,0,197082,197682,A
Sprite,Foreground,Centre,"sb/d.png",0,0 M,4,197082,197682,302,293,311,163 F,0,197082,197682,1,0 S,0,197082,197682,0.7,0.28 P,0,197082,197682,A
Sprite,Foreground,Centre,"sb/d.png",0,0 M,4,197082,197682,302,293,236,424 F,0,197082,197682,1,0 S,0,197082,197682,0.7,0.28 P,0,197082,197682,A
Sprite,Foreground,Centre,"sb/d.png",0,0 M,4,197082,197682,302,293,302,380 F,0,197082,197682,1,0 S,0,197082,197682,0.7,0.28 P,0,197082,197682,A
Sprite,Foreground,Centre,"sb/d.png",0,0 M,4,197082,197682,302,293,367,186 F,0,197082,197682,1,0 S,0,197082,197682,0.7,0.28 P,0,197082,197682,A
Sprite,Foreground,Centre,"sb/d.png",0,0 M,4,197082,197682,302,293,316,291 F,0,197082,197682,1,0 S,0,197082,197682,0.7,0.28 P,0,197082,197682,A
Sprite,Foreground,Centre,"sb/d.png",0,0 M,4,197082,197682,302,293,400,288 F,0,197082,197682,1,0 S,0,197082,197682,0.7,0.28 P,0,197082,197682,A
Sprite,Foreground,Centre,"sb/d.png",0,0 M,4,197232,197832,463,246,484,100 F,0,197232,197832,1,0 S,0,197232,197832,0.7,0.28 P,0,197232,197832,A
Sprite,Foreground,Centre,"sb/d.png",0,0 M,4,197232,197832,463,246,496,356 F,0,197232,197832,1,0 S,0,197232,197832,0.7,0.28 P,0,197232,197832,A
Sprite,Foreground,Centre,"sb/d.png",0,0 M,4,197232,197832,463,246,506,187 F,0,197232,197832,1,0 S,0,197232,197832,0.7,0.28 P,0,197232,197832,A
Sprite,Foreground,Centre,"sb/d.png",0,0 M,4,197232,197832,463,246,414,366 F,0,197232,197832,1,0 S,0,197232,197832,0.7,0.28 P,0,197232,197832,A
Sprite,Foreground,Centre,"sb/d.png",0,0 M,4,197232,197832,463,246,441,96 F,0,197232,197832,1,0 S,0,197232,197832,0.7,0.28 P,0,197232,197832,A
Sprite,Foreground,Centre,"sb/d.png",0,0 M,4,197232,197832,463,246,603,347 F,0,197232,197832,1,0 S,0,197232,197832,0.7,0.28 P,0,197232,197832,A
Sprite,Foreground,Centre,"sb/d.png",0,0 M,4,197232,197832,463,246,534,155 F,0,197232,197832,1,0 S,0,197232,197832,0.7,0.28 P,0,197232,197832,A
Sprite,Foreground,Centre,"sb/d.png",0,0 M,4,197307,197907,461,268,453,220 F,0,197307,197907,1,0 S,0,197307,197907,0.7,0.28 P,0,197307,197907,A
Sprite,Foreground,Centre,"sb/d.png",0,0 M,4,197307,197907,461,268,428,195 F,0,197307,197907,1,0 S,0,197307,197907,0.7,0.28 P,0,197307,197907,A
Sprite,Foreground,Centre,"sb/d.png",0,0 M,4,197307,197907,461,268,455,387 F,0,197307,197907,1,0 S,0,197307,197907,0.7,0.28 P,0,197307,197907,A
Sprite,Foreground,Centre,"sb/d.png",0,0 M,4,197307,197907,461,268,440,144 F,0,197307,197907,1,0 S,0,197307,197907,0.7,0.28 P,0,197307,197907,A
Sprite,Foreground,Centre,"sb/d.png",0,0 M,4,197307,197907,461,268,524,153 F,0,197307,197907,1,0 S,0,197307,197907,0.7,0.28 P,0,197307,197907,A
Sprite,Foreground,Centre,"sb/d.png",0,0 M,4,197307,197907,461,268,345,392 F,0,197307,197907,1,0 S,0,197307,197907,0.7,0.28 P,0,197307,197907,A
Sprite,Foreground,Centre,"sb/d.png",0,0 M,4,197307,197907,461,268,524,152 F,0,197307,197907,1,0 S,0,197307,197907,0.7,0.28 P,0,197307,197907,A
Sprite,Foreground,Centre,"sb/d.png",0,0 M,4,197382,197982,458,291,542,145 F,0,197382,197982,1,0 S,0,197382,197982,0.7,0.28 P,0,197382,197982,A
Sprite,Foreground,Centre,"sb/d.png",0,0 M,4,197382,197982,458,291,469,332 F,0,197382,197982,1,0 S,0,197382,197982,0.7,0.28 P,0,197382,197982,A
Sprite,Foreground,Centre,"sb/d.png",0,0 M,4,197382,197982,458,291,559,152 F,0,197382,197982,1,0 S,0,197382,197982,0.7,0.28 P,0,197382,197982,A
Sprite,Foreground,Centre,"sb/d.png",0,0 M,4,197382,197982,458,291,580,425 F,0,197382,197982,1,0 S,0,197382,197982,0.7,0.28 P,0,197382,197982,A
Sprite,Foreground,Centre,"sb/d.png",0,0 M,4,197382,197982,458,291,322,249 F,0,197382,197982,1,0 S,0,197382,197982,0.7,0.28 P,0,197382,197982,A
Sprite,Foreground,Centre,"sb/d.png",0,0 M,4,197382,197982,458,291,314,146 F,0,197382,197982,1,0 S,0,197382,197982,0.7,0.28 P,0,197382,197982,A
Sprite,Foreground,Centre,"sb/d.png",0,0 M,4,197382,197982,458,291,469,407 F,0,197382,197982,1,0 S,0,197382,197982,0.7,0.28 P,0,197382,197982,A
Sprite,Foreground,Centre,"sb/d.png",0,0 M,4,197457,198057,456,314,523,323 F,0,197457,198057,1,0 S,0,197457,198057,0.7,0.28 P,0,197457,198057,A
Sprite,Foreground,Centre,"sb/d.png",0,0 M,4,197457,198057,456,314,336,297 F,0,197457,198057,1,0 S,0,197457,198057,0.7,0.28 P,0,197457,198057,A
Sprite,Foreground,Centre,"sb/d.png",0,0 M,4,197457,198057,456,314,365,254 F,0,197457,198057,1,0 S,0,197457,198057,0.7,0.28 P,0,197457,198057,A
Sprite,Foreground,Centre,"sb/d.png",0,0 M,4,197457,198057,456,314,400,276 F,0,197457,198057,1,0 S,0,197457,198057,0.7,0.28 P,0,197457,198057,A
Sprite,Foreground,Centre,"sb/d.png",0,0 M,4,197457,198057,456,314,531,250 F,0,197457,198057,1,0 S,0,197457,198057,0.7,0.28 P,0,197457,198057,A
Sprite,Foreground,Centre,"sb/d.png",0,0 M,4,197457,198057,456,314,310,442 F,0,197457,198057,1,0 S,0,197457,198057,0.7,0.28 P,0,197457,198057,A
Sprite,Foreground,Centre,"sb/d.png",0,0 M,4,197457,198057,456,314,321,309 F,0,197457,198057,1,0 S,0,197457,198057,0.7,0.28 P,0,197457,198057,A
Sprite,Foreground,Centre,"sb/d.png",0,0 M,4,197532,198132,454,337,395,334 F,0,197532,198132,1,0 S,0,197532,198132,0.7,0.28 P,0,197532,198132,A
Sprite,Foreground,Centre,"sb/d.png",0,0 M,4,197532,198132,454,337,529,405 F,0,197532,198132,1,0 S,0,197532,198132,0.7,0.28 P,0,197532,198132,A
Sprite,Foreground,Centre,"sb/d.png",0,0 M,4,197532,198132,454,337,481,254 F,0,197532,198132,1,0 S,0,197532,198132,0.7,0.28 P,0,197532,198132,A
Sprite,Foreground,Centre,"sb/d.png",0,0 M,4,197532,198132,454,337,340,310 F,0,197532,198132,1,0 S,0,197532,198132,0.7,0.28 P,0,197532,198132,A
Sprite,Foreground,Centre,"sb/d.png",0,0 M,4,197532,198132,454,337,442,286 F,0,197532,198132,1,0 S,0,197532,198132,0.7,0.28 P,0,197532,198132,A
Sprite,Foreground,Centre,"sb/d.png",0,0 M,4,197532,198132,454,337,304,397 F,0,197532,198132,1,0 S,0,197532,198132,0.7,0.28 P,0,197532,198132,A
Sprite,Foreground,Centre,"sb/d.png",0,0 M,4,197532,198132,454,337,391,344 F,0,197532,198132,1,0 S,0,197532,198132,0.7,0.28 P,0,197532,198132,A
Sprite,Foreground,Centre,"sb/d.png",0,0 M,4,197682,198282,351,228,288,87 F,0,197682,198282,1,0 S,0,197682,198282,0.7,0.28 P,0,197682,198282,A
Sprite,Foreground,Centre,"sb/d.png",0,0 M,4,197682,198282,351,228,271,216 F,0,197682,198282,1,0 S,0,197682,198282,0.7,0.28 P,0,197682,198282,A
Sprite,Foreground,Centre,"sb/d.png",0,0 M,4,197682,198282,351,228,309,240 F,0,197682,198282,1,0 S,0,197682,198282,0.7,0.28 P,0,197682,198282,A
Sprite,Foreground,Centre,"sb/d.png",0,0 M,4,197682,198282,351,228,309,132 F,0,197682,198282,1,0 S,0,197682,198282,0.7,0.28 P,0,197682,198282,A
Sprite,Foreground,Centre,"sb/d.png",0,0 M,4,197682,198282,351,228,206,279 F,0,197682,198282,1,0 S,0,197682,198282,0.7,0.28 P,0,197682,198282,A
Sprite,Foreground,Centre,"sb/d.png",0,0 M,4,197682,198282,351,228,415,201 F,0,197682,198282,1,0 S,0,197682,198282,0.7,0.28 P,0,197682,198282,A
Sprite,Foreground,Centre,"sb/d.png",0,0 M,4,197682,198282,351,228,440,199 F,0,197682,198282,1,0 S,0,197682,198282,0.7,0.28 P,0,197682,198282,A
Sprite,Foreground,Centre,"sb/d.png",0,0 M,4,197982,198582,232,56,161,-20 F,0,197982,198582,1,0 S,0,197982,198582,0.7,0.28 P,0,197982,198582,A
Sprite,Foreground,Centre,"sb/d.png",0,0 M,4,197982,198582,232,56,269,178 F,0,197982,198582,1,0 S,0,197982,198582,0.7,0.28 P,0,197982,198582,A
Sprite,Foreground,Centre,"sb/d.png",0,0 M,4,197982,198582,232,56,377,33 F,0,197982,198582,1,0 S,0,197982,198582,0.7,0.28 P,0,197982,198582,A
Sprite,Foreground,Centre,"sb/d.png",0,0 M,4,197982,198582,232,56,275,72 F,0,197982,198582,1,0 S,0,197982,198582,0.7,0.28 P,0,197982,198582,A
Sprite,Foreground,Centre,"sb/d.png",0,0 M,4,197982,198582,232,56,264,-6 F,0,197982,198582,1,0 S,0,197982,198582,0.7,0.28 P,0,197982,198582,A
Sprite,Foreground,Centre,"sb/d.png",0,0 M,4,197982,198582,232,56,210,0 F,0,197982,198582,1,0 S,0,197982,198582,0.7,0.28 P,0,197982,198582,A
Sprite,Foreground,Centre,"sb/d.png",0,0 M,4,197982,198582,232,56,311,-1 F,0,197982,198582,1,0 S,0,197982,198582,0.7,0.28 P,0,197982,198582,A
Sprite,Foreground,Centre,"sb/d.png",0,0 M,4,198282,198882,133,252,3,332 F,0,198282,198882,1,0 S,0,198282,198882,0.7,0.28 P,0,198282,198882,A
Sprite,Foreground,Centre,"sb/d.png",0,0 M,4,198282,198882,133,252,116,251 F,0,198282,198882,1,0 S,0,198282,198882,0.7,0.28 P,0,198282,198882,A
Sprite,Foreground,Centre,"sb/d.png",0,0 M,4,198282,198882,133,252,-14,339 F,0,198282,198882,1,0 S,0,198282,198882,0.7,0.28 P,0,198282,198882,A
Sprite,Foreground,Centre,"sb/d.png",0,0 M,4,198282,198882,133,252,8,317 F,0,198282,198882,1,0 S,0,198282,198882,0.7,0.28 P,0,198282,198882,A
Sprite,Foreground,Centre,"sb/d.png",0,0 M,4,198282,198882,133,252,-1,267 F,0,198282,198882,1,0 S,0,198282,198882,0.7,0.28 P,0,198282,198882,A
Sprite,Foreground,Centre,"sb/d.png",0,0 M,4,198282,198882,133,252,153,254 F,0,198282,198882,1,0 S,0,198282,198882,0.7,0.28 P,0,198282,198882,A
Sprite,Foreground,Centre,"sb/d.png",0,0 M,4,198282,198882,133,252,19,138 F,0,198282,198882,1,0 S,0,198282,198882,0.7,0.28 P,0,198282,198882,A
Sprite,Foreground,Centre,"sb/d.png",0,0 M,4,198432,199032,72,95,63,-31 F,0,198432,199032,1,0 S,0,198432,199032,0.7,0.28 P,0,198432,199032,A
Sprite,Foreground,Centre,"sb/d.png",0,0 M,4,198432,199032,72,95,-74,-2 F,0,198432,199032,1,0 S,0,198432,199032,0.7,0.28 P,0,198432,199032,A
Sprite,Foreground,Centre,"sb/d.png",0,0 M,4,198432,199032,72,95,49,160 F,0,198432,199032,1,0 S,0,198432,199032,0.7,0.28 P,0,198432,199032,A
Sprite,Foreground,Centre,"sb/d.png",0,0 M,4,198432,199032,72,95,-34,9 F,0,198432,199032,1,0 S,0,198432,199032,0.7,0.28 P,0,198432,199032,A
Sprite,Foreground,Centre,"sb/d.png",0,0 M,4,198432,199032,72,95,134,-28 F,0,198432,199032,1,0 S,0,198432,199032,0.7,0.28 P,0,198432,199032,A
Sprite,Foreground,Centre,"sb/d.png",0,0 M,4,198432,199032,72,95,136,204 F,0,198432,199032,1,0 S,0,198432,199032,0.7,0.28 P,0,198432,199032,A
Sprite,Foreground,Centre,"sb/d.png",0,0 M,4,198432,199032,72,95,185,165 F,0,198432,199032,1,0 S,0,198432,199032,0.7,0.28 P,0,198432,199032,A
Sprite,Foreground,Centre,"sb/d.png",0,0 M,4,198507,199107,90,96,67,228 F,0,198507,199107,1,0 S,0,198507,199107,0.7,0.28 P,0,198507,199107,A
Sprite,Foreground,Centre,"sb/d.png",0,0 M,4,198507,199107,90,96,-50,-41 F,0,198507,199107,1,0 S,0,198507,199107,0.7,0.28 P,0,198507,199107,A
Sprite,Foreground,Centre,"sb/d.png",0,0 M,4,198507,199107,90,96,173,-40 F,0,198507,199107,1,0 S,0,198507,199107,0.7,0.28 P,0,198507,199107,A
Sprite,Foreground,Centre,"sb/d.png",0,0 M,4,198507,199107,90,96,-26,21 F,0,198507,199107,1,0 S,0,198507,199107,0.7,0.28 P,0,198507,199107,A
Sprite,Foreground,Centre,"sb/d.png",0,0 M,4,198507,199107,90,96,8,10 F,0,198507,199107,1,0 S,0,198507,199107,0.7,0.28 P,0,198507,199107,A
Sprite,Foreground,Centre,"sb/d.png",0,0 M,4,198507,199107,90,96,60,-52 F,0,198507,199107,1,0 S,0,198507,199107,0.7,0.28 P,0,198507,199107,A
Sprite,Foreground,Centre,"sb/d.png",0,0 M,4,198507,199107,90,96,36,109 F,0,198507,199107,1,0 S,0,198507,199107,0.7,0.28 P,0,198507,199107,A
Sprite,Foreground,Centre,"sb/d.png",0,0 M,4,198582,199182,108,98,16,-31 F,0,198582,199182,1,0 S,0,198582,199182,0.7,0.28 P,0,198582,199182,A
Sprite,Foreground,Centre,"sb/d.png",0,0 M,4,198582,199182,108,98,60,90 F,0,198582,199182,1,0 S,0,198582,199182,0.7,0.28 P,0,198582,199182,A
Sprite,Foreground,Centre,"sb/d.png",0,0 M,4,198582,199182,108,98,48,105 F,0,198582,199182,1,0 S,0,198582,199182,0.7,0.28 P,0,198582,199182,A
Sprite,Foreground,Centre,"sb/d.png",0,0 M,4,198582,199182,108,98,-17,106 F,0,198582,199182,1,0 S,0,198582,199182,0.7,0.28 P,0,198582,199182,A
Sprite,Foreground,Centre,"sb/d.png",0,0 M,4,198582,199182,108,98,41,22 F,0,198582,199182,1,0 S,0,198582,199182,0.7,0.28 P,0,198582,199182,A
Sprite,Foreground,Centre,"sb/d.png",0,0 M,4,198582,199182,108,98,224,-38 F,0,198582,199182,1,0 S,0,198582,199182,0.7,0.28 P,0,198582,199182,A
Sprite,Foreground,Centre,"sb/d.png",0,0 M,4,198582,199182,108,98,7,204 F,0,198582,199182,1,0 S,0,198582,199182,0.7,0.28 P,0,198582,199182,A
Sprite,Foreground,Centre,"sb/d.png",0,0 M,4,198657,199257,126,100,-6,55 F,0,198657,199257,1,0 S,0,198657,199257,0.7,0.28 P,0,198657,199257,A
Sprite,Foreground,Centre,"sb/d.png",0,0 M,4,198657,199257,126,100,211,-7 F,0,198657,199257,1,0 S,0,198657,199257,0.7,0.28 P,0,198657,199257,A
Sprite,Foreground,Centre,"sb/d.png",0,0 M,4,198657,199257,126,100,249,54 F,0,198657,199257,1,0 S,0,198657,199257,0.7,0.28 P,0,198657,199257,A
Sprite,Foreground,Centre,"sb/d.png",0,0 M,4,198657,199257,126,100,64,-17 F,0,198657,199257,1,0 S,0,198657,199257,0.7,0.28 P,0,198657,199257,A
Sprite,Foreground,Centre,"sb/d.png",0,0 M,4,198657,199257,126,100,130,106 F,0,198657,199257,1,0 S,0,198657,199257,0.7,0.28 P,0,198657,199257,A
Sprite,Foreground,Centre,"sb/d.png",0,0 M,4,198657,199257,126,100,195,-28 F,0,198657,199257,1,0 S,0,198657,199257,0.7,0.28 P,0,198657,199257,A
Sprite,Foreground,Centre,"sb/d.png",0,0 M,4,198657,199257,126,100,-22,16 F,0,198657,199257,1,0 S,0,198657,199257,0.7,0.28 P,0,198657,199257,A
Sprite,Foreground,Centre,"sb/d.png",0,0 M,4,198732,199332,145,102,250,191 F,0,198732,199332,1,0 S,0,198732,199332,0.7,0.28 P,0,198732,199332,A
Sprite,Foreground,Centre,"sb/d.png",0,0 M,4,198732,199332,145,102,228,77 F,0,198732,199332,1,0 S,0,198732,199332,0.7,0.28 P,0,198732,199332,A
Sprite,Foreground,Centre,"sb/d.png",0,0 M,4,198732,199332,145,102,114,133 F,0,198732,199332,1,0 S,0,198732,199332,0.7,0.28 P,0,198732,199332,A
Sprite,Foreground,Centre,"sb/d.png",0,0 M,4,198732,199332,145,102,0,142 F,0,198732,199332,1,0 S,0,198732,199332,0.7,0.28 P,0,198732,199332,A
Sprite,Foreground,Centre,"sb/d.png",0,0 M,4,198732,199332,145,102,219,24 F,0,198732,199332,1,0 S,0,198732,199332,0.7,0.28 P,0,198732,199332,A
Sprite,Foreground,Centre,"sb/d.png",0,0 M,4,198732,199332,145,102,163,58 F,0,198732,199332,1,0 S,0,198732,199332,0.7,0.28 P,0,198732,199332,A
Sprite,Foreground,Centre,"sb/d.png",0,0 M,4,198732,199332,145,102,190,221 F,0,198732,199332,1,0 S,0,198732,199332,0.7,0.28 P,0,198732,199332,A
Sprite,Foreground,Centre,"sb/d.png",0,0 M,4,198882,199482,307,137,355,222 F,0,198882,199482,1,0 S,0,198882,199482,0.7,0.28 P,0,198882,199482,A
Sprite,Foreground,Centre,"sb/d.png",0,0 M,4,198882,199482,307,137,204,206 F,0,198882,199482,1,0 S,0,198882,199482,0.7,0.28 P,0,198882,199482,A
Sprite,Foreground,Centre,"sb/d.png",0,0 M,4,198882,199482,307,137,422,64 F,0,198882,199482,1,0 S,0,198882,199482,0.7,0.28 P,0,198882,199482,A
Sprite,Foreground,Centre,"sb/d.png",0,0 M,4,198882,199482,307,137,213,249 F,0,198882,199482,1,0 S,0,198882,199482,0.7,0.28 P,0,198882,199482,A
Sprite,Foreground,Centre,"sb/d.png",0,0 M,4,198882,199482,307,137,286,63 F,0,198882,199482,1,0 S,0,198882,199482,0.7,0.28 P,0,198882,199482,A
Sprite,Foreground,Centre,"sb/d.png",0,0 M,4,198882,199482,307,137,186,278 F,0,198882,199482,1,0 S,0,198882,199482,0.7,0.28 P,0,198882,199482,A
Sprite,Foreground,Centre,"sb/d.png",0,0 M,4,198882,199482,307,137,232,12 F,0,198882,199482,1,0 S,0,198882,199482,0.7,0.28 P,0,198882,199482,A
Sprite,Foreground,Centre,"sb/d.png",0,0 M,4,199182,199782,381,58,397,153 F,0,199182,199782,1,0 S,0,199182,199782,0.7,0.28 P,0,199182,199782,A
Sprite,Foreground,Centre,"sb/d.png",0,0 M,4,199182,199782,381,58,453,-24 F,0,199182,199782,1,0 S,0,199182,199782,0.7,0.28 P,0,199182,199782,A
Sprite,Foreground,Centre,"sb/d.png",0,0 M,4,199182,199782,381,58,386,166 F,0,199182,199782,1,0 S,0,199182,199782,0.7,0.28 P,0,199182,199782,A
Sprite,Foreground,Centre,"sb/d.png",0,0 M,4,199182,199782,381,58,433,52 F,0,199182,199782,1,0 S,0,199182,199782,0.7,0.28 P,0,199182,199782,A
Sprite,Foreground,Centre,"sb/d.png",0,0 M,4,199182,199782,381,58,372,48 F,0,199182,199782,1,0 S,0,199182,199782,0.7,0.28 P,0,199182,199782,A
Sprite,Foreground,Centre,"sb/d.png",0,0 M,4,199182,199782,381,58,425,75 F,0,199182,199782,1,0 S,0,199182,199782,0.7,0.28 P,0,199182,199782,A
Sprite,Foreground,Centre,"sb/d.png",0,0 M,4,199182,199782,381,58,481,35 F,0,199182,199782,1,0 S,0,199182,199782,0.7,0.28 P,0,199182,199782,A
Sprite,Foreground,Centre,"sb/d.png",0,0 M,4,199482,200082,424,287,454,299 F,0,199482,200082,1,0 S,0,199482,200082,0.7,0.28 P,0,199482,200082,A
Sprite,Foreground,Centre,"sb/d.png",0,0 M,4,199482,200082,424,287,449,303 F,0,199482,200082,1,0 S,0,199482,200082,0.7,0.28 P,0,199482,200082,A
Sprite,Foreground,Centre,"sb/d.png",0,0 M,4,199482,200082,424,287,482,256 F,0,199482,200082,1,0 S,0,199482,200082,0.7,0.28 P,0,199482,200082,A
Sprite,Foreground,Centre,"sb/d.png",0,0 M,4,199482,200082,424,287,408,356 F,0,199482,200082,1,0 S,0,199482,200082,0.7,0.28 P,0,199482,200082,A
Sprite,Foreground,Centre,"sb/d.png",0,0 M,4,199482,200082,424,287,383,137 F,0,199482,200082,1,0 S,0,199482,200082,0.7,0.28 P,0,199482,200082,A
Sprite,Foreground,Centre,"sb/d.png",0,0 M,4,199482,200082,424,287,330,361 F,0,199482,200082,1,0 S,0,199482,200082,0.7,0.28 P,0,199482,200082,A
Sprite,Foreground,Centre,"sb/d.png",0,0 M,4,199482,200082,424,287,283,429 F,0,199482,200082,1,0 S,0,199482,200082,0.7,0.28 P,0,199482,200082,A
Sprite,Foreground,Centre,"sb/d.png",0,0 M,4,199632,200232,267,215,227,221 F,0,199632,200232,1,0 S,0,199632,200232,0.7,0.28 P,0,199632,200232,A
Sprite,Foreground,Centre,"sb/d.png",0,0 M,4,199632,200232,267,215,213,192 F,0,199632,200232,1,0 S,0,199632,200232,0.7,0.28 P,0,199632,200232,A
Sprite,Foreground,Centre,"sb/d.png",0,0 M,4,199632,200232,267,215,223,345 F,0,199632,200232,1,0 S,0,199632,200232,0.7,0.28 P,0,199632,200232,A
Sprite,Foreground,Centre,"sb/d.png",0,0 M,4,199632,200232,267,215,140,344 F,0,199632,200232,1,0 S,0,199632,200232,0.7,0.28 P,0,199632,200232,A
Sprite,Foreground,Centre,"sb/d.png",0,0 M,4,199632,200232,267,215,266,164 F,0,199632,200232,1,0 S,0,199632,200232,0.7,0.28 P,0,199632,200232,A
Sprite,Foreground,Centre,"sb/d.png",0,0 M,4,199632,200232,267,215,368,302 F,0,199632,200232,1,0 S,0,199632,200232,0.7,0.28 P,0,199632,200232,A
Sprite,Foreground,Centre,"sb/d.png",0,0 M,4,199632,200232,267,215,183,119 F,0,199632,200232,1,0 S,0,199632,200232,0.7,0.28 P,0,199632,200232,A
Sprite,Foreground,Centre,"sb/d.png",0,0 M,4,199707,200307,285,213,228,269 F,0,199707,200307,1,0 S,0,199707,200307,0.7,0.28 P,0,199707,200307,A
Sprite,Foreground,Centre,"sb/d.png",0,0 M,4,199707,200307,285,213,159,160 F,0,199707,200307,1,0 S,0,199707,200307,0.7,0.28 P,0,199707,200307,A
Sprite,Foreground,Centre,"sb/d.png",0,0 M,4,199707,200307,285,213,261,292 F,0,199707,200307,1,0 S,0,199707,200307,0.7,0.28 P,0,199707,200307,A
Sprite,Foreground,Centre,"sb/d.png",0,0 M,4,199707,200307,285,213,216,329 F,0,199707,200307,1,0 S,0,199707,200307,0.7,0.28 P,0,199707,200307,A
Sprite,Foreground,Centre,"sb/d.png",0,0 M,4,199707,200307,285,213,336,225 F,0,199707,200307,1,0 S,0,199707,200307,0.7,0.28 P,0,199707,200307,A
Sprite,Foreground,Centre,"sb/d.png",0,0 M,4,199707,200307,285,213,217,318 F,0,199707,200307,1,0 S,0,199707,200307,0.7,0.28 P,0,199707,200307,A
Sprite,Foreground,Centre,"sb/d.png",0,0 M,4,199707,200307,285,213,325,310 F,0,199707,200307,1,0 S,0,199707,200307,0.7,0.28 P,0,199707,200307,A
Sprite,Foreground,Centre,"sb/d.png",0,0 M,4,199782,200382,303,214,289,286 F,0,199782,200382,1,0 S,0,199782,200382,0.7,0.28 P,0,199782,200382,A
Sprite,Foreground,Centre,"sb/d.png",0,0 M,4,199782,200382,303,214,165,294 F,0,199782,200382,1,0 S,0,199782,200382,0.7,0.28 P,0,199782,200382,A
Sprite,Foreground,Centre,"sb/d.png",0,0 M,4,199782,200382,303,214,401,273 F,0,199782,200382,1,0 S,0,199782,200382,0.7,0.28 P,0,199782,200382,A
Sprite,Foreground,Centre,"sb/d.png",0,0 M,4,199782,200382,303,214,187,348 F,0,199782,200382,1,0 S,0,199782,200382,0.7,0.28 P,0,199782,200382,A
Sprite,Foreground,Centre,"sb/d.png",0,0 M,4,199782,200382,303,214,197,130 F,0,199782,200382,1,0 S,0,199782,200382,0.7,0.28 P,0,199782,200382,A
Sprite,Foreground,Centre,"sb/d.png",0,0 M,4,199782,200382,303,214,214,334 F,0,199782,200382,1,0 S,0,199782,200382,0.7,0.28 P,0,199782,200382,A
Sprite,Foreground,Centre,"sb/d.png",0,0 M,4,199782,200382,303,214,257,265 F,0,199782,200382,1,0 S,0,199782,200382,0.7,0.28 P,0,199782,200382,A
Sprite,Foreground,Centre,"sb/d.png",0,0 M,4,199857,200457,321,217,184,142 F,0,199857,200457,1,0 S,0,199857,200457,0.7,0.28 P,0,199857,200457,A
Sprite,Foreground,Centre,"sb/d.png",0,0 M,4,199857,200457,321,217,386,338 F,0,199857,200457,1,0 S,0,199857,200457,0.7,0.28 P,0,199857,200457,A
Sprite,Foreground,Centre,"sb/d.png",0,0 M,4,199857,200457,321,217,223,147 F,0,199857,200457,1,0 S,0,199857,200457,0.7,0.28 P,0,199857,200457,A
Sprite,Foreground,Centre,"sb/d.png",0,0 M,4,199857,200457,321,217,296,269 F,0,199857,200457,1,0 S,0,199857,200457,0.7,0.28 P,0,199857,200457,A
Sprite,Foreground,Centre,"sb/d.png",0,0 M,4,199857,200457,321,217,446,325 F,0,199857,200457,1,0 S,0,199857,200457,0.7,0.28 P,0,199857,200457,A
Sprite,Foreground,Centre,"sb/d.png",0,0 M,4,199857,200457,321,217,269,147 F,0,199857,200457,1,0 S,0,199857,200457,0.7,0.28 P,0,199857,200457,A
Sprite,Foreground,Centre,"sb/d.png",0,0 M,4,199857,200457,321,217,381,210 F,0,199857,200457,1,0 S,0,199857,200457,0.7,0.28 P,0,199857,200457,A
Sprite,Foreground,Centre,"sb/d.png",0,0 M,4,199932,200532,339,224,444,308 F,0,199932,200532,1,0 S,0,199932,200532,0.7,0.28 P,0,199932,200532,A
Sprite,Foreground,Centre,"sb/d.png",0,0 M,4,199932,200532,339,224,234,224 F,0,199932,200532,1,0 S,0,199932,200532,0.7,0.28 P,0,199932,200532,A
Sprite,Foreground,Centre,"sb/d.png",0,0 M,4,199932,200532,339,224,279,149 F,0,199932,200532,1,0 S,0,199932,200532,0.7,0.28 P,0,199932,200532,A
Sprite,Foreground,Centre,"sb/d.png",0,0 M,4,199932,200532,339,224,331,301 F,0,199932,200532,1,0 S,0,199932,200532,0.7,0.28 P,0,199932,200532,A
Sprite,Foreground,Centre,"sb/d.png",0,0 M,4,199932,200532,339,224,276,95 F,0,199932,200532,1,0 S,0,199932,200532,0.7,0.28 P,0,199932,200532,A
Sprite,Foreground,Centre,"sb/d.png",0,0 M,4,199932,200532,339,224,477,230 F,0,199932,200532,1,0 S,0,199932,200532,0.7,0.28 P,0,199932,200532,A
Sprite,Foreground,Centre,"sb/d.png",0,0 M,4,199932,200532,339,224,208,182 F,0,199932,200532,1,0 S,0,199932,200532,0.7,0.28 P,0,199932,200532,A
Sprite,Foreground,Centre,"sb/d.png",0,0 M,4,200082,200682,220,381,231,488 F,0,200082,200682,1,0 S,0,200082,200682,0.7,0.28 P,0,200082,200682,A
Sprite,Foreground,Centre,"sb/d.png",0,0 M,4,200082,200682,220,381,105,387 F,0,200082,200682,1,0 S,0,200082,200682,0.7,0.28 P,0,200082,200682,A
Sprite,Foreground,Centre,"sb/d.png",0,0 M,4,200082,200682,220,381,194,411 F,0,200082,200682,1,0 S,0,200082,200682,0.7,0.28 P,0,200082,200682,A
Sprite,Foreground,Centre,"sb/d.png",0,0 M,4,200082,200682,220,381,323,357 F,0,200082,200682,1,0 S,0,200082,200682,0.7,0.28 P,0,200082,200682,A
Sprite,Foreground,Centre,"sb/d.png",0,0 M,4,200082,200682,220,381,317,341 F,0,200082,200682,1,0 S,0,200082,200682,0.7,0.28 P,0,200082,200682,A
Sprite,Foreground,Centre,"sb/d.png",0,0 M,4,200082,200682,220,381,272,340 F,0,200082,200682,1,0 S,0,200082,200682,0.7,0.28 P,0,200082,200682,A
Sprite,Foreground,Centre,"sb/d.png",0,0 M,4,200082,200682,220,381,192,464 F,0,200082,200682,1,0 S,0,200082,200682,0.7,0.28 P,0,200082,200682,A
Sprite,Foreground,Centre,"sb/d.png",0,0 M,4,200382,200982,261,124,357,27 F,0,200382,200982,1,0 S,0,200382,200982,0.7,0.28 P,0,200382,200982,A
Sprite,Foreground,Centre,"sb/d.png",0,0 M,4,200382,200982,261,124,243,142 F,0,200382,200982,1,0 S,0,200382,200982,0.7,0.28 P,0,200382,200982,A
Sprite,Foreground,Centre,"sb/d.png",0,0 M,4,200382,200982,261,124,409,165 F,0,200382,200982,1,0 S,0,200382,200982,0.7,0.28 P,0,200382,200982,A
Sprite,Foreground,Centre,"sb/d.png",0,0 M,4,200382,200982,261,124,140,84 F,0,200382,200982,1,0 S,0,200382,200982,0.7,0.28 P,0,200382,200982,A
Sprite,Foreground,Centre,"sb/d.png",0,0 M,4,200382,200982,261,124,132,185 F,0,200382,200982,1,0 S,0,200382,200982,0.7,0.28 P,0,200382,200982,A
Sprite,Foreground,Centre,"sb/d.png",0,0 M,4,200382,200982,261,124,291,2 F,0,200382,200982,1,0 S,0,200382,200982,0.7,0.28 P,0,200382,200982,A
Sprite,Foreground,Centre,"sb/d.png",0,0 M,4,200382,200982,261,124,170,59 F,0,200382,200982,1,0 S,0,200382,200982,0.7,0.28 P,0,200382,200982,A
Sprite,Foreground,Centre,"sb/d.png",0,0 M,4,200682,201282,195,307,332,351 F,0,200682,201282,1,0 S,0,200682,201282,0.7,0.28 P,0,200682,201282,A
Sprite,Foreground,Centre,"sb/d.png",0,0 M,4,200682,201282,195,307,328,352 F,0,200682,201282,1,0 S,0,200682,201282,0.7,0.28 P,0,200682,201282,A
Sprite,Foreground,Centre,"sb/d.png",0,0 M,4,200682,201282,195,307,105,173 F,0,200682,201282,1,0 S,0,200682,201282,0.7,0.28 P,0,200682,201282,A
Sprite,Foreground,Centre,"sb/d.png",0,0 M,4,200682,201282,195,307,85,174 F,0,200682,201282,1,0 S,0,200682,201282,0.7,0.28 P,0,200682,201282,A
Sprite,Foreground,Centre,"sb/d.png",0,0 M,4,200682,201282,195,307,267,399 F,0,200682,201282,1,0 S,0,200682,201282,0.7,0.28 P,0,200682,201282,A
Sprite,Foreground,Centre,"sb/d.png",0,0 M,4,200682,201282,195,307,300,187 F,0,200682,201282,1,0 S,0,200682,201282,0.7,0.28 P,0,200682,201282,A
Sprite,Foreground,Centre,"sb/d.png",0,0 M,4,200682,201282,195,307,234,285 F,0,200682,201282,1,0 S,0,200682,201282,0.7,0.28 P,0,200682,201282,A
Sprite,Foreground,Centre,"sb/d.png",0,0 M,4,200832,201432,332,306,469,390 F,0,200832,201432,1,0 S,0,200832,201432,0.7,0.28 P,0,200832,201432,A
Sprite,Foreground,Centre,"sb/d.png",0,0 M,4,200832,201432,332,306,429,436 F,0,200832,201432,1,0 S,0,200832,201432,0.7,0.28 P,0,200832,201432,A
Sprite,Foreground,Centre,"sb/d.png",0,0 M,4,200832,201432,332,306,435,364 F,0,200832,201432,1,0 S,0,200832,201432,0.7,0.28 P,0,200832,201432,A
Sprite,Foreground,Centre,"sb/d.png",0,0 M,4,200832,201432,332,306,462,190 F,0,200832,201432,1,0 S,0,200832,201432,0.7,0.28 P,0,200832,201432,A
Sprite,Foreground,Centre,"sb/d.png",0,0 M,4,200832,201432,332,306,371,276 F,0,200832,201432,1,0 S,0,200832,201432,0.7,0.28 P,0,200832,201432,A
Sprite,Foreground,Centre,"sb/d.png",0,0 M,4,200832,201432,332,306,339,284 F,0,200832,201432,1,0 S,0,200832,201432,0.7,0.28 P,0,200832,201432,A
Sprite,Foreground,Centre,"sb/d.png",0,0 M,4,200832,201432,332,306,261,207 F,0,200832,201432,1,0 S,0,200832,201432,0.7,0.28 P,0,200832,201432,A
Sprite,Foreground,Centre,"sb/d.png",0,0 M,4,200907,201507,332,306,418,280 F,0,200907,201507,1,0 S,0,200907,201507,0.7,0.28 P,0,200907,201507,A
Sprite,Foreground,Centre,"sb/d.png",0,0 M,4,200907,201507,332,306,457,252 F,0,200907,201507,1,0 S,0,200907,201507,0.7,0.28 P,0,200907,201507,A
Sprite,Foreground,Centre,"sb/d.png",0,0 M,4,200907,201507,332,306,302,323 F,0,200907,201507,1,0 S,0,200907,201507,0.7,0.28 P,0,200907,201507,A
Sprite,Foreground,Centre,"sb/d.png",0,0 M,4,200907,201507,332,306,320,208 F,0,200907,201507,1,0 S,0,200907,201507,0.7,0.28 P,0,200907,201507,A
Sprite,Foreground,Centre,"sb/d.png",0,0 M,4,200907,201507,332,306,309,162 F,0,200907,201507,1,0 S,0,200907,201507,0.7,0.28 P,0,200907,201507,A
Sprite,Foreground,Centre,"sb/d.png",0,0 M,4,200907,201507,332,306,230,261 F,0,200907,201507,1,0 S,0,200907,201507,0.7,0.28 P,0,200907,201507,A
Sprite,Foreground,Centre,"sb/d.png",0,0 M,4,200907,201507,332,306,374,384 F,0,200907,201507,1,0 S,0,200907,201507,0.7,0.28 P,0,200907,201507,A
Sprite,Foreground,Centre,"sb/d.png",0,0 M,4,200982,201582,332,306,312,345 F,0,200982,201582,1,0 S,0,200982,201582,0.7,0.28 P,0,200982,201582,A
Sprite,Foreground,Centre,"sb/d.png",0,0 M,4,200982,201582,332,306,394,424 F,0,200982,201582,1,0 S,0,200982,201582,0.7,0.28 P,0,200982,201582,A
Sprite,Foreground,Centre,"sb/d.png",0,0 M,4,200982,201582,332,306,183,357 F,0,200982,201582,1,0 S,0,200982,201582,0.7,0.28 P,0,200982,201582,A
Sprite,Foreground,Centre,"sb/d.png",0,0 M,4,200982,201582,332,306,305,242 F,0,200982,201582,1,0 S,0,200982,201582,0.7,0.28 P,0,200982,201582,A
Sprite,Foreground,Centre,"sb/d.png",0,0 M,4,200982,201582,332,306,445,355 F,0,200982,201582,1,0 S,0,200982,201582,0.7,0.28 P,0,200982,201582,A
Sprite,Foreground,Centre,"sb/d.png",0,0 M,4,200982,201582,332,306,256,306 F,0,200982,201582,1,0 S,0,200982,201582,0.7,0.28 P,0,200982,201582,A
Sprite,Foreground,Centre,"sb/d.png",0,0 M,4,200982,201582,332,306,286,409 F,0,200982,201582,1,0 S,0,200982,201582,0.7,0.28 P,0,200982,201582,A
Sprite,Foreground,Centre,"sb/d.png",0,0 M,4,201282,201882,195,307,50,320 F,0,201282,201882,1,0 S,0,201282,201882,0.7,0.28 P,0,201282,201882,A
Sprite,Foreground,Centre,"sb/d.png",0,0 M,4,201282,201882,195,307,83,389 F,0,201282,201882,1,0 S,0,201282,201882,0.7,0.28 P,0,201282,201882,A
Sprite,Foreground,Centre,"sb/d.png",0,0 M,4,201282,201882,195,307,282,446 F,0,201282,201882,1,0 S,0,201282,201882,0.7,0.28 P,0,201282,201882,A
Sprite,Foreground,Centre,"sb/d.png",0,0 M,4,201282,201882,195,307,126,255 F,0,201282,201882,1,0 S,0,201282,201882,0.7,0.28 P,0,201282,201882,A
Sprite,Foreground,Centre,"sb/d.png",0,0 M,4,201282,201882,195,307,311,316 F,0,201282,201882,1,0 S,0,201282,201882,0.7,0.28 P,0,201282,201882,A
Sprite,Foreground,Centre,"sb/d.png",0,0 M,4,201282,201882,195,307,255,178 F,0,201282,201882,1,0 S,0,201282,201882,0.7,0.28 P,0,201282,201882,A
Sprite,Foreground,Centre,"sb/d.png",0,0 M,4,201282,201882,195,307,334,391 F,0,201282,201882,1,0 S,0,201282,201882,0.7,0.28 P,0,201282,201882,A
Sprite,Foreground,Centre,"sb/d.png",0,0 M,4,201582,202182,293,100,250,190 F,0,201582,202182,1,0 S,0,201582,202182,0.7,0.28 P,0,201582,202182,A
Sprite,Foreground,Centre,"sb/d.png",0,0 M,4,201582,202182,293,100,374,98 F,0,201582,202182,1,0 S,0,201582,202182,0.7,0.28 P,0,201582,202182,A
Sprite,Foreground,Centre,"sb/d.png",0,0 M,4,201582,202182,293,100,158,2 F,0,201582,202182,1,0 S,0,201582,202182,0.7,0.28 P,0,201582,202182,A
Sprite,Foreground,Centre,"sb/d.png",0,0 M,4,201582,202182,293,100,346,249 F,0,201582,202182,1,0 S,0,201582,202182,0.7,0.28 P,0,201582,202182,A
Sprite,Foreground,Centre,"sb/d.png",0,0 M,4,201582,202182,293,100,350,139 F,0,201582,202182,1,0 S,0,201582,202182,0.7,0.28 P,0,201582,202182,A
Sprite,Foreground,Centre,"sb/d.png",0,0 M,4,201582,202182,293,100,269,128 F,0,201582,202182,1,0 S,0,201582,202182,0.7,0.28 P,0,201582,202182,A
Sprite,Foreground,Centre,"sb/d.png",0,0 M,4,201582,202182,293,100,371,99 F,0,201582,202182,1,0 S,0,201582,202182,0.7,0.28 P,0,201582,202182,A
Sprite,Foreground,Centre,"sb/d.png",0,0 M,4,201882,202482,448,260,458,186 F,0,201882,202482,1,0 S,0,201882,202482,0.7,0.28 P,0,201882,202482,A
Sprite,Foreground,Centre,"sb/d.png",0,0 M,4,201882,202482,448,260,320,379 F,0,201882,202482,1,0 S,0,201882,202482,0.7,0.28 P,0,201882,202482,A
Sprite,Foreground,Centre,"sb/d.png",0,0 M,4,201882,202482,448,260,360,295 F,0,201882,202482,1,0 S,0,201882,202482,0.7,0.28 P,0,201882,202482,A
Sprite,Foreground,Centre,"sb/d.png",0,0 M,4,201882,202482,448,260,345,374 F,0,201882,202482,1,0 S,0,201882,202482,0.7,0.28 P,0,201882,202482,A
Sprite,Foreground,Centre,"sb/d.png",0,0 M,4,201882,202482,448,260,566,226 F,0,201882,202482,1,0 S,0,201882,202482,0.7,0.28 P,0,201882,202482,A
Sprite,Foreground,Centre,"sb/d.png",0,0 M,4,201882,202482,448,260,466,313 F,0,201882,202482,1,0 S,0,201882,202482,0.7,0.28 P,0,201882,202482,A
Sprite,Foreground,Centre,"sb/d.png",0,0 M,4,201882,202482,448,260,445,142 F,0,201882,202482,1,0 S,0,201882,202482,0.7,0.28 P,0,201882,202482,A
Sprite,Foreground,Centre,"sb/d.png",0,0 M,4,202032,202632,440,130,513,32 F,0,202032,202632,1,0 S,0,202032,202632,0.7,0.28 P,0,202032,202632,A
Sprite,Foreground,Centre,"sb/d.png",0,0 M,4,202032,202632,440,130,347,260 F,0,202032,202632,1,0 S,0,202032,202632,0.7,0.28 P,0,202032,202632,A
Sprite,Foreground,Centre,"sb/d.png",0,0 M,4,202032,202632,440,130,501,169 F,0,202032,202632,1,0 S,0,202032,202632,0.7,0.28 P,0,202032,202632,A
Sprite,Foreground,Centre,"sb/d.png",0,0 M,4,202032,202632,440,130,569,3 F,0,202032,202632,1,0 S,0,202032,202632,0.7,0.28 P,0,202032,202632,A
Sprite,Foreground,Centre,"sb/d.png",0,0 M,4,202032,202632,440,130,557,206 F,0,202032,202632,1,0 S,0,202032,202632,0.7,0.28 P,0,202032,202632,A
Sprite,Foreground,Centre,"sb/d.png",0,0 M,4,202032,202632,440,130,425,32 F,0,202032,202632,1,0 S,0,202032,202632,0.7,0.28 P,0,202032,202632,A
Sprite,Foreground,Centre,"sb/d.png",0,0 M,4,202032,202632,440,130,339,-15 F,0,202032,202632,1,0 S,0,202032,202632,0.7,0.28 P,0,202032,202632,A
Sprite,Foreground,Centre,"sb/d.png",0,0 M,4,202107,202707,435,140,540,138 F,0,202107,202707,1,0 S,0,202107,202707,0.7,0.28 P,0,202107,202707,A
Sprite,Foreground,Centre,"sb/d.png",0,0 M,4,202107,202707,435,140,390,49 F,0,202107,202707,1,0 S,0,202107,202707,0.7,0.28 P,0,202107,202707,A
Sprite,Foreground,Centre,"sb/d.png",0,0 M,4,202107,202707,435,140,345,221 F,0,202107,202707,1,0 S,0,202107,202707,0.7,0.28 P,0,202107,202707,A
Sprite,Foreground,Centre,"sb/d.png",0,0 M,4,202107,202707,435,140,522,180 F,0,202107,202707,1,0 S,0,202107,202707,0.7,0.28 P,0,202107,202707,A
Sprite,Foreground,Centre,"sb/d.png",0,0 M,4,202107,202707,435,140,422,230 F,0,202107,202707,1,0 S,0,202107,202707,0.7,0.28 P,0,202107,202707,A
Sprite,Foreground,Centre,"sb/d.png",0,0 M,4,202107,202707,435,140,543,94 F,0,202107,202707,1,0 S,0,202107,202707,0.7,0.28 P,0,202107,202707,A
Sprite,Foreground,Centre,"sb/d.png",0,0 M,4,202107,202707,435,140,471,132 F,0,202107,202707,1,0 S,0,202107,202707,0.7,0.28 P,0,202107,202707,A
Sprite,Foreground,Centre,"sb/d.png",0,0 M,4,202182,202782,431,151,552,116 F,0,202182,202782,1,0 S,0,202182,202782,0.7,0.28 P,0,202182,202782,A
Sprite,Foreground,Centre,"sb/d.png",0,0 M,4,202182,202782,431,151,561,112 F,0,202182,202782,1,0 S,0,202182,202782,0.7,0.28 P,0,202182,202782,A
Sprite,Foreground,Centre,"sb/d.png",0,0 M,4,202182,202782,431,151,486,172 F,0,202182,202782,1,0 S,0,202182,202782,0.7,0.28 P,0,202182,202782,A
Sprite,Foreground,Centre,"sb/d.png",0,0 M,4,202182,202782,431,151,356,156 F,0,202182,202782,1,0 S,0,202182,202782,0.7,0.28 P,0,202182,202782,A
Sprite,Foreground,Centre,"sb/d.png",0,0 M,4,202182,202782,431,151,412,147 F,0,202182,202782,1,0 S,0,202182,202782,0.7,0.28 P,0,202182,202782,A
Sprite,Foreground,Centre,"sb/d.png",0,0 M,4,202182,202782,431,151,548,40 F,0,202182,202782,1,0 S,0,202182,202782,0.7,0.28 P,0,202182,202782,A
Sprite,Foreground,Centre,"sb/d.png",0,0 M,4,202182,202782,431,151,450,138 F,0,202182,202782,1,0 S,0,202182,202782,0.7,0.28 P,0,202182,202782,A
Sprite,Foreground,Centre,"sb/d.png",0,0 M,4,202257,202857,429,162,387,108 F,0,202257,202857,1,0 S,0,202257,202857,0.7,0.28 P,0,202257,202857,A
Sprite,Foreground,Centre,"sb/d.png",0,0 M,4,202257,202857,429,162,413,22 F,0,202257,202857,1,0 S,0,202257,202857,0.7,0.28 P,0,202257,202857,A
Sprite,Foreground,Centre,"sb/d.png",0,0 M,4,202257,202857,429,162,414,53 F,0,202257,202857,1,0 S,0,202257,202857,0.7,0.28 P,0,202257,202857,A
Sprite,Foreground,Centre,"sb/d.png",0,0 M,4,202257,202857,429,162,287,132 F,0,202257,202857,1,0 S,0,202257,202857,0.7,0.28 P,0,202257,202857,A
Sprite,Foreground,Centre,"sb/d.png",0,0 M,4,202257,202857,429,162,289,121 F,0,202257,202857,1,0 S,0,202257,202857,0.7,0.28 P,0,202257,202857,A
Sprite,Foreground,Centre,"sb/d.png",0,0 M,4,202257,202857,429,162,421,227 F,0,202257,202857,1,0 S,0,202257,202857,0.7,0.28 P,0,202257,202857,A
Sprite,Foreground,Centre,"sb/d.png",0,0 M,4,202257,202857,429,162,373,45 F,0,202257,202857,1,0 S,0,202257,202857,0.7,0.28 P,0,202257,202857,A
Sprite,Foreground,Centre,"sb/d.png",0,0 M,4,202332,202932,427,174,492,141 F,0,202332,202932,1,0 S,0,202332,202932,0.7,0.28 P,0,202332,202932,A
Sprite,Foreground,Centre,"sb/d.png",0,0 M,4,202332,202932,427,174,298,130 F,0,202332,202932,1,0 S,0,202332,202932,0.7,0.28 P,0,202332,202932,A
Sprite,Foreground,Centre,"sb/d.png",0,0 M,4,202332,202932,427,174,279,160 F,0,202332,202932,1,0 S,0,202332,202932,0.7,0.28 P,0,202332,202932,A
Sprite,Foreground,Centre,"sb/d.png",0,0 M,4,202332,202932,427,174,328,175 F,0,202332,202932,1,0 S,0,202332,202932,0.7,0.28 P,0,202332,202932,A
Sprite,Foreground,Centre,"sb/d.png",0,0 M,4,202332,202932,427,174,522,47 F,0,202332,202932,1,0 S,0,202332,202932,0.7,0.28 P,0,202332,202932,A
Sprite,Foreground,Centre,"sb/d.png",0,0 M,4,202332,202932,427,174,423,202 F,0,202332,202932,1,0 S,0,202332,202932,0.7,0.28 P,0,202332,202932,A
Sprite,Foreground,Centre,"sb/d.png",0,0 M,4,202332,202932,427,174,507,124 F,0,202332,202932,1,0 S,0,202332,202932,0.7,0.28 P,0,202332,202932,A
Sprite,Foreground,Centre,"sb/d.png",0,0 M,4,202482,203082,542,300,408,409 F,0,202482,203082,1,0 S,0,202482,203082,0.7,0.28 P,0,202482,203082,A
Sprite,Foreground,Centre,"sb/d.png",0,0 M,4,202482,203082,542,300,484,171 F,0,202482,203082,1,0 S,0,202482,203082,0.7,0.28 P,0,202482,203082,A
Sprite,Foreground,Centre,"sb/d.png",0,0 M,4,202482,203082,542,300,453,249 F,0,202482,203082,1,0 S,0,202482,203082,0.7,0.28 P,0,202482,203082,A
Sprite,Foreground,Centre,"sb/d.png",0,0 M,4,202482,203082,542,300,473,190 F,0,202482,203082,1,0 S,0,202482,203082,0.7,0.28 P,0,202482,203082,A
Sprite,Foreground,Centre,"sb/d.png",0,0 M,4,202482,203082,542,300,498,397 F,0,202482,203082,1,0 S,0,202482,203082,0.7,0.28 P,0,202482,203082,A
Sprite,Foreground,Centre,"sb/d.png",0,0 M,4,202482,203082,542,300,660,294 F,0,202482,203082,1,0 S,0,202482,203082,0.7,0.28 P,0,202482,203082,A
Sprite,Foreground,Centre,"sb/d.png",0,0 M,4,202482,203082,542,300,526,301 F,0,202482,203082,1,0 S,0,202482,203082,0.7,0.28 P,0,202482,203082,A
Sprite,Foreground,Centre,"sb/d.png",0,0 M,4,202782,203382,373,353,328,373 F,0,202782,203382,1,0 S,0,202782,203382,0.7,0.28 P,0,202782,203382,A
Sprite,Foreground,Centre,"sb/d.png",0,0 M,4,202782,203382,373,353,491,493 F,0,202782,203382,1,0 S,0,202782,203382,0.7,0.28 P,0,202782,203382,A
Sprite,Foreground,Centre,"sb/d.png",0,0 M,4,202782,203382,373,353,299,245 F,0,202782,203382,1,0 S,0,202782,203382,0.7,0.28 P,0,202782,203382,A
Sprite,Foreground,Centre,"sb/d.png",0,0 M,4,202782,203382,373,353,462,217 F,0,202782,203382,1,0 S,0,202782,203382,0.7,0.28 P,0,202782,203382,A
Sprite,Foreground,Centre,"sb/d.png",0,0 M,4,202782,203382,373,353,347,363 F,0,202782,203382,1,0 S,0,202782,203382,0.7,0.28 P,0,202782,203382,A
Sprite,Foreground,Centre,"sb/d.png",0,0 M,4,202782,203382,373,353,259,235 F,0,202782,203382,1,0 S,0,202782,203382,0.7,0.28 P,0,202782,203382,A
Sprite,Foreground,Centre,"sb/d.png",0,0 M,4,202782,203382,373,353,309,459 F,0,202782,203382,1,0 S,0,202782,203382,0.7,0.28 P,0,202782,203382,A
Sprite,Foreground,Centre,"sb/d.png",0,0 M,4,203082,203682,350,226,350,186 F,0,203082,203682,1,0 S,0,203082,203682,0.7,0.28 P,0,203082,203682,A
Sprite,Foreground,Centre,"sb/d.png",0,0 M,4,203082,203682,350,226,363,333 F,0,203082,203682,1,0 S,0,203082,203682,0.7,0.28 P,0,203082,203682,A
Sprite,Foreground,Centre,"sb/d.png",0,0 M,4,203082,203682,350,226,311,284 F,0,203082,203682,1,0 S,0,203082,203682,0.7,0.28 P,0,203082,203682,A
Sprite,Foreground,Centre,"sb/d.png",0,0 M,4,203082,203682,350,226,303,127 F,0,203082,203682,1,0 S,0,203082,203682,0.7,0.28 P,0,203082,203682,A
Sprite,Foreground,Centre,"sb/d.png",0,0 M,4,203082,203682,350,226,217,197 F,0,203082,203682,1,0 S,0,203082,203682,0.7,0.28 P,0,203082,203682,A
Sprite,Foreground,Centre,"sb/d.png",0,0 M,4,203082,203682,350,226,353,370 F,0,203082,203682,1,0 S,0,203082,203682,0.7,0.28 P,0,203082,203682,A
Sprite,Foreground,Centre,"sb/d.png",0,0 M,4,203082,203682,350,226,451,250 F,0,203082,203682,1,0 S,0,203082,203682,0.7,0.28 P,0,203082,203682,A
Sprite,Foreground,Centre,"sb/d.png",0,0 M,4,203232,203832,281,364,142,287 F,0,203232,203832,1,0 S,0,203232,203832,0.7,0.28 P,0,203232,203832,A
Sprite,Foreground,Centre,"sb/d.png",0,0 M,4,203232,203832,281,364,269,371 F,0,203232,203832,1,0 S,0,203232,203832,0.7,0.28 P,0,203232,203832,A
Sprite,Foreground,Centre,"sb/d.png",0,0 M,4,203232,203832,281,364,133,414 F,0,203232,203832,1,0 S,0,203232,203832,0.7,0.28 P,0,203232,203832,A
Sprite,Foreground,Centre,"sb/d.png",0,0 M,4,203232,203832,281,364,177,289 F,0,203232,203832,1,0 S,0,203232,203832,0.7,0.28 P,0,203232,203832,A
Sprite,Foreground,Centre,"sb/d.png",0,0 M,4,203232,203832,281,364,185,370 F,0,203232,203832,1,0 S,0,203232,203832,0.7,0.28 P,0,203232,203832,A
Sprite,Foreground,Centre,"sb/d.png",0,0 M,4,203232,203832,281,364,232,401 F,0,203232,203832,1,0 S,0,203232,203832,0.7,0.28 P,0,203232,203832,A
Sprite,Foreground,Centre,"sb/d.png",0,0 M,4,203232,203832,281,364,292,216 F,0,203232,203832,1,0 S,0,203232,203832,0.7,0.28 P,0,203232,203832,A
Sprite,Foreground,Centre,"sb/d.png",0,0 M,4,203307,203907,281,364,265,445 F,0,203307,203907,1,0 S,0,203307,203907,0.7,0.28 P,0,203307,203907,A
Sprite,Foreground,Centre,"sb/d.png",0,0 M,4,203307,203907,281,364,415,243 F,0,203307,203907,1,0 S,0,203307,203907,0.7,0.28 P,0,203307,203907,A
Sprite,Foreground,Centre,"sb/d.png",0,0 M,4,203307,203907,281,364,144,339 F,0,203307,203907,1,0 S,0,203307,203907,0.7,0.28 P,0,203307,203907,A
Sprite,Foreground,Centre,"sb/d.png",0,0 M,4,203307,203907,281,364,321,509 F,0,203307,203907,1,0 S,0,203307,203907,0.7,0.28 P,0,203307,203907,A
Sprite,Foreground,Centre,"sb/d.png",0,0 M,4,203307,203907,281,364,214,224 F,0,203307,203907,1,0 S,0,203307,203907,0.7,0.28 P,0,203307,203907,A
Sprite,Foreground,Centre,"sb/d.png",0,0 M,4,203307,203907,281,364,164,439 F,0,203307,203907,1,0 S,0,203307,203907,0.7,0.28 P,0,203307,203907,A
Sprite,Foreground,Centre,"sb/d.png",0,0 M,4,203307,203907,281,364,178,268 F,0,203307,203907,1,0 S,0,203307,203907,0.7,0.28 P,0,203307,203907,A
Sprite,Foreground,Centre,"sb/d.png",0,0 M,4,203382,203982,281,364,284,361 F,0,203382,203982,1,0 S,0,203382,203982,0.7,0.28 P,0,203382,203982,A
Sprite,Foreground,Centre,"sb/d.png",0,0 M,4,203382,203982,281,364,267,296 F,0,203382,203982,1,0 S,0,203382,203982,0.7,0.28 P,0,203382,203982,A
Sprite,Foreground,Centre,"sb/d.png",0,0 M,4,203382,203982,281,364,222,278 F,0,203382,203982,1,0 S,0,203382,203982,0.7,0.28 P,0,203382,203982,A
Sprite,Foreground,Centre,"sb/d.png",0,0 M,4,203382,203982,281,364,134,264 F,0,203382,203982,1,0 S,0,203382,203982,0.7,0.28 P,0,203382,203982,A
Sprite,Foreground,Centre,"sb/d.png",0,0 M,4,203382,203982,281,364,152,393 F,0,203382,203982,1,0 S,0,203382,203982,0.7,0.28 P,0,203382,203982,A
Sprite,Foreground,Centre,"sb/d.png",0,0 M,4,203382,203982,281,364,161,399 F,0,203382,203982,1,0 S,0,203382,203982,0.7,0.28 P,0,203382,203982,A
Sprite,Foreground,Centre,"sb/d.png",0,0 M,4,203382,203982,281,364,340,289 F,0,203382,203982,1,0 S,0,203382,203982,0.7,0.28 P,0,203382,203982,A
Sprite,Foreground,Centre,"sb/d.png",0,0 M,4,203682,204282,224,254,129,111 F,0,203682,204282,1,0 S,0,203682,204282,0.7,0.28 P,0,203682,204282,A
Sprite,Foreground,Centre,"sb/d.png",0,0 M,4,203682,204282,224,254,230,328 F,0,203682,204282,1,0 S,0,203682,204282,0.7,0.28 P,0,203682,204282,A
Sprite,Foreground,Centre,"sb/d.png",0,0 M,4,203682,204282,224,254,121,205 F,0,203682,204282,1,0 S,0,203682,204282,0.7,0.28 P,0,203682,204282,A
Sprite,Foreground,Centre,"sb/d.png",0,0 M,4,203682,204282,224,254,290,189 F,0,203682,204282,1,0 S,0,203682,204282,0.7,0.28 P,0,203682,204282,A
Sprite,Foreground,Centre,"sb/d.png",0,0 M,4,203682,204282,224,254,210,228 F,0,203682,204282,1,0 S,0,203682,204282,0.7,0.28 P,0,203682,204282,A
Sprite,Foreground,Centre,"sb/d.png",0,0 M,4,203682,204282,224,254,354,229 F,0,203682,204282,1,0 S,0,203682,204282,0.7,0.28 P,0,203682,204282,A
Sprite,Foreground,Centre,"sb/d.png",0,0 M,4,203682,204282,224,254,358,119 F,0,203682,204282,1,0 S,0,203682,204282,0.7,0.28 P,0,203682,204282,A
Sprite,Foreground,Centre,"sb/d.png",0,0 M,4,203982,204582,165,69,304,46 F,0,203982,204582,1,0 S,0,203982,204582,0.7,0.28 P,0,203982,204582,A
Sprite,Foreground,Centre,"sb/d.png",0,0 M,4,203982,204582,165,69,139,-5 F,0,203982,204582,1,0 S,0,203982,204582,0.7,0.28 P,0,203982,204582,A
Sprite,Foreground,Centre,"sb/d.png",0,0 M,4,203982,204582,165,69,167,211 F,0,203982,204582,1,0 S,0,203982,204582,0.7,0.28 P,0,203982,204582,A
Sprite,Foreground,Centre,"sb/d.png",0,0 M,4,203982,204582,165,69,236,126 F,0,203982,204582,1,0 S,0,203982,204582,0.7,0.28 P,0,203982,204582,A
Sprite,Foreground,Centre,"sb/d.png",0,0 M,4,203982,204582,165,69,34,-63 F,0,203982,204582,1,0 S,0,203982,204582,0.7,0.28 P,0,203982,204582,A
Sprite,Foreground,Centre,"sb/d.png",0,0 M,4,203982,204582,165,69,110,15 F,0,203982,204582,1,0 S,0,203982,204582,0.7,0.28 P,0,203982,204582,A
Sprite,Foreground,Centre,"sb/d.png",0,0 M,4,203982,204582,165,69,314,2 F,0,203982,204582,1,0 S,0,203982,204582,0.7,0.28 P,0,203982,204582,A
Sprite,Foreground,Centre,"sb/d.png",0,0 M,4,204132,204732,308,88,368,43 F,0,204132,204732,1,0 S,0,204132,204732,0.7,0.28 P,0,204132,204732,A
Sprite,Foreground,Centre,"sb/d.png",0,0 M,4,204132,204732,308,88,457,65 F,0,204132,204732,1,0 S,0,204132,204732,0.7,0.28 P,0,204132,204732,A
Sprite,Foreground,Centre,"sb/d.png",0,0 M,4,204132,204732,308,88,373,53 F,0,204132,204732,1,0 S,0,204132,204732,0.7,0.28 P,0,204132,204732,A
Sprite,Foreground,Centre,"sb/d.png",0,0 M,4,204132,204732,308,88,397,14 F,0,204132,204732,1,0 S,0,204132,204732,0.7,0.28 P,0,204132,204732,A
Sprite,Foreground,Centre,"sb/d.png",0,0 M,4,204132,204732,308,88,312,47 F,0,204132,204732,1,0 S,0,204132,204732,0.7,0.28 P,0,204132,204732,A
Sprite,Foreground,Centre,"sb/d.png",0,0 M,4,204132,204732,308,88,336,184 F,0,204132,204732,1,0 S,0,204132,204732,0.7,0.28 P,0,204132,204732,A
Sprite,Foreground,Centre,"sb/d.png",0,0 M,4,204132,204732,308,88,295,6 F,0,204132,204732,1,0 S,0,204132,204732,0.7,0.28 P,0,204132,204732,A
Sprite,Foreground,Centre,"sb/d.png",0,0 M,4,204432,205032,227,164,87,26 F,0,204432,205032,1,0 S,0,204432,205032,0.7,0.28 P,0,204432,205032,A
Sprite,Foreground,Centre,"sb/d.png",0,0 M,4,204432,205032,227,164,178,280 F,0,204432,205032,1,0 S,0,204432,205032,0.7,0.28 P,0,204432,205032,A
Sprite,Foreground,Centre,"sb/d.png",0,0 M,4,204432,205032,227,164,157,301 F,0,204432,205032,1,0 S,0,204432,205032,0.7,0.28 P,0,204432,205032,A
Sprite,Foreground,Centre,"sb/d.png",0,0 M,4,204432,205032,227,164,138,207 F,0,204432,205032,1,0 S,0,204432,205032,0.7,0.28 P,0,204432,205032,A
Sprite,Foreground,Centre,"sb/d.png",0,0 M,4,204432,205032,227,164,132,267 F,0,204432,205032,1,0 S,0,204432,205032,0.7,0.28 P,0,204432,205032,A
Sprite,Foreground,Centre,"sb/d.png",0,0 M,4,204432,205032,227,164,110,231 F,0,204432,205032,1,0 S,0,204432,205032,0.7,0.28 P,0,204432,205032,A
Sprite,Foreground,Centre,"sb/d.png",0,0 M,4,204432,205032,227,164,230,162 F,0,204432,205032,1,0 S,0,204432,205032,0.7,0.28 P,0,204432,205032,A
Sprite,Foreground,Centre,"sb/d.png",0,0 M,4,204582,205182,382,142,519,129 F,0,204582,205182,1,0 S,0,204582,205182,0.7,0.28 P,0,204582,205182,A
Sprite,Foreground,Centre,"sb/d.png",0,0 M,4,204582,205182,382,142,360,242 F,0,204582,205182,1,0 S,0,204582,205182,0.7,0.28 P,0,204582,205182,A
Sprite,Foreground,Centre,"sb/d.png",0,0 M,4,204582,205182,382,142,333,124 F,0,204582,205182,1,0 S,0,204582,205182,0.7,0.28 P,0,204582,205182,A
Sprite,Foreground,Centre,"sb/d.png",0,0 M,4,204582,205182,382,142,406,23 F,0,204582,205182,1,0 S,0,204582,205182,0.7,0.28 P,0,204582,205182,A
Sprite,Foreground,Centre,"sb/d.png",0,0 M,4,204582,205182,382,142,357,144 F,0,204582,205182,1,0 S,0,204582,205182,0.7,0.28 P,0,204582,205182,A
Sprite,Foreground,Centre,"sb/d.png",0,0 M,4,204582,205182,382,142,441,160 F,0,204582,205182,1,0 S,0,204582,205182,0.7,0.28 P,0,204582,205182,A
Sprite,Foreground,Centre,"sb/d.png",0,0 M,4,204582,205182,382,142,307,205 F,0,204582,205182,1,0 S,0,204582,205182,0.7,0.28 P,0,204582,205182,A
Sprite,Foreground,Centre,"sb/d.png",0,0 M,4,204882,205482,155,211,278,75 F,0,204882,205482,1,0 S,0,204882,205482,0.7,0.28 P,0,204882,205482,A
Sprite,Foreground,Centre,"sb/d.png",0,0 M,4,204882,205482,155,211,203,266 F,0,204882,205482,1,0 S,0,204882,205482,0.7,0.28 P,0,204882,205482,A
Sprite,Foreground,Centre,"sb/d.png",0,0 M,4,204882,205482,155,211,159,214 F,0,204882,205482,1,0 S,0,204882,205482,0.7,0.28 P,0,204882,205482,A
Sprite,Foreground,Centre,"sb/d.png",0,0 M,4,204882,205482,155,211,201,67 F,0,204882,205482,1,0 S,0,204882,205482,0.7,0.28 P,0,204882,205482,A
Sprite,Foreground,Centre,"sb/d.png",0,0 M,4,204882,205482,155,211,222,190 F,0,204882,205482,1,0 S,0,204882,205482,0.7,0.28 P,0,204882,205482,A
Sprite,Foreground,Centre,"sb/d.png",0,0 M,4,204882,205482,155,211,21,72 F,0,204882,205482,1,0 S,0,204882,205482,0.7,0.28 P,0,204882,205482,A
Sprite,Foreground,Centre,"sb/d.png",0,0 M,4,204882,205482,155,211,27,77 F,0,204882,205482,1,0 S,0,204882,205482,0.7,0.28 P,0,204882,205482,A
Sprite,Foreground,Centre,"sb/d.png",0,0 M,4,205032,205632,336,238,235,133 F,0,205032,205632,1,0 S,0,205032,205632,0.7,0.28 P,0,205032,205632,A
Sprite,Foreground,Centre,"sb/d.png",0,0 M,4,205032,205632,336,238,280,386 F,0,205032,205632,1,0 S,0,205032,205632,0.7,0.28 P,0,205032,205632,A
Sprite,Foreground,Centre,"sb/d.png",0,0 M,4,205032,205632,336,238,448,179 F,0,205032,205632,1,0 S,0,205032,205632,0.7,0.28 P,0,205032,205632,A
Sprite,Foreground,Centre,"sb/d.png",0,0 M,4,205032,205632,336,238,274,104 F,0,205032,205632,1,0 S,0,205032,205632,0.7,0.28 P,0,205032,205632,A
Sprite,Foreground,Centre,"sb/d.png",0,0 M,4,205032,205632,336,238,467,315 F,0,205032,205632,1,0 S,0,205032,205632,0.7,0.28 P,0,205032,205632,A
Sprite,Foreground,Centre,"sb/d.png",0,0 M,4,205032,205632,336,238,331,93 F,0,205032,205632,1,0 S,0,205032,205632,0.7,0.28 P,0,205032,205632,A
Sprite,Foreground,Centre,"sb/d.png",0,0 M,4,205032,205632,336,238,379,367 F,0,205032,205632,1,0 S,0,205032,205632,0.7,0.28 P,0,205032,205632,A
Sprite,Foreground,Centre,"sb/d.png",0,0 M,4,205332,205932,106,311,143,410 F,0,205332,205932,1,0 S,0,205332,205932,0.7,0.28 P,0,205332,205932,A
Sprite,Foreground,Centre,"sb/d.png",0,0 M,4,205332,205932,106,311,12,373 F,0,205332,205932,1,0 S,0,205332,205932,0.7,0.28 P,0,205332,205932,A
Sprite,Foreground,Centre,"sb/d.png",0,0 M,4,205332,205932,106,311,167,308 F,0,205332,205932,1,0 S,0,205332,205932,0.7,0.28 P,0,205332,205932,A
Sprite,Foreground,Centre,"sb/d.png",0,0 M,4,205332,205932,106,311,176,201 F,0,205332,205932,1,0 S,0,205332,205932,0.7,0.28 P,0,205332,205932,A
Sprite,Foreground,Centre,"sb/d.png",0,0 M,4,205332,205932,106,311,10,289 F,0,205332,205932,1,0 S,0,205332,205932,0.7,0.28 P,0,205332,205932,A
Sprite,Foreground,Centre,"sb/d.png",0,0 M,4,205332,205932,106,311,18,161 F,0,205332,205932,1,0 S,0,205332,205932,0.7,0.28 P,0,205332,205932,A
Sprite,Foreground,Centre,"sb/d.png",0,0 M,4,205332,205932,106,311,207,442 F,0,205332,205932,1,0 S,0,205332,205932,0.7,0.28 P,0,205332,205932,A
Sprite,Foreground,Centre,"sb/d.png",0,0 M,4,205482,206082,261,291,331,440 F,0,205482,206082,1,0 S,0,205482,206082,0.7,0.28 P,0,205482,206082,A
Sprite,Foreground,Centre,"sb/d.png",0,0 M,4,205482,206082,261,291,345,230 F,0,205482,206082,1,0 S,0,205482,206082,0.7,0.28 P,0,205482,206082,A
Sprite,Foreground,Centre,"sb/d.png",0,0 M,4,205482,206082,261,291,220,298 F,0,205482,206082,1,0 S,0,205482,206082,0.7,0.28 P,0,205482,206082,A
Sprite,Foreground,Centre,"sb/d.png",0,0 M,4,205482,206082,261,291,392,220 F,0,205482,206082,1,0 S,0,205482,206082,0.7,0.28 P,0,205482,206082,A
Sprite,Foreground,Centre,"sb/d.png",0,0 M,4,205482,206082,261,291,169,351 F,0,205482,206082,1,0 S,0,205482,206082,0.7,0.28 P,0,205482,206082,A
Sprite,Foreground,Centre,"sb/d.png",0,0 M,4,205482,206082,261,291,316,425 F,0,205482,206082,1,0 S,0,205482,206082,0.7,0.28 P,0,205482,206082,A
Sprite,Foreground,Centre,"sb/d.png",0,0 M,4,205482,206082,261,291,235,397 F,0,205482,206082,1,0 S,0,205482,206082,0.7,0.28 P,0,205482,206082,A
Sprite,Foreground,Centre,"sb/d.png",0,0 M,4,205782,206382,87,202,-30,322 F,0,205782,206382,1,0 S,0,205782,206382,0.7,0.28 P,0,205782,206382,A
Sprite,Foreground,Centre,"sb/d.png",0,0 M,4,205782,206382,87,202,-3,200 F,0,205782,206382,1,0 S,0,205782,206382,0.7,0.28 P,0,205782,206382,A
Sprite,Foreground,Centre,"sb/d.png",0,0 M,4,205782,206382,87,202,196,269 F,0,205782,206382,1,0 S,0,205782,206382,0.7,0.28 P,0,205782,206382,A
Sprite,Foreground,Centre,"sb/d.png",0,0 M,4,205782,206382,87,202,55,320 F,0,205782,206382,1,0 S,0,205782,206382,0.7,0.28 P,0,205782,206382,A
Sprite,Foreground,Centre,"sb/d.png",0,0 M,4,205782,206382,87,202,9,156 F,0,205782,206382,1,0 S,0,205782,206382,0.7,0.28 P,0,205782,206382,A
Sprite,Foreground,Centre,"sb/d.png",0,0 M,4,205782,206382,87,202,37,226 F,0,205782,206382,1,0 S,0,205782,206382,0.7,0.28 P,0,205782,206382,A
Sprite,Foreground,Centre,"sb/d.png",0,0 M,4,205782,206382,87,202,33,61 F,0,205782,206382,1,0 S,0,205782,206382,0.7,0.28 P,0,205782,206382,A
Sprite,Foreground,Centre,"sb/d.png",0,0 M,4,206082,206682,261,291,402,407 F,0,206082,206682,1,0 S,0,206082,206682,0.7,0.28 P,0,206082,206682,A
Sprite,Foreground,Centre,"sb/d.png",0,0 M,4,206082,206682,261,291,347,402 F,0,206082,206682,1,0 S,0,206082,206682,0.7,0.28 P,0,206082,206682,A
Sprite,Foreground,Centre,"sb/d.png",0,0 M,4,206082,206682,261,291,250,248 F,0,206082,206682,1,0 S,0,206082,206682,0.7,0.28 P,0,206082,206682,A
Sprite,Foreground,Centre,"sb/d.png",0,0 M,4,206082,206682,261,291,207,422 F,0,206082,206682,1,0 S,0,206082,206682,0.7,0.28 P,0,206082,206682,A
Sprite,Foreground,Centre,"sb/d.png",0,0 M,4,206082,206682,261,291,404,196 F,0,206082,206682,1,0 S,0,206082,206682,0.7,0.28 P,0,206082,206682,A
Sprite,Foreground,Centre,"sb/d.png",0,0 M,4,206082,206682,261,291,307,176 F,0,206082,206682,1,0 S,0,206082,206682,0.7,0.28 P,0,206082,206682,A
Sprite,Foreground,Centre,"sb/d.png",0,0 M,4,206082,206682,261,291,408,249 F,0,206082,206682,1,0 S,0,206082,206682,0.7,0.28 P,0,206082,206682,A
Sprite,Foreground,Centre,"sb/d.png",0,0 M,4,206382,206982,341,155,381,150 F,0,206382,206982,1,0 S,0,206382,206982,0.7,0.28 P,0,206382,206982,A
Sprite,Foreground,Centre,"sb/d.png",0,0 M,4,206382,206982,341,155,197,232 F,0,206382,206982,1,0 S,0,206382,206982,0.7,0.28 P,0,206382,206982,A
Sprite,Foreground,Centre,"sb/d.png",0,0 M,4,206382,206982,341,155,214,268 F,0,206382,206982,1,0 S,0,206382,206982,0.7,0.28 P,0,206382,206982,A
Sprite,Foreground,Centre,"sb/d.png",0,0 M,4,206382,206982,341,155,198,89 F,0,206382,206982,1,0 S,0,206382,206982,0.7,0.28 P,0,206382,206982,A
Sprite,Foreground,Centre,"sb/d.png",0,0 M,4,206382,206982,341,155,258,218 F,0,206382,206982,1,0 S,0,206382,206982,0.7,0.28 P,0,206382,206982,A
Sprite,Foreground,Centre,"sb/d.png",0,0 M,4,206382,206982,341,155,232,39 F,0,206382,206982,1,0 S,0,206382,206982,0.7,0.28 P,0,206382,206982,A
Sprite,Foreground,Centre,"sb/d.png",0,0 M,4,206382,206982,341,155,353,257 F,0,206382,206982,1,0 S,0,206382,206982,0.7,0.28 P,0,206382,206982,A
Sprite,Foreground,Centre,"sb/d.png",0,0 M,4,206682,207282,302,405,378,384 F,0,206682,207282,1,0 S,0,206682,207282,0.7,0.28 P,0,206682,207282,A
Sprite,Foreground,Centre,"sb/d.png",0,0 M,4,206682,207282,302,405,441,489 F,0,206682,207282,1,0 S,0,206682,207282,0.7,0.28 P,0,206682,207282,A
Sprite,Foreground,Centre,"sb/d.png",0,0 M,4,206682,207282,302,405,213,527 F,0,206682,207282,1,0 S,0,206682,207282,0.7,0.28 P,0,206682,207282,A
Sprite,Foreground,Centre,"sb/d.png",0,0 M,4,206682,207282,302,405,239,347 F,0,206682,207282,1,0 S,0,206682,207282,0.7,0.28 P,0,206682,207282,A
Sprite,Foreground,Centre,"sb/d.png",0,0 M,4,206682,207282,302,405,426,499 F,0,206682,207282,1,0 S,0,206682,207282,0.7,0.28 P,0,206682,207282,A
Sprite,Foreground,Centre,"sb/d.png",0,0 M,4,206682,207282,302,405,296,272 F,0,206682,207282,1,0 S,0,206682,207282,0.7,0.28 P,0,206682,207282,A
Sprite,Foreground,Centre,"sb/d.png",0,0 M,4,206682,207282,302,405,311,306 F,0,206682,207282,1,0 S,0,206682,207282,0.7,0.28 P,0,206682,207282,A
Sprite,Foreground,Centre,"sb/d.png",0,0 M,4,206832,207432,181,281,307,135 F,0,206832,207432,1,0 S,0,206832,207432,0.7,0.28 P,0,206832,207432,A
Sprite,Foreground,Centre,"sb/d.png",0,0 M,4,206832,207432,181,281,283,354 F,0,206832,207432,1,0 S,0,206832,207432,0.7,0.28 P,0,206832,207432,A
Sprite,Foreground,Centre,"sb/d.png",0,0 M,4,206832,207432,181,281,250,141 F,0,206832,207432,1,0 S,0,206832,207432,0.7,0.28 P,0,206832,207432,A
Sprite,Foreground,Centre,"sb/d.png",0,0 M,4,206832,207432,181,281,108,357 F,0,206832,207432,1,0 S,0,206832,207432,0.7,0.28 P,0,206832,207432,A
Sprite,Foreground,Centre,"sb/d.png",0,0 M,4,206832,207432,181,281,129,303 F,0,206832,207432,1,0 S,0,206832,207432,0.7,0.28 P,0,206832,207432,A
Sprite,Foreground,Centre,"sb/d.png",0,0 M,4,206832,207432,181,281,182,263 F,0,206832,207432,1,0 S,0,206832,207432,0.7,0.28 P,0,206832,207432,A
Sprite,Foreground,Centre,"sb/d.png",0,0 M,4,206832,207432,181,281,32,337 F,0,206832,207432,1,0 S,0,206832,207432,0.7,0.28 P,0,206832,207432,A
Sprite,Foreground,Centre,"sb/d.png",0,0 M,4,206907,207507,201,284,249,156 F,0,206907,207507,1,0 S,0,206907,207507,0.7,0.28 P,0,206907,207507,A
Sprite,Foreground,Centre,"sb/d.png",0,0 M,4,206907,207507,201,284,271,239 F,0,206907,207507,1,0 S,0,206907,207507,0.7,0.28 P,0,206907,207507,A
Sprite,Foreground,Centre,"sb/d.png",0,0 M,4,206907,207507,201,284,295,278 F,0,206907,207507,1,0 S,0,206907,207507,0.7,0.28 P,0,206907,207507,A
Sprite,Foreground,Centre,"sb/d.png",0,0 M,4,206907,207507,201,284,106,297 F,0,206907,207507,1,0 S,0,206907,207507,0.7,0.28 P,0,206907,207507,A
Sprite,Foreground,Centre,"sb/d.png",0,0 M,4,206907,207507,201,284,116,395 F,0,206907,207507,1,0 S,0,206907,207507,0.7,0.28 P,0,206907,207507,A
Sprite,Foreground,Centre,"sb/d.png",0,0 M,4,206907,207507,201,284,325,159 F,0,206907,207507,1,0 S,0,206907,207507,0.7,0.28 P,0,206907,207507,A
Sprite,Foreground,Centre,"sb/d.png",0,0 M,4,206907,207507,201,284,71,232 F,0,206907,207507,1,0 S,0,206907,207507,0.7,0.28 P,0,206907,207507,A
Sprite,Foreground,Centre,"sb/d.png",0,0 M,4,206982,207582,221,286,241,198 F,0,206982,207582,1,0 S,0,206982,207582,0.7,0.28 P,0,206982,207582,A
Sprite,Foreground,Centre,"sb/d.png",0,0 M,4,206982,207582,221,286,153,141 F,0,206982,207582,1,0 S,0,206982,207582,0.7,0.28 P,0,206982,207582,A
Sprite,Foreground,Centre,"sb/d.png",0,0 M,4,206982,207582,221,286,175,391 F,0,206982,207582,1,0 S,0,206982,207582,0.7,0.28 P,0,206982,207582,A
Sprite,Foreground,Centre,"sb/d.png",0,0 M,4,206982,207582,221,286,178,199 F,0,206982,207582,1,0 S,0,206982,207582,0.7,0.28 P,0,206982,207582,A
Sprite,Foreground,Centre,"sb/d.png",0,0 M,4,206982,207582,221,286,331,253 F,0,206982,207582,1,0 S,0,206982,207582,0.7,0.28 P,0,206982,207582,A
Sprite,Foreground,Centre,"sb/d.png",0,0 M,4,206982,207582,221,286,185,288 F,0,206982,207582,1,0 S,0,206982,207582,0.7,0.28 P,0,206982,207582,A
Sprite,Foreground,Centre,"sb/d.png",0,0 M,4,206982,207582,221,286,245,435 F,0,206982,207582,1,0 S,0,206982,207582,0.7,0.28 P,0,206982,207582,A
Sprite,Foreground,Centre,"sb/d.png",0,0 M,4,207057,207657,241,289,122,256 F,0,207057,207657,1,0 S,0,207057,207657,0.7,0.28 P,0,207057,207657,A
Sprite,Foreground,Centre,"sb/d.png",0,0 M,4,207057,207657,241,289,173,367 F,0,207057,207657,1,0 S,0,207057,207657,0.7,0.28 P,0,207057,207657,A
Sprite,Foreground,Centre,"sb/d.png",0,0 M,4,207057,207657,241,289,361,320 F,0,207057,207657,1,0 S,0,207057,207657,0.7,0.28 P,0,207057,207657,A
Sprite,Foreground,Centre,"sb/d.png",0,0 M,4,207057,207657,241,289,285,391 F,0,207057,207657,1,0 S,0,207057,207657,0.7,0.28 P,0,207057,207657,A
Sprite,Foreground,Centre,"sb/d.png",0,0 M,4,207057,207657,241,289,114,178 F,0,207057,207657,1,0 S,0,207057,207657,0.7,0.28 P,0,207057,207657,A
Sprite,Foreground,Centre,"sb/d.png",0,0 M,4,207057,207657,241,289,164,153 F,0,207057,207657,1,0 S,0,207057,207657,0.7,0.28 P,0,207057,207657,A
Sprite,Foreground,Centre,"sb/d.png",0,0 M,4,207057,207657,241,289,387,251 F,0,207057,207657,1,0 S,0,207057,207657,0.7,0.28 P,0,207057,207657,A
Sprite,Foreground,Centre,"sb/d.png",0,0 M,4,207132,207732,261,291,349,432 F,0,207132,207732,1,0 S,0,207132,207732,0.7,0.28 P,0,207132,207732,A
Sprite,Foreground,Centre,"sb/d.png",0,0 M,4,207132,207732,261,291,360,335 F,0,207132,207732,1,0 S,0,207132,207732,0.7,0.28 P,0,207132,207732,A
Sprite,Foreground,Centre,"sb/d.png",0,0 M,4,207132,207732,261,291,400,420 F,0,207132,207732,1,0 S,0,207132,207732,0.7,0.28 P,0,207132,207732,A
Sprite,Foreground,Centre,"sb/d.png",0,0 M,4,207132,207732,261,291,166,176 F,0,207132,207732,1,0 S,0,207132,207732,0.7,0.28 P,0,207132,207732,A
Sprite,Foreground,Centre,"sb/d.png",0,0 M,4,207132,207732,261,291,200,287 F,0,207132,207732,1,0 S,0,207132,207732,0.7,0.28 P,0,207132,207732,A
Sprite,Foreground,Centre,"sb/d.png",0,0 M,4,207132,207732,261,291,139,187 F,0,207132,207732,1,0 S,0,207132,207732,0.7,0.28 P,0,207132,207732,A
Sprite,Foreground,Centre,"sb/d.png",0,0 M,4,207132,207732,261,291,210,276 F,0,207132,207732,1,0 S,0,207132,207732,0.7,0.28 P,0,207132,207732,A
Sprite,Foreground,Centre,"sb/d.png",0,0 M,4,207282,207882,393,393,304,345 F,0,207282,207882,1,0 S,0,207282,207882,0.7,0.28 P,0,207282,207882,A
Sprite,Foreground,Centre,"sb/d.png",0,0 M,4,207282,207882,393,393,534,334 F,0,207282,207882,1,0 S,0,207282,207882,0.7,0.28 P,0,207282,207882,A
Sprite,Foreground,Centre,"sb/d.png",0,0 M,4,207282,207882,393,393,513,298 F,0,207282,207882,1,0 S,0,207282,207882,0.7,0.28 P,0,207282,207882,A
Sprite,Foreground,Centre,"sb/d.png",0,0 M,4,207282,207882,393,393,375,491 F,0,207282,207882,1,0 S,0,207282,207882,0.7,0.28 P,0,207282,207882,A
Sprite,Foreground,Centre,"sb/d.png",0,0 M,4,207282,207882,393,393,421,288 F,0,207282,207882,1,0 S,0,207282,207882,0.7,0.28 P,0,207282,207882,A
Sprite,Foreground,Centre,"sb/d.png",0,0 M,4,207282,207882,393,393,297,382 F,0,207282,207882,1,0 S,0,207282,207882,0.7,0.28 P,0,207282,207882,A
Sprite,Foreground,Centre,"sb/d.png",0,0 M,4,207282,207882,393,393,447,461 F,0,207282,207882,1,0 S,0,207282,207882,0.7,0.28 P,0,207282,207882,A
Sprite,Foreground,Centre,"sb/d.png",0,0 M,4,207582,208182,162,268,50,161 F,0,207582,208182,1,0 S,0,207582,208182,0.7,0.28 P,0,207582,208182,A
Sprite,Foreground,Centre,"sb/d.png",0,0 M,4,207582,208182,162,268,244,207 F,0,207582,208182,1,0 S,0,207582,208182,0.7,0.28 P,0,207582,208182,A
Sprite,Foreground,Centre,"sb/d.png",0,0 M,4,207582,208182,162,268,271,412 F,0,207582,208182,1,0 S,0,207582,208182,0.7,0.28 P,0,207582,208182,A
Sprite,Foreground,Centre,"sb/d.png",0,0 M,4,207582,208182,162,268,136,387 F,0,207582,208182,1,0 S,0,207582,208182,0.7,0.28 P,0,207582,208182,A
Sprite,Foreground,Centre,"sb/d.png",0,0 M,4,207582,208182,162,268,180,337 F,0,207582,208182,1,0 S,0,207582,208182,0.7,0.28 P,0,207582,208182,A
Sprite,Foreground,Centre,"sb/d.png",0,0 M,4,207582,208182,162,268,175,313 F,0,207582,208182,1,0 S,0,207582,208182,0.7,0.28 P,0,207582,208182,A
Sprite,Foreground,Centre,"sb/d.png",0,0 M,4,207582,208182,162,268,256,413 F,0,207582,208182,1,0 S,0,207582,208182,0.7,0.28 P,0,207582,208182,A
Sprite,Foreground,Centre,"sb/d.png",0,0 M,4,207882,208482,388,300,265,386 F,0,207882,208482,1,0 S,0,207882,208482,0.7,0.28 P,0,207882,208482,A
Sprite,Foreground,Centre,"sb/d.png",0,0 M,4,207882,208482,388,300,438,374 F,0,207882,208482,1,0 S,0,207882,208482,0.7,0.28 P,0,207882,208482,A
Sprite,Foreground,Centre,"sb/d.png",0,0 M,4,207882,208482,388,300,319,208 F,0,207882,208482,1,0 S,0,207882,208482,0.7,0.28 P,0,207882,208482,A
Sprite,Foreground,Centre,"sb/d.png",0,0 M,4,207882,208482,388,300,428,371 F,0,207882,208482,1,0 S,0,207882,208482,0.7,0.28 P,0,207882,208482,A
Sprite,Foreground,Centre,"sb/d.png",0,0 M,4,207882,208482,388,300,285,431 F,0,207882,208482,1,0 S,0,207882,208482,0.7,0.28 P,0,207882,208482,A
Sprite,Foreground,Centre,"sb/d.png",0,0 M,4,207882,208482,388,300,282,390 F,0,207882,208482,1,0 S,0,207882,208482,0.7,0.28 P,0,207882,208482,A
Sprite,Foreground,Centre,"sb/d.png",0,0 M,4,207882,208482,388,300,518,440 F,0,207882,208482,1,0 S,0,207882,208482,0.7,0.28 P,0,207882,208482,A
Sprite,Foreground,Centre,"sb/d.png",0,0 M,4,208182,208782,448,86,411,139 F,0,208182,208782,1,0 S,0,208182,208782,0.7,0.28 P,0,208182,208782,A
Sprite,Foreground,Centre,"sb/d.png",0,0 M,4,208182,208782,448,86,437,85 F,0,208182,208782,1,0 S,0,208182,208782,0.7,0.28 P,0,208182,208782,A
Sprite,Foreground,Centre,"sb/d.png",0,0 M,4,208182,208782,448,86,372,73 F,0,208182,208782,1,0 S,0,208182,208782,0.7,0.28 P,0,208182,208782,A
Sprite,Foreground,Centre,"sb/d.png",0,0 M,4,208182,208782,448,86,595,-18 F,0,208182,208782,1,0 S,0,208182,208782,0.7,0.28 P,0,208182,208782,A
Sprite,Foreground,Centre,"sb/d.png",0,0 M,4,208182,208782,448,86,511,175 F,0,208182,208782,1,0 S,0,208182,208782,0.7,0.28 P,0,208182,208782,A
Sprite,Foreground,Centre,"sb/d.png",0,0 M,4,208182,208782,448,86,385,40 F,0,208182,208782,1,0 S,0,208182,208782,0.7,0.28 P,0,208182,208782,A
Sprite,Foreground,Centre,"sb/d.png",0,0 M,4,208182,208782,448,86,308,28 F,0,208182,208782,1,0 S,0,208182,208782,0.7,0.28 P,0,208182,208782,A
Sprite,Foreground,Centre,"sb/d.png",0,0 M,4,208257,208857,448,86,531,7 F,0,208257,208857,1,0 S,0,208257,208857,0.7,0.28 P,0,208257,208857,A
Sprite,Foreground,Centre,"sb/d.png",0,0 M,4,208257,208857,448,86,526,11 F,0,208257,208857,1,0 S,0,208257,208857,0.7,0.28 P,0,208257,208857,A
Sprite,Foreground,Centre,"sb/d.png",0,0 M,4,208257,208857,448,86,409,72 F,0,208257,208857,1,0 S,0,208257,208857,0.7,0.28 P,0,208257,208857,A
Sprite,Foreground,Centre,"sb/d.png",0,0 M,4,208257,208857,448,86,519,177 F,0,208257,208857,1,0 S,0,208257,208857,0.7,0.28 P,0,208257,208857,A
Sprite,Foreground,Centre,"sb/d.png",0,0 M,4,208257,208857,448,86,443,66 F,0,208257,208857,1,0 S,0,208257,208857,0.7,0.28 P,0,208257,208857,A
Sprite,Foreground,Centre,"sb/d.png",0,0 M,4,208257,208857,448,86,355,81 F,0,208257,208857,1,0 S,0,208257,208857,0.7,0.28 P,0,208257,208857,A
Sprite,Foreground,Centre,"sb/d.png",0,0 M,4,208257,208857,448,86,325,53 F,0,208257,208857,1,0 S,0,208257,208857,0.7,0.28 P,0,208257,208857,A
Sprite,Foreground,Centre,"sb/d.png",0,0 M,4,208332,208932,448,86,594,187 F,0,208332,208932,1,0 S,0,208332,208932,0.7,0.28 P,0,208332,208932,A
Sprite,Foreground,Centre,"sb/d.png",0,0 M,4,208332,208932,448,86,342,-46 F,0,208332,208932,1,0 S,0,208332,208932,0.7,0.28 P,0,208332,208932,A
Sprite,Foreground,Centre,"sb/d.png",0,0 M,4,208332,208932,448,86,312,69 F,0,208332,208932,1,0 S,0,208332,208932,0.7,0.28 P,0,208332,208932,A
Sprite,Foreground,Centre,"sb/d.png",0,0 M,4,208332,208932,448,86,453,201 F,0,208332,208932,1,0 S,0,208332,208932,0.7,0.28 P,0,208332,208932,A
Sprite,Foreground,Centre,"sb/d.png",0,0 M,4,208332,208932,448,86,378,-51 F,0,208332,208932,1,0 S,0,208332,208932,0.7,0.28 P,0,208332,208932,A
Sprite,Foreground,Centre,"sb/d.png",0,0 M,4,208332,208932,448,86,418,42 F,0,208332,208932,1,0 S,0,208332,208932,0.7,0.28 P,0,208332,208932,A
Sprite,Foreground,Centre,"sb/d.png",0,0 M,4,208332,208932,448,86,596,216 F,0,208332,208932,1,0 S,0,208332,208932,0.7,0.28 P,0,208332,208932,A
Sprite,Foreground,Centre,"sb/d.png",0,0 M,4,208482,209082,540,243,412,354 F,0,208482,209082,1,0 S,0,208482,209082,0.7,0.28 P,0,208482,209082,A
Sprite,Foreground,Centre,"sb/d.png",0,0 M,4,208482,209082,540,243,527,370 F,0,208482,209082,1,0 S,0,208482,209082,0.7,0.28 P,0,208482,209082,A
Sprite,Foreground,Centre,"sb/d.png",0,0 M,4,208482,209082,540,243,437,190 F,0,208482,209082,1,0 S,0,208482,209082,0.7,0.28 P,0,208482,209082,A
Sprite,Foreground,Centre,"sb/d.png",0,0 M,4,208482,209082,540,243,677,368 F,0,208482,209082,1,0 S,0,208482,209082,0.7,0.28 P,0,208482,209082,A
Sprite,Foreground,Centre,"sb/d.png",0,0 M,4,208482,209082,540,243,442,362 F,0,208482,209082,1,0 S,0,208482,209082,0.7,0.28 P,0,208482,209082,A
Sprite,Foreground,Centre,"sb/d.png",0,0 M,4,208482,209082,540,243,519,237 F,0,208482,209082,1,0 S,0,208482,209082,0.7,0.28 P,0,208482,209082,A
Sprite,Foreground,Centre,"sb/d.png",0,0 M,4,208482,209082,540,243,458,264 F,0,208482,209082,1,0 S,0,208482,209082,0.7,0.28 P,0,208482,209082,A
Sprite,Foreground,Centre,"sb/d.png",0,0 M,4,208782,209382,368,123,276,-19 F,0,208782,209382,1,0 S,0,208782,209382,0.7,0.28 P,0,208782,209382,A
Sprite,Foreground,Centre,"sb/d.png",0,0 M,4,208782,209382,368,123,309,202 F,0,208782,209382,1,0 S,0,208782,209382,0.7,0.28 P,0,208782,209382,A
Sprite,Foreground,Centre,"sb/d.png",0,0 M,4,208782,209382,368,123,327,153 F,0,208782,209382,1,0 S,0,208782,209382,0.7,0.28 P,0,208782,209382,A
Sprite,Foreground,Centre,"sb/d.png",0,0 M,4,208782,209382,368,123,268,235 F,0,208782,209382,1,0 S,0,208782,209382,0.7,0.28 P,0,208782,209382,A
Sprite,Foreground,Centre,"sb/d.png",0,0 M,4,208782,209382,368,123,412,41 F,0,208782,209382,1,0 S,0,208782,209382,0.7,0.28 P,0,208782,209382,A
Sprite,Foreground,Centre,"sb/d.png",0,0 M,4,208782,209382,368,123,308,150 F,0,208782,209382,1,0 S,0,208782,209382,0.7,0.28 P,0,208782,209382,A
Sprite,Foreground,Centre,"sb/d.png",0,0 M,4,208782,209382,368,123,454,241 F,0,208782,209382,1,0 S,0,208782,209382,0.7,0.28 P,0,208782,209382,A
Sprite,Foreground,Centre,"sb/d.png",0,0 M,4,209082,209682,251,332,392,396 F,0,209082,209682,1,0 S,0,209082,209682,0.7,0.28 P,0,209082,209682,A
Sprite,Foreground,Centre,"sb/d.png",0,0 M,4,209082,209682,251,332,355,186 F,0,209082,209682,1,0 S,0,209082,209682,0.7,0.28 P,0,209082,209682,A
Sprite,Foreground,Centre,"sb/d.png",0,0 M,4,209082,209682,251,332,239,422 F,0,209082,209682,1,0 S,0,209082,209682,0.7,0.28 P,0,209082,209682,A
Sprite,Foreground,Centre,"sb/d.png",0,0 M,4,209082,209682,251,332,320,366 F,0,209082,209682,1,0 S,0,209082,209682,0.7,0.28 P,0,209082,209682,A
Sprite,Foreground,Centre,"sb/d.png",0,0 M,4,209082,209682,251,332,394,262 F,0,209082,209682,1,0 S,0,209082,209682,0.7,0.28 P,0,209082,209682,A
Sprite,Foreground,Centre,"sb/d.png",0,0 M,4,209082,209682,251,332,198,411 F,0,209082,209682,1,0 S,0,209082,209682,0.7,0.28 P,0,209082,209682,A
Sprite,Foreground,Centre,"sb/d.png",0,0 M,4,209082,209682,251,332,231,202 F,0,209082,209682,1,0 S,0,209082,209682,0.7,0.28 P,0,209082,209682,A
Sprite,Foreground,Centre,"sb/d.png",0,0 M,4,209232,209832,147,207,195,132 F,0,209232,209832,1,0 S,0,209232,209832,0.7,0.28 P,0,209232,209832,A
Sprite,Foreground,Centre,"sb/d.png",0,0 M,4,209232,209832,147,207,185,226 F,0,209232,209832,1,0 S,0,209232,209832,0.7,0.28 P,0,209232,209832,A
Sprite,Foreground,Centre,"sb/d.png",0,0 M,4,209232,209832,147,207,62,341 F,0,209232,209832,1,0 S,0,209232,209832,0.7,0.28 P,0,209232,209832,A
Sprite,Foreground,Centre,"sb/d.png",0,0 M,4,209232,209832,147,207,203,128 F,0,209232,209832,1,0 S,0,209232,209832,0.7,0.28 P,0,209232,209832,A
Sprite,Foreground,Centre,"sb/d.png",0,0 M,4,209232,209832,147,207,218,247 F,0,209232,209832,1,0 S,0,209232,209832,0.7,0.28 P,0,209232,209832,A
Sprite,Foreground,Centre,"sb/d.png",0,0 M,4,209232,209832,147,207,294,175 F,0,209232,209832,1,0 S,0,209232,209832,0.7,0.28 P,0,209232,209832,A
Sprite,Foreground,Centre,"sb/d.png",0,0 M,4,209232,209832,147,207,227,117 F,0,209232,209832,1,0 S,0,209232,209832,0.7,0.28 P,0,209232,209832,A
Sprite,Foreground,Centre,"sb/d.png",0,0 M,4,209307,209907,169,202,85,120 F,0,209307,209907,1,0 S,0,209307,209907,0.7,0.28 P,0,209307,209907,A
Sprite,Foreground,Centre,"sb/d.png",0,0 M,4,209307,209907,169,202,206,222 F,0,209307,209907,1,0 S,0,209307,209907,0.7,0.28 P,0,209307,209907,A
Sprite,Foreground,Centre,"sb/d.png",0,0 M,4,209307,209907,169,202,180,70 F,0,209307,209907,1,0 S,0,209307,209907,0.7,0.28 P,0,209307,209907,A
Sprite,Foreground,Centre,"sb/d.png",0,0 M,4,209307,209907,169,202,303,189 F,0,209307,209907,1,0 S,0,209307,209907,0.7,0.28 P,0,209307,209907,A
Sprite,Foreground,Centre,"sb/d.png",0,0 M,4,209307,209907,169,202,33,176 F,0,209307,209907,1,0 S,0,209307,209907,0.7,0.28 P,0,209307,209907,A
Sprite,Foreground,Centre,"sb/d.png",0,0 M,4,209307,209907,169,202,25,179 F,0,209307,209907,1,0 S,0,209307,209907,0.7,0.28 P,0,209307,209907,A
Sprite,Foreground,Centre,"sb/d.png",0,0 M,4,209307,209907,169,202,271,226 F,0,209307,209907,1,0 S,0,209307,209907,0.7,0.28 P,0,209307,209907,A
Sprite,Foreground,Centre,"sb/d.png",0,0 M,4,209382,209982,192,201,57,62 F,0,209382,209982,1,0 S,0,209382,209982,0.7,0.28 P,0,209382,209982,A
Sprite,Foreground,Centre,"sb/d.png",0,0 M,4,209382,209982,192,201,174,230 F,0,209382,209982,1,0 S,0,209382,209982,0.7,0.28 P,0,209382,209982,A
Sprite,Foreground,Centre,"sb/d.png",0,0 M,4,209382,209982,192,201,91,81 F,0,209382,209982,1,0 S,0,209382,209982,0.7,0.28 P,0,209382,209982,A
Sprite,Foreground,Centre,"sb/d.png",0,0 M,4,209382,209982,192,201,105,170 F,0,209382,209982,1,0 S,0,209382,209982,0.7,0.28 P,0,209382,209982,A
Sprite,Foreground,Centre,"sb/d.png",0,0 M,4,209382,209982,192,201,221,271 F,0,209382,209982,1,0 S,0,209382,209982,0.7,0.28 P,0,209382,209982,A
Sprite,Foreground,Centre,"sb/d.png",0,0 M,4,209382,209982,192,201,153,303 F,0,209382,209982,1,0 S,0,209382,209982,0.7,0.28 P,0,209382,209982,A
Sprite,Foreground,Centre,"sb/d.png",0,0 M,4,209382,209982,192,201,104,271 F,0,209382,209982,1,0 S,0,209382,209982,0.7,0.28 P,0,209382,209982,A
Sprite,Foreground,Centre,"sb/d.png",0,0 M,4,209457,210057,215,206,358,120 F,0,209457,210057,1,0 S,0,209457,210057,0.7,0.28 P,0,209457,210057,A
Sprite,Foreground,Centre,"sb/d.png",0,0 M,4,209457,210057,215,206,72,75 F,0,209457,210057,1,0 S,0,209457,210057,0.7,0.28 P,0,209457,210057,A
Sprite,Foreground,Centre,"sb/d.png",0,0 M,4,209457,210057,215,206,74,214 F,0,209457,210057,1,0 S,0,209457,210057,0.7,0.28 P,0,209457,210057,A
Sprite,Foreground,Centre,"sb/d.png",0,0 M,4,209457,210057,215,206,182,281 F,0,209457,210057,1,0 S,0,209457,210057,0.7,0.28 P,0,209457,210057,A
Sprite,Foreground,Centre,"sb/d.png",0,0 M,4,209457,210057,215,206,257,282 F,0,209457,210057,1,0 S,0,209457,210057,0.7,0.28 P,0,209457,210057,A
Sprite,Foreground,Centre,"sb/d.png",0,0 M,4,209457,210057,215,206,133,168 F,0,209457,210057,1,0 S,0,209457,210057,0.7,0.28 P,0,209457,210057,A
Sprite,Foreground,Centre,"sb/d.png",0,0 M,4,209457,210057,215,206,100,117 F,0,209457,210057,1,0 S,0,209457,210057,0.7,0.28 P,0,209457,210057,A
Sprite,Foreground,Centre,"sb/d.png",0,0 M,4,209532,210132,236,214,146,128 F,0,209532,210132,1,0 S,0,209532,210132,0.7,0.28 P,0,209532,210132,A
Sprite,Foreground,Centre,"sb/d.png",0,0 M,4,209532,210132,236,214,249,301 F,0,209532,210132,1,0 S,0,209532,210132,0.7,0.28 P,0,209532,210132,A
Sprite,Foreground,Centre,"sb/d.png",0,0 M,4,209532,210132,236,214,118,96 F,0,209532,210132,1,0 S,0,209532,210132,0.7,0.28 P,0,209532,210132,A
Sprite,Foreground,Centre,"sb/d.png",0,0 M,4,209532,210132,236,214,142,273 F,0,209532,210132,1,0 S,0,209532,210132,0.7,0.28 P,0,209532,210132,A
Sprite,Foreground,Centre,"sb/d.png",0,0 M,4,209532,210132,236,214,144,182 F,0,209532,210132,1,0 S,0,209532,210132,0.7,0.28 P,0,209532,210132,A
Sprite,Foreground,Centre,"sb/d.png",0,0 M,4,209532,210132,236,214,154,264 F,0,209532,210132,1,0 S,0,209532,210132,0.7,0.28 P,0,209532,210132,A
Sprite,Foreground,Centre,"sb/d.png",0,0 M,4,209532,210132,236,214,383,310 F,0,209532,210132,1,0 S,0,209532,210132,0.7,0.28 P,0,209532,210132,A
Sprite,Foreground,Centre,"sb/d.png",0,0 M,4,209682,210282,111,362,149,479 F,0,209682,210282,1,0 S,0,209682,210282,0.7,0.28 P,0,209682,210282,A
Sprite,Foreground,Centre,"sb/d.png",0,0 M,4,209682,210282,111,362,20,420 F,0,209682,210282,1,0 S,0,209682,210282,0.7,0.28 P,0,209682,210282,A
Sprite,Foreground,Centre,"sb/d.png",0,0 M,4,209682,210282,111,362,216,276 F,0,209682,210282,1,0 S,0,209682,210282,0.7,0.28 P,0,209682,210282,A
Sprite,Foreground,Centre,"sb/d.png",0,0 M,4,209682,210282,111,362,105,462 F,0,209682,210282,1,0 S,0,209682,210282,0.7,0.28 P,0,209682,210282,A
Sprite,Foreground,Centre,"sb/d.png",0,0 M,4,209682,210282,111,362,78,498 F,0,209682,210282,1,0 S,0,209682,210282,0.7,0.28 P,0,209682,210282,A
Sprite,Foreground,Centre,"sb/d.png",0,0 M,4,209682,210282,111,362,78,305 F,0,209682,210282,1,0 S,0,209682,210282,0.7,0.28 P,0,209682,210282,A
Sprite,Foreground,Centre,"sb/d.png",0,0 M,4,209682,210282,111,362,17,301 F,0,209682,210282,1,0 S,0,209682,210282,0.7,0.28 P,0,209682,210282,A
Sprite,Foreground,Centre,"sb/d.png",0,0 M,4,209982,210582,252,332,221,388 F,0,209982,210582,1,0 S,0,209982,210582,0.7,0.28 P,0,209982,210582,A
Sprite,Foreground,Centre,"sb/d.png",0,0 M,4,209982,210582,252,332,212,419 F,0,209982,210582,1,0 S,0,209982,210582,0.7,0.28 P,0,209982,210582,A
Sprite,Foreground,Centre,"sb/d.png",0,0 M,4,209982,210582,252,332,396,184 F,0,209982,210582,1,0 S,0,209982,210582,0.7,0.28 P,0,209982,210582,A
Sprite,Foreground,Centre,"sb/d.png",0,0 M,4,209982,210582,252,332,161,297 F,0,209982,210582,1,0 S,0,209982,210582,0.7,0.28 P,0,209982,210582,A
Sprite,Foreground,Centre,"sb/d.png",0,0 M,4,209982,210582,252,332,158,356 F,0,209982,210582,1,0 S,0,209982,210582,0.7,0.28 P,0,209982,210582,A
Sprite,Foreground,Centre,"sb/d.png",0,0 M,4,209982,210582,252,332,321,212 F,0,209982,210582,1,0 S,0,209982,210582,0.7,0.28 P,0,209982,210582,A
Sprite,Foreground,Centre,"sb/d.png",0,0 M,4,209982,210582,252,332,265,265 F,0,209982,210582,1,0 S,0,209982,210582,0.7,0.28 P,0,209982,210582,A
Sprite,Foreground,Centre,"sb/d.png",0,0 M,4,210282,210882,147,207,3,245 F,0,210282,210882,1,0 S,0,210282,210882,0.7,0.28 P,0,210282,210882,A
Sprite,Foreground,Centre,"sb/d.png",0,0 M,4,210282,210882,147,207,248,166 F,0,210282,210882,1,0 S,0,210282,210882,0.7,0.28 P,0,210282,210882,A
Sprite,Foreground,Centre,"sb/d.png",0,0 M,4,210282,210882,147,207,158,227 F,0,210282,210882,1,0 S,0,210282,210882,0.7,0.28 P,0,210282,210882,A
Sprite,Foreground,Centre,"sb/d.png",0,0 M,4,210282,210882,147,207,34,282 F,0,210282,210882,1,0 S,0,210282,210882,0.7,0.28 P,0,210282,210882,A
Sprite,Foreground,Centre,"sb/d.png",0,0 M,4,210282,210882,147,207,164,216 F,0,210282,210882,1,0 S,0,210282,210882,0.7,0.28 P,0,210282,210882,A
Sprite,Foreground,Centre,"sb/d.png",0,0 M,4,210282,210882,147,207,153,328 F,0,210282,210882,1,0 S,0,210282,210882,0.7,0.28 P,0,210282,210882,A
Sprite,Foreground,Centre,"sb/d.png",0,0 M,4,210282,210882,147,207,213,167 F,0,210282,210882,1,0 S,0,210282,210882,0.7,0.28 P,0,210282,210882,A
Sprite,Foreground,Centre,"sb/d.png",0,0 M,4,210432,211032,287,259,383,286 F,0,210432,211032,1,0 S,0,210432,211032,0.7,0.28 P,0,210432,211032,A
Sprite,Foreground,Centre,"sb/d.png",0,0 M,4,210432,211032,287,259,256,347 F,0,210432,211032,1,0 S,0,210432,211032,0.7,0.28 P,0,210432,211032,A
Sprite,Foreground,Centre,"sb/d.png",0,0 M,4,210432,211032,287,259,412,375 F,0,210432,211032,1,0 S,0,210432,211032,0.7,0.28 P,0,210432,211032,A
Sprite,Foreground,Centre,"sb/d.png",0,0 M,4,210432,211032,287,259,227,261 F,0,210432,211032,1,0 S,0,210432,211032,0.7,0.28 P,0,210432,211032,A
Sprite,Foreground,Centre,"sb/d.png",0,0 M,4,210432,211032,287,259,144,239 F,0,210432,211032,1,0 S,0,210432,211032,0.7,0.28 P,0,210432,211032,A
Sprite,Foreground,Centre,"sb/d.png",0,0 M,4,210432,211032,287,259,343,403 F,0,210432,211032,1,0 S,0,210432,211032,0.7,0.28 P,0,210432,211032,A
Sprite,Foreground,Centre,"sb/d.png",0,0 M,4,210432,211032,287,259,324,181 F,0,210432,211032,1,0 S,0,210432,211032,0.7,0.28 P,0,210432,211032,A
Sprite,Foreground,Centre,"sb/d.png",0,0 M,4,210507,211107,287,259,347,294 F,0,210507,211107,1,0 S,0,210507,211107,0.7,0.28 P,0,210507,211107,A
Sprite,Foreground,Centre,"sb/d.png",0,0 M,4,210507,211107,287,259,426,334 F,0,210507,211107,1,0 S,0,210507,211107,0.7,0.28 P,0,210507,211107,A
Sprite,Foreground,Centre,"sb/d.png",0,0 M,4,210507,211107,287,259,337,170 F,0,210507,211107,1,0 S,0,210507,211107,0.7,0.28 P,0,210507,211107,A
Sprite,Foreground,Centre,"sb/d.png",0,0 M,4,210507,211107,287,259,381,338 F,0,210507,211107,1,0 S,0,210507,211107,0.7,0.28 P,0,210507,211107,A
Sprite,Foreground,Centre,"sb/d.png",0,0 M,4,210507,211107,287,259,171,117 F,0,210507,211107,1,0 S,0,210507,211107,0.7,0.28 P,0,210507,211107,A
Sprite,Foreground,Centre,"sb/d.png",0,0 M,4,210507,211107,287,259,369,295 F,0,210507,211107,1,0 S,0,210507,211107,0.7,0.28 P,0,210507,211107,A
Sprite,Foreground,Centre,"sb/d.png",0,0 M,4,210507,211107,287,259,189,302 F,0,210507,211107,1,0 S,0,210507,211107,0.7,0.28 P,0,210507,211107,A
Sprite,Foreground,Centre,"sb/d.png",0,0 M,4,210582,211182,287,259,175,359 F,0,210582,211182,1,0 S,0,210582,211182,0.7,0.28 P,0,210582,211182,A
Sprite,Foreground,Centre,"sb/d.png",0,0 M,4,210582,211182,287,259,218,131 F,0,210582,211182,1,0 S,0,210582,211182,0.7,0.28 P,0,210582,211182,A
Sprite,Foreground,Centre,"sb/d.png",0,0 M,4,210582,211182,287,259,222,358 F,0,210582,211182,1,0 S,0,210582,211182,0.7,0.28 P,0,210582,211182,A
Sprite,Foreground,Centre,"sb/d.png",0,0 M,4,210582,211182,287,259,306,288 F,0,210582,211182,1,0 S,0,210582,211182,0.7,0.28 P,0,210582,211182,A
Sprite,Foreground,Centre,"sb/d.png",0,0 M,4,210582,211182,287,259,191,390 F,0,210582,211182,1,0 S,0,210582,211182,0.7,0.28 P,0,210582,211182,A
Sprite,Foreground,Centre,"sb/d.png",0,0 M,4,210582,211182,287,259,191,306 F,0,210582,211182,1,0 S,0,210582,211182,0.7,0.28 P,0,210582,211182,A
Sprite,Foreground,Centre,"sb/d.png",0,0 M,4,210582,211182,287,259,429,263 F,0,210582,211182,1,0 S,0,210582,211182,0.7,0.28 P,0,210582,211182,A
Sprite,Foreground,Centre,"sb/d.png",0,0 M,4,210882,211482,147,207,177,177 F,0,210882,211482,1,0 S,0,210882,211482,0.7,0.28 P,0,210882,211482,A
Sprite,Foreground,Centre,"sb/d.png",0,0 M,4,210882,211482,147,207,199,223 F,0,210882,211482,1,0 S,0,210882,211482,0.7,0.28 P,0,210882,211482,A
Sprite,Foreground,Centre,"sb/d.png",0,0 M,4,210882,211482,147,207,279,321 F,0,210882,211482,1,0 S,0,210882,211482,0.7,0.28 P,0,210882,211482,A
Sprite,Foreground,Centre,"sb/d.png",0,0 M,4,210882,211482,147,207,11,338 F,0,210882,211482,1,0 S,0,210882,211482,0.7,0.28 P,0,210882,211482,A
Sprite,Foreground,Centre,"sb/d.png",0,0 M,4,210882,211482,147,207,167,287 F,0,210882,211482,1,0 S,0,210882,211482,0.7,0.28 P,0,210882,211482,A
Sprite,Foreground,Centre,"sb/d.png",0,0 M,4,210882,211482,147,207,68,212 F,0,210882,211482,1,0 S,0,210882,211482,0.7,0.28 P,0,210882,211482,A
Sprite,Foreground,Centre,"sb/d.png",0,0 M,4,210882,211482,147,207,162,74 F,0,210882,211482,1,0 S,0,210882,211482,0.7,0.28 P,0,210882,211482,A
Sprite,Foreground,Centre,"sb/d.png",0,0 M,4,211182,211782,223,309,215,269 F,0,211182,211782,1,0 S,0,211182,211782,0.7,0.28 P,0,211182,211782,A
Sprite,Foreground,Centre,"sb/d.png",0,0 M,4,211182,211782,223,309,79,248 F,0,211182,211782,1,0 S,0,211182,211782,0.7,0.28 P,0,211182,211782,A
Sprite,Foreground,Centre,"sb/d.png",0,0 M,4,211182,211782,223,309,287,355 F,0,211182,211782,1,0 S,0,211182,211782,0.7,0.28 P,0,211182,211782,A
Sprite,Foreground,Centre,"sb/d.png",0,0 M,4,211182,211782,223,309,186,216 F,0,211182,211782,1,0 S,0,211182,211782,0.7,0.28 P,0,211182,211782,A
Sprite,Foreground,Centre,"sb/d.png",0,0 M,4,211182,211782,223,309,122,342 F,0,211182,211782,1,0 S,0,211182,211782,0.7,0.28 P,0,211182,211782,A
Sprite,Foreground,Centre,"sb/d.png",0,0 M,4,211182,211782,223,309,282,397 F,0,211182,211782,1,0 S,0,211182,211782,0.7,0.28 P,0,211182,211782,A
Sprite,Foreground,Centre,"sb/d.png",0,0 M,4,211182,211782,223,309,276,190 F,0,211182,211782,1,0 S,0,211182,211782,0.7,0.28 P,0,211182,211782,A
Sprite,Foreground,Centre,"sb/d.png",0,0 M,4,211482,212082,76,325,56,182 F,0,211482,212082,1,0 S,0,211482,212082,0.7,0.28 P,0,211482,212082,A
Sprite,Foreground,Centre,"sb/d.png",0,0 M,4,211482,212082,76,325,97,178 F,0,211482,212082,1,0 S,0,211482,212082,0.7,0.28 P,0,211482,212082,A
Sprite,Foreground,Centre,"sb/d.png",0,0 M,4,211482,212082,76,325,-5,265 F,0,211482,212082,1,0 S,0,211482,212082,0.7,0.28 P,0,211482,212082,A
Sprite,Foreground,Centre,"sb/d.png",0,0 M,4,211482,212082,76,325,-26,389 F,0,211482,212082,1,0 S,0,211482,212082,0.7,0.28 P,0,211482,212082,A
Sprite,Foreground,Centre,"sb/d.png",0,0 M,4,211482,212082,76,325,32,240 F,0,211482,212082,1,0 S,0,211482,212082,0.7,0.28 P,0,211482,212082,A
Sprite,Foreground,Centre,"sb/d.png",0,0 M,4,211482,212082,76,325,129,263 F,0,211482,212082,1,0 S,0,211482,212082,0.7,0.28 P,0,211482,212082,A
Sprite,Foreground,Centre,"sb/d.png",0,0 M,4,211482,212082,76,325,105,232 F,0,211482,212082,1,0 S,0,211482,212082,0.7,0.28 P,0,211482,212082,A
Sprite,Foreground,Centre,"sb/d.png",0,0 M,4,211632,212232,153,186,82,186 F,0,211632,212232,1,0 S,0,211632,212232,0.7,0.28 P,0,211632,212232,A
Sprite,Foreground,Centre,"sb/d.png",0,0 M,4,211632,212232,153,186,254,265 F,0,211632,212232,1,0 S,0,211632,212232,0.7,0.28 P,0,211632,212232,A
Sprite,Foreground,Centre,"sb/d.png",0,0 M,4,211632,212232,153,186,86,187 F,0,211632,212232,1,0 S,0,211632,212232,0.7,0.28 P,0,211632,212232,A
Sprite,Foreground,Centre,"sb/d.png",0,0 M,4,211632,212232,153,186,39,279 F,0,211632,212232,1,0 S,0,211632,212232,0.7,0.28 P,0,211632,212232,A
Sprite,Foreground,Centre,"sb/d.png",0,0 M,4,211632,212232,153,186,277,301 F,0,211632,212232,1,0 S,0,211632,212232,0.7,0.28 P,0,211632,212232,A
Sprite,Foreground,Centre,"sb/d.png",0,0 M,4,211632,212232,153,186,285,131 F,0,211632,212232,1,0 S,0,211632,212232,0.7,0.28 P,0,211632,212232,A
Sprite,Foreground,Centre,"sb/d.png",0,0 M,4,211632,212232,153,186,43,159 F,0,211632,212232,1,0 S,0,211632,212232,0.7,0.28 P,0,211632,212232,A
Sprite,Foreground,Centre,"sb/d.png",0,0 M,4,211707,212307,154,197,75,65 F,0,211707,212307,1,0 S,0,211707,212307,0.7,0.28 P,0,211707,212307,A
Sprite,Foreground,Centre,"sb/d.png",0,0 M,4,211707,212307,154,197,260,91 F,0,211707,212307,1,0 S,0,211707,212307,0.7,0.28 P,0,211707,212307,A
Sprite,Foreground,Centre,"sb/d.png",0,0 M,4,211707,212307,154,197,64,329 F,0,211707,212307,1,0 S,0,211707,212307,0.7,0.28 P,0,211707,212307,A
Sprite,Foreground,Centre,"sb/d.png",0,0 M,4,211707,212307,154,197,154,210 F,0,211707,212307,1,0 S,0,211707,212307,0.7,0.28 P,0,211707,212307,A
Sprite,Foreground,Centre,"sb/d.png",0,0 M,4,211707,212307,154,197,63,115 F,0,211707,212307,1,0 S,0,211707,212307,0.7,0.28 P,0,211707,212307,A
Sprite,Foreground,Centre,"sb/d.png",0,0 M,4,211707,212307,154,197,90,122 F,0,211707,212307,1,0 S,0,211707,212307,0.7,0.28 P,0,211707,212307,A
Sprite,Foreground,Centre,"sb/d.png",0,0 M,4,211707,212307,154,197,272,275 F,0,211707,212307,1,0 S,0,211707,212307,0.7,0.28 P,0,211707,212307,A
Sprite,Foreground,Centre,"sb/d.png",0,0 M,4,211782,212382,156,208,10,298 F,0,211782,212382,1,0 S,0,211782,212382,0.7,0.28 P,0,211782,212382,A
Sprite,Foreground,Centre,"sb/d.png",0,0 M,4,211782,212382,156,208,191,184 F,0,211782,212382,1,0 S,0,211782,212382,0.7,0.28 P,0,211782,212382,A
Sprite,Foreground,Centre,"sb/d.png",0,0 M,4,211782,212382,156,208,23,113 F,0,211782,212382,1,0 S,0,211782,212382,0.7,0.28 P,0,211782,212382,A
Sprite,Foreground,Centre,"sb/d.png",0,0 M,4,211782,212382,156,208,283,256 F,0,211782,212382,1,0 S,0,211782,212382,0.7,0.28 P,0,211782,212382,A
Sprite,Foreground,Centre,"sb/d.png",0,0 M,4,211782,212382,156,208,238,338 F,0,211782,212382,1,0 S,0,211782,212382,0.7,0.28 P,0,211782,212382,A
Sprite,Foreground,Centre,"sb/d.png",0,0 M,4,211782,212382,156,208,161,109 F,0,211782,212382,1,0 S,0,211782,212382,0.7,0.28 P,0,211782,212382,A
Sprite,Foreground,Centre,"sb/d.png",0,0 M,4,211782,212382,156,208,301,245 F,0,211782,212382,1,0 S,0,211782,212382,0.7,0.28 P,0,211782,212382,A
Sprite,Foreground,Centre,"sb/d.png",0,0 M,4,211857,212457,158,220,40,275 F,0,211857,212457,1,0 S,0,211857,212457,0.7,0.28 P,0,211857,212457,A
Sprite,Foreground,Centre,"sb/d.png",0,0 M,4,211857,212457,158,220,28,343 F,0,211857,212457,1,0 S,0,211857,212457,0.7,0.28 P,0,211857,212457,A
Sprite,Foreground,Centre,"sb/d.png",0,0 M,4,211857,212457,158,220,57,295 F,0,211857,212457,1,0 S,0,211857,212457,0.7,0.28 P,0,211857,212457,A
Sprite,Foreground,Centre,"sb/d.png",0,0 M,4,211857,212457,158,220,150,157 F,0,211857,212457,1,0 S,0,211857,212457,0.7,0.28 P,0,211857,212457,A
Sprite,Foreground,Centre,"sb/d.png",0,0 M,4,211857,212457,158,220,116,228 F,0,211857,212457,1,0 S,0,211857,212457,0.7,0.28 P,0,211857,212457,A
Sprite,Foreground,Centre,"sb/d.png",0,0 M,4,211857,212457,158,220,35,267 F,0,211857,212457,1,0 S,0,211857,212457,0.7,0.28 P,0,211857,212457,A
Sprite,Foreground,Centre,"sb/d.png",0,0 M,4,211857,212457,158,220,214,286 F,0,211857,212457,1,0 S,0,211857,212457,0.7,0.28 P,0,211857,212457,A
Sprite,Foreground,Centre,"sb/d.png",0,0 M,4,211932,212532,159,231,100,263 F,0,211932,212532,1,0 S,0,211932,212532,0.7,0.28 P,0,211932,212532,A
Sprite,Foreground,Centre,"sb/d.png",0,0 M,4,211932,212532,159,231,152,88 F,0,211932,212532,1,0 S,0,211932,212532,0.7,0.28 P,0,211932,212532,A
Sprite,Foreground,Centre,"sb/d.png",0,0 M,4,211932,212532,159,231,191,189 F,0,211932,212532,1,0 S,0,211932,212532,0.7,0.28 P,0,211932,212532,A
Sprite,Foreground,Centre,"sb/d.png",0,0 M,4,211932,212532,159,231,248,114 F,0,211932,212532,1,0 S,0,211932,212532,0.7,0.28 P,0,211932,212532,A
Sprite,Foreground,Centre,"sb/d.png",0,0 M,4,211932,212532,159,231,88,237 F,0,211932,212532,1,0 S,0,211932,212532,0.7,0.28 P,0,211932,212532,A
Sprite,Foreground,Centre,"sb/d.png",0,0 M,4,211932,212532,159,231,87,365 F,0,211932,212532,1,0 S,0,211932,212532,0.7,0.28 P,0,211932,212532,A
Sprite,Foreground,Centre,"sb/d.png",0,0 M,4,211932,212532,159,231,154,254 F,0,211932,212532,1,0 S,0,211932,212532,0.7,0.28 P,0,211932,212532,A
Sprite,Foreground,Centre,"sb/d.png",0,0 M,4,212082,212682,212,397,147,523 F,0,212082,212682,1,0 S,0,212082,212682,0.7,0.28 P,0,212082,212682,A
Sprite,Foreground,Centre,"sb/d.png",0,0 M,4,212082,212682,212,397,250,255 F,0,212082,212682,1,0 S,0,212082,212682,0.7,0.28 P,0,212082,212682,A
Sprite,Foreground,Centre,"sb/d.png",0,0 M,4,212082,212682,212,397,349,510 F,0,212082,212682,1,0 S,0,212082,212682,0.7,0.28 P,0,212082,212682,A
Sprite,Foreground,Centre,"sb/d.png",0,0 M,4,212082,212682,212,397,192,401 F,0,212082,212682,1,0 S,0,212082,212682,0.7,0.28 P,0,212082,212682,A
Sprite,Foreground,Centre,"sb/d.png",0,0 M,4,212082,212682,212,397,109,359 F,0,212082,212682,1,0 S,0,212082,212682,0.7,0.28 P,0,212082,212682,A
Sprite,Foreground,Centre,"sb/d.png",0,0 M,4,212082,212682,212,397,88,290 F,0,212082,212682,1,0 S,0,212082,212682,0.7,0.28 P,0,212082,212682,A
Sprite,Foreground,Centre,"sb/d.png",0,0 M,4,212082,212682,212,397,147,463 F,0,212082,212682,1,0 S,0,212082,212682,0.7,0.28 P,0,212082,212682,A
Sprite,Foreground,Centre,"sb/d.png",0,0 M,4,212382,212982,417,271,399,147 F,0,212382,212982,1,0 S,0,212382,212982,0.7,0.28 P,0,212382,212982,A
Sprite,Foreground,Centre,"sb/d.png",0,0 M,4,212382,212982,417,271,366,241 F,0,212382,212982,1,0 S,0,212382,212982,0.7,0.28 P,0,212382,212982,A
Sprite,Foreground,Centre,"sb/d.png",0,0 M,4,212382,212982,417,271,416,182 F,0,212382,212982,1,0 S,0,212382,212982,0.7,0.28 P,0,212382,212982,A
Sprite,Foreground,Centre,"sb/d.png",0,0 M,4,212382,212982,417,271,373,171 F,0,212382,212982,1,0 S,0,212382,212982,0.7,0.28 P,0,212382,212982,A
Sprite,Foreground,Centre,"sb/d.png",0,0 M,4,212382,212982,417,271,403,269 F,0,212382,212982,1,0 S,0,212382,212982,0.7,0.28 P,0,212382,212982,A
Sprite,Foreground,Centre,"sb/d.png",0,0 M,4,212382,212982,417,271,435,307 F,0,212382,212982,1,0 S,0,212382,212982,0.7,0.28 P,0,212382,212982,A
Sprite,Foreground,Centre,"sb/d.png",0,0 M,4,212382,212982,417,271,514,420 F,0,212382,212982,1,0 S,0,212382,212982,0.7,0.28 P,0,212382,212982,A
Sprite,Foreground,Centre,"sb/d.png",0,0 M,4,212682,213282,239,148,214,162 F,0,212682,213282,1,0 S,0,212682,213282,0.7,0.28 P,0,212682,213282,A
Sprite,Foreground,Centre,"sb/d.png",0,0 M,4,212682,213282,239,148,284,62 F,0,212682,213282,1,0 S,0,212682,213282,0.7,0.28 P,0,212682,213282,A
Sprite,Foreground,Centre,"sb/d.png",0,0 M,4,212682,213282,239,148,168,267 F,0,212682,213282,1,0 S,0,212682,213282,0.7,0.28 P,0,212682,213282,A
Sprite,Foreground,Centre,"sb/d.png",0,0 M,4,212682,213282,239,148,91,129 F,0,212682,213282,1,0 S,0,212682,213282,0.7,0.28 P,0,212682,213282,A
Sprite,Foreground,Centre,"sb/d.png",0,0 M,4,212682,213282,239,148,359,16 F,0,212682,213282,1,0 S,0,212682,213282,0.7,0.28 P,0,212682,213282,A
Sprite,Foreground,Centre,"sb/d.png",0,0 M,4,212682,213282,239,148,298,240 F,0,212682,213282,1,0 S,0,212682,213282,0.7,0.28 P,0,212682,213282,A
Sprite,Foreground,Centre,"sb/d.png",0,0 M,4,212682,213282,239,148,175,235 F,0,212682,213282,1,0 S,0,212682,213282,0.7,0.28 P,0,212682,213282,A
Sprite,Foreground,Centre,"sb/d.png",0,0 M,4,212832,213432,388,86,372,-34 F,0,212832,213432,1,0 S,0,212832,213432,0.7,0.28 P,0,212832,213432,A
Sprite,Foreground,Centre,"sb/d.png",0,0 M,4,212832,213432,388,86,518,75 F,0,212832,213432,1,0 S,0,212832,213432,0.7,0.28 P,0,212832,213432,A
Sprite,Foreground,Centre,"sb/d.png",0,0 M,4,212832,213432,388,86,260,-41 F,0,212832,213432,1,0 S,0,212832,213432,0.7,0.28 P,0,212832,213432,A
Sprite,Foreground,Centre,"sb/d.png",0,0 M,4,212832,213432,388,86,439,-11 F,0,212832,213432,1,0 S,0,212832,213432,0.7,0.28 P,0,212832,213432,A
Sprite,Foreground,Centre,"sb/d.png",0,0 M,4,212832,213432,388,86,294,193 F,0,212832,213432,1,0 S,0,212832,213432,0.7,0.28 P,0,212832,213432,A
Sprite,Foreground,Centre,"sb/d.png",0,0 M,4,212832,213432,388,86,373,20 F,0,212832,213432,1,0 S,0,212832,213432,0.7,0.28 P,0,212832,213432,A
Sprite,Foreground,Centre,"sb/d.png",0,0 M,4,212832,213432,388,86,304,-29 F,0,212832,213432,1,0 S,0,212832,213432,0.7,0.28 P,0,212832,213432,A
Sprite,Foreground,Centre,"sb/d.png",0,0 M,4,212907,213507,385,108,374,-2 F,0,212907,213507,1,0 S,0,212907,213507,0.7,0.28 P,0,212907,213507,A
Sprite,Foreground,Centre,"sb/d.png",0,0 M,4,212907,213507,385,108,374,58 F,0,212907,213507,1,0 S,0,212907,213507,0.7,0.28 P,0,212907,213507,A
Sprite,Foreground,Centre,"sb/d.png",0,0 M,4,212907,213507,385,108,251,88 F,0,212907,213507,1,0 S,0,212907,213507,0.7,0.28 P,0,212907,213507,A
Sprite,Foreground,Centre,"sb/d.png",0,0 M,4,212907,213507,385,108,263,141 F,0,212907,213507,1,0 S,0,212907,213507,0.7,0.28 P,0,212907,213507,A
Sprite,Foreground,Centre,"sb/d.png",0,0 M,4,212907,213507,385,108,452,220 F,0,212907,213507,1,0 S,0,212907,213507,0.7,0.28 P,0,212907,213507,A
Sprite,Foreground,Centre,"sb/d.png",0,0 M,4,212907,213507,385,108,499,74 F,0,212907,213507,1,0 S,0,212907,213507,0.7,0.28 P,0,212907,213507,A
Sprite,Foreground,Centre,"sb/d.png",0,0 M,4,212907,213507,385,108,449,-42 F,0,212907,213507,1,0 S,0,212907,213507,0.7,0.28 P,0,212907,213507,A
Sprite,Foreground,Centre,"sb/d.png",0,0 M,4,212982,213582,382,131,288,61 F,0,212982,213582,1,0 S,0,212982,213582,0.7,0.28 P,0,212982,213582,A
Sprite,Foreground,Centre,"sb/d.png",0,0 M,4,212982,213582,382,131,442,188 F,0,212982,213582,1,0 S,0,212982,213582,0.7,0.28 P,0,212982,213582,A
Sprite,Foreground,Centre,"sb/d.png",0,0 M,4,212982,213582,382,131,506,150 F,0,212982,213582,1,0 S,0,212982,213582,0.7,0.28 P,0,212982,213582,A
Sprite,Foreground,Centre,"sb/d.png",0,0 M,4,212982,213582,382,131,447,87 F,0,212982,213582,1,0 S,0,212982,213582,0.7,0.28 P,0,212982,213582,A
Sprite,Foreground,Centre,"sb/d.png",0,0 M,4,212982,213582,382,131,399,10 F,0,212982,213582,1,0 S,0,212982,213582,0.7,0.28 P,0,212982,213582,A
Sprite,Foreground,Centre,"sb/d.png",0,0 M,4,212982,213582,382,131,396,205 F,0,212982,213582,1,0 S,0,212982,213582,0.7,0.28 P,0,212982,213582,A
Sprite,Foreground,Centre,"sb/d.png",0,0 M,4,212982,213582,382,131,329,53 F,0,212982,213582,1,0 S,0,212982,213582,0.7,0.28 P,0,212982,213582,A
Sprite,Foreground,Centre,"sb/d.png",0,0 M,4,213057,213657,380,154,337,241 F,0,213057,213657,1,0 S,0,213057,213657,0.7,0.28 P,0,213057,213657,A
Sprite,Foreground,Centre,"sb/d.png",0,0 M,4,213057,213657,380,154,459,299 F,0,213057,213657,1,0 S,0,213057,213657,0.7,0.28 P,0,213057,213657,A
Sprite,Foreground,Centre,"sb/d.png",0,0 M,4,213057,213657,380,154,433,271 F,0,213057,213657,1,0 S,0,213057,213657,0.7,0.28 P,0,213057,213657,A
Sprite,Foreground,Centre,"sb/d.png",0,0 M,4,213057,213657,380,154,521,233 F,0,213057,213657,1,0 S,0,213057,213657,0.7,0.28 P,0,213057,213657,A
Sprite,Foreground,Centre,"sb/d.png",0,0 M,4,213057,213657,380,154,408,112 F,0,213057,213657,1,0 S,0,213057,213657,0.7,0.28 P,0,213057,213657,A
Sprite,Foreground,Centre,"sb/d.png",0,0 M,4,213057,213657,380,154,456,259 F,0,213057,213657,1,0 S,0,213057,213657,0.7,0.28 P,0,213057,213657,A
Sprite,Foreground,Centre,"sb/d.png",0,0 M,4,213057,213657,380,154,438,255 F,0,213057,213657,1,0 S,0,213057,213657,0.7,0.28 P,0,213057,213657,A
Sprite,Foreground,Centre,"sb/d.png",0,0 M,4,213132,213732,377,177,340,45 F,0,213132,213732,1,0 S,0,213132,213732,0.7,0.28 P,0,213132,213732,A
Sprite,Foreground,Centre,"sb/d.png",0,0 M,4,213132,213732,377,177,401,233 F,0,213132,213732,1,0 S,0,213132,213732,0.7,0.28 P,0,213132,213732,A
Sprite,Foreground,Centre,"sb/d.png",0,0 M,4,213132,213732,377,177,336,227 F,0,213132,213732,1,0 S,0,213132,213732,0.7,0.28 P,0,213132,213732,A
Sprite,Foreground,Centre,"sb/d.png",0,0 M,4,213132,213732,377,177,523,302 F,0,213132,213732,1,0 S,0,213132,213732,0.7,0.28 P,0,213132,213732,A
Sprite,Foreground,Centre,"sb/d.png",0,0 M,4,213132,213732,377,177,273,254 F,0,213132,213732,1,0 S,0,213132,213732,0.7,0.28 P,0,213132,213732,A
Sprite,Foreground,Centre,"sb/d.png",0,0 M,4,213132,213732,377,177,336,224 F,0,213132,213732,1,0 S,0,213132,213732,0.7,0.28 P,0,213132,213732,A
Sprite,Foreground,Centre,"sb/d.png",0,0 M,4,213132,213732,377,177,346,60 F,0,213132,213732,1,0 S,0,213132,213732,0.7,0.28 P,0,213132,213732,A
Sprite,Foreground,Centre,"sb/d.png",0,0 M,4,213282,213882,497,295,520,254 F,0,213282,213882,1,0 S,0,213282,213882,0.7,0.28 P,0,213282,213882,A
Sprite,Foreground,Centre,"sb/d.png",0,0 M,4,213282,213882,497,295,583,236 F,0,213282,213882,1,0 S,0,213282,213882,0.7,0.28 P,0,213282,213882,A
Sprite,Foreground,Centre,"sb/d.png",0,0 M,4,213282,213882,497,295,380,401 F,0,213282,213882,1,0 S,0,213282,213882,0.7,0.28 P,0,213282,213882,A
Sprite,Foreground,Centre,"sb/d.png",0,0 M,4,213282,213882,497,295,422,424 F,0,213282,213882,1,0 S,0,213282,213882,0.7,0.28 P,0,213282,213882,A
Sprite,Foreground,Centre,"sb/d.png",0,0 M,4,213282,213882,497,295,380,413 F,0,213282,213882,1,0 S,0,213282,213882,0.7,0.28 P,0,213282,213882,A
Sprite,Foreground,Centre,"sb/d.png",0,0 M,4,213282,213882,497,295,560,391 F,0,213282,213882,1,0 S,0,213282,213882,0.7,0.28 P,0,213282,213882,A
Sprite,Foreground,Centre,"sb/d.png",0,0 M,4,213282,213882,497,295,355,272 F,0,213282,213882,1,0 S,0,213282,213882,0.7,0.28 P,0,213282,213882,A
Sprite,Foreground,Centre,"sb/d.png",0,0 M,4,213582,214182,370,340,422,292 F,0,213582,214182,1,0 S,0,213582,214182,0.7,0.28 P,0,213582,214182,A
Sprite,Foreground,Centre,"sb/d.png",0,0 M,4,213582,214182,370,340,501,209 F,0,213582,214182,1,0 S,0,213582,214182,0.7,0.28 P,0,213582,214182,A
Sprite,Foreground,Centre,"sb/d.png",0,0 M,4,213582,214182,370,340,480,454 F,0,213582,214182,1,0 S,0,213582,214182,0.7,0.28 P,0,213582,214182,A
Sprite,Foreground,Centre,"sb/d.png",0,0 M,4,213582,214182,370,340,513,339 F,0,213582,214182,1,0 S,0,213582,214182,0.7,0.28 P,0,213582,214182,A
Sprite,Foreground,Centre,"sb/d.png",0,0 M,4,213582,214182,370,340,375,447 F,0,213582,214182,1,0 S,0,213582,214182,0.7,0.28 P,0,213582,214182,A
Sprite,Foreground,Centre,"sb/d.png",0,0 M,4,213582,214182,370,340,335,386 F,0,213582,214182,1,0 S,0,213582,214182,0.7,0.28 P,0,213582,214182,A
Sprite,Foreground,Centre,"sb/d.png",0,0 M,4,213582,214182,370,340,295,321 F,0,213582,214182,1,0 S,0,213582,214182,0.7,0.28 P,0,213582,214182,A
Sprite,Foreground,Centre,"sb/d.png",0,0 M,4,213882,214482,281,197,322,48 F,0,213882,214482,1,0 S,0,213882,214482,0.7,0.28 P,0,213882,214482,A
Sprite,Foreground,Centre,"sb/d.png",0,0 M,4,213882,214482,281,197,316,52 F,0,213882,214482,1,0 S,0,213882,214482,0.7,0.28 P,0,213882,214482,A
Sprite,Foreground,Centre,"sb/d.png",0,0 M,4,213882,214482,281,197,278,305 F,0,213882,214482,1,0 S,0,213882,214482,0.7,0.28 P,0,213882,214482,A
Sprite,Foreground,Centre,"sb/d.png",0,0 M,4,213882,214482,281,197,186,115 F,0,213882,214482,1,0 S,0,213882,214482,0.7,0.28 P,0,213882,214482,A
Sprite,Foreground,Centre,"sb/d.png",0,0 M,4,213882,214482,281,197,303,182 F,0,213882,214482,1,0 S,0,213882,214482,0.7,0.28 P,0,213882,214482,A
Sprite,Foreground,Centre,"sb/d.png",0,0 M,4,213882,214482,281,197,353,299 F,0,213882,214482,1,0 S,0,213882,214482,0.7,0.28 P,0,213882,214482,A
Sprite,Foreground,Centre,"sb/d.png",0,0 M,4,213882,214482,281,197,306,180 F,0,213882,214482,1,0 S,0,213882,214482,0.7,0.28 P,0,213882,214482,A
Sprite,Foreground,Centre,"sb/d.png",0,0 M,4,214032,214632,183,317,317,373 F,0,214032,214632,1,0 S,0,214032,214632,0.7,0.28 P,0,214032,214632,A
Sprite,Foreground,Centre,"sb/d.png",0,0 M,4,214032,214632,183,317,326,329 F,0,214032,214632,1,0 S,0,214032,214632,0.7,0.28 P,0,214032,214632,A
Sprite,Foreground,Centre,"sb/d.png",0,0 M,4,214032,214632,183,317,224,335 F,0,214032,214632,1,0 S,0,214032,214632,0.7,0.28 P,0,214032,214632,A
Sprite,Foreground,Centre,"sb/d.png",0,0 M,4,214032,214632,183,317,106,411 F,0,214032,214632,1,0 S,0,214032,214632,0.7,0.28 P,0,214032,214632,A
Sprite,Foreground,Centre,"sb/d.png",0,0 M,4,214032,214632,183,317,279,257 F,0,214032,214632,1,0 S,0,214032,214632,0.7,0.28 P,0,214032,214632,A
Sprite,Foreground,Centre,"sb/d.png",0,0 M,4,214032,214632,183,317,269,322 F,0,214032,214632,1,0 S,0,214032,214632,0.7,0.28 P,0,214032,214632,A
Sprite,Foreground,Centre,"sb/d.png",0,0 M,4,214032,214632,183,317,72,191 F,0,214032,214632,1,0 S,0,214032,214632,0.7,0.28 P,0,214032,214632,A
Sprite,Foreground,Centre,"sb/d.png",0,0 M,4,214107,214707,205,319,309,447 F,0,214107,214707,1,0 S,0,214107,214707,0.7,0.28 P,0,214107,214707,A
Sprite,Foreground,Centre,"sb/d.png",0,0 M,4,214107,214707,205,319,330,305 F,0,214107,214707,1,0 S,0,214107,214707,0.7,0.28 P,0,214107,214707,A
Sprite,Foreground,Centre,"sb/d.png",0,0 M,4,214107,214707,205,319,235,412 F,0,214107,214707,1,0 S,0,214107,214707,0.7,0.28 P,0,214107,214707,A
Sprite,Foreground,Centre,"sb/d.png",0,0 M,4,214107,214707,205,319,143,200 F,0,214107,214707,1,0 S,0,214107,214707,0.7,0.28 P,0,214107,214707,A
Sprite,Foreground,Centre,"sb/d.png",0,0 M,4,214107,214707,205,319,138,376 F,0,214107,214707,1,0 S,0,214107,214707,0.7,0.28 P,0,214107,214707,A
Sprite,Foreground,Centre,"sb/d.png",0,0 M,4,214107,214707,205,319,154,219 F,0,214107,214707,1,0 S,0,214107,214707,0.7,0.28 P,0,214107,214707,A
Sprite,Foreground,Centre,"sb/d.png",0,0 M,4,214107,214707,205,319,126,302 F,0,214107,214707,1,0 S,0,214107,214707,0.7,0.28 P,0,214107,214707,A
Sprite,Foreground,Centre,"sb/d.png",0,0 M,4,214182,214782,228,317,308,312 F,0,214182,214782,1,0 S,0,214182,214782,0.7,0.28 P,0,214182,214782,A
Sprite,Foreground,Centre,"sb/d.png",0,0 M,4,214182,214782,228,317,174,175 F,0,214182,214782,1,0 S,0,214182,214782,0.7,0.28 P,0,214182,214782,A
Sprite,Foreground,Centre,"sb/d.png",0,0 M,4,214182,214782,228,317,166,326 F,0,214182,214782,1,0 S,0,214182,214782,0.7,0.28 P,0,214182,214782,A
Sprite,Foreground,Centre,"sb/d.png",0,0 M,4,214182,214782,228,317,242,416 F,0,214182,214782,1,0 S,0,214182,214782,0.7,0.28 P,0,214182,214782,A
Sprite,Foreground,Centre,"sb/d.png",0,0 M,4,214182,214782,228,317,342,420 F,0,214182,214782,1,0 S,0,214182,214782,0.7,0.28 P,0,214182,214782,A
Sprite,Foreground,Centre,"sb/d.png",0,0 M,4,214182,214782,228,317,82,374 F,0,214182,214782,1,0 S,0,214182,214782,0.7,0.28 P,0,214182,214782,A
Sprite,Foreground,Centre,"sb/d.png",0,0 M,4,214182,214782,228,317,136,413 F,0,214182,214782,1,0 S,0,214182,214782,0.7,0.28 P,0,214182,214782,A
Sprite,Foreground,Centre,"sb/d.png",0,0 M,4,214257,214857,250,311,154,256 F,0,214257,214857,1,0 S,0,214257,214857,0.7,0.28 P,0,214257,214857,A
Sprite,Foreground,Centre,"sb/d.png",0,0 M,4,214257,214857,250,311,169,452 F,0,214257,214857,1,0 S,0,214257,214857,0.7,0.28 P,0,214257,214857,A
Sprite,Foreground,Centre,"sb/d.png",0,0 M,4,214257,214857,250,311,318,192 F,0,214257,214857,1,0 S,0,214257,214857,0.7,0.28 P,0,214257,214857,A
Sprite,Foreground,Centre,"sb/d.png",0,0 M,4,214257,214857,250,311,213,354 F,0,214257,214857,1,0 S,0,214257,214857,0.7,0.28 P,0,214257,214857,A
Sprite,Foreground,Centre,"sb/d.png",0,0 M,4,214257,214857,250,311,259,246 F,0,214257,214857,1,0 S,0,214257,214857,0.7,0.28 P,0,214257,214857,A
Sprite,Foreground,Centre,"sb/d.png",0,0 M,4,214257,214857,250,311,171,392 F,0,214257,214857,1,0 S,0,214257,214857,0.7,0.28 P,0,214257,214857,A
Sprite,Foreground,Centre,"sb/d.png",0,0 M,4,214257,214857,250,311,145,414 F,0,214257,214857,1,0 S,0,214257,214857,0.7,0.28 P,0,214257,214857,A
Sprite,Foreground,Centre,"sb/d.png",0,0 M,4,214332,214932,271,301,243,237 F,0,214332,214932,1,0 S,0,214332,214932,0.7,0.28 P,0,214332,214932,A
Sprite,Foreground,Centre,"sb/d.png",0,0 M,4,214332,214932,271,301,183,292 F,0,214332,214932,1,0 S,0,214332,214932,0.7,0.28 P,0,214332,214932,A
Sprite,Foreground,Centre,"sb/d.png",0,0 M,4,214332,214932,271,301,217,390 F,0,214332,214932,1,0 S,0,214332,214932,0.7,0.28 P,0,214332,214932,A
Sprite,Foreground,Centre,"sb/d.png",0,0 M,4,214332,214932,271,301,135,251 F,0,214332,214932,1,0 S,0,214332,214932,0.7,0.28 P,0,214332,214932,A
Sprite,Foreground,Centre,"sb/d.png",0,0 M,4,214332,214932,271,301,414,379 F,0,214332,214932,1,0 S,0,214332,214932,0.7,0.28 P,0,214332,214932,A
Sprite,Foreground,Centre,"sb/d.png",0,0 M,4,214332,214932,271,301,187,331 F,0,214332,214932,1,0 S,0,214332,214932,0.7,0.28 P,0,214332,214932,A
Sprite,Foreground,Centre,"sb/d.png",0,0 M,4,214332,214932,271,301,280,156 F,0,214332,214932,1,0 S,0,214332,214932,0.7,0.28 P,0,214332,214932,A
Sprite,Foreground,Centre,"sb/d.png",0,0 M,4,214482,215082,107,242,-29,113 F,0,214482,215082,1,0 S,0,214482,215082,0.7,0.28 P,0,214482,215082,A
Sprite,Foreground,Centre,"sb/d.png",0,0 M,4,214482,215082,107,242,88,365 F,0,214482,215082,1,0 S,0,214482,215082,0.7,0.28 P,0,214482,215082,A
Sprite,Foreground,Centre,"sb/d.png",0,0 M,4,214482,215082,107,242,142,233 F,0,214482,215082,1,0 S,0,214482,215082,0.7,0.28 P,0,214482,215082,A
Sprite,Foreground,Centre,"sb/d.png",0,0 M,4,214482,215082,107,242,234,379 F,0,214482,215082,1,0 S,0,214482,215082,0.7,0.28 P,0,214482,215082,A
Sprite,Foreground,Centre,"sb/d.png",0,0 M,4,214482,215082,107,242,95,199 F,0,214482,215082,1,0 S,0,214482,215082,0.7,0.28 P,0,214482,215082,A
Sprite,Foreground,Centre,"sb/d.png",0,0 M,4,214482,215082,107,242,88,132 F,0,214482,215082,1,0 S,0,214482,215082,0.7,0.28 P,0,214482,215082,A
Sprite,Foreground,Centre,"sb/d.png",0,0 M,4,214482,215082,107,242,-23,128 F,0,214482,215082,1,0 S,0,214482,215082,0.7,0.28 P,0,214482,215082,A
Sprite,Foreground,Centre,"sb/d.png",0,0 M,4,214782,215382,159,440,295,300 F,0,214782,215382,1,0 S,0,214782,215382,0.7,0.28 P,0,214782,215382,A
Sprite,Foreground,Centre,"sb/d.png",0,0 M,4,214782,215382,159,440,245,446 F,0,214782,215382,1,0 S,0,214782,215382,0.7,0.28 P,0,214782,215382,A
Sprite,Foreground,Centre,"sb/d.png",0,0 M,4,214782,215382,159,440,122,501 F,0,214782,215382,1,0 S,0,214782,215382,0.7,0.28 P,0,214782,215382,A
Sprite,Foreground,Centre,"sb/d.png",0,0 M,4,214782,215382,159,440,135,468 F,0,214782,215382,1,0 S,0,214782,215382,0.7,0.28 P,0,214782,215382,A
Sprite,Foreground,Centre,"sb/d.png",0,0 M,4,214782,215382,159,440,200,453 F,0,214782,215382,1,0 S,0,214782,215382,0.7,0.28 P,0,214782,215382,A
Sprite,Foreground,Centre,"sb/d.png",0,0 M,4,214782,215382,159,440,119,408 F,0,214782,215382,1,0 S,0,214782,215382,0.7,0.28 P,0,214782,215382,A
Sprite,Foreground,Centre,"sb/d.png",0,0 M,4,214782,215382,159,440,240,543 F,0,214782,215382,1,0 S,0,214782,215382,0.7,0.28 P,0,214782,215382,A
Sprite,Foreground,Centre,"sb/d.png",0,0 M,4,214857,215457,159,440,110,430 F,0,214857,215457,1,0 S,0,214857,215457,0.7,0.28 P,0,214857,215457,A
Sprite,Foreground,Centre,"sb/d.png",0,0 M,4,214857,215457,159,440,234,328 F,0,214857,215457,1,0 S,0,214857,215457,0.7,0.28 P,0,214857,215457,A
Sprite,Foreground,Centre,"sb/d.png",0,0 M,4,214857,215457,159,440,180,397 F,0,214857,215457,1,0 S,0,214857,215457,0.7,0.28 P,0,214857,215457,A
Sprite,Foreground,Centre,"sb/d.png",0,0 M,4,214857,215457,159,440,187,427 F,0,214857,215457,1,0 S,0,214857,215457,0.7,0.28 P,0,214857,215457,A
Sprite,Foreground,Centre,"sb/d.png",0,0 M,4,214857,215457,159,440,263,387 F,0,214857,215457,1,0 S,0,214857,215457,0.7,0.28 P,0,214857,215457,A
Sprite,Foreground,Centre,"sb/d.png",0,0 M,4,214857,215457,159,440,54,494 F,0,214857,215457,1,0 S,0,214857,215457,0.7,0.28 P,0,214857,215457,A
Sprite,Foreground,Centre,"sb/d.png",0,0 M,4,214857,215457,159,440,284,425 F,0,214857,215457,1,0 S,0,214857,215457,0.7,0.28 P,0,214857,215457,A
Sprite,Foreground,Centre,"sb/d.png",0,0 M,4,214932,215532,159,440,257,544 F,0,214932,215532,1,0 S,0,214932,215532,0.7,0.28 P,0,214932,215532,A
Sprite,Foreground,Centre,"sb/d.png",0,0 M,4,214932,215532,159,440,18,346 F,0,214932,215532,1,0 S,0,214932,215532,0.7,0.28 P,0,214932,215532,A
Sprite,Foreground,Centre,"sb/d.png",0,0 M,4,214932,215532,159,440,228,567 F,0,214932,215532,1,0 S,0,214932,215532,0.7,0.28 P,0,214932,215532,A
Sprite,Foreground,Centre,"sb/d.png",0,0 M,4,214932,215532,159,440,123,572 F,0,214932,215532,1,0 S,0,214932,215532,0.7,0.28 P,0,214932,215532,A
Sprite,Foreground,Centre,"sb/d.png",0,0 M,4,214932,215532,159,440,300,499 F,0,214932,215532,1,0 S,0,214932,215532,0.7,0.28 P,0,214932,215532,A
Sprite,Foreground,Centre,"sb/d.png",0,0 M,4,214932,215532,159,440,75,538 F,0,214932,215532,1,0 S,0,214932,215532,0.7,0.28 P,0,214932,215532,A
Sprite,Foreground,Centre,"sb/d.png",0,0 M,4,214932,215532,159,440,188,426 F,0,214932,215532,1,0 S,0,214932,215532,0.7,0.28 P,0,214932,215532,A
Sprite,Foreground,Centre,"sb/d.png",0,0 M,4,215082,215682,271,301,251,418 F,0,215082,215682,1,0 S,0,215082,215682,0.7,0.28 P,0,215082,215682,A
Sprite,Foreground,Centre,"sb/d.png",0,0 M,4,215082,215682,271,301,284,218 F,0,215082,215682,1,0 S,0,215082,215682,0.7,0.28 P,0,215082,215682,A
Sprite,Foreground,Centre,"sb/d.png",0,0 M,4,215082,215682,271,301,331,174 F,0,215082,215682,1,0 S,0,215082,215682,0.7,0.28 P,0,215082,215682,A
Sprite,Foreground,Centre,"sb/d.png",0,0 M,4,215082,215682,271,301,307,448 F,0,215082,215682,1,0 S,0,215082,215682,0.7,0.28 P,0,215082,215682,A
Sprite,Foreground,Centre,"sb/d.png",0,0 M,4,215082,215682,271,301,303,244 F,0,215082,215682,1,0 S,0,215082,215682,0.7,0.28 P,0,215082,215682,A
Sprite,Foreground,Centre,"sb/d.png",0,0 M,4,215082,215682,271,301,289,363 F,0,215082,215682,1,0 S,0,215082,215682,0.7,0.28 P,0,215082,215682,A
Sprite,Foreground,Centre,"sb/d.png",0,0 M,4,215082,215682,271,301,279,299 F,0,215082,215682,1,0 S,0,215082,215682,0.7,0.28 P,0,215082,215682,A
Sprite,Foreground,Centre,"sb/d.png",0,0 M,4,215382,215982,360,388,266,377 F,0,215382,215982,1,0 S,0,215382,215982,0.7,0.28 P,0,215382,215982,A
Sprite,Foreground,Centre,"sb/d.png",0,0 M,4,215382,215982,360,388,320,447 F,0,215382,215982,1,0 S,0,215382,215982,0.7,0.28 P,0,215382,215982,A
Sprite,Foreground,Centre,"sb/d.png",0,0 M,4,215382,215982,360,388,445,528 F,0,215382,215982,1,0 S,0,215382,215982,0.7,0.28 P,0,215382,215982,A
Sprite,Foreground,Centre,"sb/d.png",0,0 M,4,215382,215982,360,388,439,474 F,0,215382,215982,1,0 S,0,215382,215982,0.7,0.28 P,0,215382,215982,A
Sprite,Foreground,Centre,"sb/d.png",0,0 M,4,215382,215982,360,388,363,292 F,0,215382,215982,1,0 S,0,215382,215982,0.7,0.28 P,0,215382,215982,A
Sprite,Foreground,Centre,"sb/d.png",0,0 M,4,215382,215982,360,388,409,491 F,0,215382,215982,1,0 S,0,215382,215982,0.7,0.28 P,0,215382,215982,A
Sprite,Foreground,Centre,"sb/d.png",0,0 M,4,215382,215982,360,388,349,356 F,0,215382,215982,1,0 S,0,215382,215982,0.7,0.28 P,0,215382,215982,A
Sprite,Foreground,Centre,"sb/d.png",0,0 M,4,215532,216132,360,388,358,253 F,0,215532,216132,1,0 S,0,215532,216132,0.7,0.28 P,0,215532,216132,A
Sprite,Foreground,Centre,"sb/d.png",0,0 M,4,215532,216132,360,388,482,461 F,0,215532,216132,1,0 S,0,215532,216132,0.7,0.28 P,0,215532,216132,A
Sprite,Foreground,Centre,"sb/d.png",0,0 M,4,215532,216132,360,388,438,280 F,0,215532,216132,1,0 S,0,215532,216132,0.7,0.28 P,0,215532,216132,A
Sprite,Foreground,Centre,"sb/d.png",0,0 M,4,215532,216132,360,388,216,524 F,0,215532,216132,1,0 S,0,215532,216132,0.7,0.28 P,0,215532,216132,A
Sprite,Foreground,Centre,"sb/d.png",0,0 M,4,215532,216132,360,388,443,516 F,0,215532,216132,1,0 S,0,215532,216132,0.7,0.28 P,0,215532,216132,A
Sprite,Foreground,Centre,"sb/d.png",0,0 M,4,215532,216132,360,388,503,490 F,0,215532,216132,1,0 S,0,215532,216132,0.7,0.28 P,0,215532,216132,A
Sprite,Foreground,Centre,"sb/d.png",0,0 M,4,215532,216132,360,388,459,488 F,0,215532,216132,1,0 S,0,215532,216132,0.7,0.28 P,0,215532,216132,A
Sprite,Foreground,Centre,"sb/d.png",0,0 M,4,215682,216282,391,193,312,259 F,0,215682,216282,1,0 S,0,215682,216282,0.7,0.28 P,0,215682,216282,A
Sprite,Foreground,Centre,"sb/d.png",0,0 M,4,215682,216282,391,193,428,49 F,0,215682,216282,1,0 S,0,215682,216282,0.7,0.28 P,0,215682,216282,A
Sprite,Foreground,Centre,"sb/d.png",0,0 M,4,215682,216282,391,193,360,308 F,0,215682,216282,1,0 S,0,215682,216282,0.7,0.28 P,0,215682,216282,A
Sprite,Foreground,Centre,"sb/d.png",0,0 M,4,215682,216282,391,193,467,195 F,0,215682,216282,1,0 S,0,215682,216282,0.7,0.28 P,0,215682,216282,A
Sprite,Foreground,Centre,"sb/d.png",0,0 M,4,215682,216282,391,193,340,199 F,0,215682,216282,1,0 S,0,215682,216282,0.7,0.28 P,0,215682,216282,A
Sprite,Foreground,Centre,"sb/d.png",0,0 M,4,215682,216282,391,193,254,231 F,0,215682,216282,1,0 S,0,215682,216282,0.7,0.28 P,0,215682,216282,A
Sprite,Foreground,Centre,"sb/d.png",0,0 M,4,215682,216282,391,193,447,237 F,0,215682,216282,1,0 S,0,215682,216282,0.7,0.28 P,0,215682,216282,A
Sprite,Foreground,Centre,"sb/d.png",0,0 M,4,215982,216582,485,362,448,321 F,0,215982,216582,1,0 S,0,215982,216582,0.7,0.28 P,0,215982,216582,A
Sprite,Foreground,Centre,"sb/d.png",0,0 M,4,215982,216582,485,362,502,468 F,0,215982,216582,1,0 S,0,215982,216582,0.7,0.28 P,0,215982,216582,A
Sprite,Foreground,Centre,"sb/d.png",0,0 M,4,215982,216582,485,362,518,279 F,0,215982,216582,1,0 S,0,215982,216582,0.7,0.28 P,0,215982,216582,A
Sprite,Foreground,Centre,"sb/d.png",0,0 M,4,215982,216582,485,362,484,379 F,0,215982,216582,1,0 S,0,215982,216582,0.7,0.28 P,0,215982,216582,A
Sprite,Foreground,Centre,"sb/d.png",0,0 M,4,215982,216582,485,362,455,457 F,0,215982,216582,1,0 S,0,215982,216582,0.7,0.28 P,0,215982,216582,A
Sprite,Foreground,Centre,"sb/d.png",0,0 M,4,215982,216582,485,362,619,328 F,0,215982,216582,1,0 S,0,215982,216582,0.7,0.28 P,0,215982,216582,A
Sprite,Foreground,Centre,"sb/d.png",0,0 M,4,215982,216582,485,362,476,281 F,0,215982,216582,1,0 S,0,215982,216582,0.7,0.28 P,0,215982,216582,A
Sprite,Foreground,Centre,"sb/d.png",0,0 M,4,216282,216882,449,107,504,89 F,0,216282,216882,1,0 S,0,216282,216882,0.7,0.28 P,0,216282,216882,A
Sprite,Foreground,Centre,"sb/d.png",0,0 M,4,216282,216882,449,107,514,239 F,0,216282,216882,1,0 S,0,216282,216882,0.7,0.28 P,0,216282,216882,A
Sprite,Foreground,Centre,"sb/d.png",0,0 M,4,216282,216882,449,107,340,236 F,0,216282,216882,1,0 S,0,216282,216882,0.7,0.28 P,0,216282,216882,A
Sprite,Foreground,Centre,"sb/d.png",0,0 M,4,216282,216882,449,107,463,194 F,0,216282,216882,1,0 S,0,216282,216882,0.7,0.28 P,0,216282,216882,A
Sprite,Foreground,Centre,"sb/d.png",0,0 M,4,216282,216882,449,107,465,149 F,0,216282,216882,1,0 S,0,216282,216882,0.7,0.28 P,0,216282,216882,A
Sprite,Foreground,Centre,"sb/d.png",0,0 M,4,216282,216882,449,107,433,131 F,0,216282,216882,1,0 S,0,216282,216882,0.7,0.28 P,0,216282,216882,A
Sprite,Foreground,Centre,"sb/d.png",0,0 M,4,216282,216882,449,107,491,253 F,0,216282,216882,1,0 S,0,216282,216882,0.7,0.28 P,0,216282,216882,A
Sprite,Foreground,Centre,"sb/d.png",0,0 M,4,216432,217032,302,173,368,139 F,0,216432,217032,1,0 S,0,216432,217032,0.7,0.28 P,0,216432,217032,A
Sprite,Foreground,Centre,"sb/d.png",0,0 M,4,216432,217032,302,173,362,62 F,0,216432,217032,1,0 S,0,216432,217032,0.7,0.28 P,0,216432,217032,A
Sprite,Foreground,Centre,"sb/d.png",0,0 M,4,216432,217032,302,173,287,135 F,0,216432,217032,1,0 S,0,216432,217032,0.7,0.28 P,0,216432,217032,A
Sprite,Foreground,Centre,"sb/d.png",0,0 M,4,216432,217032,302,173,324,147 F,0,216432,217032,1,0 S,0,216432,217032,0.7,0.28 P,0,216432,217032,A
Sprite,Foreground,Centre,"sb/d.png",0,0 M,4,216432,217032,302,173,262,60 F,0,216432,217032,1,0 S,0,216432,217032,0.7,0.28 P,0,216432,217032,A
Sprite,Foreground,Centre,"sb/d.png",0,0 M,4,216432,217032,302,173,221,204 F,0,216432,217032,1,0 S,0,216432,217032,0.7,0.28 P,0,216432,217032,A
Sprite,Foreground,Centre,"sb/d.png",0,0 M,4,216432,217032,302,173,253,227 F,0,216432,217032,1,0 S,0,216432,217032,0.7,0.28 P,0,216432,217032,A
Sprite,Foreground,Centre,"sb/d.png",0,0 M,4,216507,217107,322,182,267,273 F,0,216507,217107,1,0 S,0,216507,217107,0.7,0.28 P,0,216507,217107,A
Sprite,Foreground,Centre,"sb/d.png",0,0 M,4,216507,217107,322,182,194,34 F,0,216507,217107,1,0 S,0,216507,217107,0.7,0.28 P,0,216507,217107,A
Sprite,Foreground,Centre,"sb/d.png",0,0 M,4,216507,217107,322,182,295,188 F,0,216507,217107,1,0 S,0,216507,217107,0.7,0.28 P,0,216507,217107,A
Sprite,Foreground,Centre,"sb/d.png",0,0 M,4,216507,217107,322,182,418,298 F,0,216507,217107,1,0 S,0,216507,217107,0.7,0.28 P,0,216507,217107,A
Sprite,Foreground,Centre,"sb/d.png",0,0 M,4,216507,217107,322,182,412,62 F,0,216507,217107,1,0 S,0,216507,217107,0.7,0.28 P,0,216507,217107,A
Sprite,Foreground,Centre,"sb/d.png",0,0 M,4,216507,217107,322,182,318,259 F,0,216507,217107,1,0 S,0,216507,217107,0.7,0.28 P,0,216507,217107,A
Sprite,Foreground,Centre,"sb/d.png",0,0 M,4,216507,217107,322,182,201,208 F,0,216507,217107,1,0 S,0,216507,217107,0.7,0.28 P,0,216507,217107,A
Sprite,Foreground,Centre,"sb/d.png",0,0 M,4,216582,217182,344,189,436,314 F,0,216582,217182,1,0 S,0,216582,217182,0.7,0.28 P,0,216582,217182,A
Sprite,Foreground,Centre,"sb/d.png",0,0 M,4,216582,217182,344,189,315,48 F,0,216582,217182,1,0 S,0,216582,217182,0.7,0.28 P,0,216582,217182,A
Sprite,Foreground,Centre,"sb/d.png",0,0 M,4,216582,217182,344,189,368,191 F,0,216582,217182,1,0 S,0,216582,217182,0.7,0.28 P,0,216582,217182,A
Sprite,Foreground,Centre,"sb/d.png",0,0 M,4,216582,217182,344,189,445,43 F,0,216582,217182,1,0 S,0,216582,217182,0.7,0.28 P,0,216582,217182,A
Sprite,Foreground,Centre,"sb/d.png",0,0 M,4,216582,217182,344,189,229,284 F,0,216582,217182,1,0 S,0,216582,217182,0.7,0.28 P,0,216582,217182,A
Sprite,Foreground,Centre,"sb/d.png",0,0 M,4,216582,217182,344,189,475,67 F,0,216582,217182,1,0 S,0,216582,217182,0.7,0.28 P,0,216582,217182,A
Sprite,Foreground,Centre,"sb/d.png",0,0 M,4,216582,217182,344,189,391,120 F,0,216582,217182,1,0 S,0,216582,217182,0.7,0.28 P,0,216582,217182,A
Sprite,Foreground,Centre,"sb/d.png",0,0 M,4,216657,217257,367,192,238,220 F,0,216657,217257,1,0 S,0,216657,217257,0.7,0.28 P,0,216657,217257,A
Sprite,Foreground,Centre,"sb/d.png",0,0 M,4,216657,217257,367,192,430,202 F,0,216657,217257,1,0 S,0,216657,217257,0.7,0.28 P,0,216657,217257,A
Sprite,Foreground,Centre,"sb/d.png",0,0 M,4,216657,217257,367,192,395,302 F,0,216657,217257,1,0 S,0,216657,217257,0.7,0.28 P,0,216657,217257,A
Sprite,Foreground,Centre,"sb/d.png",0,0 M,4,216657,217257,367,192,358,266 F,0,216657,217257,1,0 S,0,216657,217257,0.7,0.28 P,0,216657,217257,A
Sprite,Foreground,Centre,"sb/d.png",0,0 M,4,216657,217257,367,192,387,173 F,0,216657,217257,1,0 S,0,216657,217257,0.7,0.28 P,0,216657,217257,A
Sprite,Foreground,Centre,"sb/d.png",0,0 M,4,216657,217257,367,192,267,78 F,0,216657,217257,1,0 S,0,216657,217257,0.7,0.28 P,0,216657,217257,A
Sprite,Foreground,Centre,"sb/d.png",0,0 M,4,216657,217257,367,192,267,291 F,0,216657,217257,1,0 S,0,216657,217257,0.7,0.28 P,0,216657,217257,A
Sprite,Foreground,Centre,"sb/d.png",0,0 M,4,216732,217332,390,192,415,221 F,0,216732,217332,1,0 S,0,216732,217332,0.7,0.28 P,0,216732,217332,A
Sprite,Foreground,Centre,"sb/d.png",0,0 M,4,216732,217332,390,192,432,249 F,0,216732,217332,1,0 S,0,216732,217332,0.7,0.28 P,0,216732,217332,A
Sprite,Foreground,Centre,"sb/d.png",0,0 M,4,216732,217332,390,192,323,338 F,0,216732,217332,1,0 S,0,216732,217332,0.7,0.28 P,0,216732,217332,A
Sprite,Foreground,Centre,"sb/d.png",0,0 M,4,216732,217332,390,192,421,177 F,0,216732,217332,1,0 S,0,216732,217332,0.7,0.28 P,0,216732,217332,A
Sprite,Foreground,Centre,"sb/d.png",0,0 M,4,216732,217332,390,192,456,101 F,0,216732,217332,1,0 S,0,216732,217332,0.7,0.28 P,0,216732,217332,A
Sprite,Foreground,Centre,"sb/d.png",0,0 M,4,216732,217332,390,192,247,290 F,0,216732,217332,1,0 S,0,216732,217332,0.7,0.28 P,0,216732,217332,A
Sprite,Foreground,Centre,"sb/d.png",0,0 M,4,216732,217332,390,192,492,133 F,0,216732,217332,1,0 S,0,216732,217332,0.7,0.28 P,0,216732,217332,A
Sprite,Foreground,Centre,"sb/d.png",0,0 M,4,216882,217482,547,185,603,112 F,0,216882,217482,1,0 S,0,216882,217482,0.7,0.28 P,0,216882,217482,A
Sprite,Foreground,Centre,"sb/d.png",0,0 M,4,216882,217482,547,185,418,129 F,0,216882,217482,1,0 S,0,216882,217482,0.7,0.28 P,0,216882,217482,A
Sprite,Foreground,Centre,"sb/d.png",0,0 M,4,216882,217482,547,185,655,199 F,0,216882,217482,1,0 S,0,216882,217482,0.7,0.28 P,0,216882,217482,A
Sprite,Foreground,Centre,"sb/d.png",0,0 M,4,216882,217482,547,185,642,97 F,0,216882,217482,1,0 S,0,216882,217482,0.7,0.28 P,0,216882,217482,A
Sprite,Foreground,Centre,"sb/d.png",0,0 M,4,216882,217482,547,185,513,321 F,0,216882,217482,1,0 S,0,216882,217482,0.7,0.28 P,0,216882,217482,A
Sprite,Foreground,Centre,"sb/d.png",0,0 M,4,216882,217482,547,185,446,103 F,0,216882,217482,1,0 S,0,216882,217482,0.7,0.28 P,0,216882,217482,A
Sprite,Foreground,Centre,"sb/d.png",0,0 M,4,216882,217482,547,185,431,53 F,0,216882,217482,1,0 S,0,216882,217482,0.7,0.28 P,0,216882,217482,A
Sprite,Foreground,Centre,"sb/d.png",0,0 M,4,217182,217782,406,371,361,510 F,0,217182,217782,1,0 S,0,217182,217782,0.7,0.28 P,0,217182,217782,A
Sprite,Foreground,Centre,"sb/d.png",0,0 M,4,217182,217782,406,371,514,358 F,0,217182,217782,1,0 S,0,217182,217782,0.7,0.28 P,0,217182,217782,A
Sprite,Foreground,Centre,"sb/d.png",0,0 M,4,217182,217782,406,371,358,223 F,0,217182,217782,1,0 S,0,217182,217782,0.7,0.28 P,0,217182,217782,A
Sprite,Foreground,Centre,"sb/d.png",0,0 M,4,217182,217782,406,371,384,376 F,0,217182,217782,1,0 S,0,217182,217782,0.7,0.28 P,0,217182,217782,A
Sprite,Foreground,Centre,"sb/d.png",0,0 M,4,217182,217782,406,371,308,294 F,0,217182,217782,1,0 S,0,217182,217782,0.7,0.28 P,0,217182,217782,A
Sprite,Foreground,Centre,"sb/d.png",0,0 M,4,217182,217782,406,371,501,422 F,0,217182,217782,1,0 S,0,217182,217782,0.7,0.28 P,0,217182,217782,A
Sprite,Foreground,Centre,"sb/d.png",0,0 M,4,217182,217782,406,371,456,406 F,0,217182,217782,1,0 S,0,217182,217782,0.7,0.28 P,0,217182,217782,A
Sprite,Foreground,Centre,"sb/d.png",0,0 M,4,217482,218082,360,102,471,105 F,0,217482,218082,1,0 S,0,217482,218082,0.7,0.28 P,0,217482,218082,A
Sprite,Foreground,Centre,"sb/d.png",0,0 M,4,217482,218082,360,102,362,181 F,0,217482,218082,1,0 S,0,217482,218082,0.7,0.28 P,0,217482,218082,A
Sprite,Foreground,Centre,"sb/d.png",0,0 M,4,217482,218082,360,102,217,2 F,0,217482,218082,1,0 S,0,217482,218082,0.7,0.28 P,0,217482,218082,A
Sprite,Foreground,Centre,"sb/d.png",0,0 M,4,217482,218082,360,102,228,45 F,0,217482,218082,1,0 S,0,217482,218082,0.7,0.28 P,0,217482,218082,A
Sprite,Foreground,Centre,"sb/d.png",0,0 M,4,217482,218082,360,102,320,207 F,0,217482,218082,1,0 S,0,217482,218082,0.7,0.28 P,0,217482,218082,A
Sprite,Foreground,Centre,"sb/d.png",0,0 M,4,217482,218082,360,102,287,137 F,0,217482,218082,1,0 S,0,217482,218082,0.7,0.28 P,0,217482,218082,A
Sprite,Foreground,Centre,"sb/d.png",0,0 M,4,217482,218082,360,102,213,65 F,0,217482,218082,1,0 S,0,217482,218082,0.7,0.28 P,0,217482,218082,A
Sprite,Foreground,Centre,"sb/d.png",0,0 M,4,217632,218232,287,196,200,252 F,0,217632,218232,1,0 S,0,217632,218232,0.7,0.28 P,0,217632,218232,A
Sprite,Foreground,Centre,"sb/d.png",0,0 M,4,217632,218232,287,196,295,60 F,0,217632,218232,1,0 S,0,217632,218232,0.7,0.28 P,0,217632,218232,A
Sprite,Foreground,Centre,"sb/d.png",0,0 M,4,217632,218232,287,196,398,209 F,0,217632,218232,1,0 S,0,217632,218232,0.7,0.28 P,0,217632,218232,A
Sprite,Foreground,Centre,"sb/d.png",0,0 M,4,217632,218232,287,196,167,272 F,0,217632,218232,1,0 S,0,217632,218232,0.7,0.28 P,0,217632,218232,A
Sprite,Foreground,Centre,"sb/d.png",0,0 M,4,217632,218232,287,196,238,215 F,0,217632,218232,1,0 S,0,217632,218232,0.7,0.28 P,0,217632,218232,A
Sprite,Foreground,Centre,"sb/d.png",0,0 M,4,217632,218232,287,196,282,296 F,0,217632,218232,1,0 S,0,217632,218232,0.7,0.28 P,0,217632,218232,A
Sprite,Foreground,Centre,"sb/d.png",0,0 M,4,217632,218232,287,196,399,96 F,0,217632,218232,1,0 S,0,217632,218232,0.7,0.28 P,0,217632,218232,A
Sprite,Foreground,Centre,"sb/d.png",0,0 M,4,217707,218307,265,205,139,303 F,0,217707,218307,1,0 S,0,217707,218307,0.7,0.28 P,0,217707,218307,A
Sprite,Foreground,Centre,"sb/d.png",0,0 M,4,217707,218307,265,205,264,112 F,0,217707,218307,1,0 S,0,217707,218307,0.7,0.28 P,0,217707,218307,A
Sprite,Foreground,Centre,"sb/d.png",0,0 M,4,217707,218307,265,205,379,114 F,0,217707,218307,1,0 S,0,217707,218307,0.7,0.28 P,0,217707,218307,A
Sprite,Foreground,Centre,"sb/d.png",0,0 M,4,217707,218307,265,205,215,318 F,0,217707,218307,1,0 S,0,217707,218307,0.7,0.28 P,0,217707,218307,A
Sprite,Foreground,Centre,"sb/d.png",0,0 M,4,217707,218307,265,205,248,174 F,0,217707,218307,1,0 S,0,217707,218307,0.7,0.28 P,0,217707,218307,A
Sprite,Foreground,Centre,"sb/d.png",0,0 M,4,217707,218307,265,205,175,339 F,0,217707,218307,1,0 S,0,217707,218307,0.7,0.28 P,0,217707,218307,A
Sprite,Foreground,Centre,"sb/d.png",0,0 M,4,217707,218307,265,205,414,67 F,0,217707,218307,1,0 S,0,217707,218307,0.7,0.28 P,0,217707,218307,A
Sprite,Foreground,Centre,"sb/d.png",0,0 M,4,217782,218382,243,210,272,63 F,0,217782,218382,1,0 S,0,217782,218382,0.7,0.28 P,0,217782,218382,A
Sprite,Foreground,Centre,"sb/d.png",0,0 M,4,217782,218382,243,210,152,276 F,0,217782,218382,1,0 S,0,217782,218382,0.7,0.28 P,0,217782,218382,A
Sprite,Foreground,Centre,"sb/d.png",0,0 M,4,217782,218382,243,210,392,75 F,0,217782,218382,1,0 S,0,217782,218382,0.7,0.28 P,0,217782,218382,A
Sprite,Foreground,Centre,"sb/d.png",0,0 M,4,217782,218382,243,210,185,206 F,0,217782,218382,1,0 S,0,217782,218382,0.7,0.28 P,0,217782,218382,A
Sprite,Foreground,Centre,"sb/d.png",0,0 M,4,217782,218382,243,210,307,290 F,0,217782,218382,1,0 S,0,217782,218382,0.7,0.28 P,0,217782,218382,A
Sprite,Foreground,Centre,"sb/d.png",0,0 M,4,217782,218382,243,210,332,96 F,0,217782,218382,1,0 S,0,217782,218382,0.7,0.28 P,0,217782,218382,A
Sprite,Foreground,Centre,"sb/d.png",0,0 M,4,217782,218382,243,210,248,94 F,0,217782,218382,1,0 S,0,217782,218382,0.7,0.28 P,0,217782,218382,A
Sprite,Foreground,Centre,"sb/d.png",0,0 M,4,217857,218457,220,214,122,347 F,0,217857,218457,1,0 S,0,217857,218457,0.7,0.28 P,0,217857,218457,A
Sprite,Foreground,Centre,"sb/d.png",0,0 M,4,217857,218457,220,214,153,121 F,0,217857,218457,1,0 S,0,217857,218457,0.7,0.28 P,0,217857,218457,A
Sprite,Foreground,Centre,"sb/d.png",0,0 M,4,217857,218457,220,214,157,331 F,0,217857,218457,1,0 S,0,217857,218457,0.7,0.28 P,0,217857,218457,A
Sprite,Foreground,Centre,"sb/d.png",0,0 M,4,217857,218457,220,214,138,225 F,0,217857,218457,1,0 S,0,217857,218457,0.7,0.28 P,0,217857,218457,A
Sprite,Foreground,Centre,"sb/d.png",0,0 M,4,217857,218457,220,214,175,83 F,0,217857,218457,1,0 S,0,217857,218457,0.7,0.28 P,0,217857,218457,A
Sprite,Foreground,Centre,"sb/d.png",0,0 M,4,217857,218457,220,214,291,307 F,0,217857,218457,1,0 S,0,217857,218457,0.7,0.28 P,0,217857,218457,A
Sprite,Foreground,Centre,"sb/d.png",0,0 M,4,217857,218457,220,214,83,163 F,0,217857,218457,1,0 S,0,217857,218457,0.7,0.28 P,0,217857,218457,A
Sprite,Foreground,Centre,"sb/d.png",0,0 M,4,217932,218532,197,212,119,100 F,0,217932,218532,1,0 S,0,217932,218532,0.7,0.28 P,0,217932,218532,A
Sprite,Foreground,Centre,"sb/d.png",0,0 M,4,217932,218532,197,212,300,338 F,0,217932,218532,1,0 S,0,217932,218532,0.7,0.28 P,0,217932,218532,A
Sprite,Foreground,Centre,"sb/d.png",0,0 M,4,217932,218532,197,212,210,80 F,0,217932,218532,1,0 S,0,217932,218532,0.7,0.28 P,0,217932,218532,A
Sprite,Foreground,Centre,"sb/d.png",0,0 M,4,217932,218532,197,212,94,159 F,0,217932,218532,1,0 S,0,217932,218532,0.7,0.28 P,0,217932,218532,A
Sprite,Foreground,Centre,"sb/d.png",0,0 M,4,217932,218532,197,212,156,290 F,0,217932,218532,1,0 S,0,217932,218532,0.7,0.28 P,0,217932,218532,A
Sprite,Foreground,Centre,"sb/d.png",0,0 M,4,217932,218532,197,212,297,309 F,0,217932,218532,1,0 S,0,217932,218532,0.7,0.28 P,0,217932,218532,A
Sprite,Foreground,Centre,"sb/d.png",0,0 M,4,217932,218532,197,212,305,240 F,0,217932,218532,1,0 S,0,217932,218532,0.7,0.28 P,0,217932,218532,A
Sprite,Foreground,Centre,"sb/d.png",0,0 M,4,218082,218682,92,80,-24,149 F,0,218082,218682,1,0 S,0,218082,218682,0.7,0.28 P,0,218082,218682,A
Sprite,Foreground,Centre,"sb/d.png",0,0 M,4,218082,218682,92,80,60,157 F,0,218082,218682,1,0 S,0,218082,218682,0.7,0.28 P,0,218082,218682,A
Sprite,Foreground,Centre,"sb/d.png",0,0 M,4,218082,218682,92,80,146,-5 F,0,218082,218682,1,0 S,0,218082,218682,0.7,0.28 P,0,218082,218682,A
Sprite,Foreground,Centre,"sb/d.png",0,0 M,4,218082,218682,92,80,152,80 F,0,218082,218682,1,0 S,0,218082,218682,0.7,0.28 P,0,218082,218682,A
Sprite,Foreground,Centre,"sb/d.png",0,0 M,4,218082,218682,92,80,-22,-68 F,0,218082,218682,1,0 S,0,218082,218682,0.7,0.28 P,0,218082,218682,A
Sprite,Foreground,Centre,"sb/d.png",0,0 M,4,218082,218682,92,80,139,-38 F,0,218082,218682,1,0 S,0,218082,218682,0.7,0.28 P,0,218082,218682,A
Sprite,Foreground,Centre,"sb/d.png",0,0 M,4,218082,218682,92,80,185,-52 F,0,218082,218682,1,0 S,0,218082,218682,0.7,0.28 P,0,218082,218682,A
Sprite,Foreground,Centre,"sb/d.png",0,0 M,4,218382,218982,116,265,163,155 F,0,218382,218982,1,0 S,0,218382,218982,0.7,0.28 P,0,218382,218982,A
Sprite,Foreground,Centre,"sb/d.png",0,0 M,4,218382,218982,116,265,261,170 F,0,218382,218982,1,0 S,0,218382,218982,0.7,0.28 P,0,218382,218982,A
Sprite,Foreground,Centre,"sb/d.png",0,0 M,4,218382,218982,116,265,-32,407 F,0,218382,218982,1,0 S,0,218382,218982,0.7,0.28 P,0,218382,218982,A
Sprite,Foreground,Centre,"sb/d.png",0,0 M,4,218382,218982,116,265,40,290 F,0,218382,218982,1,0 S,0,218382,218982,0.7,0.28 P,0,218382,218982,A
Sprite,Foreground,Centre,"sb/d.png",0,0 M,4,218382,218982,116,265,242,378 F,0,218382,218982,1,0 S,0,218382,218982,0.7,0.28 P,0,218382,218982,A
Sprite,Foreground,Centre,"sb/d.png",0,0 M,4,218382,218982,116,265,139,251 F,0,218382,218982,1,0 S,0,218382,218982,0.7,0.28 P,0,218382,218982,A
Sprite,Foreground,Centre,"sb/d.png",0,0 M,4,218382,218982,116,265,253,369 F,0,218382,218982,1,0 S,0,218382,218982,0.7,0.28 P,0,218382,218982,A
Sprite,Foreground,Centre,"sb/d.png",0,0 M,4,218682,219282,217,324,240,328 F,0,218682,219282,1,0 S,0,218682,219282,0.7,0.28 P,0,218682,219282,A
Sprite,Foreground,Centre,"sb/d.png",0,0 M,4,218682,219282,217,324,173,313 F,0,218682,219282,1,0 S,0,218682,219282,0.7,0.28 P,0,218682,219282,A
Sprite,Foreground,Centre,"sb/d.png",0,0 M,4,218682,219282,217,324,76,363 F,0,218682,219282,1,0 S,0,218682,219282,0.7,0.28 P,0,218682,219282,A
Sprite,Foreground,Centre,"sb/d.png",0,0 M,4,218682,219282,217,324,194,360 F,0,218682,219282,1,0 S,0,218682,219282,0.7,0.28 P,0,218682,219282,A
Sprite,Foreground,Centre,"sb/d.png",0,0 M,4,218682,219282,217,324,268,467 F,0,218682,219282,1,0 S,0,218682,219282,0.7,0.28 P,0,218682,219282,A
Sprite,Foreground,Centre,"sb/d.png",0,0 M,4,218682,219282,217,324,106,421 F,0,218682,219282,1,0 S,0,218682,219282,0.7,0.28 P,0,218682,219282,A
Sprite,Foreground,Centre,"sb/d.png",0,0 M,4,218682,219282,217,324,256,395 F,0,218682,219282,1,0 S,0,218682,219282,0.7,0.28 P,0,218682,219282,A
Sprite,Foreground,Centre,"sb/d.png",0,0 M,4,218832,219432,287,196,139,296 F,0,218832,219432,1,0 S,0,218832,219432,0.7,0.28 P,0,218832,219432,A
Sprite,Foreground,Centre,"sb/d.png",0,0 M,4,218832,219432,287,196,215,177 F,0,218832,219432,1,0 S,0,218832,219432,0.7,0.28 P,0,218832,219432,A
Sprite,Foreground,Centre,"sb/d.png",0,0 M,4,218832,219432,287,196,211,74 F,0,218832,219432,1,0 S,0,218832,219432,0.7,0.28 P,0,218832,219432,A
Sprite,Foreground,Centre,"sb/d.png",0,0 M,4,218832,219432,287,196,337,115 F,0,218832,219432,1,0 S,0,218832,219432,0.7,0.28 P,0,218832,219432,A
Sprite,Foreground,Centre,"sb/d.png",0,0 M,4,218832,219432,287,196,370,241 F,0,218832,219432,1,0 S,0,218832,219432,0.7,0.28 P,0,218832,219432,A
Sprite,Foreground,Centre,"sb/d.png",0,0 M,4,218832,219432,287,196,382,311 F,0,218832,219432,1,0 S,0,218832,219432,0.7,0.28 P,0,218832,219432,A
Sprite,Foreground,Centre,"sb/d.png",0,0 M,4,218832,219432,287,196,241,204 F,0,218832,219432,1,0 S,0,218832,219432,0.7,0.28 P,0,218832,219432,A
Sprite,Foreground,Centre,"sb/d.png",0,0 M,4,218907,219507,307,185,399,189 F,0,218907,219507,1,0 S,0,218907,219507,0.7,0.28 P,0,218907,219507,A
Sprite,Foreground,Centre,"sb/d.png",0,0 M,4,218907,219507,307,185,211,102 F,0,218907,219507,1,0 S,0,218907,219507,0.7,0.28 P,0,218907,219507,A
Sprite,Foreground,Centre,"sb/d.png",0,0 M,4,218907,219507,307,185,234,290 F,0,218907,219507,1,0 S,0,218907,219507,0.7,0.28 P,0,218907,219507,A
Sprite,Foreground,Centre,"sb/d.png",0,0 M,4,218907,219507,307,185,434,216 F,0,218907,219507,1,0 S,0,218907,219507,0.7,0.28 P,0,218907,219507,A
Sprite,Foreground,Centre,"sb/d.png",0,0 M,4,218907,219507,307,185,353,92 F,0,218907,219507,1,0 S,0,218907,219507,0.7,0.28 P,0,218907,219507,A
Sprite,Foreground,Centre,"sb/d.png",0,0 M,4,218907,219507,307,185,179,89 F,0,218907,219507,1,0 S,0,218907,219507,0.7,0.28 P,0,218907,219507,A
Sprite,Foreground,Centre,"sb/d.png",0,0 M,4,218907,219507,307,185,348,45 F,0,218907,219507,1,0 S,0,218907,219507,0.7,0.28 P,0,218907,219507,A
Sprite,Foreground,Centre,"sb/d.png",0,0 M,4,218982,219582,329,180,317,32 F,0,218982,219582,1,0 S,0,218982,219582,0.7,0.28 P,0,218982,219582,A
Sprite,Foreground,Centre,"sb/d.png",0,0 M,4,218982,219582,329,180,195,84 F,0,218982,219582,1,0 S,0,218982,219582,0.7,0.28 P,0,218982,219582,A
Sprite,Foreground,Centre,"sb/d.png",0,0 M,4,218982,219582,329,180,282,182 F,0,218982,219582,1,0 S,0,218982,219582,0.7,0.28 P,0,218982,219582,A
Sprite,Foreground,Centre,"sb/d.png",0,0 M,4,218982,219582,329,180,352,55 F,0,218982,219582,1,0 S,0,218982,219582,0.7,0.28 P,0,218982,219582,A
Sprite,Foreground,Centre,"sb/d.png",0,0 M,4,218982,219582,329,180,363,71 F,0,218982,219582,1,0 S,0,218982,219582,0.7,0.28 P,0,218982,219582,A
Sprite,Foreground,Centre,"sb/d.png",0,0 M,4,218982,219582,329,180,241,288 F,0,218982,219582,1,0 S,0,218982,219582,0.7,0.28 P,0,218982,219582,A
Sprite,Foreground,Centre,"sb/d.png",0,0 M,4,218982,219582,329,180,233,133 F,0,218982,219582,1,0 S,0,218982,219582,0.7,0.28 P,0,218982,219582,A
Sprite,Foreground,Centre,"sb/d.png",0,0 M,4,219057,219657,352,178,423,239 F,0,219057,219657,1,0 S,0,219057,219657,0.7,0.28 P,0,219057,219657,A
Sprite,Foreground,Centre,"sb/d.png",0,0 M,4,219057,219657,352,178,396,72 F,0,219057,219657,1,0 S,0,219057,219657,0.7,0.28 P,0,219057,219657,A
Sprite,Foreground,Centre,"sb/d.png",0,0 M,4,219057,219657,352,178,286,296 F,0,219057,219657,1,0 S,0,219057,219657,0.7,0.28 P,0,219057,219657,A
Sprite,Foreground,Centre,"sb/d.png",0,0 M,4,219057,219657,352,178,445,75 F,0,219057,219657,1,0 S,0,219057,219657,0.7,0.28 P,0,219057,219657,A
Sprite,Foreground,Centre,"sb/d.png",0,0 M,4,219057,219657,352,178,440,299 F,0,219057,219657,1,0 S,0,219057,219657,0.7,0.28 P,0,219057,219657,A
Sprite,Foreground,Centre,"sb/d.png",0,0 M,4,219057,219657,352,178,371,261 F,0,219057,219657,1,0 S,0,219057,219657,0.7,0.28 P,0,219057,219657,A
Sprite,Foreground,Centre,"sb/d.png",0,0 M,4,219057,219657,352,178,445,148 F,0,219057,219657,1,0 S,0,219057,219657,0.7,0.28 P,0,219057,219657,A
Sprite,Foreground,Centre,"sb/d.png",0,0 M,4,219132,219732,375,182,279,53 F,0,219132,219732,1,0 S,0,219132,219732,0.7,0.28 P,0,219132,219732,A
Sprite,Foreground,Centre,"sb/d.png",0,0 M,4,219132,219732,375,182,334,52 F,0,219132,219732,1,0 S,0,219132,219732,0.7,0.28 P,0,219132,219732,A
Sprite,Foreground,Centre,"sb/d.png",0,0 M,4,219132,219732,375,182,362,221 F,0,219132,219732,1,0 S,0,219132,219732,0.7,0.28 P,0,219132,219732,A
Sprite,Foreground,Centre,"sb/d.png",0,0 M,4,219132,219732,375,182,456,262 F,0,219132,219732,1,0 S,0,219132,219732,0.7,0.28 P,0,219132,219732,A
Sprite,Foreground,Centre,"sb/d.png",0,0 M,4,219132,219732,375,182,404,222 F,0,219132,219732,1,0 S,0,219132,219732,0.7,0.28 P,0,219132,219732,A
Sprite,Foreground,Centre,"sb/d.png",0,0 M,4,219132,219732,375,182,387,283 F,0,219132,219732,1,0 S,0,219132,219732,0.7,0.28 P,0,219132,219732,A
Sprite,Foreground,Centre,"sb/d.png",0,0 M,4,219132,219732,375,182,510,249 F,0,219132,219732,1,0 S,0,219132,219732,0.7,0.28 P,0,219132,219732,A
Sprite,Foreground,Centre,"sb/d.png",0,0 M,4,219282,219882,487,321,606,183 F,0,219282,219882,1,0 S,0,219282,219882,0.7,0.28 P,0,219282,219882,A
Sprite,Foreground,Centre,"sb/d.png",0,0 M,4,219282,219882,487,321,342,289 F,0,219282,219882,1,0 S,0,219282,219882,0.7,0.28 P,0,219282,219882,A
Sprite,Foreground,Centre,"sb/d.png",0,0 M,4,219282,219882,487,321,538,345 F,0,219282,219882,1,0 S,0,219282,219882,0.7,0.28 P,0,219282,219882,A
Sprite,Foreground,Centre,"sb/d.png",0,0 M,4,219282,219882,487,321,597,455 F,0,219282,219882,1,0 S,0,219282,219882,0.7,0.28 P,0,219282,219882,A
Sprite,Foreground,Centre,"sb/d.png",0,0 M,4,219282,219882,487,321,500,449 F,0,219282,219882,1,0 S,0,219282,219882,0.7,0.28 P,0,219282,219882,A
Sprite,Foreground,Centre,"sb/d.png",0,0 M,4,219282,219882,487,321,606,393 F,0,219282,219882,1,0 S,0,219282,219882,0.7,0.28 P,0,219282,219882,A
Sprite,Foreground,Centre,"sb/d.png",0,0 M,4,219282,219882,487,321,403,262 F,0,219282,219882,1,0 S,0,219282,219882,0.7,0.28 P,0,219282,219882,A
Sprite,Foreground,Centre,"sb/d.png",0,0 M,4,219582,220182,486,79,399,-27 F,0,219582,220182,1,0 S,0,219582,220182,0.7,0.28 P,0,219582,220182,A
Sprite,Foreground,Centre,"sb/d.png",0,0 M,4,219582,220182,486,79,520,98 F,0,219582,220182,1,0 S,0,219582,220182,0.7,0.28 P,0,219582,220182,A
Sprite,Foreground,Centre,"sb/d.png",0,0 M,4,219582,220182,486,79,545,-19 F,0,219582,220182,1,0 S,0,219582,220182,0.7,0.28 P,0,219582,220182,A
Sprite,Foreground,Centre,"sb/d.png",0,0 M,4,219582,220182,486,79,606,92 F,0,219582,220182,1,0 S,0,219582,220182,0.7,0.28 P,0,219582,220182,A
Sprite,Foreground,Centre,"sb/d.png",0,0 M,4,219582,220182,486,79,568,-29 F,0,219582,220182,1,0 S,0,219582,220182,0.7,0.28 P,0,219582,220182,A
Sprite,Foreground,Centre,"sb/d.png",0,0 M,4,219582,220182,486,79,456,93 F,0,219582,220182,1,0 S,0,219582,220182,0.7,0.28 P,0,219582,220182,A
Sprite,Foreground,Centre,"sb/d.png",0,0 M,4,219582,220182,486,79,507,220 F,0,219582,220182,1,0 S,0,219582,220182,0.7,0.28 P,0,219582,220182,A
Sprite,Foreground,Centre,"sb/d.png",0,0 M,4,219882,220482,341,273,223,126 F,0,219882,220482,1,0 S,0,219882,220482,0.7,0.28 P,0,219882,220482,A
Sprite,Foreground,Centre,"sb/d.png",0,0 M,4,219882,220482,341,273,372,256 F,0,219882,220482,1,0 S,0,219882,220482,0.7,0.28 P,0,219882,220482,A
Sprite,Foreground,Centre,"sb/d.png",0,0 M,4,219882,220482,341,273,474,149 F,0,219882,220482,1,0 S,0,219882,220482,0.7,0.28 P,0,219882,220482,A
Sprite,Foreground,Centre,"sb/d.png",0,0 M,4,219882,220482,341,273,268,349 F,0,219882,220482,1,0 S,0,219882,220482,0.7,0.28 P,0,219882,220482,A
Sprite,Foreground,Centre,"sb/d.png",0,0 M,4,219882,220482,341,273,457,173 F,0,219882,220482,1,0 S,0,219882,220482,0.7,0.28 P,0,219882,220482,A
Sprite,Foreground,Centre,"sb/d.png",0,0 M,4,219882,220482,341,273,223,192 F,0,219882,220482,1,0 S,0,219882,220482,0.7,0.28 P,0,219882,220482,A
Sprite,Foreground,Centre,"sb/d.png",0,0 M,4,219882,220482,341,273,351,193 F,0,219882,220482,1,0 S,0,219882,220482,0.7,0.28 P,0,219882,220482,A
Sprite,Foreground,Centre,"sb/d.png",0,0 M,4,220032,220632,253,127,260,107 F,0,220032,220632,1,0 S,0,220032,220632,0.7,0.28 P,0,220032,220632,A
Sprite,Foreground,Centre,"sb/d.png",0,0 M,4,220032,220632,253,127,153,192 F,0,220032,220632,1,0 S,0,220032,220632,0.7,0.28 P,0,220032,220632,A
Sprite,Foreground,Centre,"sb/d.png",0,0 M,4,220032,220632,253,127,225,117 F,0,220032,220632,1,0 S,0,220032,220632,0.7,0.28 P,0,220032,220632,A
Sprite,Foreground,Centre,"sb/d.png",0,0 M,4,220032,220632,253,127,269,111 F,0,220032,220632,1,0 S,0,220032,220632,0.7,0.28 P,0,220032,220632,A
Sprite,Foreground,Centre,"sb/d.png",0,0 M,4,220032,220632,253,127,108,269 F,0,220032,220632,1,0 S,0,220032,220632,0.7,0.28 P,0,220032,220632,A
Sprite,Foreground,Centre,"sb/d.png",0,0 M,4,220032,220632,253,127,145,209 F,0,220032,220632,1,0 S,0,220032,220632,0.7,0.28 P,0,220032,220632,A
Sprite,Foreground,Centre,"sb/d.png",0,0 M,4,220032,220632,253,127,349,83 F,0,220032,220632,1,0 S,0,220032,220632,0.7,0.28 P,0,220032,220632,A
Sprite,Foreground,Centre,"sb/d.png",0,0 M,4,220107,220707,253,127,182,239 F,0,220107,220707,1,0 S,0,220107,220707,0.7,0.28 P,0,220107,220707,A
Sprite,Foreground,Centre,"sb/d.png",0,0 M,4,220107,220707,253,127,400,13 F,0,220107,220707,1,0 S,0,220107,220707,0.7,0.28 P,0,220107,220707,A
Sprite,Foreground,Centre,"sb/d.png",0,0 M,4,220107,220707,253,127,105,246 F,0,220107,220707,1,0 S,0,220107,220707,0.7,0.28 P,0,220107,220707,A
Sprite,Foreground,Centre,"sb/d.png",0,0 M,4,220107,220707,253,127,355,136 F,0,220107,220707,1,0 S,0,220107,220707,0.7,0.28 P,0,220107,220707,A
Sprite,Foreground,Centre,"sb/d.png",0,0 M,4,220107,220707,253,127,199,113 F,0,220107,220707,1,0 S,0,220107,220707,0.7,0.28 P,0,220107,220707,A
Sprite,Foreground,Centre,"sb/d.png",0,0 M,4,220107,220707,253,127,341,17 F,0,220107,220707,1,0 S,0,220107,220707,0.7,0.28 P,0,220107,220707,A
Sprite,Foreground,Centre,"sb/d.png",0,0 M,4,220107,220707,253,127,116,114 F,0,220107,220707,1,0 S,0,220107,220707,0.7,0.28 P,0,220107,220707,A
Sprite,Foreground,Centre,"sb/d.png",0,0 M,4,220182,220782,253,127,181,110 F,0,220182,220782,1,0 S,0,220182,220782,0.7,0.28 P,0,220182,220782,A
Sprite,Foreground,Centre,"sb/d.png",0,0 M,4,220182,220782,253,127,240,116 F,0,220182,220782,1,0 S,0,220182,220782,0.7,0.28 P,0,220182,220782,A
Sprite,Foreground,Centre,"sb/d.png",0,0 M,4,220182,220782,253,127,294,177 F,0,220182,220782,1,0 S,0,220182,220782,0.7,0.28 P,0,220182,220782,A
Sprite,Foreground,Centre,"sb/d.png",0,0 M,4,220182,220782,253,127,108,78 F,0,220182,220782,1,0 S,0,220182,220782,0.7,0.28 P,0,220182,220782,A
Sprite,Foreground,Centre,"sb/d.png",0,0 M,4,220182,220782,253,127,394,182 F,0,220182,220782,1,0 S,0,220182,220782,0.7,0.28 P,0,220182,220782,A
Sprite,Foreground,Centre,"sb/d.png",0,0 M,4,220182,220782,253,127,144,8 F,0,220182,220782,1,0 S,0,220182,220782,0.7,0.28 P,0,220182,220782,A
Sprite,Foreground,Centre,"sb/d.png",0,0 M,4,220182,220782,253,127,227,174 F,0,220182,220782,1,0 S,0,220182,220782,0.7,0.28 P,0,220182,220782,A
Sprite,Foreground,Centre,"sb/d.png",0,0 M,4,220482,221082,155,186,302,224 F,0,220482,221082,1,0 S,0,220482,221082,0.7,0.28 P,0,220482,221082,A
Sprite,Foreground,Centre,"sb/d.png",0,0 M,4,220482,221082,155,186,95,86 F,0,220482,221082,1,0 S,0,220482,221082,0.7,0.28 P,0,220482,221082,A
Sprite,Foreground,Centre,"sb/d.png",0,0 M,4,220482,221082,155,186,84,307 F,0,220482,221082,1,0 S,0,220482,221082,0.7,0.28 P,0,220482,221082,A
Sprite,Foreground,Centre,"sb/d.png",0,0 M,4,220482,221082,155,186,151,39 F,0,220482,221082,1,0 S,0,220482,221082,0.7,0.28 P,0,220482,221082,A
Sprite,Foreground,Centre,"sb/d.png",0,0 M,4,220482,221082,155,186,57,331 F,0,220482,221082,1,0 S,0,220482,221082,0.7,0.28 P,0,220482,221082,A
Sprite,Foreground,Centre,"sb/d.png",0,0 M,4,220482,221082,155,186,71,227 F,0,220482,221082,1,0 S,0,220482,221082,0.7,0.28 P,0,220482,221082,A
Sprite,Foreground,Centre,"sb/d.png",0,0 M,4,220482,221082,155,186,122,333 F,0,220482,221082,1,0 S,0,220482,221082,0.7,0.28 P,0,220482,221082,A
Sprite,Foreground,Centre,"sb/d.png",0,0 M,4,220782,221382,253,241,137,305 F,0,220782,221382,1,0 S,0,220782,221382,0.7,0.28 P,0,220782,221382,A
Sprite,Foreground,Centre,"sb/d.png",0,0 M,4,220782,221382,253,241,379,173 F,0,220782,221382,1,0 S,0,220782,221382,0.7,0.28 P,0,220782,221382,A
Sprite,Foreground,Centre,"sb/d.png",0,0 M,4,220782,221382,253,241,229,120 F,0,220782,221382,1,0 S,0,220782,221382,0.7,0.28 P,0,220782,221382,A
Sprite,Foreground,Centre,"sb/d.png",0,0 M,4,220782,221382,253,241,158,262 F,0,220782,221382,1,0 S,0,220782,221382,0.7,0.28 P,0,220782,221382,A
Sprite,Foreground,Centre,"sb/d.png",0,0 M,4,220782,221382,253,241,258,293 F,0,220782,221382,1,0 S,0,220782,221382,0.7,0.28 P,0,220782,221382,A
Sprite,Foreground,Centre,"sb/d.png",0,0 M,4,220782,221382,253,241,143,137 F,0,220782,221382,1,0 S,0,220782,221382,0.7,0.28 P,0,220782,221382,A
Sprite,Foreground,Centre,"sb/d.png",0,0 M,4,220782,221382,253,241,203,368 F,0,220782,221382,1,0 S,0,220782,221382,0.7,0.28 P,0,220782,221382,A
Sprite,Foreground,Centre,"sb/d.png",0,0 M,4,221082,221682,341,429,462,371 F,0,221082,221682,1,0 S,0,221082,221682,0.7,0.28 P,0,221082,221682,A
Sprite,Foreground,Centre,"sb/d.png",0,0 M,4,221082,221682,341,429,486,550 F,0,221082,221682,1,0 S,0,221082,221682,0.7,0.28 P,0,221082,221682,A
Sprite,Foreground,Centre,"sb/d.png",0,0 M,4,221082,221682,341,429,335,333 F,0,221082,221682,1,0 S,0,221082,221682,0.7,0.28 P,0,221082,221682,A
Sprite,Foreground,Centre,"sb/d.png",0,0 M,4,221082,221682,341,429,353,486 F,0,221082,221682,1,0 S,0,221082,221682,0.7,0.28 P,0,221082,221682,A
Sprite,Foreground,Centre,"sb/d.png",0,0 M,4,221082,221682,341,429,237,467 F,0,221082,221682,1,0 S,0,221082,221682,0.7,0.28 P,0,221082,221682,A
Sprite,Foreground,Centre,"sb/d.png",0,0 M,4,221082,221682,341,429,451,321 F,0,221082,221682,1,0 S,0,221082,221682,0.7,0.28 P,0,221082,221682,A
Sprite,Foreground,Centre,"sb/d.png",0,0 M,4,221082,221682,341,429,482,354 F,0,221082,221682,1,0 S,0,221082,221682,0.7,0.28 P,0,221082,221682,A
Sprite,Foreground,Centre,"sb/d.png",0,0 M,4,221232,221832,428,309,359,301 F,0,221232,221832,1,0 S,0,221232,221832,0.7,0.28 P,0,221232,221832,A
Sprite,Foreground,Centre,"sb/d.png",0,0 M,4,221232,221832,428,309,350,159 F,0,221232,221832,1,0 S,0,221232,221832,0.7,0.28 P,0,221232,221832,A
Sprite,Foreground,Centre,"sb/d.png",0,0 M,4,221232,221832,428,309,360,167 F,0,221232,221832,1,0 S,0,221232,221832,0.7,0.28 P,0,221232,221832,A
Sprite,Foreground,Centre,"sb/d.png",0,0 M,4,221232,221832,428,309,345,236 F,0,221232,221832,1,0 S,0,221232,221832,0.7,0.28 P,0,221232,221832,A
Sprite,Foreground,Centre,"sb/d.png",0,0 M,4,221232,221832,428,309,506,418 F,0,221232,221832,1,0 S,0,221232,221832,0.7,0.28 P,0,221232,221832,A
Sprite,Foreground,Centre,"sb/d.png",0,0 M,4,221232,221832,428,309,482,254 F,0,221232,221832,1,0 S,0,221232,221832,0.7,0.28 P,0,221232,221832,A
Sprite,Foreground,Centre,"sb/d.png",0,0 M,4,221232,221832,428,309,420,284 F,0,221232,221832,1,0 S,0,221232,221832,0.7,0.28 P,0,221232,221832,A
Sprite,Foreground,Centre,"sb/d.png",0,0 M,4,221307,221907,412,305,295,342 F,0,221307,221907,1,0 S,0,221307,221907,0.7,0.28 P,0,221307,221907,A
Sprite,Foreground,Centre,"sb/d.png",0,0 M,4,221307,221907,412,305,271,188 F,0,221307,221907,1,0 S,0,221307,221907,0.7,0.28 P,0,221307,221907,A
Sprite,Foreground,Centre,"sb/d.png",0,0 M,4,221307,221907,412,305,432,323 F,0,221307,221907,1,0 S,0,221307,221907,0.7,0.28 P,0,221307,221907,A
Sprite,Foreground,Centre,"sb/d.png",0,0 M,4,221307,221907,412,305,294,415 F,0,221307,221907,1,0 S,0,221307,221907,0.7,0.28 P,0,221307,221907,A
Sprite,Foreground,Centre,"sb/d.png",0,0 M,4,221307,221907,412,305,561,250 F,0,221307,221907,1,0 S,0,221307,221907,0.7,0.28 P,0,221307,221907,A
Sprite,Foreground,Centre,"sb/d.png",0,0 M,4,221307,221907,412,305,308,218 F,0,221307,221907,1,0 S,0,221307,221907,0.7,0.28 P,0,221307,221907,A
Sprite,Foreground,Centre,"sb/d.png",0,0 M,4,221307,221907,412,305,397,281 F,0,221307,221907,1,0 S,0,221307,221907,0.7,0.28 P,0,221307,221907,A
Sprite,Foreground,Centre,"sb/d.png",0,0 M,4,221382,221982,398,302,415,240 F,0,221382,221982,1,0 S,0,221382,221982,0.7,0.28 P,0,221382,221982,A
Sprite,Foreground,Centre,"sb/d.png",0,0 M,4,221382,221982,398,302,369,236 F,0,221382,221982,1,0 S,0,221382,221982,0.7,0.28 P,0,221382,221982,A
Sprite,Foreground,Centre,"sb/d.png",0,0 M,4,221382,221982,398,302,285,432 F,0,221382,221982,1,0 S,0,221382,221982,0.7,0.28 P,0,221382,221982,A
Sprite,Foreground,Centre,"sb/d.png",0,0 M,4,221382,221982,398,302,338,165 F,0,221382,221982,1,0 S,0,221382,221982,0.7,0.28 P,0,221382,221982,A
Sprite,Foreground,Centre,"sb/d.png",0,0 M,4,221382,221982,398,302,377,192 F,0,221382,221982,1,0 S,0,221382,221982,0.7,0.28 P,0,221382,221982,A
Sprite,Foreground,Centre,"sb/d.png",0,0 M,4,221382,221982,398,302,511,244 F,0,221382,221982,1,0 S,0,221382,221982,0.7,0.28 P,0,221382,221982,A
Sprite,Foreground,Centre,"sb/d.png",0,0 M,4,221382,221982,398,302,458,345 F,0,221382,221982,1,0 S,0,221382,221982,0.7,0.28 P,0,221382,221982,A
Sprite,Foreground,Centre,"sb/d.png",0,0 M,4,221457,222057,384,301,398,187 F,0,221457,222057,1,0 S,0,221457,222057,0.7,0.28 P,0,221457,222057,A
Sprite,Foreground,Centre,"sb/d.png",0,0 M,4,221457,222057,384,301,300,200 F,0,221457,222057,1,0 S,0,221457,222057,0.7,0.28 P,0,221457,222057,A
Sprite,Foreground,Centre,"sb/d.png",0,0 M,4,221457,222057,384,301,446,187 F,0,221457,222057,1,0 S,0,221457,222057,0.7,0.28 P,0,221457,222057,A
Sprite,Foreground,Centre,"sb/d.png",0,0 M,4,221457,222057,384,301,408,309 F,0,221457,222057,1,0 S,0,221457,222057,0.7,0.28 P,0,221457,222057,A
Sprite,Foreground,Centre,"sb/d.png",0,0 M,4,221457,222057,384,301,412,378 F,0,221457,222057,1,0 S,0,221457,222057,0.7,0.28 P,0,221457,222057,A
Sprite,Foreground,Centre,"sb/d.png",0,0 M,4,221457,222057,384,301,406,273 F,0,221457,222057,1,0 S,0,221457,222057,0.7,0.28 P,0,221457,222057,A
Sprite,Foreground,Centre,"sb/d.png",0,0 M,4,221457,222057,384,301,277,271 F,0,221457,222057,1,0 S,0,221457,222057,0.7,0.28 P,0,221457,222057,A
Sprite,Foreground,Centre,"sb/d.png",0,0 M,4,221532,222132,369,300,361,427 F,0,221532,222132,1,0 S,0,221532,222132,0.7,0.28 P,0,221532,222132,A
Sprite,Foreground,Centre,"sb/d.png",0,0 M,4,221532,222132,369,300,473,169 F,0,221532,222132,1,0 S,0,221532,222132,0.7,0.28 P,0,221532,222132,A
Sprite,Foreground,Centre,"sb/d.png",0,0 M,4,221532,222132,369,300,391,391 F,0,221532,222132,1,0 S,0,221532,222132,0.7,0.28 P,0,221532,222132,A
Sprite,Foreground,Centre,"sb/d.png",0,0 M,4,221532,222132,369,300,428,289 F,0,221532,222132,1,0 S,0,221532,222132,0.7,0.28 P,0,221532,222132,A
Sprite,Foreground,Centre,"sb/d.png",0,0 M,4,221532,222132,369,300,356,270 F,0,221532,222132,1,0 S,0,221532,222132,0.7,0.28 P,0,221532,222132,A
Sprite,Foreground,Centre,"sb/d.png",0,0 M,4,221532,222132,369,300,276,312 F,0,221532,222132,1,0 S,0,221532,222132,0.7,0.28 P,0,221532,222132,A
Sprite,Foreground,Centre,"sb/d.png",0,0 M,4,221532,222132,369,300,253,170 F,0,221532,222132,1,0 S,0,221532,222132,0.7,0.28 P,0,221532,222132,A
Sprite,Foreground,Centre,"sb/d.png",0,0 M,4,221682,222282,253,241,160,360 F,0,221682,222282,1,0 S,0,221682,222282,0.7,0.28 P,0,221682,222282,A
Sprite,Foreground,Centre,"sb/d.png",0,0 M,4,221682,222282,253,241,172,169 F,0,221682,222282,1,0 S,0,221682,222282,0.7,0.28 P,0,221682,222282,A
Sprite,Foreground,Centre,"sb/d.png",0,0 M,4,221682,222282,253,241,361,229 F,0,221682,222282,1,0 S,0,221682,222282,0.7,0.28 P,0,221682,222282,A
Sprite,Foreground,Centre,"sb/d.png",0,0 M,4,221682,222282,253,241,198,354 F,0,221682,222282,1,0 S,0,221682,222282,0.7,0.28 P,0,221682,222282,A
Sprite,Foreground,Centre,"sb/d.png",0,0 M,4,221682,222282,253,241,132,387 F,0,221682,222282,1,0 S,0,221682,222282,0.7,0.28 P,0,221682,222282,A
Sprite,Foreground,Centre,"sb/d.png",0,0 M,4,221682,222282,253,241,254,189 F,0,221682,222282,1,0 S,0,221682,222282,0.7,0.28 P,0,221682,222282,A
Sprite,Foreground,Centre,"sb/d.png",0,0 M,4,221682,222282,253,241,354,100 F,0,221682,222282,1,0 S,0,221682,222282,0.7,0.28 P,0,221682,222282,A
Sprite,Foreground,Centre,"sb/d.png",0,0 M,4,221982,222582,399,117,459,161 F,0,221982,222582,1,0 S,0,221982,222582,0.7,0.28 P,0,221982,222582,A
Sprite,Foreground,Centre,"sb/d.png",0,0 M,4,221982,222582,399,117,460,181 F,0,221982,222582,1,0 S,0,221982,222582,0.7,0.28 P,0,221982,222582,A
Sprite,Foreground,Centre,"sb/d.png",0,0 M,4,221982,222582,399,117,485,236 F,0,221982,222582,1,0 S,0,221982,222582,0.7,0.28 P,0,221982,222582,A
Sprite,Foreground,Centre,"sb/d.png",0,0 M,4,221982,222582,399,117,419,119 F,0,221982,222582,1,0 S,0,221982,222582,0.7,0.28 P,0,221982,222582,A
Sprite,Foreground,Centre,"sb/d.png",0,0 M,4,221982,222582,399,117,334,211 F,0,221982,222582,1,0 S,0,221982,222582,0.7,0.28 P,0,221982,222582,A
Sprite,Foreground,Centre,"sb/d.png",0,0 M,4,221982,222582,399,117,468,235 F,0,221982,222582,1,0 S,0,221982,222582,0.7,0.28 P,0,221982,222582,A
Sprite,Foreground,Centre,"sb/d.png",0,0 M,4,221982,222582,399,117,532,-9 F,0,221982,222582,1,0 S,0,221982,222582,0.7,0.28 P,0,221982,222582,A
Sprite,Foreground,Centre,"sb/d.png",0,0 M,4,222282,222882,450,239,499,334 F,0,222282,222882,1,0 S,0,222282,222882,0.7,0.28 P,0,222282,222882,A
Sprite,Foreground,Centre,"sb/d.png",0,0 M,4,222282,222882,450,239,592,138 F,0,222282,222882,1,0 S,0,222282,222882,0.7,0.28 P,0,222282,222882,A
Sprite,Foreground,Centre,"sb/d.png",0,0 M,4,222282,222882,450,239,301,243 F,0,222282,222882,1,0 S,0,222282,222882,0.7,0.28 P,0,222282,222882,A
Sprite,Foreground,Centre,"sb/d.png",0,0 M,4,222282,222882,450,239,401,297 F,0,222282,222882,1,0 S,0,222282,222882,0.7,0.28 P,0,222282,222882,A
Sprite,Foreground,Centre,"sb/d.png",0,0 M,4,222282,222882,450,239,458,182 F,0,222282,222882,1,0 S,0,222282,222882,0.7,0.28 P,0,222282,222882,A
Sprite,Foreground,Centre,"sb/d.png",0,0 M,4,222282,222882,450,239,464,293 F,0,222282,222882,1,0 S,0,222282,222882,0.7,0.28 P,0,222282,222882,A
Sprite,Foreground,Centre,"sb/d.png",0,0 M,4,222282,222882,450,239,324,268 F,0,222282,222882,1,0 S,0,222282,222882,0.7,0.28 P,0,222282,222882,A
Sprite,Foreground,Centre,"sb/d.png",0,0 M,4,222432,223032,576,154,674,261 F,0,222432,223032,1,0 S,0,222432,223032,0.7,0.28 P,0,222432,223032,A
Sprite,Foreground,Centre,"sb/d.png",0,0 M,4,222432,223032,576,154,594,77 F,0,222432,223032,1,0 S,0,222432,223032,0.7,0.28 P,0,222432,223032,A
Sprite,Foreground,Centre,"sb/d.png",0,0 M,4,222432,223032,576,154,715,204 F,0,222432,223032,1,0 S,0,222432,223032,0.7,0.28 P,0,222432,223032,A
Sprite,Foreground,Centre,"sb/d.png",0,0 M,4,222432,223032,576,154,655,247 F,0,222432,223032,1,0 S,0,222432,223032,0.7,0.28 P,0,222432,223032,A
Sprite,Foreground,Centre,"sb/d.png",0,0 M,4,222432,223032,576,154,634,146 F,0,222432,223032,1,0 S,0,222432,223032,0.7,0.28 P,0,222432,223032,A
Sprite,Foreground,Centre,"sb/d.png",0,0 M,4,222432,223032,576,154,651,68 F,0,222432,223032,1,0 S,0,222432,223032,0.7,0.28 P,0,222432,223032,A
Sprite,Foreground,Centre,"sb/d.png",0,0 M,4,222432,223032,576,154,575,208 F,0,222432,223032,1,0 S,0,222432,223032,0.7,0.28 P,0,222432,223032,A
Sprite,Foreground,Centre,"sb/d.png",0,0 M,4,222507,223107,576,154,609,128 F,0,222507,223107,1,0 S,0,222507,223107,0.7,0.28 P,0,222507,223107,A
Sprite,Foreground,Centre,"sb/d.png",0,0 M,4,222507,223107,576,154,584,293 F,0,222507,223107,1,0 S,0,222507,223107,0.7,0.28 P,0,222507,223107,A
Sprite,Foreground,Centre,"sb/d.png",0,0 M,4,222507,223107,576,154,580,75 F,0,222507,223107,1,0 S,0,222507,223107,0.7,0.28 P,0,222507,223107,A
Sprite,Foreground,Centre,"sb/d.png",0,0 M,4,222507,223107,576,154,490,87 F,0,222507,223107,1,0 S,0,222507,223107,0.7,0.28 P,0,222507,223107,A
Sprite,Foreground,Centre,"sb/d.png",0,0 M,4,222507,223107,576,154,430,105 F,0,222507,223107,1,0 S,0,222507,223107,0.7,0.28 P,0,222507,223107,A
Sprite,Foreground,Centre,"sb/d.png",0,0 M,4,222507,223107,576,154,522,101 F,0,222507,223107,1,0 S,0,222507,223107,0.7,0.28 P,0,222507,223107,A
Sprite,Foreground,Centre,"sb/d.png",0,0 M,4,222507,223107,576,154,633,5 F,0,222507,223107,1,0 S,0,222507,223107,0.7,0.28 P,0,222507,223107,A
Sprite,Foreground,Centre,"sb/d.png",0,0 M,4,222582,223182,576,154,461,122 F,0,222582,223182,1,0 S,0,222582,223182,0.7,0.28 P,0,222582,223182,A
Sprite,Foreground,Centre,"sb/d.png",0,0 M,4,222582,223182,576,154,476,36 F,0,222582,223182,1,0 S,0,222582,223182,0.7,0.28 P,0,222582,223182,A
Sprite,Foreground,Centre,"sb/d.png",0,0 M,4,222582,223182,576,154,671,295 F,0,222582,223182,1,0 S,0,222582,223182,0.7,0.28 P,0,222582,223182,A
Sprite,Foreground,Centre,"sb/d.png",0,0 M,4,222582,223182,576,154,630,132 F,0,222582,223182,1,0 S,0,222582,223182,0.7,0.28 P,0,222582,223182,A
Sprite,Foreground,Centre,"sb/d.png",0,0 M,4,222582,223182,576,154,501,149 F,0,222582,223182,1,0 S,0,222582,223182,0.7,0.28 P,0,222582,223182,A
Sprite,Foreground,Centre,"sb/d.png",0,0 M,4,222582,223182,576,154,704,87 F,0,222582,223182,1,0 S,0,222582,223182,0.7,0.28 P,0,222582,223182,A
Sprite,Foreground,Centre,"sb/d.png",0,0 M,4,222582,223182,576,154,520,259 F,0,222582,223182,1,0 S,0,222582,223182,0.7,0.28 P,0,222582,223182,A
Sprite,Foreground,Centre,"sb/d.png",0,0 M,4,222882,223482,427,318,314,317 F,0,222882,223482,1,0 S,0,222882,223482,0.7,0.28 P,0,222882,223482,A
Sprite,Foreground,Centre,"sb/d.png",0,0 M,4,222882,223482,427,318,401,405 F,0,222882,223482,1,0 S,0,222882,223482,0.7,0.28 P,0,222882,223482,A
Sprite,Foreground,Centre,"sb/d.png",0,0 M,4,222882,223482,427,318,281,364 F,0,222882,223482,1,0 S,0,222882,223482,0.7,0.28 P,0,222882,223482,A
Sprite,Foreground,Centre,"sb/d.png",0,0 M,4,222882,223482,427,318,301,201 F,0,222882,223482,1,0 S,0,222882,223482,0.7,0.28 P,0,222882,223482,A
Sprite,Foreground,Centre,"sb/d.png",0,0 M,4,222882,223482,427,318,512,342 F,0,222882,223482,1,0 S,0,222882,223482,0.7,0.28 P,0,222882,223482,A
Sprite,Foreground,Centre,"sb/d.png",0,0 M,4,222882,223482,427,318,326,421 F,0,222882,223482,1,0 S,0,222882,223482,0.7,0.28 P,0,222882,223482,A
Sprite,Foreground,Centre,"sb/d.png",0,0 M,4,222882,223482,427,318,391,333 F,0,222882,223482,1,0 S,0,222882,223482,0.7,0.28 P,0,222882,223482,A
Sprite,Foreground,Centre,"sb/d.png",0,0 M,4,223182,223782,378,125,481,42 F,0,223182,223782,1,0 S,0,223182,223782,0.7,0.28 P,0,223182,223782,A
Sprite,Foreground,Centre,"sb/d.png",0,0 M,4,223182,223782,378,125,505,166 F,0,223182,223782,1,0 S,0,223182,223782,0.7,0.28 P,0,223182,223782,A
Sprite,Foreground,Centre,"sb/d.png",0,0 M,4,223182,223782,378,125,520,202 F,0,223182,223782,1,0 S,0,223182,223782,0.7,0.28 P,0,223182,223782,A
Sprite,Foreground,Centre,"sb/d.png",0,0 M,4,223182,223782,378,125,435,65 F,0,223182,223782,1,0 S,0,223182,223782,0.7,0.28 P,0,223182,223782,A
Sprite,Foreground,Centre,"sb/d.png",0,0 M,4,223182,223782,378,125,320,168 F,0,223182,223782,1,0 S,0,223182,223782,0.7,0.28 P,0,223182,223782,A
Sprite,Foreground,Centre,"sb/d.png",0,0 M,4,223182,223782,378,125,347,132 F,0,223182,223782,1,0 S,0,223182,223782,0.7,0.28 P,0,223182,223782,A
Sprite,Foreground,Centre,"sb/d.png",0,0 M,4,223182,223782,378,125,228,30 F,0,223182,223782,1,0 S,0,223182,223782,0.7,0.28 P,0,223182,223782,A
Sprite,Foreground,Centre,"sb/d.png",0,0 M,4,223332,223932,350,246,248,108 F,0,223332,223932,1,0 S,0,223332,223932,0.7,0.28 P,0,223332,223932,A
Sprite,Foreground,Centre,"sb/d.png",0,0 M,4,223332,223932,350,246,210,167 F,0,223332,223932,1,0 S,0,223332,223932,0.7,0.28 P,0,223332,223932,A
Sprite,Foreground,Centre,"sb/d.png",0,0 M,4,223332,223932,350,246,476,204 F,0,223332,223932,1,0 S,0,223332,223932,0.7,0.28 P,0,223332,223932,A
Sprite,Foreground,Centre,"sb/d.png",0,0 M,4,223332,223932,350,246,245,250 F,0,223332,223932,1,0 S,0,223332,223932,0.7,0.28 P,0,223332,223932,A
Sprite,Foreground,Centre,"sb/d.png",0,0 M,4,223332,223932,350,246,476,255 F,0,223332,223932,1,0 S,0,223332,223932,0.7,0.28 P,0,223332,223932,A
Sprite,Foreground,Centre,"sb/d.png",0,0 M,4,223332,223932,350,246,293,107 F,0,223332,223932,1,0 S,0,223332,223932,0.7,0.28 P,0,223332,223932,A
Sprite,Foreground,Centre,"sb/d.png",0,0 M,4,223332,223932,350,246,477,97 F,0,223332,223932,1,0 S,0,223332,223932,0.7,0.28 P,0,223332,223932,A
Sprite,Foreground,Centre,"sb/d.png",0,0 M,4,223632,224232,287,99,320,124 F,0,223632,224232,1,0 S,0,223632,224232,0.7,0.28 P,0,223632,224232,A
Sprite,Foreground,Centre,"sb/d.png",0,0 M,4,223632,224232,287,99,419,240 F,0,223632,224232,1,0 S,0,223632,224232,0.7,0.28 P,0,223632,224232,A
Sprite,Foreground,Centre,"sb/d.png",0,0 M,4,223632,224232,287,99,313,-12 F,0,223632,224232,1,0 S,0,223632,224232,0.7,0.28 P,0,223632,224232,A
Sprite,Foreground,Centre,"sb/d.png",0,0 M,4,223632,224232,287,99,312,-43 F,0,223632,224232,1,0 S,0,223632,224232,0.7,0.28 P,0,223632,224232,A
Sprite,Foreground,Centre,"sb/d.png",0,0 M,4,223632,224232,287,99,305,36 F,0,223632,224232,1,0 S,0,223632,224232,0.7,0.28 P,0,223632,224232,A
Sprite,Foreground,Centre,"sb/d.png",0,0 M,4,223632,224232,287,99,227,115 F,0,223632,224232,1,0 S,0,223632,224232,0.7,0.28 P,0,223632,224232,A
Sprite,Foreground,Centre,"sb/d.png",0,0 M,4,223632,224232,287,99,185,196 F,0,223632,224232,1,0 S,0,223632,224232,0.7,0.28 P,0,223632,224232,A
Sprite,Foreground,Centre,"sb/d.png",0,0 M,4,223782,224382,317,261,224,342 F,0,223782,224382,1,0 S,0,223782,224382,0.7,0.28 P,0,223782,224382,A
Sprite,Foreground,Centre,"sb/d.png",0,0 M,4,223782,224382,317,261,284,257 F,0,223782,224382,1,0 S,0,223782,224382,0.7,0.28 P,0,223782,224382,A
Sprite,Foreground,Centre,"sb/d.png",0,0 M,4,223782,224382,317,261,363,380 F,0,223782,224382,1,0 S,0,223782,224382,0.7,0.28 P,0,223782,224382,A
Sprite,Foreground,Centre,"sb/d.png",0,0 M,4,223782,224382,317,261,452,333 F,0,223782,224382,1,0 S,0,223782,224382,0.7,0.28 P,0,223782,224382,A
Sprite,Foreground,Centre,"sb/d.png",0,0 M,4,223782,224382,317,261,330,389 F,0,223782,224382,1,0 S,0,223782,224382,0.7,0.28 P,0,223782,224382,A
Sprite,Foreground,Centre,"sb/d.png",0,0 M,4,223782,224382,317,261,443,117 F,0,223782,224382,1,0 S,0,223782,224382,0.7,0.28 P,0,223782,224382,A
Sprite,Foreground,Centre,"sb/d.png",0,0 M,4,223782,224382,317,261,286,209 F,0,223782,224382,1,0 S,0,223782,224382,0.7,0.28 P,0,223782,224382,A
Sprite,Foreground,Centre,"sb/d.png",0,0 M,4,224082,224682,254,84,194,51 F,0,224082,224682,1,0 S,0,224082,224682,0.7,0.28 P,0,224082,224682,A
Sprite,Foreground,Centre,"sb/d.png",0,0 M,4,224082,224682,254,84,202,215 F,0,224082,224682,1,0 S,0,224082,224682,0.7,0.28 P,0,224082,224682,A
Sprite,Foreground,Centre,"sb/d.png",0,0 M,4,224082,224682,254,84,354,140 F,0,224082,224682,1,0 S,0,224082,224682,0.7,0.28 P,0,224082,224682,A
Sprite,Foreground,Centre,"sb/d.png",0,0 M,4,224082,224682,254,84,311,150 F,0,224082,224682,1,0 S,0,224082,224682,0.7,0.28 P,0,224082,224682,A
Sprite,Foreground,Centre,"sb/d.png",0,0 M,4,224082,224682,254,84,314,62 F,0,224082,224682,1,0 S,0,224082,224682,0.7,0.28 P,0,224082,224682,A
Sprite,Foreground,Centre,"sb/d.png",0,0 M,4,224082,224682,254,84,385,194 F,0,224082,224682,1,0 S,0,224082,224682,0.7,0.28 P,0,224082,224682,A
Sprite,Foreground,Centre,"sb/d.png",0,0 M,4,224082,224682,254,84,284,-26 F,0,224082,224682,1,0 S,0,224082,224682,0.7,0.28 P,0,224082,224682,A
Sprite,Foreground,Centre,"sb/d.png",0,0 M,4,224232,224832,222,256,216,329 F,0,224232,224832,1,0 S,0,224232,224832,0.7,0.28 P,0,224232,224832,A
Sprite,Foreground,Centre,"sb/d.png",0,0 M,4,224232,224832,222,256,352,216 F,0,224232,224832,1,0 S,0,224232,224832,0.7,0.28 P,0,224232,224832,A
Sprite,Foreground,Centre,"sb/d.png",0,0 M,4,224232,224832,222,256,132,204 F,0,224232,224832,1,0 S,0,224232,224832,0.7,0.28 P,0,224232,224832,A
Sprite,Foreground,Centre,"sb/d.png",0,0 M,4,224232,224832,222,256,168,151 F,0,224232,224832,1,0 S,0,224232,224832,0.7,0.28 P,0,224232,224832,A
Sprite,Foreground,Centre,"sb/d.png",0,0 M,4,224232,224832,222,256,114,352 F,0,224232,224832,1,0 S,0,224232,224832,0.7,0.28 P,0,224232,224832,A
Sprite,Foreground,Centre,"sb/d.png",0,0 M,4,224232,224832,222,256,186,114 F,0,224232,224832,1,0 S,0,224232,224832,0.7,0.28 P,0,224232,224832,A
Sprite,Foreground,Centre,"sb/d.png",0,0 M,4,224232,224832,222,256,88,367 F,0,224232,224832,1,0 S,0,224232,224832,0.7,0.28 P,0,224232,224832,A
Sprite,Foreground,Centre,"sb/d.png",0,0 M,4,224532,225132,163,110,24,-36 F,0,224532,225132,1,0 S,0,224532,225132,0.7,0.28 P,0,224532,225132,A
Sprite,Foreground,Centre,"sb/d.png",0,0 M,4,224532,225132,163,110,28,130 F,0,224532,225132,1,0 S,0,224532,225132,0.7,0.28 P,0,224532,225132,A
Sprite,Foreground,Centre,"sb/d.png",0,0 M,4,224532,225132,163,110,233,36 F,0,224532,225132,1,0 S,0,224532,225132,0.7,0.28 P,0,224532,225132,A
Sprite,Foreground,Centre,"sb/d.png",0,0 M,4,224532,225132,163,110,231,10 F,0,224532,225132,1,0 S,0,224532,225132,0.7,0.28 P,0,224532,225132,A
Sprite,Foreground,Centre,"sb/d.png",0,0 M,4,224532,225132,163,110,301,69 F,0,224532,225132,1,0 S,0,224532,225132,0.7,0.28 P,0,224532,225132,A
Sprite,Foreground,Centre,"sb/d.png",0,0 M,4,224532,225132,163,110,229,102 F,0,224532,225132,1,0 S,0,224532,225132,0.7,0.28 P,0,224532,225132,A
Sprite,Foreground,Centre,"sb/d.png",0,0 M,4,224532,225132,163,110,53,101 F,0,224532,225132,1,0 S,0,224532,225132,0.7,0.28 P,0,224532,225132,A
Sprite,Foreground,Centre,"sb/d.png",0,0 M,4,224682,225282,189,271,59,410 F,0,224682,225282,1,0 S,0,224682,225282,0.7,0.28 P,0,224682,225282,A
Sprite,Foreground,Centre,"sb/d.png",0,0 M,4,224682,225282,189,271,204,356 F,0,224682,225282,1,0 S,0,224682,225282,0.7,0.28 P,0,224682,225282,A
Sprite,Foreground,Centre,"sb/d.png",0,0 M,4,224682,225282,189,271,128,366 F,0,224682,225282,1,0 S,0,224682,225282,0.7,0.28 P,0,224682,225282,A
Sprite,Foreground,Centre,"sb/d.png",0,0 M,4,224682,225282,189,271,116,361 F,0,224682,225282,1,0 S,0,224682,225282,0.7,0.28 P,0,224682,225282,A
Sprite,Foreground,Centre,"sb/d.png",0,0 M,4,224682,225282,189,271,336,287 F,0,224682,225282,1,0 S,0,224682,225282,0.7,0.28 P,0,224682,225282,A
Sprite,Foreground,Centre,"sb/d.png",0,0 M,4,224682,225282,189,271,285,141 F,0,224682,225282,1,0 S,0,224682,225282,0.7,0.28 P,0,224682,225282,A
Sprite,Foreground,Centre,"sb/d.png",0,0 M,4,224682,225282,189,271,41,165 F,0,224682,225282,1,0 S,0,224682,225282,0.7,0.28 P,0,224682,225282,A
Sprite,Foreground,Centre,"sb/d.png",0,0 M,4,224982,225582,255,85,180,86 F,0,224982,225582,1,0 S,0,224982,225582,0.7,0.28 P,0,224982,225582,A
Sprite,Foreground,Centre,"sb/d.png",0,0 M,4,224982,225582,255,85,271,177 F,0,224982,225582,1,0 S,0,224982,225582,0.7,0.28 P,0,224982,225582,A
Sprite,Foreground,Centre,"sb/d.png",0,0 M,4,224982,225582,255,85,294,180 F,0,224982,225582,1,0 S,0,224982,225582,0.7,0.28 P,0,224982,225582,A
Sprite,Foreground,Centre,"sb/d.png",0,0 M,4,224982,225582,255,85,310,141 F,0,224982,225582,1,0 S,0,224982,225582,0.7,0.28 P,0,224982,225582,A
Sprite,Foreground,Centre,"sb/d.png",0,0 M,4,224982,225582,255,85,217,45 F,0,224982,225582,1,0 S,0,224982,225582,0.7,0.28 P,0,224982,225582,A
Sprite,Foreground,Centre,"sb/d.png",0,0 M,4,224982,225582,255,85,145,38 F,0,224982,225582,1,0 S,0,224982,225582,0.7,0.28 P,0,224982,225582,A
Sprite,Foreground,Centre,"sb/d.png",0,0 M,4,224982,225582,255,85,226,28 F,0,224982,225582,1,0 S,0,224982,225582,0.7,0.28 P,0,224982,225582,A
//Storyboard Sound Samples

[TimingPoints]
9582,300,4,2,2,60,1,0
9582,-200,4,2,2,60,0,0
20637,319.148936170213,4,2,2,60,1,0
20637,-200,4,2,2,60,0,0
20956,315.789473684211,4,2,2,60,1,0
20956,-200,4,2,2,60,0,0
21271,310.077519379845,4,2,2,60,1,0
21271,-200,4,2,2,60,0,0
21582,300,4,2,2,65,1,0
21582,-133.333333333333,4,2,2,65,0,0
40782,-133.333333333333,4,2,2,55,0,0
44382,-133.333333333333,4,2,2,45,0,0
44982,-133.333333333333,4,2,2,55,0,0
49182,-133.333333333333,4,2,2,45,0,0
49782,-133.333333333333,4,2,2,55,0,0
50382,-117.647058823529,4,2,2,60,0,0
59982,-100,4,2,1,85,0,0
76782,-133.333333333333,4,2,1,75,0,0
78582,-133.333333333333,4,2,1,70,0,0
79182,-100,4,2,1,60,0,0
87579,-117.647058823529,4,2,1,70,0,0
87582,-117.647058823529,4,2,1,60,0,0
88182,-117.647058823529,4,2,1,70,0,0
88482,-117.647058823529,4,2,1,60,0,0
88782,-100,4,2,1,60,0,0
90357,-100,4,2,1,70,0,0
90432,-100,4,2,1,60,0,0
97182,-133.333333333333,4,2,1,60,0,0
98382,-100,4,2,1,75,0,0
112782,-133.333333333333,4,2,1,65,0,0
112857,-133.333333333333,4,2,2,65,0,0
117582,-90.9090909090909,4,2,1,75,0,0
124782,-125,4,2,2,65,0,0
127182,-90.9090909090909,4,2,1,75,0,0
131982,-125,4,2,1,65,0,0
139182,-200,4,2,2,45,0,0
140982,-166.666666666667,4,2,2,45,0,0
141582,-200,4,2,2,45,0,0
158382,-133.333333333333,4,2,2,45,0,0
167982,-125,4,2,2,55,0,0
173082,-125,4,2,2,55,0,0
184782,318.302387267904,4,2,2,35,1,0
184782,-300,4,2,2,35,0,0
184942,300,4,2,2,35,1,0
184942,-300,4,2,2,35,0,0
187182,300,4,2,1,80,1,1
187182,-86.9565217391304,4,2,1,80,0,1
203982,-117.647058823529,4,2,1,80,0,0
206382,-86.9565217391304,4,2,1,80,0,1
220782,-95.2380952380952,4,2,1,80,0,1
223182,-86.9565217391304,4,2,1,75,0,0
225582,-100,4,2,1,75,0,0
244332,-100,4,2,1,65,0,0
244632,-90.9090909090909,4,2,1,65,0,0
244782,-76.9230769230769,4,2,1,65,0,0
245007,-76.9230769230769,4,2,1,5,0,0
245082,-76.9230769230769,4,2,1,35,0,0
249582,-76.9230769230769,4,2,1,5,0,0

[Colours]
Combo1 : 223,223,223
Combo2 : 149,255,218
Combo3 : 36,74,255

[HitObjects]
256,192,5982,12,0,9432,0:0:0:0:
102,136,9582,6,0,L|109:182,1,40,6|0,0:2|0:0,0:0:0:0:
189,156,9882,2,0,L|196:202,1,40,2|0,0:0|0:0,0:0:0:0:
270,263,10182,1,2,0:0:0:0:
270,263,10332,2,0,P|319:269|354:253,1,80,2|0,0:0|0:0,0:0:0:0:
380,176,10782,6,0,P|331:170|296:186,1,80,2|0,0:0|0:0,0:0:0:0:
436,245,11232,1,2,0:0:0:0:
472,161,11382,1,2,0:0:0:0:
342,258,11682,1,2,0:0:0:0:
342,258,11832,2,0,L|335:298,1,40,2|0,0:0|0:0,0:0:0:0:
251,327,12132,1,2,0:0:0:0:
251,327,12282,6,0,L|239:239,1,80,2|0,0:0|0:0,0:0:0:0:
147,217,12732,2,0,L|159:305,1,80,2|2,0:0|0:0,0:0:0:0:
257,331,13182,6,0,P|293:331|337:303,1,80,2|0,0:2|0:2,0:0:0:0:
397,231,13632,2,0,P|433:231|477:259,1,80,2|0,0:2|0:2,0:0:0:0:
503,335,14082,1,2,0:0:0:0:
401,352,14232,5,2,0:0:0:0:
401,352,14382,2,0,L|411:306,1,40,0|0,0:2|0:0,0:0:0:0:
318,304,14682,2,0,L|325:263,1,40,2|0,0:0|0:0,0:0:0:0:
244,204,14982,1,0,0:0:0:0:
244,204,15132,2,0,L|227:293,1,80,2|2,0:0|0:0,0:0:0:0:
146,337,15582,6,0,L|138:295,1,40,2|0,0:0|0:0,0:0:0:0:
32,174,16032,2,0,P|72:180|109:205,1,80,2|0,0:0|0:0,0:0:0:0:
152,292,16482,1,2,0:0:0:0:
234,207,16632,6,0,P|238:184|238:151,1,40,2|2,0:0|0:2,0:0:0:0:
322,181,16932,2,0,P|320:200|317:220,1,40,2|0,0:0|0:0,0:0:0:0:
429,337,17382,1,2,0:0:0:0:
429,337,17532,2,0,P|426:304|405:251,1,80,2|2,0:2|0:0,0:0:0:0:
317,220,17982,6,0,L|235:209,1,80,2|0,0:2|0:2,0:0:0:0:
168,152,18432,2,0,L|86:163,1,80,2|0,0:2|0:2,0:0:0:0:
28,251,18882,1,2,0:0:0:0:
6,95,19032,1,10,0:0:0:0:
328,215,20637,6,0,P|296:217|262:210,1,60,2|0,0:0|0:0,0:0:0:0:
195,175,20956,6,0,B|194:203|194:203|191:209|191:209|191:247,1,60,2|0,0:0|0:0,0:0:0:0:
179,253,21271,2,0,L|185:309,1,40,2|0,0:0|0:0,0:0:0:0:
40,218,21582,6,0,L|31:138,1,60.0000022888184,6|0,1:2|1:2,0:0:0:0:
22,49,21882,1,0,0:0:0:0:
22,49,22032,1,2,0:2:0:0:
113,109,22182,2,0,P|148:113|183:108,1,60.0000022888184,0|0,1:2|0:0,0:0:0:0:
282,89,22482,6,0,L|254:226,2,120.000004577637,2|2|2,0:2|0:2|0:2,0:0:0:0:
402,1,23382,2,0,L|426:118,1,120.000004577637,2|2,0:2|0:2,0:0:0:0:
426,221,23832,1,0,1:2:0:0:
426,221,23907,1,0,1:2:0:0:
426,221,23982,6,0,L|385:20,1,180.000006866455,2|0,1:2|0:0,0:0:0:0:
297,7,24582,2,0,P|253:41|166:37,1,120.000004577637,0|2,1:0|0:2,0:0:0:0:
38,5,25182,6,0,L|61:132,1,120.000004577637,2|2,0:2|0:2,0:0:0:0:
156,244,25782,2,0,L|179:117,1,120.000004577637,2|2,0:2|0:2,0:0:0:0:
45,301,26382,5,0,1:2:0:0:
45,301,26532,1,0,1:2:0:0:
156,244,26832,1,0,0:0:0:0:
156,244,26982,2,0,L|295:265,1,120.000004577637,0|0,1:2|0:0,0:0:0:0:
429,287,27582,6,0,P|418:232|413:153,1,120.000004577637,2|2,0:2|0:2,0:0:0:0:
336,4,28182,2,0,P|331:63|319:122,1,120.000004577637,2|2,0:2|0:2,0:0:0:0:
253,209,28632,1,0,1:2:0:0:
253,209,28707,1,0,1:2:0:0:
253,209,28782,6,0,L|60:192,1,180.000006866455,2|2,1:2|0:2,0:0:0:0:
0,186,29382,1,8,1:2:0:0:
59,83,29682,2,0,L|191:71,1,120.000004577637,2|0,0:2|0:0,0:0:0:0:
234,206,30282,2,0,L|100:194,2,120.000004577637,2|2|2,0:2|0:2|0:2,0:0:0:0:
321,76,31182,5,2,1:2:0:0:
321,76,31332,1,0,1:2:0:0:
234,206,31632,1,0,0:0:0:0:
234,206,31782,2,0,L|247:278,1,60.0000022888184,2|0,1:2|0:0,0:0:0:0:
273,376,32082,5,2,0:2:0:0:
273,376,32382,1,2,0:2:0:0:
351,251,32682,1,2,0:2:0:0:
351,251,32982,1,2,0:2:0:0:
183,342,33282,1,2,0:2:0:0:
114,295,33432,5,0,1:2:0:0:
114,295,33507,1,0,1:2:0:0:
114,295,33582,2,0,L|129:112,1,180.000006866455,2|2,1:2|0:2,0:0:0:0:
39,81,34182,2,0,L|50:217,2,120.000004577637,0|2|2,1:2|0:2|0:2,0:0:0:0:
174,5,35082,5,2,0:2:0:0:
250,140,35382,1,2,0:2:0:0:
87,12,35682,1,2,0:2:0:0:
337,133,35982,5,0,1:2:0:0:
337,133,36132,1,0,1:2:0:0:
196,199,36432,1,0,1:0:0:0:
196,199,36582,2,0,P|158:201|126:190,1,60.0000022888184,0|0,1:2|0:0,0:0:0:0:
60,149,36882,2,0,L|73:281,1,120.000004577637,2|0,0:2|0:0,0:0:0:0:
185,375,37482,5,2,0:2:0:0:
273,246,37782,1,2,0:2:0:0:
102,350,38082,1,2,0:2:0:0:
71,268,38232,1,0,1:2:0:0:
71,268,38307,1,0,1:2:0:0:
71,268,38382,6,0,P|43:176|75:85,1,180.000006866455,2|2,1:2|0:2,0:0:0:0:
212,104,38982,2,0,P|186:122|148:127,1,60.0000022888184,0|0,1:2|0:0,0:0:0:0:
46,1,39282,2,0,P|105:6|152:43,1,120.000004577637,2|0,0:2|0:0,0:0:0:0:
297,63,39882,2,0,P|348:39|414:41,2,120.000004577637,2|2|2,0:2|0:2|0:2,0:0:0:0:
135,221,40782,6,0,P|134:249|140:292,1,60.0000022888184,14|0,0:2|0:0,0:0:0:0:
188,354,41082,2,0,L|180:397,2,30.0000011444092
251,289,41382,2,0,L|243:246,2,30.0000011444092,2|0|0,1:2|1:0|1:0,0:0:0:0:
318,348,41682,2,0,P|349:357|378:355,1,60.0000022888184
470,318,41982,6,0,L|478:279,3,30.0000011444092,2|0|2|2,0:2|0:0|0:0|0:0,0:0:0:0:
511,221,42282,2,0,L|503:182,3,30.0000011444092,2|0|0|0,0:2|0:0|0:0|0:0,0:0:0:0:
470,124,42582,2,0,L|476:88,2,30.0000011444092,2|0|0,1:2|1:0|1:0,0:0:0:0:
390,235,42882,2,0,P|374:234|349:230,3,30.0000011444092,2|0|0|0,0:2|0:0|0:0|0:0,0:0:0:0:
295,201,43182,6,0,P|264:197|228:200,1,60.0000022888184,2|0,0:2|0:0,0:0:0:0:
133,264,43482,2,0,P|118:267|100:269,3,30.0000011444092,2|2|2|2,0:2|0:0|0:0|0:0,0:0:0:0:
28,295,43782,2,0,P|13:291|0:285,2,30.0000011444092,0|0|0,1:2|1:0|1:0,0:0:0:0:
132,361,44082,2,0,P|163:353|195:350,1,60.0000022888184,2|2,0:2|0:2,0:0:0:0:
278,356,44382,5,0,3:2:0:0:
215,254,44532,2,0,L|203:215,2,30.0000011444092,0|0|0,3:0|3:0|3:0,0:0:0:0:
278,356,44832,5,0,3:0:0:0:
339,248,44982,2,0,L|351:209,2,30.0000011444092,2|2|2,1:2|1:2|1:2,0:0:0:0:
181,349,45282,1,2,0:2:0:0:
166,351,45357,1,0,0:0:0:0:
151,351,45432,1,0,0:0:0:0:
136,351,45507,1,0,0:0:0:0:
122,349,45582,6,0,P|108:345|84:334,3,30.0000011444092,2|0|0|0,1:2|0:0|0:0|0:0,0:0:0:0:
30,295,45882,2,0,P|26:281|23:255,3,30.0000011444092,2|0|0|0,1:2|0:0|0:0|0:0,0:0:0:0:
22,185,46182,2,0,L|-5:156,2,30.0000011444092,2|2|2,1:2|1:2|1:2,0:0:0:0:
125,213,46482,1,2,0:2:0:0:
147,211,46557,1,2,0:0:0:0:
169,206,46632,1,2,0:0:0:0:
190,198,46707,1,2,0:0:0:0:
208,186,46782,6,0,P|220:165|223:151,3,30.0000011444092,2|0|2|2,1:2|1:2|1:2|0:2,0:0:0:0:
294,142,47082,2,0,P|288:127|280:115,3,30.0000011444092,2|0|0|0,0:2|0:0|1:0|0:0,0:0:0:0:
299,41,47382,2,0,L|269:40,2,30.0000011444092,2|0|0,1:2|1:0|1:0,0:0:0:0:
383,135,47682,2,0,P|385:152|385:173,3,30.0000011444092,2|2|2|2,0:2|0:2|0:2|0:2,0:0:0:0:
332,229,47982,6,0,P|305:247|268:254,1,60.0000022888184,2|0,1:2|0:0,0:0:0:0:
146,226,48282,2,0,P|135:210|130:195,3,30.0000011444092,2|0|0|0,0:2|0:0|1:0|0:0,0:0:0:0:
76,145,48582,2,0,L|79:114,2,30.0000011444092,2|0|0,1:2|1:0|1:0,0:0:0:0:
82,278,48882,1,2,0:2:0:0:
92,289,48957,1,2,0:2:0:0:
104,297,49032,1,2,0:2:0:0:
117,304,49107,1,2,0:2:0:0:
132,307,49182,2,0,P|155:308|170:305,1,30.0000011444092,0|0,3:2|0:0,0:0:0:0:
233,339,49332,6,0,P|234:353|237:368,2,30.0000011444092,2|2|2,3:0|3:0|3:2,0:0:0:0:
274,218,49632,1,0,3:0:0:0:
342,331,49782,2,0,P|345:345|346:360,2,30.0000011444092,2|0|0,1:2|1:0|1:0,0:0:0:0:
274,218,50082,1,2,0:2:0:0:
275,203,50157,1,0,0:0:0:0:
276,188,50232,1,2,3:2:0:0:
325,109,50382,6,0,P|291:99|251:95,1,68.0000012969971,2|0,0:2|0:0,0:0:0:0:
129,198,50682,2,0,P|162:193|195:184,1,68.0000012969971,2|2,0:2|0:2,0:0:0:0:
37,106,50982,1,2,1:2:0:0:
34,122,51057,1,2,1:2:0:0:
32,139,51132,1,2,1:2:0:0:
29,156,51207,1,2,0:2:0:0:
27,173,51282,2,0,L|36:256,1,68.0000012969971,2|2,0:2|0:2,0:0:0:0:
103,333,51582,6,0,L|98:374,2,34.0000006484985,2|0|0,0:2|0:0|0:0,0:0:0:0:
179,260,51882,2,0,P|211:260|252:282,1,68.0000012969971,2|2,0:2|0:2,0:0:0:0:
336,362,52182,1,2,1:2:0:0:
336,362,52257,1,0,1:0:0:0:
336,362,52332,1,0,1:0:0:0:
398,233,52482,2,0,P|403:212|404:183,3,34.0000006484985,2|2|2|2,0:2|0:2|0:2|0:2,0:0:0:0:
422,125,52782,6,0,P|414:88|395:51,1,68.0000012969971,2|0,0:2|0:0,0:0:0:0:
294,7,53082,2,0,P|275:9|260:12,3,34.0000006484985,2|2|2|2,0:2|0:2|0:2|0:2,0:0:0:0:
190,60,53382,2,0,P|171:58|156:55,3,34.0000006484985,2|2|2|2,1:2|1:2|1:2|0:2,0:0:0:0:
75,23,53682,2,0,L|83:103,1,68.0000012969971,2|2,0:2|0:2,0:0:0:0:
86,212,53982,5,2,3:2:0:0:
38,296,54132,2,0,L|32:334,2,34.0000006484985,0|0|2,3:0|3:0|3:2,0:0:0:0:
86,212,54432,1,2,3:2:0:0:
134,296,54582,2,0,L|140:334,2,34.0000006484985,2|2|2,1:2|1:2|1:2,0:0:0:0:
199,173,54882,1,2,0:2:0:0:
213,164,54957,1,0,0:0:0:0:
229,157,55032,1,2,0:2:0:0:
245,153,55107,1,2,0:0:0:0:
267,153,55182,6,0,P|305:160|337:176,1,68.0000012969971,2|2,0:2|0:2,0:0:0:0:
412,292,55482,2,0,L|417:256,3,34.0000006484985,2|2|2|2,3:2|0:2|0:2|0:2,0:0:0:0:
482,213,55782,2,0,L|477:177,3,34.0000006484985,2|2|2|2,3:2|1:2|1:2|0:2,0:0:0:0:
421,123,56082,1,2,0:2:0:0:
426,106,56157,1,2,0:2:0:0:
429,88,56232,1,2,0:2:0:0:
430,70,56307,1,2,0:2:0:0:
430,51,56382,6,0,L|423:13,2,34.0000006484985,2|0|0,0:2|0:0|0:0,0:0:0:0:
336,139,56682,2,0,L|329:193,2,34.0000006484985,2|0|0,0:2|0:0|0:0,0:0:0:0:
285,32,56982,1,2,1:2:0:0:
285,32,57057,1,0,1:0:0:0:
285,32,57132,1,0,1:0:0:0:
200,151,57282,2,0,P|226:131|274:122,1,68.0000012969971,2|2,0:2|0:2,0:0:0:0:
429,105,57582,5,0,3:0:0:0:
378,249,57807,1,0,1:0:0:0:
277,134,58032,1,0,1:0:0:0:
355,164,58182,5,0,3:0:0:0:
310,295,58407,1,0,1:0:0:0:
218,191,58632,1,0,1:0:0:0:
290,220,58782,5,0,3:0:0:0:
250,337,59007,1,0,1:0:0:0:
167,243,59232,1,0,1:0:0:0:
241,325,59382,6,0,P|278:332|334:318,3,68.0000012969971,2|0|0|0,3:2|1:2|3:2|1:2,0:0:0:0:
464,192,59982,6,0,P|432:184|384:183,1,80,4|0,3:1|0:0,0:0:0:0:
235,224,60282,1,10,0:0:0:0:
278,83,60432,2,0,P|290:115|295:161,1,80
282,308,60732,1,0,3:2:0:0:
158,242,60882,1,10,0:2:0:0:
151,241,60957,1,2,0:2:0:0:
144,241,61032,1,2,0:2:0:0:
136,239,61107,1,2,0:2:0:0:
129,239,61182,6,0,L|36:248,1,80,0|0,3:2|0:0,0:0:0:0:
190,151,61482,1,10,0:0:0:0:
282,308,61632,2,0,L|275:364,2,40,2|0|0,0:0|0:0|0:0,0:0:0:0:
343,213,61932,1,0,3:2:0:0:
188,302,62082,1,10,0:0:0:0:
351,384,62232,1,0,0:0:0:0:
351,384,62307,1,2,0:0:0:0:
351,384,62382,6,0,L|360:295,1,80,0|0,3:2|0:0,0:0:0:0:
429,171,62682,1,10,0:0:0:0:
429,171,62757,1,0,0:0:0:0:
429,171,62832,2,0,L|436:229,2,40,2|2|2,0:2|0:2|0:2,0:0:0:0:
382,63,63132,1,0,3:2:0:0:
335,228,63282,1,8,0:0:0:0:
246,132,63432,1,2,0:0:0:0:
246,132,63507,1,2,0:0:0:0:
246,132,63582,6,0,L|149:124,1,80,2|0,3:2|0:0,0:0:0:0:
0,112,63882,1,10,0:0:0:0:
80,254,64032,2,0,P|97:212|105:163,1,80,0|0,3:2|0:0,0:0:0:0:
72,43,64332,5,0,3:2:0:0:
171,230,64482,1,10,0:0:0:0:
207,59,64632,1,0,3:2:0:0:
303,182,64782,6,0,P|342:185|381:177,1,80,2|0,3:2|0:0,0:0:0:0:
507,99,65082,1,10,0:0:0:0:
377,20,65232,2,0,L|404:130,1,80
433,241,65532,1,0,3:2:0:0:
303,182,65682,1,10,0:2:0:0:
281,181,65757,1,2,0:2:0:0:
258,184,65832,1,2,0:2:0:0:
237,191,65907,1,2,0:2:0:0:
217,199,65982,6,0,L|205:246,2,40,2|0|0,3:2|0:0|0:0,0:0:0:0:
259,81,66282,1,10,0:0:0:0:
259,81,66432,2,0,L|241:1,1,80
86,110,66732,1,0,3:2:0:0:
86,110,66882,2,0,P|126:127|166:130,1,80,10|0,0:0|0:0,0:0:0:0:
303,182,67182,6,0,P|263:182|225:195,1,80,0|0,3:2|0:0,0:0:0:0:
126,330,67482,1,10,0:0:0:0:
283,279,67632,1,2,0:2:0:0:
283,279,67707,1,0,0:2:0:0:
283,279,67782,1,0,0:2:0:0:
103,247,67932,1,0,0:2:0:0:
250,359,68082,1,10,0:0:0:0:
250,359,68157,1,0,0:0:0:0:
250,359,68232,1,2,0:0:0:0:
250,359,68307,1,0,0:0:0:0:
250,359,68382,6,0,P|293:361|339:348,1,80,2|0,3:2|0:0,0:0:0:0:
412,270,68682,1,8,0:0:0:0:
412,270,68832,2,0,P|425:185|406:99,1,160,2|0,3:2|0:0,0:0:0:0:
324,8,69282,1,8,0:0:0:0:
248,107,69432,1,0,0:0:0:0:
248,107,69507,1,0,0:0:0:0:
248,107,69582,6,0,P|283:125|336:128,1,80,0|0,3:2|0:0,0:0:0:0:
465,53,69882,1,10,0:0:0:0:
465,53,70032,2,0,L|457:149,1,80
439,290,70332,1,0,3:2:0:0:
307,226,70482,1,10,0:0:0:0:
315,225,70557,1,2,0:0:0:0:
321,223,70632,1,2,0:0:0:0:
328,222,70707,1,2,0:0:0:0:
336,221,70782,6,0,L|428:207,1,80,2|0,3:2|0:0,0:0:0:0:
303,344,71082,1,10,0:0:0:0:
218,183,71232,1,2,0:0:0:0:
218,183,71307,1,2,0:0:0:0:
218,183,71382,1,2,0:0:0:0:
336,221,71532,1,0,3:2:0:0:
154,294,71682,2,0,P|115:295|74:282,1,80,8|0,0:0|0:0,0:0:0:0:
120,119,71982,6,0,P|132:160|133:231,1,80,0|0,3:2|0:0,0:0:0:0:
230,335,72282,1,10,0:0:0:0:
233,314,72357,1,2,0:0:0:0:
238,293,72432,1,2,0:0:0:0:
247,274,72507,1,2,0:0:0:0:
256,255,72582,1,2,0:0:0:0:
339,154,72732,1,0,3:2:0:0:
424,317,72882,2,0,P|386:325|344:322,1,80,8|2,0:0|0:0,0:0:0:0:
487,154,73182,6,0,P|495:191|492:233,1,80,0|0,3:2|0:0,0:0:0:0:
490,262,73407,1,0,0:0:0:0:
490,262,73482,1,10,0:0:0:0:
349,173,73632,2,0,P|340:135|343:93,1,80,2|0,3:2|0:0,0:0:0:0:
248,262,73932,1,0,3:2:0:0:
168,139,74082,1,10,0:0:0:0:
146,142,74157,1,2,0:0:0:0:
125,145,74232,1,2,0:0:0:0:
105,148,74307,1,2,0:0:0:0:
84,151,74382,6,0,L|-9:162,1,80,2|0,3:2|0:0,0:0:0:0:
145,248,74682,1,10,0:0:0:0:
195,64,74832,2,0,P|177:104|165:152,1,80
235,304,75132,1,0,3:2:0:0:
347,200,75282,1,10,0:0:0:0:
324,202,75357,1,2,0:0:0:0:
303,204,75432,1,2,0:0:0:0:
282,206,75507,1,2,0:0:0:0:
261,208,75582,6,0,L|164:219,1,80,2|0,3:2|0:0,0:0:0:0:
345,279,75882,1,10,0:0:0:0:
304,109,76032,1,0,0:0:0:0:
304,109,76107,1,0,0:0:0:0:
304,109,76182,1,0,0:0:0:0:
261,208,76332,1,0,3:2:0:0:
400,148,76482,2,0,P|405:106|393:44,1,80,10|0,0:0|0:0,0:0:0:0:
261,208,76782,5,0,3:2:0:0:
353,351,77007,1,0,1:2:0:0:
332,183,77232,1,0,1:2:0:0:
261,208,77382,5,0,1:2:0:0:
430,200,77607,1,0,1:2:0:0:
274,135,77832,1,2,1:2:0:0:
332,183,77982,5,2,1:2:0:0:
409,33,78207,1,0,1:2:0:0:
275,136,78432,1,2,1:2:0:0:
393,140,78582,5,8,0:0:0:0:
393,140,78882,5,8,0:0:0:0:
282,12,79032,1,0,3:0:0:0:
266,224,79182,6,0,P|266:177|257:132,1,80,4|0,3:1|0:0,0:0:0:0:
205,8,79482,1,10,0:2:0:0:
205,8,79557,1,2,0:2:0:0:
205,8,79632,1,2,0:2:0:0:
175,155,79782,1,0,3:2:0:0:
320,95,79932,1,2,3:2:0:0:
149,73,80082,6,0,P|123:69|96:70,3,40,10|2|2|2,0:2|0:2|0:2|0:2,0:0:0:0:
71,144,80382,2,0,P|54:164|41:188,3,40,2|2|2|2,3:2|0:2|0:2|0:2,0:0:0:0:
88,251,80682,2,0,P|97:275|111:298,3,40,10|2|2|2,0:2|0:2|0:2|0:2,0:0:0:0:
167,341,80982,2,0,P|213:350|254:338,1,80,2|0,0:2|3:2,0:0:0:0:
371,252,81282,1,10,0:0:0:0:
372,231,81357,1,2,0:0:0:0:
374,211,81432,1,2,0:0:0:0:
376,191,81507,1,2,0:0:0:0:
379,173,81582,6,0,L|388:79,1,80,2|0,3:2|0:0,0:0:0:0:
272,6,81882,2,0,P|262:22|244:40,3,40,10|2|2|2,0:0|0:0|0:0|0:0,0:0:0:0:
255,126,82182,2,0,P|236:126|210:119,3,40,2|2|2|2,0:0|0:0|3:2|0:0,0:0:0:0:
141,172,82482,2,0,P|131:155|124:130,3,40,10|2|2|2,0:0|0:0|0:0|0:0,0:0:0:0:
44,96,82782,6,0,P|53:79|71:61,2,40,2|0|0,3:2|0:0|0:0,0:0:0:0:
56,257,83082,1,8,0:0:0:0:
121,144,83232,1,2,3:2:0:0:
159,326,83382,1,2,0:0:0:0:
159,326,83457,1,2,0:0:0:0:
159,326,83532,1,2,0:0:0:0:
243,197,83682,1,10,0:0:0:0:
268,182,83757,1,2,0:0:0:0:
297,171,83832,1,2,0:0:0:0:
326,167,83907,1,2,0:0:0:0:
356,168,83982,5,2,3:2:0:0:
477,277,84132,1,2,0:0:0:0:
477,277,84207,1,2,0:0:0:0:
477,277,84282,2,0,P|452:238|438:176,1,80,8|0,0:0|0:0,0:0:0:0:
370,79,84582,1,2,0:0:0:0:
314,245,84732,1,2,3:2:0:0:
214,116,84882,1,10,0:0:0:0:
192,116,84957,1,2,0:0:0:0:
171,118,85032,1,2,0:0:0:0:
150,119,85107,1,2,0:0:0:0:
129,121,85182,6,0,L|80:115,2,40,2|0|0,3:2|0:0|0:0,0:0:0:0:
206,223,85482,2,0,P|213:240|218:266,3,40,10|2|2|2,0:0|0:0|0:0|0:0,0:0:0:0:
291,315,85782,2,0,P|301:269|327:227,1,80,2|2,0:0|3:2,0:0:0:0:
462,295,86082,1,10,0:0:0:0:
462,295,86157,1,0,0:0:0:0:
462,295,86232,1,2,0:0:0:0:
462,295,86307,1,2,0:0:0:0:
462,295,86382,6,0,P|420:308|376:308,1,80,2|0,3:2|0:0,0:0:0:0:
269,184,86682,2,0,P|264:159|264:133,3,40,8|0|2|0,0:0|0:0|3:2|0:0,0:0:0:0:
225,76,86982,2,0,P|235:52|250:31,3,40,2|0|2|2,0:0|0:0|0:0|0:0,0:0:0:0:
331,33,87282,1,10,3:2:0:0:
350,34,87357,1,2,0:0:0:0:
370,36,87432,1,2,0:0:0:0:
390,38,87507,1,2,0:0:0:0:
407,40,87582,6,0,L|481:31,1,68.0000012969971,2|0,3:2|0:0,0:0:0:0:
368,127,87882,1,10,0:0:0:0:
368,127,88032,2,0,L|300:118,1,68.0000012969971,2|0,3:2|0:0,0:0:0:0:
59,68,88482,6,0,P|65:82|71:103,1,34.0000006484985,8|0,3:2|0:0,0:0:0:0:
118,159,88632,2,0,P|116:174|110:195,1,34.0000006484985
75,273,88782,6,0,P|98:268|117:267,3,40,2|0|0|0,3:2|0:0|0:0|0:0,0:0:0:0:
189,227,89082,2,0,P|210:236|227:246,3,40,10|0|0|0,0:0|0:0|0:0|0:0,0:0:0:0:
308,256,89382,2,0,P|320:275|328:294,3,40,2|0|2|2,0:0|0:0|3:2|0:0,0:0:0:0:
409,365,89682,1,10,0:0:0:0:
411,347,89757,1,2,0:0:0:0:
412,329,89832,1,2,0:0:0:0:
415,312,89907,1,2,0:0:0:0:
418,294,89982,6,0,L|422:253,3,40,2|2|2|2,3:2|0:0|0:0|0:0,0:0:0:0:
472,193,90282,2,0,L|467:153,3,40,10|0|2|2,0:0|0:0|3:2|0:0,0:0:0:0:
404,92,90582,2,0,L|413:12,1,80,2|0,0:0|3:2,0:0:0:0:
282,112,90882,1,10,0:0:0:0:
264,121,90957,1,2,0:0:0:0:
245,127,91032,1,2,0:0:0:0:
225,129,91107,1,2,0:0:0:0:
205,129,91182,6,0,P|173:125|125:108,1,80,2|0,3:2|0:0,0:0:0:0:
5,17,91482,1,10,0:0:0:0:
7,46,91557,1,2,0:0:0:0:
9,76,91632,1,2,0:0:0:0:
11,106,91707,1,2,0:0:0:0:
13,136,91782,2,0,L|16:186,3,40,2|2|2|2,0:0|0:0|3:2|0:0,0:0:0:0:
80,224,92082,2,0,L|74:274,3,40,10|2|2|2,0:0|0:0|0:0|0:0,0:0:0:0:
130,322,92382,6,0,L|116:370,2,40,2|0|0,3:2|0:0|0:0,0:0:0:0:
228,224,92682,2,0,P|266:210|307:207,1,80,8|2,0:0|3:2,0:0:0:0:
418,338,92982,2,0,P|394:340|363:336,2,40,2|2|2,0:0|0:0|3:2,0:0:0:0:
512,216,93282,1,10,0:0:0:0:
511,188,93357,1,2,0:0:0:0:
509,162,93432,1,2,3:2:0:0:
508,136,93507,1,2,0:0:0:0:
505,110,93582,5,2,3:2:0:0:
398,263,93732,1,2,3:2:0:0:
316,132,93882,2,0,P|309:109|307:84,3,40,10|0|0|0,0:0|0:0|0:0|0:0,0:0:0:0:
231,10,94182,2,0,P|228:31|221:51,3,40,2|2|2|2,0:0|0:0|3:2|0:0,0:0:0:0:
167,110,94482,1,10,0:0:0:0:
141,118,94557,1,2,0:0:0:0:
116,123,94632,1,2,0:0:0:0:
90,124,94707,1,2,0:0:0:0:
64,119,94782,6,0,P|38:111|17:97,2,40,0|0|0,3:2|0:0|0:0,0:0:0:0:
217,56,95082,1,8,0:0:0:0:
130,205,95232,2,0,P|129:229|132:252,3,40,0|0|2|0,3:2|0:0|0:0|0:0,0:0:0:0:
172,310,95532,1,2,3:2:0:0:
265,178,95682,1,10,0:0:0:0:
250,183,95757,1,2,0:0:0:0:
237,191,95832,1,2,0:0:0:0:
227,201,95907,1,2,0:0:0:0:
217,213,95982,1,2,3:2:0:0:
334,301,96132,5,0,0:0:0:0:
334,301,96207,1,0,0:0:0:0:
334,301,96282,2,0,P|352:268|352:213,1,80,10|0,0:0|3:2,0:0:0:0:
316,110,96582,2,0,P|292:96|266:93,3,40,0|0|2|2,0:0|0:0|0:0|0:0,0:0:0:0:
219,37,96882,1,10,3:2:0:0:
202,50,96957,1,2,0:0:0:0:
183,59,97032,1,2,0:0:0:0:
163,64,97107,1,2,0:0:0:0:
141,65,97182,6,0,L|79:55,1,60.0000022888184,2|0,3:2|0:0,0:0:0:0:
0,147,97482,2,0,L|62:157,1,60.0000022888184,10|0,0:0|3:2,0:0:0:0:
274,228,98082,5,10,3:2:0:0:
274,228,98157,1,2,0:0:0:0:
274,228,98232,1,2,0:0:0:0:
274,228,98307,1,2,0:0:0:0:
274,228,98382,6,0,P|303:223|323:226,2,40,4|0|0,3:1|0:0|0:0,0:0:0:0:
97,286,98682,2,0,P|108:248|105:198,1,80,10|0,0:0|0:0,0:0:0:0:
42,49,98982,2,0,P|68:77|113:99,1,80,0|0,0:0|3:2,0:0:0:0:
282,131,99282,1,10,0:0:0:0:
262,133,99357,1,2,0:0:0:0:
243,136,99432,1,2,0:0:0:0:
223,142,99507,1,2,0:0:0:0:
205,149,99582,6,0,P|183:158|168:166,3,40,2|2|2|2,3:2|0:0|0:0|0:0,0:0:0:0:
124,248,99882,2,0,P|114:289|117:342,1,80,10|0,0:0|3:2,0:0:0:0:
274,384,100182,2,0,P|274:344|264:305,1,80,0|0,0:0|3:2,0:0:0:0:
348,196,100482,1,10,0:0:0:0:
367,204,100557,1,2,0:0:0:0:
389,210,100632,1,2,0:0:0:0:
411,214,100707,1,2,0:0:0:0:
434,212,100782,6,0,P|481:203|516:187,1,80,2|0,3:2|0:0,0:0:0:0:
435,16,101082,2,0,P|411:14|390:16,3,40,10|2|2|2,0:0|0:0|0:0|0:0,0:0:0:0:
316,56,101382,2,0,P|282:60|219:49,1,80,2|2,0:0|3:2,0:0:0:0:
86,10,101682,1,8,0:0:0:0:
130,170,101832,1,0,0:0:0:0:
130,170,101907,1,0,0:0:0:0:
130,170,101982,6,0,L|122:211,2,40,0|0|0,3:2|0:0|0:0,0:0:0:0:
237,55,102282,1,8,0:0:0:0:
57,108,102432,1,0,3:2:0:0:
57,108,102507,1,0,3:2:0:0:
57,108,102582,1,2,0:0:0:0:
237,161,102732,1,0,3:2:0:0:
126,4,102882,1,10,0:0:0:0:
127,13,102957,1,2,0:0:0:0:
128,23,103032,1,2,3:2:0:0:
129,33,103107,1,2,0:0:0:0:
131,43,103182,6,0,L|136:90,3,40,2|0|0|0,3:2|0:0|0:0|0:0,0:0:0:0:
57,112,103482,2,0,L|52:159,3,40,8|0|0|0,0:0|0:0|0:0|0:0,0:0:0:0:
131,181,103782,2,0,L|136:228,1,40,2|2,0:0|0:0,0:0:0:0:
55,260,103932,1,2,3:2:0:0:
55,260,104007,1,2,0:0:0:0:
55,260,104082,2,0,L|50:307,3,40,10|2|2|2,0:0|0:0|0:0|0:0,0:0:0:0:
133,336,104382,6,0,P|173:314|215:306,1,80,2|2,3:2|0:0,0:0:0:0:
347,259,104682,1,10,0:0:0:0:
264,243,104832,1,0,0:0:0:0:
264,243,104907,1,0,0:0:0:0:
264,243,104982,1,0,0:0:0:0:
373,340,105132,1,0,3:2:0:0:
320,177,105282,1,8,0:0:0:0:
206,306,105432,1,0,0:0:0:0:
206,306,105507,1,0,0:0:0:0:
206,306,105582,6,0,P|165:308|114:290,1,80,0|0,3:2|0:0,0:0:0:0:
0,209,105882,1,8,0:0:0:0:
138,181,106032,1,0,3:2:0:0:
25,298,106182,2,0,P|27:322|41:344,1,40,2|2,0:0|0:0,0:0:0:0:
116,383,106332,1,2,0:0:0:0:
116,383,106407,1,2,0:0:0:0:
116,383,106482,2,0,P|137:384|166:381,3,40,10|2|2|2,0:0|0:0|0:0|0:0,0:0:0:0:
235,326,106782,6,0,P|245:281|238:232,1,80,2|0,3:2|0:0,0:0:0:0:
181,140,107082,1,8,0:0:0:0:
330,254,107232,2,0,P|318:209|289:168,1,80,0|0,3:2|0:0,0:0:0:0:
181,140,107532,1,0,0:0:0:0:
25,204,107682,2,0,P|69:216|118:211,1,80,8|0,0:0|3:2,0:0:0:0:
181,140,107982,6,0,P|185:123|188:99,3,40,0|0|0|0,3:2|0:0|0:0|0:0,0:0:0:0:
263,27,108282,2,0,P|265:46|269:66,3,40,8|0|0|0,0:0|0:0|0:0|0:0,0:0:0:0:
333,126,108582,2,0,P|374:138|419:137,1,80,2|2,0:0|0:0,0:0:0:0:
485,255,108882,1,10,0:0:0:0:
465,253,108957,1,2,0:0:0:0:
445,255,109032,1,2,0:0:0:0:
425,260,109107,1,2,0:0:0:0:
406,267,109182,6,0,P|386:279|369:296,3,40,2|2|2|0,3:2|0:0|0:0|0:0,0:0:0:0:
311,353,109482,2,0,P|289:321|243:295,1,80,8|0,0:0|0:0,0:0:0:0:
83,348,109782,2,0,P|121:344|167:318,1,80,0|0,0:0|3:2,0:0:0:0:
198,174,110082,1,8,0:0:0:0:
55,255,110232,1,0,0:0:0:0:
55,255,110307,1,0,0:0:0:0:
55,255,110382,6,0,P|78:267|98:272,3,40,2|0|0|0,3:2|0:0|0:0|0:0,0:0:0:0:
157,326,110682,1,10,0:0:0:0:
176,324,110757,1,2,0:0:0:0:
196,320,110832,1,2,0:0:0:0:
215,313,110907,1,2,0:0:0:0:
233,304,110982,1,2,0:0:0:0:
300,189,111132,1,0,3:2:0:0:
361,380,111282,2,0,P|331:355|309:321,1,80,8|0,0:0|0:0,0:0:0:0:
425,209,111582,5,2,3:2:0:0:
394,292,111732,1,0,0:0:0:0:
370,158,111882,1,10,0:0:0:0:
449,343,112032,1,2,0:0:0:0:
425,209,112182,5,0,3:2:0:0:
361,380,112332,1,0,3:2:0:0:
247,255,112482,1,10,0:0:0:0:
221,240,112557,1,2,0:0:0:0:
192,232,112632,1,2,0:0:0:0:
164,232,112707,1,2,0:0:0:0:
134,240,112782,1,2,3:2:0:0:
134,240,114882,6,0,L|124:315,1,60.0000022888184,0|0,3:2|0:0,0:0:0:0:
212,140,115182,5,0,3:2:0:0:
29,96,115407,1,0,1:2:0:0:
149,229,115632,1,0,1:2:0:0:
111,145,115782,5,0,1:2:0:0:
0,261,116007,1,0,1:2:0:0:
149,229,116232,1,0,1:2:0:0:
72,222,116382,5,0,1:2:0:0:
108,358,116607,1,0,1:2:0:0:
149,229,116832,1,0,1:2:0:0:
228,289,116982,6,0,P|261:287|288:279,1,60.0000022888184,0|0,3:0|1:0,0:0:0:0:
320,353,117282,2,0,P|348:335|367:314,1,60.0000022888184,0|0,3:0|1:0,0:0:0:0:
467,200,117582,6,0,P|478:158|469:103,1,88.000002685547,4|0,3:1|0:0,0:0:0:0:
336,50,117882,2,0,P|325:92|334:147,1,88.000002685547,10|0,0:0|0:0,0:0:0:0:
269,257,118182,1,2,0:0:0:0:
225,143,118332,1,0,3:2:0:0:
175,316,118482,1,10,0:0:0:0:
354,268,118632,2,0,P|308:269|266:256,1,88.000002685547,2|0,0:0|3:2,0:0:0:0:
120,139,118932,5,2,0:0:0:0:
181,319,119082,1,8,0:0:0:0:
225,143,119232,1,0,0:0:0:0:
225,143,119307,1,0,0:0:0:0:
225,143,119382,2,0,P|200:179|180:218,1,88.000002685547,2|0,0:0|3:2,0:0:0:0:
359,371,119682,1,10,0:0:0:0:
424,262,119832,1,2,0:0:0:0:
424,262,119907,1,0,0:0:0:0:
424,262,119982,6,0,P|380:249|333:250,1,88.000002685547,2|0,3:2|0:0,0:0:0:0:
146,158,120282,2,0,P|189:156|232:145,1,88.000002685547,10|0,0:0|0:0,0:0:0:0:
302,115,120507,1,0,0:0:0:0:
302,115,120582,1,2,0:0:0:0:
184,284,120732,1,0,3:2:0:0:
69,113,120882,1,10,0:0:0:0:
69,113,121032,2,0,L|63:201,1,88.000002685547,2|0,0:0|3:2,0:0:0:0:
73,306,121332,5,2,0:0:0:0:
142,140,121482,1,8,0:0:0:0:
249,251,121632,1,0,0:0:0:0:
269,258,121707,1,0,0:0:0:0:
291,262,121782,1,2,0:0:0:0:
313,264,121857,1,0,0:0:0:0:
335,264,121932,1,0,3:2:0:0:
512,233,122082,1,10,0:0:0:0:
369,114,122232,1,0,0:0:0:0:
369,114,122307,1,0,0:0:0:0:
369,114,122382,6,0,P|359:161|374:213,1,88.000002685547,0|0,3:2|0:0,0:0:0:0:
410,359,122682,2,0,P|418:316|408:273,1,88.000002685547,10|0,0:0|0:0,0:0:0:0:
282,174,122982,1,2,0:0:0:0:
337,319,123132,1,0,3:2:0:0:
460,154,123282,1,10,0:0:0:0:
273,262,123432,2,0,P|228:264|169:255,1,88.000002685547,0|0,0:0|3:2,0:0:0:0:
5,194,123732,5,2,0:0:0:0:
173,156,123882,1,8,0:0:0:0:
113,284,124032,1,0,0:0:0:0:
108,262,124107,1,0,0:0:0:0:
103,241,124182,1,2,0:0:0:0:
99,219,124257,1,0,0:0:0:0:
94,198,124332,1,0,3:2:0:0:
48,27,124482,2,0,L|71:130,1,88.000002685547,10|2,0:0|0:0,0:0:0:0:
113,284,124782,6,0,P|120:255|141:216,1,64,2|0,3:2|0:0,0:0:0:0:
225,361,125082,2,0,P|194:361|152:350,1,64,2|0,0:0|0:0,0:0:0:0:
286,213,125382,2,0,L|298:316,1,96,2|0,0:0|0:0,0:0:0:0:
363,346,125682,2,0,L|372:258,1,64,2|2,0:0|0:0,0:0:0:0:
374,62,126132,5,2,0:0:0:0:
374,62,126282,2,0,P|340:81|302:84,1,64,2|0,0:0|0:0,0:0:0:0:
228,115,126582,2,0,P|186:103|130:32,1,128,2|2,0:0|0:0,0:0:0:0:
335,201,127182,6,0,L|325:306,1,88.000002685547,2|0,3:2|0:0,0:0:0:0:
207,368,127482,2,0,L|197:263,1,88.000002685547,10|0,0:0|0:0,0:0:0:0:
189,208,127707,1,0,0:0:0:0:
189,208,127782,1,2,0:0:0:0:
327,289,127932,1,0,3:2:0:0:
91,328,128082,1,10,0:0:0:0:
158,130,128232,2,0,P|171:171|182:241,1,88.000002685547,2|0,0:0|3:2,0:0:0:0:
309,377,128532,5,2,0:0:0:0:
349,209,128682,1,8,0:0:0:0:
195,294,128832,1,2,0:0:0:0:
195,294,128907,1,0,0:0:0:0:
195,294,128982,6,0,L|141:286,1,44.0000013427735,0|0,3:2|0:0,0:0:0:0:
43,252,129132,2,0,L|97:244,1,44.0000013427735,0|0,3:2|0:0,0:0:0:0:
205,218,129282,2,0,L|151:210,1,44.0000013427735,10|0,3:2|0:0,0:0:0:0:
42,175,129432,2,0,L|96:167,1,44.0000013427735,0|0,3:2|0:0,0:0:0:0:
231,143,129582,6,0,P|183:132|142:104,1,88.000002685547,0|0,3:2|0:0,0:0:0:0:
332,0,129882,2,0,P|335:44|324:95,1,88.000002685547,10|0,0:0|0:0,0:0:0:0:
291,252,130182,1,2,0:0:0:0:
228,129,130332,1,0,3:2:0:0:
406,242,130482,1,10,0:0:0:0:
203,292,130632,2,0,L|217:200,1,88.000002685547,2|0,0:0|3:2,0:0:0:0:
400,138,130932,5,2,0:0:0:0:
400,138,131007,1,0,0:0:0:0:
400,138,131082,2,0,L|386:224,1,88.000002685547,10|0,0:0|0:0,0:0:0:0:
273,357,131382,6,0,L|264:293,1,44.0000013427735,0|0,3:2|0:0,0:0:0:0:
233,198,131532,2,0,L|224:261,1,44.0000013427735,0|0,3:2|0:0,0:0:0:0:
191,370,131682,2,0,L|182:306,1,44.0000013427735,8|0,3:2|0:0,0:0:0:0:
148,207,131832,2,0,L|139:270,1,44.0000013427735,0|0,3:2|0:0,0:0:0:0:
106,383,131982,5,0,3:2:0:0:
256,192,133632,12,2,136632,0:0:0:0:
282,125,136782,6,0,P|318:129|363:109,1,64,10|0,3:2|0:0,0:0:0:0:
402,43,137007,2,0,P|380:72|375:121,1,64
417,196,137232,2,0,P|409:178|392:161,1,32
302,234,137382,6,0,P|280:263|275:312,1,64,2|0,0:0|0:0,0:0:0:0:
313,379,137607,2,0,P|298:345|258:316,1,64
173,316,137832,2,0,P|191:318|215:311,1,32,2|0,0:0|0:0,0:0:0:0:
197,197,137982,6,0,P|182:163|142:134,1,64,2|0,0:0|0:0,0:0:0:0:
66,134,138207,2,0,P|101:137|146:117,1,64
191,45,138432,2,0,P|179:59|173:84,1,32,2|0,0:0|0:0,0:0:0:0:
118,213,138582,5,2,3:2:0:0:
243,113,138732,1,0,3:2:0:0:
88,59,138882,1,0,3:2:0:0:
80,57,138957,1,0,3:2:0:0:
72,55,139032,1,0,3:2:0:0:
63,54,139107,1,0,3:2:0:0:
57,52,139182,6,0,B|259:32,1,200,6|0,3:2|0:0,0:0:0:0:
350,74,140082,2,0,P|307:104|364:218,1,200,2|0,0:0|0:0,0:0:0:0:
444,236,140982,2,0,L|288:246,1,143.999995605469,2|0,0:0|0:0,0:0:0:0:
225,262,141507,1,0,0:0:0:0:
217,262,141582,6,0,P|279:209|196:185,1,200,2|0,3:2|0:0,0:0:0:0:
133,226,142407,1,0,0:0:0:0:
127,232,142482,2,0,L|111:64,1,160,2|0,3:2|0:0,0:0:0:0:
111,72,143382,6,0,L|117:123,1,40,2|0,0:0|0:0,0:0:0:0:
206,135,143682,2,0,L|201:174,1,40,2|0,0:0|0:0,0:0:0:0:
283,262,143982,5,14,0:0:0:0:
331,103,144132,1,10,0:0:0:0:
340,279,144432,5,10,0:0:0:0:
273,86,144582,1,10,0:0:0:0:
265,284,144882,5,10,0:0:0:0:
348,80,145032,1,10,0:0:0:0:
349,305,145332,5,10,0:0:0:0:
264,60,145482,1,10,0:0:0:0:
376,223,145782,5,10,0:0:0:0:
105,114,146382,5,10,0:0:0:0:
153,273,146532,1,10,0:0:0:0:
162,97,146832,5,10,0:0:0:0:
95,290,146982,1,10,0:0:0:0:
90,106,147282,5,10,0:0:0:0:
166,280,147432,1,10,0:0:0:0:
174,85,147732,5,10,0:0:0:0:
82,300,147882,1,10,0:0:0:0:
198,153,148182,5,10,0:0:0:0:
107,221,148782,6,0,L|314:236,1,200,6|0,3:2|0:0,0:0:0:0:
404,246,149682,2,0,B|378:174|378:174|421:42,1,200,2|0,0:0|0:0,0:0:0:0:
508,132,150582,2,0,L|480:220,1,80,2|0,0:0|0:0,0:0:0:0:
408,322,151032,1,0,0:0:0:0:
399,323,151107,1,0,0:0:0:0:
389,324,151182,6,0,P|291:278|198:299,1,200,2|0,3:2|0:0,0:0:0:0:
95,359,152082,2,0,L|86:305,1,40,2|0,3:2|0:0,0:0:0:0:
6,251,152382,2,0,L|0:290,1,40,2|0,0:0|0:0,0:0:0:0:
102,215,152682,2,0,L|93:161,1,40,2|0,0:0|0:0,0:0:0:0:
21,98,152982,2,0,L|6:185,1,80,2|0,0:0|0:0,0:0:0:0:
143,302,153582,5,14,0:0:0:0:
301,259,153732,1,10,0:0:0:0:
139,245,154032,5,10,0:0:0:0:
304,318,154182,1,10,0:0:0:0:
122,326,154482,5,10,0:0:0:0:
321,236,154632,1,10,0:0:0:0:
122,234,154932,5,10,0:0:0:0:
311,333,155082,1,10,0:0:0:0:
134,224,155232,1,10,0:0:0:0:
323,325,155382,1,10,0:0:0:0:
173,82,155982,5,10,0:0:0:0:
327,132,156132,1,10,0:0:0:0:
169,139,156432,5,10,0:0:0:0:
330,73,156582,1,10,0:0:0:0:
152,58,156882,5,10,0:0:0:0:
347,155,157032,1,10,0:0:0:0:
152,149,157332,5,10,0:0:0:0:
341,59,157482,1,10,0:0:0:0:
164,159,157632,1,10,0:0:0:0:
353,67,157782,1,10,0:0:0:0:
450,163,158382,6,0,P|440:196|437:232,1,60.0000022888184,6|2,0:0|0:0,0:0:0:0:
365,296,158682,2,0,P|361:266|352:237,1,60.0000022888184,2|2,0:0|0:0,0:0:0:0:
281,158,158982,1,2,1:2:0:0:
281,158,159057,1,0,1:2:0:0:
281,158,159132,1,0,1:2:0:0:
205,230,159282,2,0,L|136:225,1,60.0000022888184,2|2,0:0|0:0,0:0:0:0:
42,151,159732,6,0,P|26:153|13:154,2,30.0000011444092,2|0|2,0:0|0:0|0:0,0:0:0:0:
127,118,160032,1,2,0:0:0:0:
205,230,160182,1,2,1:2:0:0:
205,230,160257,1,0,1:2:0:0:
205,230,160332,1,2,1:2:0:0:
271,167,160482,2,0,P|303:154|337:152,1,60.0000022888184,2|2,0:0|0:0,0:0:0:0:
368,279,160782,6,0,P|340:257|322:229,1,60.0000022888184,2|2,0:0|0:0,0:0:0:0:
419,128,161082,1,2,0:0:0:0:
402,205,161232,1,2,0:0:0:0:
360,81,161382,1,2,1:2:0:0:
360,81,161457,1,0,1:2:0:0:
360,81,161532,1,2,1:2:0:0:
271,167,161682,2,0,L|211:162,1,60.0000022888184,2|2,0:0|0:0,0:0:0:0:
98,125,161982,5,2,1:2:0:0:
98,125,162132,2,0,L|64:122,2,30.0000011444092,2|2|2,1:2|1:2|1:2,0:0:0:0:
209,78,162432,1,2,1:2:0:0:
209,78,162582,2,0,L|243:75,2,30.0000011444092,2|0|0,1:2|1:2|1:2,0:0:0:0:
98,125,162882,2,0,L|23:121,1,60.0000022888184,2|0,0:0|0:0,0:0:0:0:
120,217,163182,6,0,P|131:244|137:274,1,60.0000022888184,2|2,0:0|0:0,0:0:0:0:
200,369,163482,2,0,P|203:339|213:311,1,60.0000022888184,2|2,0:0|0:0,0:0:0:0:
281,222,163782,1,2,1:2:0:0:
281,222,163857,1,0,1:2:0:0:
281,222,163932,1,2,0:0:0:0:
382,312,164082,2,0,P|351:311|322:302,1,60.0000022888184,2|2,0:0|0:0,0:0:0:0:
452,201,164382,6,0,L|440:281,1,60.0000022888184,2|2,0:0|0:0,0:0:0:0:
356,126,164682,2,0,L|364:185,1,60.0000022888184,2|2,0:0|0:0,0:0:0:0:
465,102,164982,1,2,1:2:0:0:
465,102,165057,1,0,1:2:0:0:
465,102,165132,1,2,1:2:0:0:
369,41,165282,2,0,P|326:46|288:63,1,60.0000022888184,2|2,0:0|0:0,0:0:0:0:
347,185,165582,6,0,L|355:125,1,60.0000022888184,2|2,0:0|0:0,0:0:0:0:
243,195,165882,2,0,L|251:254,1,60.0000022888184,2|2,0:0|0:0,0:0:0:0:
268,362,166182,1,2,1:2:0:0:
268,362,166257,1,0,1:2:0:0:
268,362,166332,1,2,1:2:0:0:
393,314,166482,2,0,P|364:303|325:300,1,60.0000022888184,2|2,0:0|0:0,0:0:0:0:
194,323,166782,5,2,1:2:0:0:
248,215,166932,2,0,P|251:196|251:176,2,30.0000011444092,2|0|2,1:2|1:2|1:2,0:0:0:0:
194,323,167232,1,2,1:2:0:0:
123,236,167382,1,2,1:2:0:0:
123,236,167457,1,0,1:2:0:0:
123,236,167532,1,0,1:2:0:0:
50,337,167682,2,0,P|83:347|127:349,1,60.0000022888184,2|0,0:0|1:2,0:0:0:0:
256,310,167982,6,0,P|223:313|192:322,1,64,6|2,3:2|0:0,0:0:0:0:
354,372,168282,2,0,L|368:236,1,128,2|2,0:0|0:0,0:0:0:0:
244,172,168732,2,0,L|252:256,1,64,2|0,0:0|0:0,0:0:0:0:
256,310,169032,1,2,0:0:0:0:
148,195,169182,5,2,0:0:0:0:
148,195,169332,2,0,L|141:258,1,64,2|0,0:0|0:0,0:0:0:0:
44,313,169632,2,0,L|37:249,1,64,2|0,0:0|0:0,0:0:0:0:
23,159,169932,1,2,0:0:0:0:
141,258,170082,1,2,0:0:0:0:
158,122,170232,1,2,0:0:0:0:
37,249,170382,6,0,L|44:313,1,64,2|2,0:0|0:0,0:0:0:0:
134,384,170682,2,0,P|196:345|259:346,1,128,2|2,0:0|0:0,0:0:0:0:
381,377,171132,2,0,P|350:380|318:372,1,64,2|0,0:0|0:0,0:0:0:0:
356,256,171432,1,2,0:0:0:0:
466,341,171582,5,2,0:0:0:0:
466,341,171732,2,0,L|479:210,1,128,2|0,0:0|0:0,0:0:0:0:
502,200,172082,2,0,L|495:85,1,106.666666666667,2|0,0:0|0:0,0:0:0:0:
414,21,172482,1,2,0:0:0:0:
414,21,172632,2,0,L|401:85,1,64,2|2,0:0|0:0,0:0:0:0:
362,177,172932,5,2,0:0:0:0:
261,113,173082,2,0,L|274:252,1,128,2|0,0:0|0:0,0:0:0:0:
288,382,173532,2,0,P|259:325|182:298,1,128,2|2,0:0|0:0,0:0:0:0:
80,360,173982,5,2,0:0:0:0:
80,360,174132,2,0,P|118:348|140:333,1,64,2|0,0:0|0:0,0:0:0:0:
218,178,174432,2,0,P|192:236|214:316,1,128,2|2,0:0|0:0,0:0:0:0:
304,378,174882,1,2,0:0:0:0:
304,378,175032,2,0,P|339:366|369:345,1,64,2|0,0:0|0:0,0:0:0:0:
390,230,175332,5,2,0:0:0:0:
390,230,175482,2,0,L|379:378,1,128,2|2,0:0|0:0,0:0:0:0:
494,188,175932,2,0,L|503:315,1,128,2|2,0:0|0:0,0:0:0:0:
402,149,176382,6,0,L|407:86,2,64,2|0|0,0:0|0:0|0:0,0:0:0:0:
312,214,176832,2,0,P|247:226|175:200,1,128,2|2,0:0|0:0,0:0:0:0:
115,146,177282,2,0,P|114:177|109:209,2,64,2|0|2,0:0|0:0|0:0,0:0:0:0:
73,46,177732,5,2,0:0:0:0:
231,64,177882,2,0,L|163:73,1,64,2|0,0:0|0:0,0:0:0:0:
43,171,178182,1,0,0:0:0:0:
233,186,178332,2,0,L|165:195,1,64,2|0,0:0|0:0,0:0:0:0:
52,278,178632,1,2,0:0:0:0:
52,278,178707,1,0,0:0:0:0:
52,278,178782,6,0,L|115:286,1,64,2|2,0:0|0:0,0:0:0:0:
231,355,179082,2,0,P|216:359|197:359,1,32,2|0,0:0|0:0,0:0:0:0:
296,291,179232,2,0,P|326:294|357:305,1,64,2|0,0:0|0:0,0:0:0:0:
463,379,179532,1,2,0:0:0:0:
463,379,179607,1,0,0:0:0:0:
463,379,179682,2,0,L|457:343,1,32,2|0,0:0|0:0,0:0:0:0:
467,213,179832,2,0,L|461:244,1,32,2|0,0:0|0:0,0:0:0:0:
357,305,179982,6,0,P|326:294|295:290,1,64,2|0,0:0|0:0,0:0:0:0:
182,333,180282,1,2,0:0:0:0:
182,333,180357,1,2,0:0:0:0:
182,333,180432,2,0,L|145:331,3,32,2|2|2|2,0:0|0:0|0:0|0:0,0:0:0:0:
77,294,180732,2,0,P|64:262|69:213,1,64,2|0,0:0|0:0,0:0:0:0:
200,208,181032,5,2,0:0:0:0:
200,208,181107,1,0,0:0:0:0:
200,208,181182,2,0,P|178:235|133:255,1,64,2|0,0:0|0:0,0:0:0:0:
64,145,181482,1,2,0:0:0:0:
79,145,181557,1,2,0:0:0:0:
95,148,181632,1,2,0:0:0:0:
110,155,181707,1,2,0:0:0:0:
123,163,181782,1,2,0:0:0:0:
170,261,181932,1,0,0:0:0:0:
233,134,182082,2,0,P|261:119|292:115,1,64,2|2,0:0|0:0,0:0:0:0:
394,147,182382,5,0,0:0:0:0:
295,228,182532,1,2,0:0:0:0:
291,221,182607,1,2,0:0:0:0:
287,214,182682,1,2,0:0:0:0:
285,206,182757,1,2,0:0:0:0:
283,198,182832,1,2,0:0:0:0:
360,80,182982,1,2,0:0:0:0:
428,214,183132,1,2,0:0:0:0:
295,228,183282,6,0,P|271:230|242:224,3,32
181,235,183582,2,0,P|156:212|137:167,1,64,2|0,0:0|0:0,0:0:0:0:
195,44,183882,1,0,0:0:0:0:
195,44,183957,1,0,0:0:0:0:
195,44,184032,2,0,P|188:82|158:116,1,64,2|0,0:0|0:0,0:0:0:0:
53,176,184332,1,2,0:0:0:0:
117,48,184482,1,2,0:0:0:0:
181,219,184632,1,2,0:0:0:0:
268,131,184782,6,0,L|271:159,1,26.6666666666667,2|2,3:2|0:0,0:0:0:0:
357,258,185242,2,0,L|360:230,1,26.6666666666667,2|0,0:0|0:0,0:0:0:0:
256,127,185692,2,0,L|262:183,1,53.3333333333333,2|0,0:0|0:0,0:0:0:0:
269,253,186142,2,0,L|272:281,1,26.6666666666667,2|0,0:0|0:0,0:0:0:0:
371,153,186592,1,2,0:0:0:0:
371,153,187182,6,0,P|314:141|250:145,1,92.0000017547608,6|0,3:1|0:0,0:0:0:0:
132,211,187482,1,8,0:0:0:0:
181,48,187632,1,2,0:0:0:0:
183,70,187707,1,0,0:0:0:0:
186,93,187782,1,2,0:0:0:0:
189,116,187857,1,0,0:0:0:0:
192,140,187932,1,0,3:2:0:0:
26,222,188082,2,0,L|39:120,1,92.0000017547608,10|0,0:0|0:0,0:0:0:0:
200,259,188382,6,0,P|166:285|94:286,1,92.0000017547608,0|0,3:2|0:0,0:0:0:0:
186,93,188682,1,10,0:0:0:0:
309,217,188832,1,0,0:0:0:0:
331,219,188907,1,0,0:0:0:0:
354,221,188982,1,2,0:0:0:0:
377,223,189057,1,0,0:0:0:0:
400,224,189132,1,0,3:2:0:0:
511,93,189282,2,0,L|414:102,1,92.0000017547608,10|0,0:0|0:0,0:0:0:0:
458,292,189582,6,0,P|481:256|490:203,1,92.0000017547608,2|0,3:2|0:0,0:0:0:0:
333,375,189882,1,10,0:0:0:0:
250,225,190032,1,2,0:0:0:0:
230,212,190107,1,0,0:0:0:0:
209,202,190182,1,0,0:0:0:0:
187,197,190257,1,0,0:0:0:0:
164,197,190332,1,0,3:2:0:0:
111,357,190482,2,0,P|155:328|180:292,1,92.0000017547608,10|0,0:0|0:0,0:0:0:0:
63,168,190782,6,0,P|65:220|84:260,1,92.0000017547608,0|0,3:2|0:0,0:0:0:0:
211,129,191082,1,8,0:0:0:0:
99,74,191232,1,0,0:0:0:0:
99,74,191307,1,0,0:0:0:0:
99,74,191382,2,0,P|74:66|47:64,2,46.0000008773804,2|0|0,0:0|0:0|3:2,0:0:0:0:
211,129,191682,2,0,P|259:128|316:113,1,92.0000017547608,10|0,0:0|0:0,0:0:0:0:
416,9,191982,6,0,P|392:51|377:107,1,92.0000017547608,2|0,3:2|0:0,0:0:0:0:
411,242,192282,1,8,0:0:0:0:
507,123,192432,1,2,0:0:0:0:
495,122,192507,1,0,0:0:0:0:
484,123,192582,1,0,0:0:0:0:
472,126,192657,1,0,0:0:0:0:
461,129,192732,1,0,3:2:0:0:
329,205,192882,2,0,P|318:155|297:110,1,92.0000017547608,10|0,0:0|0:0,0:0:0:0:
224,43,193182,6,0,P|231:17|239:0,2,46.0000008773804,0|0|0,3:2|0:0|0:0,0:0:0:0:
205,192,193482,1,8,0:0:0:0:
58,104,193632,1,0,0:0:0:0:
58,104,193707,1,0,0:0:0:0:
58,104,193782,2,0,P|106:107|166:137,1,92.0000017547608,2|0,0:0|3:2,0:0:0:0:
232,278,194082,2,0,P|210:234|206:167,1,92.0000017547608,10|0,0:0|0:0,0:0:0:0:
289,75,194382,5,2,3:2:0:0:
455,138,194532,2,0,P|413:150|347:144,1,92.0000017547608,2|8,3:2|0:0,0:0:0:0:
223,118,194832,1,2,3:2:0:0:
356,31,194982,1,2,3:2:0:0:
287,192,195132,1,0,0:0:0:0:
287,192,195207,1,0,3:2:0:0:
287,192,195282,1,10,0:0:0:0:
180,52,195432,1,2,3:2:0:0:
180,52,195732,5,2,3:2:0:0:
156,229,195882,1,10,0:0:0:0:
76,124,196032,1,0,3:2:0:0:
156,229,196182,2,0,P|170:273|173:319,1,92.0000017547608,2|0,3:2|0:0,0:0:0:0:
269,384,196482,2,0,P|278:338|299:297,1,92.0000017547608,10|0,0:0|0:0,0:0:0:0:
465,345,196782,6,0,P|421:358|375:361,1,92.0000017547608,2|0,3:2|0:0,0:0:0:0:
238,237,197082,1,8,0:0:0:0:
399,190,197232,1,2,0:0:0:0:
397,212,197307,1,0,0:0:0:0:
394,235,197382,1,2,0:0:0:0:
392,258,197457,1,0,0:0:0:0:
390,281,197532,1,0,3:2:0:0:
287,172,197682,2,0,P|276:127|270:74,1,92.0000017547608,10|0,0:0|0:0,0:0:0:0:
168,0,197982,6,0,P|162:45|151:90,1,92.0000017547608,0|0,3:2|0:0,0:0:0:0:
69,196,198282,1,10,0:0:0:0:
8,39,198432,1,0,0:0:0:0:
26,40,198507,1,0,0:0:0:0:
44,42,198582,1,2,0:0:0:0:
62,44,198657,1,0,0:0:0:0:
81,46,198732,1,0,3:2:0:0:
243,81,198882,2,0,L|135:91,1,92.0000017547608,10|2,0:0|0:0,0:0:0:0:
317,2,199182,6,0,P|341:41|356:95,1,92.0000017547608,2|0,3:2|0:0,0:0:0:0:
360,231,199482,1,10,0:0:0:0:
203,159,199632,1,2,0:0:0:0:
221,157,199707,1,0,0:0:0:0:
239,158,199782,1,0,0:0:0:0:
257,161,199857,1,0,0:0:0:0:
275,168,199932,1,0,3:2:0:0:
156,325,200082,2,0,P|142:284|143:223,1,92.0000017547608,10|0,0:0|0:0,0:0:0:0:
197,68,200382,6,0,P|206:110|199:170,1,92.0000017547608,0|0,3:2|0:0,0:0:0:0:
131,251,200682,1,8,0:0:0:0:
268,250,200832,1,0,0:0:0:0:
268,250,200907,1,0,0:0:0:0:
268,250,200982,2,0,P|296:255|337:273,2,46.0000008773804,2|0|0,0:0|0:0|3:2,0:0:0:0:
131,251,201282,2,0,P|161:216|180:174,1,92.0000017547608,10|0,0:0|0:0,0:0:0:0:
229,44,201582,6,0,P|243:87|270:124,1,92.0000017547608,2|0,3:2|0:0,0:0:0:0:
384,204,201882,1,8,0:0:0:0:
376,74,202032,1,2,0:0:0:0:
371,84,202107,1,0,0:0:0:0:
367,95,202182,1,0,0:0:0:0:
365,106,202257,1,0,0:0:0:0:
363,118,202332,1,0,3:2:0:0:
478,244,202482,2,0,P|477:200|460:145,1,92.0000017547608,10|0,0:0|0:0,0:0:0:0:
309,297,202782,6,0,P|347:318|403:330,1,92.0000017547608,0|0,3:2|0:0,0:0:0:0:
286,170,203082,1,8,0:0:0:0:
217,308,203232,1,0,0:0:0:0:
217,308,203307,1,0,0:0:0:0:
217,308,203382,2,0,P|211:334|209:355,2,46.0000008773804,2|0|0,0:0|0:0|3:2,0:0:0:0:
160,198,203682,2,0,P|170:147|159:96,1,92.0000017547608,10|0,0:0|0:0,0:0:0:0:
101,13,203982,5,0,3:2:0:0:
244,32,204132,1,0,3:2:0:0:
163,108,204432,5,0,3:2:0:0:
318,86,204582,1,0,3:2:0:0:
91,155,204882,5,0,3:2:0:0:
272,182,205032,1,0,3:2:0:0:
42,255,205332,5,0,3:2:0:0:
197,235,205482,1,0,3:2:0:0:
23,146,205782,6,0,L|103:156,1,68.0000012969971,0|0,3:2|0:0,0:0:0:0:
197,235,206082,2,0,L|129:243,1,68.0000012969971
277,99,206382,6,0,P|287:141|286:207,1,92.0000017547608,6|0,3:1|0:0,0:0:0:0:
238,349,206682,1,8,0:0:0:0:
117,225,206832,1,2,0:0:0:0:
137,228,206907,1,0,0:0:0:0:
157,230,206982,1,2,0:0:0:0:
177,233,207057,1,0,0:0:0:0:
197,235,207132,1,0,3:2:0:0:
329,337,207282,2,0,L|238:348,1,92.0000017547608,10|0,0:0|0:0,0:0:0:0:
98,212,207582,6,0,L|189:223,1,92.0000017547608,0|0,3:2|0:0,0:0:0:0:
324,244,207882,2,0,P|302:198|301:149,1,92.0000017547608,10|0,0:0|0:0,0:0:0:0:
384,30,208182,1,2,0:0:0:0:
384,30,208257,1,0,0:0:0:0:
384,30,208332,1,0,3:2:0:0:
476,187,208482,2,0,P|429:192|384:178,1,92.0000017547608,10|0,0:0|0:0,0:0:0:0:
304,67,208782,6,0,P|305:110|291:174,1,92.0000017547608,2|0,3:2|0:0,0:0:0:0:
187,276,209082,1,10,0:0:0:0:
83,151,209232,1,2,0:0:0:0:
105,146,209307,1,0,0:0:0:0:
128,145,209382,1,0,0:0:0:0:
151,150,209457,1,0,0:0:0:0:
172,158,209532,1,0,3:2:0:0:
47,306,209682,2,0,P|27:265|29:217,1,92.0000017547608,10|0,0:0|0:0,0:0:0:0:
188,276,209982,6,0,L|174:379,1,92.0000017547608,0|0,3:2|0:0,0:0:0:0:
83,151,210282,1,8,0:0:0:0:
223,203,210432,1,0,0:0:0:0:
223,203,210507,1,0,0:0:0:0:
223,203,210582,2,0,L|287:191,2,46.0000008773804,2|0|0,0:0|0:0|3:2,0:0:0:0:
83,151,210882,2,0,P|68:103|74:61,1,92.0000017547608,10|0,0:0|0:0,0:0:0:0:
159,253,211182,6,0,P|164:298|149:341,1,92.0000017547608,2|0,3:2|0:0,0:0:0:0:
12,269,211482,1,10,0:0:0:0:
89,130,211632,1,2,0:0:0:0:
90,141,211707,1,0,0:0:0:0:
92,152,211782,1,0,0:0:0:0:
94,164,211857,1,0,0:0:0:0:
95,175,211932,1,0,3:2:0:0:
148,341,212082,2,0,P|166:299|200:269,1,92.0000017547608,10|0,0:0|0:0,0:0:0:0:
353,215,212382,6,0,P|307:220|264:205,1,92.0000017547608,0|0,3:2|0:0,0:0:0:0:
175,92,212682,1,8,0:0:0:0:
324,30,212832,1,0,0:0:0:0:
321,52,212907,1,0,0:0:0:0:
318,75,212982,1,2,0:0:0:0:
316,98,213057,1,0,0:0:0:0:
313,121,213132,1,0,3:0:0:0:
433,239,213282,2,0,L|422:142,1,92.0000017547608,10|0,0:0|0:0,0:0:0:0:
306,284,213582,6,0,L|300:332,2,46.0000008773804,2|0|2,3:2|0:0|0:0,0:0:0:0:
217,141,213882,1,8,0:0:0:0:
119,261,214032,1,2,0:0:0:0:
141,263,214107,1,0,0:0:0:0:
164,261,214182,1,2,0:0:0:0:
186,255,214257,1,0,0:0:0:0:
207,245,214332,1,0,3:2:0:0:
43,186,214482,2,0,P|17:229|15:281,1,92.0000017547608,10|2,0:0|0:0,0:0:0:0:
95,384,214782,5,0,3:2:0:0:
95,384,214857,1,0,0:0:0:0:
95,384,214932,1,0,0:0:0:0:
207,245,215082,2,0,P|156:243|110:268,1,92.0000017547608,10|2,0:0|0:0,0:0:0:0:
296,332,215382,1,2,0:0:0:0:
296,332,215532,1,0,3:2:0:0:
327,137,215682,2,0,P|294:175|281:229,1,92.0000017547608,10|0,0:0|0:0,0:0:0:0:
421,306,215982,6,0,L|410:210,1,92.0000017547608,2|0,3:2|0:0,0:0:0:0:
385,51,216282,1,8,0:0:0:0:
238,117,216432,1,2,0:0:0:0:
258,126,216507,1,0,0:0:0:0:
280,133,216582,1,2,0:0:0:0:
303,136,216657,1,0,0:0:0:0:
326,136,216732,1,0,3:2:0:0:
483,129,216882,2,0,P|450:156|421:198,1,92.0000017547608,10|0,0:0|0:0,0:0:0:0:
342,315,217182,6,0,L|328:209,1,92.0000017547608,0|0,3:2|0:0,0:0:0:0:
296,46,217482,1,10,0:0:0:0:
223,140,217632,1,0,0:0:0:0:
201,149,217707,1,0,0:0:0:0:
179,154,217782,1,2,0:0:0:0:
156,158,217857,1,0,0:0:0:0:
133,156,217932,1,0,3:2:0:0:
28,24,218082,2,0,P|74:33|119:66,1,92.0000017547608,10|0,0:0|0:0,0:0:0:0:
52,209,218382,6,0,L|42:109,1,92.0000017547608,2|0,3:2|0:0,0:0:0:0:
153,268,218682,1,8,0:0:0:0:
223,140,218832,1,2,0:0:0:0:
243,129,218907,1,0,0:0:0:0:
265,124,218982,1,0,0:0:0:0:
288,122,219057,1,0,0:0:0:0:
311,126,219132,1,0,3:2:0:0:
423,265,219282,2,0,P|387:235|367:195,1,92.0000017547608,10|0,0:0|0:0,0:0:0:0:
422,23,219582,6,0,P|414:68|395:112,1,92.0000017547608,0|0,3:2|0:0,0:0:0:0:
277,217,219882,1,8,0:0:0:0:
189,71,220032,1,0,0:0:0:0:
189,71,220107,1,0,0:0:0:0:
189,71,220182,6,0,P|231:55|279:49,1,92.0000017547608,2|0,0:0|3:2,0:0:0:0:
91,130,220482,2,0,P|45:124|2:108,1,92.0000017547608,10|0,0:0|0:0,0:0:0:0:
189,185,220782,6,0,L|196:292,1,83.9999974365235,2|0,3:2|0:0,0:0:0:0:
277,373,221082,1,8,0:0:0:0:
364,253,221232,1,2,0:0:0:0:
348,249,221307,1,0,0:0:0:0:
334,246,221382,1,0,0:0:0:0:
320,245,221457,1,0,0:0:0:0:
305,244,221532,1,0,3:2:0:0:
189,185,221682,2,0,P|238:181|274:167,1,83.9999974365235,10|0,0:0|0:0,0:0:0:0:
335,61,221982,6,0,P|331:37|332:12,2,41.9999987182618,0|0|0,3:2|0:0|0:0,0:0:0:0:
386,183,222282,1,10,0:0:0:0:
512,98,222432,1,0,0:0:0:0:
512,98,222507,1,0,0:0:0:0:
512,98,222582,2,0,P|469:102|424:123,1,83.9999974365235,2|0,0:0|3:2,0:0:0:0:
363,262,222882,2,0,P|381:222|385:173,1,83.9999974365235,10|0,0:0|0:0,0:0:0:0:
314,69,223182,5,0,3:2:0:0:
286,190,223332,1,0,3:2:0:0:
223,43,223632,5,0,3:2:0:0:
253,205,223782,1,0,3:2:0:0:
190,28,224082,5,0,3:2:0:0:
158,200,224232,1,0,3:2:0:0:
99,54,224532,5,0,3:2:0:0:
125,215,224682,1,0,3:2:0:0:
191,29,224982,5,2,3:2:0:0:
118,232,225582,6,0,P|163:217|199:217,1,80,0|0,3:2|0:0,0:0:0:0:
291,293,225882,1,10,0:0:0:0:
336,200,226032,1,0,0:0:0:0:
337,190,226107,1,0,0:0:0:0:
338,180,226182,1,0,0:0:0:0:
339,170,226257,1,0,0:0:0:0:
341,161,226332,1,2,3:2:0:0:
291,293,226482,2,0,L|303:384,1,80,10|0,0:0|0:0,0:0:0:0:
413,249,226782,6,0,L|423:153,1,80,2|0,3:2|0:0,0:0:0:0:
434,39,227082,1,8,0:0:0:0:
338,194,227232,2,0,L|334:155,4,40,2|0|0|0|0,0:0|0:0|0:0|0:0|3:2,0:0:0:0:
251,66,227682,2,0,P|207:49|163:49,1,80,10|2,0:0|0:0,0:0:0:0:
141,195,227982,6,0,P|176:165|199:127,1,80,0|0,3:2|0:0,0:0:0:0:
69,93,228282,1,10,0:0:0:0:
48,206,228432,1,0,0:0:0:0:
46,215,228507,1,0,0:0:0:0:
44,225,228582,1,0,0:0:0:0:
42,235,228657,1,0,0:0:0:0:
41,245,228732,1,2,3:2:0:0:
69,93,228882,2,0,L|82:14,1,80,10|0,0:0|0:0,0:0:0:0:
194,137,229182,6,0,L|206:217,1,80,2|0,3:2|0:0,0:0:0:0:
248,335,229482,1,8,0:0:0:0:
309,207,229632,2,0,L|324:163,4,40,2|0|0|0|0,0:0|0:0|0:0|0:0|3:2,0:0:0:0:
167,289,230082,2,0,P|134:298|78:290,1,80,10|2,0:0|0:0,0:0:0:0:
205,216,230382,6,0,P|229:240|250:292,1,80,0|0,3:2|0:0,0:0:0:0:
345,384,230682,1,10,0:0:0:0:
389,237,230832,1,0,0:0:0:0:
391,227,230907,1,0,0:0:0:0:
394,217,230982,1,0,0:0:0:0:
398,208,231057,1,0,0:0:0:0:
402,199,231132,1,2,3:2:0:0:
248,281,231282,2,0,P|208:283|155:264,1,80,10|0,0:0|0:0,0:0:0:0:
304,148,231582,6,0,P|312:187|303:242,1,80,2|0,3:2|0:0,0:0:0:0:
260,358,231882,1,8,0:0:0:0:
169,272,232032,2,0,P|132:264|110:265,4,40,2|0|0|0|0,0:0|0:0|0:0|0:0|3:2,0:0:0:0:
260,358,232482,2,0,P|304:368|340:367,1,80,10|2,0:0|0:0,0:0:0:0:
432,281,232782,6,0,P|434:235|426:200,1,80,0|0,3:2|0:0,0:0:0:0:
366,81,233082,1,10,0:0:0:0:
290,194,233232,1,0,0:0:0:0:
286,203,233307,1,0,0:0:0:0:
284,213,233382,1,0,0:0:0:0:
282,222,233457,1,0,0:0:0:0:
281,232,233532,1,2,3:2:0:0:
231,100,233682,2,0,P|229:52|215:17,1,80,10|0,0:0|0:0,0:0:0:0:
101,148,233982,6,0,P|140:161|197:162,1,80,2|0,3:2|0:0,0:0:0:0:
304,123,234282,1,8,0:0:0:0:
233,228,234432,2,0,P|227:259|227:281,4,40,2|0|0|0|0,0:0|0:0|0:0|0:0|3:2,0:0:0:0:
304,123,234882,2,0,P|317:76|308:24,1,80,10|2,0:0|0:0,0:0:0:0:
321,221,235182,6,0,P|308:268|317:320,1,80,0|0,3:2|0:0,0:0:0:0:
430,163,235482,1,10,0:0:0:0:
304,123,235632,1,0,0:0:0:0:
294,123,235707,1,0,0:0:0:0:
284,125,235782,1,0,0:0:0:0:
274,127,235857,1,0,0:0:0:0:
264,130,235932,1,2,3:2:0:0:
430,163,236082,2,0,P|443:210|440:262,1,80,10|0,0:0|0:0,0:0:0:0:
303,309,236382,6,0,P|290:262|293:210,1,80,2|0,3:2|0:0,0:0:0:0:
312,114,236682,1,10,0:0:0:0:
198,153,236832,2,0,P|178:156|142:156,4,40,2|0|0|0|0,0:0|0:0|0:0|0:0|3:2,0:0:0:0:
312,114,237282,2,0,P|354:105|403:105,1,80,10|2,0:0|0:0,0:0:0:0:
294,271,237582,6,0,P|273:238|262:199,1,80,0|0,3:2|0:0,0:0:0:0:
247,67,237882,1,8,0:0:0:0:
168,164,238032,1,0,0:0:0:0:
164,173,238107,1,0,0:0:0:0:
161,182,238182,1,2,0:0:0:0:
159,192,238257,1,0,0:0:0:0:
158,202,238332,1,2,3:2:0:0:
247,67,238482,2,0,P|286:63|325:71,1,80,8|0,0:0|0:0,0:0:0:0:
320,223,238782,6,0,P|297:190|284:152,1,80,2|0,3:2|0:0,0:0:0:0:
436,197,239082,1,8,0:0:0:0:
349,302,239232,2,0,L|341:358,4,40,2|0|0|0|0,0:0|0:0|0:0|0:0|3:2,0:0:0:0:
436,197,239682,2,0,L|420:85,1,80,10|2,0:0|0:0,0:0:0:0:
325,4,239982,6,0,P|321:43|297:113,1,80,0|0,3:2|0:0,0:0:0:0:
228,189,240282,1,10,0:0:0:0:
174,70,240432,1,0,0:0:0:0:
168,61,240507,1,0,0:0:0:0:
163,53,240582,1,0,0:0:0:0:
156,45,240657,1,0,0:0:0:0:
149,38,240732,1,2,3:2:0:0:
228,189,240882,2,0,L|215:278,1,80,8|0,0:0|0:0,0:0:0:0:
71,306,241182,6,0,P|101:272|153:258,1,80,2|0,3:2|0:0,0:0:0:0:
238,352,241482,1,8,0:0:0:0:
306,244,241632,2,0,L|299:187,4,40,2|0|0|0|0,0:0|0:0|0:0|0:0|3:2,0:0:0:0:
398,344,242082,2,0,L|407:264,1,80,10|2,0:0|0:0,0:0:0:0:
473,133,242382,6,0,L|482:212,1,80,0|0,3:2|0:0,0:0:0:0:
363,72,242682,1,10,0:0:0:0:
509,45,242832,1,0,0:0:0:0:
500,49,242907,1,0,0:0:0:0:
491,54,242982,1,0,0:0:0:0:
481,57,243057,1,0,0:0:0:0:
472,60,243132,1,2,3:2:0:0:
363,72,243282,2,0,L|266:63,1,80,8|0,0:0|0:0,0:0:0:0:
172,166,243582,6,0,L|269:157,1,80,2|0,3:2|0:0,0:0:0:0:
105,65,243882,1,8,0:0:0:0:
41,181,244032,1,2,0:0:0:0:
36,200,244107,1,0,0:0:0:0:
34,220,244182,1,0,0:0:0:0:
35,240,244257,1,0,0:0:0:0:
39,260,244332,2,0,L|51:306,1,40,0|0,3:2|0:0,0:0:0:0:
113,384,244482,2,0,L|124:336,1,40,10|0,0:0|0:0,0:0:0:0:
177,230,244632,6,0,P|181:252|189:276,1,44.0000013427735
290,329,244782,6,0,B|336:329|362:298|362:298|347:333|367:373,1,155.999992858887,4|0,3:1|0:0,0:0:0:0:
256,192,245082,12,0,249582,0:0:0:0:
