osu file format v14

[General]
AudioFilename: audio.mp3
AudioLeadIn: 0
PreviewTime: 184782
Countdown: 0
SampleSet: Soft
StackLeniency: 0.7
Mode: 0
LetterboxInBreaks: 0
EpilepsyWarning: 1
WidescreenStoryboard: 1

[Editor]
DistanceSpacing: 1.1
BeatDivisor: 4
GridSize: 4
TimelineZoom: 2.899999

[Metadata]
Title:Fortuna Redux
TitleUnicode:Fortuna Redux
Artist:Fractal Dreamers
ArtistUnicode:Fractal Dreamers
Creator:DTM9 Nowa
Version:Easy
Source:osu!
Tags:Helblinde Kingdom of Silence EP artcore dnb Featured Artist mappers' guild Mapping With Rewards 2017 mwr Instrumental Electronic
BeatmapID:1506915
BeatmapSetID:712974

[Difficulty]
HPDrainRate:3
CircleSize:2.6
OverallDifficulty:3
ApproachRate:4
SliderMultiplier:0.75
SliderTickRate:1

[Events]
//Background and Video events
0,0,"Fractal.jpg",0,0
//Break Periods
2,40982,48887
2,132182,135350
2,168182,176562
//Storyboard Layer 0 (Background)
//Storyboard Layer 1 (Fail)
//Storyboard Layer 2 (Pass)
//Storyboard Layer 3 (Foreground)
Sprite,Foreground,Centre,"sb/hl.png",348,64 S,2,114882,115632,0.7,0.14 F,2,114882,115632,1,0 P,0,114882,115632,A C,0,114882,,149,255,218
Sprite,Foreground,Centre,"sb/hl.png",0,0 S,2,115182,117732,0.7,0.14 F,2,115182,117732,1,0 P,0,115182,117732,A C,0,115182,,36,74,255 M,0,115182,115219,285,117,286.2472,126.2917 M,0,115219,115257,286.2472,126.2917,287.4944,135.5833 M,0,115257,115294,287.4944,135.5833,288.7416,144.875 M,0,115294,115332,288.7416,144.875,289.9888,154.1667 M,0,115332,115369,289.9888,154.1667,291.236,163.4583 M,0,115369,115407,291.236,163.4583,292.4832,172.75 M,0,115407,115444,292.4832,172.75,293.7304,182.0417 M,0,115444,115482,293.7304,182.0417,294.9776,191.3333 M,0,115482,115519,294.9776,191.3333,296.2249,200.625 M,0,115519,115557,296.2249,200.625,297.472,209.9167 M,0,115557,115594,297.472,209.9167,298.7192,219.2084 M,0,115594,115632,298.7192,219.2084,299.9664,228.5 M,0,115632,115669,299.9664,228.5,301.2137,237.7917 M,0,115669,115707,301.2137,237.7917,302.4608,247.0834 M,0,115707,115744,302.4608,247.0834,303.7081,256.375 M,0,115744,115782,303.7081,256.375,304.9553,265.6667 M,0,115782,115819,304.9553,265.6667,303.7081,256.375 M,0,115819,115857,303.7081,256.375,302.4608,247.0834 M,0,115857,115894,302.4608,247.0834,301.2137,237.7917 M,0,115894,115932,301.2137,237.7917,299.9664,228.5 M,0,115932,115969,299.9664,228.5,298.7192,219.2084 M,0,115969,116007,298.7192,219.2084,297.472,209.9167 M,0,116007,116044,297.472,209.9167,296.2249,200.625 M,0,116044,116082,296.2249,200.625,294.9776,191.3333 M,0,116082,116119,294.9776,191.3333,293.7304,182.0417 M,0,116119,116157,293.7304,182.0417,292.4832,172.75 M,0,116157,116194,292.4832,172.75,291.236,163.4583 M,0,116194,116232,291.236,163.4583,289.9888,154.1667 M,0,116232,116269,289.9888,154.1667,288.7416,144.875 M,0,116269,116307,288.7416,144.875,287.4944,135.5833 M,0,116307,116344,287.4944,135.5833,286.2472,126.2917 M,0,116344,116382,286.2472,126.2917,285,117 M,0,116382,116419,285,117,286.2472,126.2917 M,0,116419,116457,286.2472,126.2917,287.4944,135.5833 M,0,116457,116494,287.4944,135.5833,288.7416,144.875 M,0,116494,116532,288.7416,144.875,289.9888,154.1667 M,0,116532,116569,289.9888,154.1667,291.236,163.4583 M,0,116569,116607,291.236,163.4583,292.4832,172.75 M,0,116607,116644,292.4832,172.75,293.7304,182.0417 M,0,116644,116682,293.7304,182.0417,294.9776,191.3333 M,0,116682,116719,294.9776,191.3333,296.2249,200.625 M,0,116719,116757,296.2249,200.625,297.472,209.9167 M,0,116757,116794,297.472,209.9167,298.7192,219.2084 M,0,116794,116832,298.7192,219.2084,299.9664,228.5 M,0,116832,116869,299.9664,228.5,301.2137,237.7917 M,0,116869,116907,301.2137,237.7917,302.4608,247.0834 M,0,116907,116944,302.4608,247.0834,303.7081,256.375 M,0,116944,116982,303.7081,256.375,304.9553,265.6667
Sprite,Foreground,Centre,"sb/hl.png",0,0 S,2,136782,139332,0.7,0.14 F,2,136782,139332,1,0 P,0,136782,139332,A C,0,136782,,223,223,223 M,0,136782,136819,376,126,372.3238,134.6236 M,0,136819,136857,372.3238,134.6236,368.8241,143.32 M,0,136857,136894,368.8241,143.32,365.5023,152.0857 M,0,136894,136932,365.5023,152.0857,362.36,160.9171 M,0,136932,136969,362.36,160.9171,359.3982,169.8105 M,0,136969,137007,359.3982,169.8105,356.6183,178.7623 M,0,137007,137044,356.6183,178.7623,354.0214,187.7688 M,0,137044,137082,354.0214,187.7688,351.6085,196.8263 M,0,137082,137119,351.6085,196.8263,349.3213,205.9169 M,0,137119,137157,349.3213,205.9169,347.2975,215.0701 M,0,137157,137194,347.2975,215.0701,345.4607,224.2624 M,0,137194,137232,345.4607,224.2624,343.8116,233.49 M,0,137232,137269,343.8116,233.49,342.3508,242.7492 M,0,137269,137307,342.3508,242.7492,341.079,252.036 M,0,137307,137344,341.079,252.036,339.9967,261.3467 M,0,137344,137382,339.9967,261.3467,339.0309,270.6713 M,0,137382,137419,339.0309,270.6713,339.9967,261.3467 M,0,137419,137457,339.9967,261.3467,341.079,252.036 M,0,137457,137494,341.079,252.036,342.3508,242.7492 M,0,137494,137532,342.3508,242.7492,343.8116,233.49 M,0,137532,137569,343.8116,233.49,345.4607,224.2624 M,0,137569,137607,345.4607,224.2624,347.2975,215.0701 M,0,137607,137644,347.2975,215.0701,349.3213,205.9169 M,0,137644,137682,349.3213,205.9169,351.6085,196.8263 M,0,137682,137719,351.6085,196.8263,354.0214,187.7688 M,0,137719,137757,354.0214,187.7688,356.6183,178.7623 M,0,137757,137794,356.6183,178.7623,359.3982,169.8105 M,0,137794,137832,359.3982,169.8105,362.36,160.9171 M,0,137832,137869,362.36,160.9171,365.5023,152.0857 M,0,137869,137907,365.5023,152.0857,368.8241,143.32 M,0,137907,137944,368.8241,143.32,372.3238,134.6236 M,0,137944,137982,372.3238,134.6236,376,126 M,0,137982,138019,376,126,372.3238,134.6236 M,0,138019,138057,372.3238,134.6236,368.8241,143.32 M,0,138057,138094,368.8241,143.32,365.5023,152.0857 M,0,138094,138132,365.5023,152.0857,362.36,160.9171 M,0,138132,138169,362.36,160.9171,359.3982,169.8105 M,0,138169,138207,359.3982,169.8105,356.6183,178.7623 M,0,138207,138244,356.6183,178.7623,354.0214,187.7688 M,0,138244,138282,354.0214,187.7688,351.6085,196.8263 M,0,138282,138319,351.6085,196.8263,349.3213,205.9169 M,0,138319,138357,349.3213,205.9169,347.2975,215.0701 M,0,138357,138394,347.2975,215.0701,345.4607,224.2624 M,0,138394,138432,345.4607,224.2624,343.8116,233.49 M,0,138432,138469,343.8116,233.49,342.3508,242.7492 M,0,138469,138507,342.3508,242.7492,341.079,252.036 M,0,138507,138544,341.079,252.036,339.9967,261.3467 M,0,138544,138582,339.9967,261.3467,339.0309,270.6713
Sprite,Foreground,Centre,"sb/hl.png",218,384 S,2,139182,139932,0.7,0.14 F,2,139182,139932,1,0 P,0,139182,139932,A C,0,139182,,149,255,218
Sprite,Foreground,Centre,"sb/hl.png",147,146 S,2,140082,140832,0.7,0.14 F,2,140082,140832,1,0 P,0,140082,140832,A C,0,140082,,149,255,218
Sprite,Foreground,Centre,"sb/hl.png",218,384 S,2,140982,141732,0.7,0.14 F,2,140982,141732,1,0 P,0,140982,141732,A C,0,140982,,149,255,218
Sprite,Foreground,Centre,"sb/hl.png",376,387 S,2,141582,142332,0.7,0.14 F,2,141582,142332,1,0 P,0,141582,142332,A C,0,141582,,36,74,255
Sprite,Foreground,Centre,"sb/hl.png",447,149 S,2,142482,143232,0.7,0.14 F,2,142482,143232,1,0 P,0,142482,143232,A C,0,142482,,36,74,255
Sprite,Foreground,Centre,"sb/hl.png",376,387 S,2,143382,144132,0.7,0.14 F,2,143382,144132,1,0 P,0,143382,144132,A C,0,143382,,36,74,255
Sprite,Foreground,Centre,"sb/hl.png",297,411 S,2,143682,144432,0.7,0.14 F,2,143682,144432,1,0 P,0,143682,144432,A C,0,143682,,36,74,255
Sprite,Foreground,Centre,"sb/hl.png",0,0 S,2,143982,146532,0.7,0.14 F,2,143982,146532,1,0 P,0,143982,146532,A C,0,143982,,223,223,223 M,0,143982,144019,218,384,215.9659,374.8491 M,0,144019,144057,215.9659,374.8491,213.5395,365.7943 M,0,144057,144094,213.5395,365.7943,210.7205,356.8539 M,0,144094,144132,210.7205,356.8539,207.5119,348.0459 M,0,144132,144169,207.5119,348.0459,203.9194,339.3874 M,0,144169,144207,203.9194,339.3874,199.9519,330.8941 M,0,144207,144244,199.9519,330.8941,195.6209,322.5803 M,0,144244,144282,195.6209,322.5803,190.94,314.4583 M,0,144282,144319,190.94,314.4583,185.9251,306.5381 M,0,144319,144357,185.9251,306.5381,180.5929,298.8279 M,0,144357,144394,180.5929,298.8279,174.9614,291.3335 M,0,144394,144432,174.9614,291.3335,169.0493,284.0584 M,0,144432,144469,169.0493,284.0584,178.0585,286.0888 M,0,144469,144507,178.0585,286.0888,187.3348,287.4244 M,0,144507,144544,187.3348,287.4244,196.6948,287.8784 M,0,144544,144582,196.6948,287.8784,206.0504,287.3524 M,0,144582,144619,206.0504,287.3524,215.2871,285.7792 M,0,144619,144657,215.2871,285.7792,224.2771,283.1393 M,0,144657,144694,224.2771,283.1393,232.8987,279.4702 M,0,144694,144732,232.8987,279.4702,241.0567,274.8604 M,0,144732,144769,241.0567,274.8604,248.6942,269.4302 M,0,144769,144807,248.6942,269.4302,255.7913,263.3094 M,0,144807,144844,255.7913,263.3094,262.3572,256.6209 M,0,144844,144882,262.3572,256.6209,267.6108,249.4494 M,0,144882,144919,267.6108,249.4494,261.9671,241.9652 M,0,144919,144957,261.9671,241.9652,255.8611,234.8537 M,0,144957,144994,255.8611,234.8537,249.2572,228.2028 M,0,144994,145032,249.2572,228.2028,242.1288,222.1183 M,0,145032,145069,242.1288,222.1183,234.4683,216.7205 M,0,145069,145107,234.4683,216.7205,226.2957,212.1364 M,0,145107,145144,226.2957,212.1364,217.6674,208.4826 M,0,145144,145182,217.6674,208.4826,208.6765,205.8455 M,0,145182,145219,208.6765,205.8455,199.4413,204.2624 M,0,145219,145257,199.4413,204.2624,190.0869,203.7157 M,0,145257,145294,190.0869,203.7157,180.7254,204.1404 M,0,145294,145332,180.7254,204.1404,176.0656,203.4314 M,0,145332,145369,176.0656,203.4314,183.368,197.5535 M,0,145369,145407,183.368,197.5535,190.3894,191.3426 M,0,145407,145444,190.3894,191.3426,197.0961,184.7935 M,0,145444,145482,197.0961,184.7935,203.4528,177.9042 M,0,145482,145519,203.4528,177.9042,209.4237,170.6781 M,0,145519,145557,209.4237,170.6781,214.9742,163.1245 M,0,145557,145594,214.9742,163.1245,220.0722,155.2584 M,0,145594,145632,220.0722,155.2584,224.6893,147.1008 M,0,145632,145669,224.6893,147.1008,228.8036,138.6785 M,0,145669,145707,228.8036,138.6785,232.3995,130.0221 M,0,145707,145744,232.3995,130.0221,235.4699,121.1656 M,0,145744,145782,235.4699,121.1656,238.0151,112.1441
Sprite,Foreground,Centre,"sb/hl.png",0,0 S,2,146382,148932,0.7,0.14 F,2,146382,148932,1,0 P,0,146382,148932,A C,0,146382,,223,223,223 M,0,146382,146419,401,112,403.3312,121.0788 M,0,146419,146457,403.3312,121.0788,406.2571,129.9837 M,0,146457,146494,406.2571,129.9837,409.7696,138.6739 M,0,146494,146532,409.7696,138.6739,413.8504,147.1123 M,0,146532,146569,413.8504,147.1123,418.4717,155.2673 M,0,146569,146607,418.4717,155.2673,423.5992,163.114 M,0,146607,146644,423.5992,163.114,429.1926,170.6358 M,0,146644,146682,429.1926,170.6358,435.21,177.8232 M,0,146682,146719,435.21,177.8232,441.6091,184.6732 M,0,146719,146757,441.6091,184.6732,448.3484,191.1889 M,0,146757,146794,448.3484,191.1889,455.3894,197.3775 M,0,146794,146832,455.3894,197.3775,462.6965,203.2497 M,0,146832,146869,462.6965,203.2497,458.5726,204.1688 M,0,146869,146907,458.5726,204.1688,449.2125,203.7145 M,0,146907,146944,449.2125,203.7145,439.8561,204.229 M,0,146944,146982,439.8561,204.229,430.6152,205.7784 M,0,146982,147019,430.6152,205.7784,421.6146,208.3822 M,0,147019,147057,421.6146,208.3822,412.9731,212.0045 M,0,147057,147094,412.9731,212.0045,404.7849,216.5607 M,0,147094,147132,404.7849,216.5607,397.1076,221.9346 M,0,147132,147169,397.1076,221.9346,389.9623,227.9991 M,0,147169,147207,389.9623,227.9991,383.3419,234.6337 M,0,147207,147244,383.3419,234.6337,377.2206,241.732 M,0,147244,147282,377.2206,241.732,371.5627,249.2055 M,0,147282,147319,371.5627,249.2055,376.4415,256.3994 M,0,147319,147357,376.4415,256.3994,382.9909,263.104 M,0,147357,147394,382.9909,263.104,390.0706,269.2449 M,0,147394,147432,390.0706,269.2449,397.691,274.6992 M,0,147432,147469,397.691,274.6992,405.8333,279.3369 M,0,147469,147507,405.8333,279.3369,414.4413,283.0375 M,0,147507,147544,414.4413,283.0375,423.4213,285.7112 M,0,147544,147582,423.4213,285.7112,432.6521,287.3188 M,0,147582,147619,432.6521,287.3188,442.0058,287.8771 M,0,147619,147657,442.0058,287.8771,451.3672,287.4531 M,0,147657,147694,451.3672,287.4531,460.6472,286.1437 M,0,147694,147732,460.6472,286.1437,469.7847,284.0582 M,0,147732,147769,469.7847,284.0582,464.2269,291.1007 M,0,147769,147807,464.2269,291.1007,458.5989,298.5977 M,0,147807,147844,458.5989,298.5977,453.28,306.317 M,0,147844,147882,453.28,306.317,448.2897,314.2526 M,0,147882,147919,448.2897,314.2526,443.6467,322.3963 M,0,147919,147957,443.6467,322.3963,439.3681,330.7371 M,0,147957,147994,439.3681,330.7371,435.469,339.2619 M,0,147994,148032,435.469,339.2619,431.9617,347.9552 M,0,148032,148069,431.9617,347.9552,428.8557,356.7999 M,0,148069,148107,428.8557,356.7999,426.1572,365.7773 M,0,148107,148144,426.1572,365.7773,423.8691,374.868 M,0,148144,148182,423.8691,374.868,422,384
Sprite,Foreground,Centre,"sb/hl.png",264,433 S,2,148782,149532,0.7,0.14 F,2,148782,149532,1,0 P,0,148782,149532,A C,0,148782,,149,255,218
Sprite,Foreground,Centre,"sb/hl.png",304,189 S,2,149682,150432,0.7,0.14 F,2,149682,150432,1,0 P,0,149682,150432,A C,0,149682,,149,255,218
Sprite,Foreground,Centre,"sb/hl.png",72,276 S,2,150582,151332,0.7,0.14 F,2,150582,151332,1,0 P,0,150582,151332,A C,0,150582,,149,255,218
Sprite,Foreground,Centre,"sb/hl.png",225,336 S,2,151182,151932,0.7,0.14 F,2,151182,151932,1,0 P,0,151182,151932,A C,0,151182,,149,255,218
Sprite,Foreground,Centre,"sb/hl.png",484,228 S,2,152082,152832,0.7,0.14 F,2,152082,152832,1,0 P,0,152082,152832,A C,0,152082,,36,74,255
Sprite,Foreground,Centre,"sb/hl.png",0,0 S,2,152382,153732,0.7,0.14 F,2,152382,153732,1,0 P,0,152382,153732,A C,0,152382,,36,74,255 M,0,152382,152419,534,162,535.6161,152.7653 M,0,152419,152457,535.6161,152.7653,537.2321,143.5307 M,0,152457,152494,537.2321,143.5307,538.8482,134.296 M,0,152494,152532,538.8482,134.296,540.4642,125.0614 M,0,152532,152569,540.4642,125.0614,542.0803,115.8267 M,0,152569,152607,542.0803,115.8267,543.6964,106.592 M,0,152607,152644,543.6964,106.592,545.3125,97.35738 M,0,152644,152682,545.3125,97.35738,546.9285,88.12271 M,0,152682,152719,546.9285,88.12271,545.3125,97.35738 M,0,152719,152757,545.3125,97.35738,543.6964,106.592 M,0,152757,152794,543.6964,106.592,542.0803,115.8267 M,0,152794,152832,542.0803,115.8267,540.4642,125.0614 M,0,152832,152869,540.4642,125.0614,538.8482,134.296 M,0,152869,152907,538.8482,134.296,537.2321,143.5307 M,0,152907,152944,537.2321,143.5307,535.6161,152.7653 M,0,152944,152982,535.6161,152.7653,534,162
Sprite,Foreground,Centre,"sb/hl.png",0,0 S,2,153582,156132,0.7,0.14 F,2,153582,156132,1,0 P,0,153582,156132,A C,0,153582,,223,223,223 M,0,153582,153619,379,218,371.5135,212.36 M,0,153619,153657,371.5135,212.36,364.4372,206.2136 M,0,153657,153694,364.4372,206.2136,357.8274,199.5682 M,0,153694,153732,357.8274,199.5682,351.7358,192.445 M,0,153732,153769,351.7358,192.445,346.2059,184.8774 M,0,153769,153807,346.2059,184.8774,341.2685,176.9106 M,0,153807,153844,341.2685,176.9106,336.9405,168.5968 M,0,153844,153882,336.9405,168.5968,333.2236,159.9922 M,0,153882,153919,333.2236,159.9922,330.1064,151.1525 M,0,153919,153957,330.1064,151.1525,327.5666,142.1297 M,0,153957,153994,327.5666,142.1297,325.5737,132.9703 M,0,153994,154032,325.5737,132.9703,324.0937,123.714 M,0,154032,154069,324.0937,123.714,316.9536,128.0246 M,0,154069,154107,316.9536,128.0246,309.552,133.7772 M,0,154107,154144,309.552,133.7772,302.4264,139.868 M,0,154144,154182,302.4264,139.868,295.6183,146.3116 M,0,154182,154219,295.6183,146.3116,289.1741,153.1189 M,0,154219,154257,289.1741,153.1189,283.1436,160.295 M,0,154257,154294,283.1436,160.295,277.579,167.8378 M,0,154294,154332,277.579,167.8378,272.5333,175.737 M,0,154332,154369,272.5333,175.737,268.0552,183.971 M,0,154369,154407,268.0552,183.971,264.1875,192.5087 M,0,154407,154444,264.1875,192.5087,260.9625,201.3092 M,0,154444,154482,260.9625,201.3092,258.3987,210.3247 M,0,154482,154519,258.3987,210.3247,254.2682,205.3189 M,0,154519,154557,254.2682,205.3189,249.4614,197.2705 M,0,154557,154594,249.4614,197.2705,244.3803,189.3924 M,0,154594,154632,244.3803,189.3924,239.008,181.7102 M,0,154632,154669,239.008,181.7102,233.3283,174.2523 M,0,154669,154707,233.3283,174.2523,227.3254,167.0523 M,0,154707,154744,227.3254,167.0523,220.9856,160.1473 M,0,154744,154782,220.9856,160.1473,214.2981,153.5786 M,0,154782,154819,214.2981,153.5786,207.2561,147.3918 M,0,154819,154857,207.2561,147.3918,199.8591,141.6345 M,0,154857,154894,199.8591,141.6345,192.1139,136.3551 M,0,154894,154932,192.1139,136.3551,184.0359,131.6009 M,0,154932,154969,184.0359,131.6009,175.5196,132.2982 M,0,154969,155007,175.5196,132.2982,166.874,135.9238 M,0,155007,155044,166.874,135.9238,158.2284,139.5494 M,0,155044,155082,158.2284,139.5494,149.5625,142.8849 M,0,155082,155119,149.5625,142.8849,140.4962,140.499 M,0,155119,155157,140.4962,140.499,131.4299,138.1131 M,0,155157,155194,131.4299,138.1131,122.3636,135.7273 M,0,155194,155232,122.3636,135.7273,113.2972,133.3414 M,0,155232,155269,113.2972,133.3414,104.616,136.1646 M,0,155269,155307,104.616,136.1646,95.99898,139.8576 M,0,155307,155344,95.99898,139.8576,87.382,143.5506 M,0,155344,155382,87.382,143.5506,78.76501,147.2436
Sprite,Foreground,Centre,"sb/hl.png",0,0 S,2,155982,158532,0.7,0.14 F,2,155982,158532,1,0 P,0,155982,158532,A C,0,155982,,223,223,223 M,0,155982,156019,67,311,74.48648,316.64 M,0,156019,156057,74.48648,316.64,81.56284,322.7864 M,0,156057,156094,81.56284,322.7864,88.17258,329.4318 M,0,156094,156132,88.17258,329.4318,94.26421,336.555 M,0,156132,156169,94.26421,336.555,99.79405,344.1226 M,0,156169,156207,99.79405,344.1226,104.7315,352.0894 M,0,156207,156244,104.7315,352.0894,109.0595,360.4032 M,0,156244,156282,109.0595,360.4032,112.7764,369.0078 M,0,156282,156319,112.7764,369.0078,115.8936,377.8475 M,0,156319,156357,115.8936,377.8475,118.4334,386.8704 M,0,156357,156394,118.4334,386.8704,120.4263,396.0298 M,0,156394,156432,120.4263,396.0298,121.9063,405.2861 M,0,156432,156469,121.9063,405.2861,129.0007,400.9119 M,0,156469,156507,129.0007,400.9119,136.3467,395.0885 M,0,156507,156544,136.3467,395.0885,143.41,388.9255 M,0,156544,156582,143.41,388.9255,150.1492,382.4099 M,0,156582,156619,150.1492,382.4099,156.5184,375.5324 M,0,156619,156657,156.5184,375.5324,162.4687,368.2897 M,0,156657,156694,162.4687,368.2897,167.9491,360.6855 M,0,156694,156732,167.9491,360.6855,172.91,352.7327 M,0,156732,156769,172.91,352.7327,177.305,344.454 M,0,156769,156807,177.305,344.454,181.0948,335.8814 M,0,156807,156844,181.0948,335.8814,184.2515,327.0561 M,0,156844,156882,184.2515,327.0561,186.759,318.0247 M,0,156882,156919,186.759,318.0247,191.0692,324.2593 M,0,156919,156957,191.0692,324.2593,195.9054,332.29 M,0,156957,156994,195.9054,332.29,201.0244,340.1435 M,0,156994,157032,201.0244,340.1435,206.4422,347.7937 M,0,157032,157069,206.4422,347.7937,212.1745,355.2112 M,0,157069,157107,212.1745,355.2112,218.2357,362.3621 M,0,157107,157144,218.2357,362.3621,224.6377,369.2094 M,0,157144,157182,224.6377,369.2094,231.3895,375.712 M,0,157182,157219,231.3895,375.712,238.4948,381.826 M,0,157219,157257,238.4948,381.826,245.9514,387.5059 M,0,157257,157294,245.9514,387.5059,253.7497,392.7065 M,0,157294,157332,253.7497,392.7065,261.8717,397.3854 M,0,157332,157369,261.8717,397.3854,270.399,396.7359 M,0,157369,157407,270.399,396.7359,279.0446,393.1104 M,0,157407,157444,279.0446,393.1104,287.6901,389.4848 M,0,157444,157482,287.6901,389.4848,296.3514,386.095 M,0,157482,157519,296.3514,386.095,305.4017,388.541 M,0,157519,157557,305.4017,388.541,314.452,390.987 M,0,157557,157594,314.452,390.987,323.5023,393.433 M,0,157594,157632,323.5023,393.433,332.5526,395.8791 M,0,157632,157669,332.5526,395.8791,341.1533,392.403 M,0,157669,157707,341.1533,392.403,349.7306,388.6188 M,0,157707,157744,349.7306,388.6188,358.308,384.8347 M,0,157744,157782,358.308,384.8347,366.8853,381.0506
Sprite,Foreground,Centre,"sb/hl.png",0,0 S,2,158382,159732,0.7,0.14 F,2,158382,159732,1,0 P,0,158382,159732,A C,0,158382,,149,255,218 M,0,158382,158419,525,333,526.4856,342.2565 M,0,158419,158457,526.4856,342.2565,527.9712,351.5131 M,0,158457,158494,527.9712,351.5131,529.4568,360.7696 M,0,158494,158532,529.4568,360.7696,530.9425,370.0262 M,0,158532,158569,530.9425,370.0262,532.4281,379.2827 M,0,158569,158607,532.4281,379.2827,533.9137,388.5392 M,0,158607,158644,533.9137,388.5392,535.3993,397.7958 M,0,158644,158682,535.3993,397.7958,536.8849,407.0523 M,0,158682,158719,536.8849,407.0523,535.3993,397.7958 M,0,158719,158757,535.3993,397.7958,533.9137,388.5392 M,0,158757,158794,533.9137,388.5392,532.4281,379.2827 M,0,158794,158832,532.4281,379.2827,530.9425,370.0262 M,0,158832,158869,530.9425,370.0262,529.4568,360.7696 M,0,158869,158907,529.4568,360.7696,527.9712,351.5131 M,0,158907,158944,527.9712,351.5131,526.4856,342.2565 M,0,158944,158982,526.4856,342.2565,525,333
Sprite,Foreground,Centre,"sb/hl.png",513,251 S,2,159282,160032,0.7,0.14 F,2,159282,160032,1,0 P,0,159282,160032,A C,0,159282,,149,255,218
Sprite,Foreground,Centre,"sb/hl.png",349,276 S,2,159882,160632,0.7,0.14 F,2,159882,160632,1,0 P,0,159882,160632,A C,0,159882,,149,255,218
Sprite,Foreground,Centre,"sb/hl.png",335,195 S,2,160182,160932,0.7,0.14 F,2,160182,160932,1,0 P,0,160182,160932,A C,0,160182,,149,255,218
Sprite,Foreground,Centre,"sb/hl.png",0,0 S,2,160782,162132,0.7,0.14 F,2,160782,162132,1,0 P,0,160782,162132,A C,0,160782,,36,74,255 M,0,160782,160819,187,120,181.7356,127.7511 M,0,160819,160857,181.7356,127.7511,176.9772,135.8195 M,0,160857,160894,176.9772,135.8195,172.7438,144.1728 M,0,160894,160932,172.7438,144.1728,169.0521,152.7772 M,0,160932,160969,169.0521,152.7772,165.9168,161.5979 M,0,160969,161007,165.9168,161.5979,163.3504,170.5995 M,0,161007,161044,163.3504,170.5995,161.3631,179.7456 M,0,161044,161082,161.3631,179.7456,159.7338,188.972 M,0,161082,161119,159.7338,188.972,161.3631,179.7456 M,0,161119,161157,161.3631,179.7456,163.3504,170.5995 M,0,161157,161194,163.3504,170.5995,165.9168,161.5979 M,0,161194,161232,165.9168,161.5979,169.0521,152.7772 M,0,161232,161269,169.0521,152.7772,172.7438,144.1728 M,0,161269,161307,172.7438,144.1728,176.9772,135.8195 M,0,161307,161344,176.9772,135.8195,181.7356,127.7511 M,0,161344,161382,181.7356,127.7511,187,120
Sprite,Foreground,Centre,"sb/hl.png",346,76 S,2,161982,162732,0.7,0.14 F,2,161982,162732,1,0 P,0,161982,162732,A C,0,161982,,36,74,255
Sprite,Foreground,Centre,"sb/hl.png",0,0 S,2,162582,163632,0.7,0.14 F,2,162582,163632,1,0 P,0,162582,163632,A C,0,162582,,36,74,255 M,0,162582,162619,460,195,458.2705,204.2093 M,0,162619,162657,458.2705,204.2093,455.9919,213.2957 M,0,162657,162694,455.9919,213.2957,453.1722,222.227 M,0,162694,162732,453.1722,222.227,449.822,230.9712 M,0,162732,162769,449.822,230.9712,445.9532,239.4973 M,0,162769,162807,445.9532,239.4973,441.5799,247.7748 M,0,162807,162844,441.5799,247.7748,436.7175,255.7743 M,0,162844,162882,436.7175,255.7743,432,263
Sprite,Foreground,Centre,"sb/hl.png",0,0 S,2,163182,164532,0.7,0.14 F,2,163182,164532,1,0 P,0,163182,164532,A C,0,163182,,223,223,223 M,0,163182,163219,381,329,382.3604,338.2758 M,0,163219,163257,382.3604,338.2758,383.7209,347.5515 M,0,163257,163294,383.7209,347.5515,385.0813,356.8273 M,0,163294,163332,385.0813,356.8273,386.4418,366.1031 M,0,163332,163369,386.4418,366.1031,387.8022,375.3788 M,0,163369,163407,387.8022,375.3788,389.1627,384.6546 M,0,163407,163444,389.1627,384.6546,390.5231,393.9304 M,0,163444,163482,390.5231,393.9304,391.8836,403.2061 M,0,163482,163519,391.8836,403.2061,390.5231,393.9304 M,0,163519,163557,390.5231,393.9304,389.1627,384.6546 M,0,163557,163594,389.1627,384.6546,387.8022,375.3788 M,0,163594,163632,387.8022,375.3788,386.4418,366.1031 M,0,163632,163669,386.4418,366.1031,385.0813,356.8273 M,0,163669,163707,385.0813,356.8273,383.7209,347.5515 M,0,163707,163744,383.7209,347.5515,382.3604,338.2758 M,0,163744,163782,382.3604,338.2758,381,329
Sprite,Foreground,Centre,"sb/hl.png",0,0 S,2,164382,165732,0.7,0.14 F,2,164382,165732,1,0 P,0,164382,165732,A C,0,164382,,223,223,223 M,0,164382,164419,245,235,246.3604,225.7242 M,0,164419,164457,246.3604,225.7242,247.7209,216.4485 M,0,164457,164494,247.7209,216.4485,249.0813,207.1727 M,0,164494,164532,249.0813,207.1727,250.4418,197.8969 M,0,164532,164569,250.4418,197.8969,251.8022,188.6212 M,0,164569,164607,251.8022,188.6212,253.1627,179.3454 M,0,164607,164644,253.1627,179.3454,254.5231,170.0696 M,0,164644,164682,254.5231,170.0696,255.8836,160.7939 M,0,164682,164719,255.8836,160.7939,254.5231,170.0696 M,0,164719,164757,254.5231,170.0696,253.1627,179.3454 M,0,164757,164794,253.1627,179.3454,251.8022,188.6212 M,0,164794,164832,251.8022,188.6212,250.4418,197.8969 M,0,164832,164869,250.4418,197.8969,249.0813,207.1727 M,0,164869,164907,249.0813,207.1727,247.7209,216.4485 M,0,164907,164944,247.7209,216.4485,246.3604,225.7242 M,0,164944,164982,246.3604,225.7242,245,235
Sprite,Foreground,Centre,"sb/hl.png",0,0 S,2,165582,166932,0.7,0.14 F,2,165582,166932,1,0 P,0,165582,166932,A C,0,165582,,223,223,223 M,0,165582,165619,135,358,136.3604,367.2758 M,0,165619,165657,136.3604,367.2758,137.7209,376.5515 M,0,165657,165694,137.7209,376.5515,139.0813,385.8273 M,0,165694,165732,139.0813,385.8273,140.4418,395.1031 M,0,165732,165769,140.4418,395.1031,141.8022,404.3788 M,0,165769,165807,141.8022,404.3788,143.1627,413.6546 M,0,165807,165844,143.1627,413.6546,144.5231,422.9304 M,0,165844,165882,144.5231,422.9304,145.8836,432.2061 M,0,165882,165919,145.8836,432.2061,144.5231,422.9304 M,0,165919,165957,144.5231,422.9304,143.1627,413.6546 M,0,165957,165994,143.1627,413.6546,141.8022,404.3788 M,0,165994,166032,141.8022,404.3788,140.4418,395.1031 M,0,166032,166069,140.4418,395.1031,139.0813,385.8273 M,0,166069,166107,139.0813,385.8273,137.7209,376.5515 M,0,166107,166144,137.7209,376.5515,136.3604,367.2758 M,0,166144,166182,136.3604,367.2758,135,358
Sprite,Foreground,Centre,"sb/hl.png",102,196 S,2,166782,167532,0.7,0.14 F,2,166782,167532,1,0 P,0,166782,167532,A C,0,166782,,149,255,218
Sprite,Foreground,Centre,"sb/hl.png",224,84 S,2,167382,168132,0.7,0.14 F,2,167382,168132,1,0 P,0,167382,168132,A C,0,167382,,149,255,218
Sprite,Foreground,Centre,"sb/hl.png",284,140 S,2,167682,168432,0.7,0.14 F,2,167682,168432,1,0 P,0,167682,168432,A C,0,167682,,149,255,218
Sprite,Foreground,Centre,"sb/hl.png",359,106 S,2,167982,168732,0.7,0.14 F,2,167982,168732,1,0 P,0,167982,168732,A C,0,167982,,149,255,218
Sprite,Foreground,Centre,"sb/hl.png",353,287 S,2,177882,178632,0.7,0.14 F,2,177882,178632,1,0 P,0,177882,178632,A C,0,177882,,36,74,255
Sprite,Foreground,Centre,"sb/hl.png",0,0 S,2,178332,179982,0.7,0.14 F,2,178332,179982,1,0 P,0,178332,179982,A C,0,178332,,36,74,255 M,0,178332,178369,384,167,386.982,158.1186 M,0,178369,178407,386.982,158.1186,390.5922,149.4771 M,0,178407,178444,390.5922,149.4771,394.8118,141.1195 M,0,178444,178482,394.8118,141.1195,399.6189,133.0882 M,0,178482,178519,399.6189,133.0882,404.9889,125.4242 M,0,178519,178557,404.9889,125.4242,410.894,118.1665 M,0,178557,178594,410.894,118.1665,417.3039,111.352 M,0,178594,178632,417.3039,111.352,424.1859,105.0154 M,0,178632,178669,424.1859,105.0154,431.3648,99.00383 M,0,178669,178707,431.3648,99.00383,439.1289,93.76443 M,0,178707,178744,439.1289,93.76443,447.2462,89.09709 M,0,178744,178782,447.2462,89.09709,455.6317,84.91676 M,0,178782,178819,455.6317,84.91676,447.2462,89.09709 M,0,178819,178857,447.2462,89.09709,439.1289,93.76443 M,0,178857,178894,439.1289,93.76443,431.3648,99.00383 M,0,178894,178932,431.3648,99.00383,424.1859,105.0154 M,0,178932,178969,424.1859,105.0154,417.3039,111.352 M,0,178969,179007,417.3039,111.352,410.894,118.1665 M,0,179007,179044,410.894,118.1665,404.9889,125.4242 M,0,179044,179082,404.9889,125.4242,399.6189,133.0882 M,0,179082,179119,399.6189,133.0882,394.8118,141.1195 M,0,179119,179157,394.8118,141.1195,390.5922,149.4771 M,0,179157,179194,390.5922,149.4771,386.982,158.1186 M,0,179194,179232,386.982,158.1186,384,167
Sprite,Foreground,Centre,"sb/hl.png",354,288 S,2,179682,180432,0.7,0.14 F,2,179682,180432,1,0 P,0,179682,180432,A C,0,179682,,36,74,255
Sprite,Foreground,Centre,"sb/hl.png",0,0 S,2,180282,181482,0.7,0.14 F,2,180282,181482,1,0 P,0,180282,181482,A C,0,180282,,223,223,223 M,0,180282,180319,436,430,430.6228,422.336 M,0,180319,180357,430.6228,422.336,424.5273,415.2386 M,0,180357,180394,424.5273,415.2386,417.7717,408.7743 M,0,180394,180432,417.7717,408.7743,410.4206,403.0035 M,0,180432,180469,410.4206,403.0035,402.5438,397.9801 M,0,180469,180507,402.5438,397.9801,394.2159,393.7512 M,0,180507,180544,394.2159,393.7512,385.5157,390.3565 M,0,180544,180582,385.5157,390.3565,376.5902,387.5775 M,0,180582,180619,376.5902,387.5775,367.3623,386.0353 M,0,180619,180657,367.3623,386.0353,358.0335,385.4021 M,0,180657,180694,358.0335,385.4021,348.692,385.6828 M,0,180694,180732,348.692,385.6828,339.3759,386.6271
Sprite,Foreground,Centre,"sb/hl.png",0,0 S,2,181182,182532,0.7,0.14 F,2,181182,182532,1,0 P,0,181182,182532,A C,0,181182,,223,223,223 M,0,181182,181219,220,423,211.3586,426.6116 M,0,181219,181257,211.3586,426.6116,202.4494,429.4848 M,0,181257,181294,202.4494,429.4848,193.3348,431.6002 M,0,181294,181332,193.3348,431.6002,184.0781,432.9437 M,0,181332,181369,184.0781,432.9437,174.7439,433.5062 M,0,181369,181407,174.7439,433.5062,165.3972,433.2843 M,0,181407,181444,165.3972,433.2843,156.103,432.2796 M,0,181444,181482,156.103,432.2796,146.8709,430.7464 M,0,181482,181519,146.8709,430.7464,137.8847,428.1187 M,0,181519,181557,137.8847,428.1187,129.1544,424.7485 M,0,181557,181594,129.1544,424.7485,120.7405,420.66 M,0,181594,181632,120.7405,420.66,112.7013,415.882 M,0,181632,181669,112.7013,415.882,105.0927,410.4479 M,0,181669,181707,105.0927,410.4479,97.96735,404.396 M,0,181707,181744,97.96735,404.396,91.16851,397.9596 M,0,181744,181782,91.16851,397.9596,85.20895,390.7367
Sprite,Foreground,Centre,"sb/hl.png",68,309 S,2,182082,182832,0.7,0.14 F,2,182082,182832,1,0 P,0,182082,182832,A C,0,182082,,223,223,223
Sprite,Foreground,Centre,"sb/hl.png",0,0 S,2,182682,183882,0.7,0.14 F,2,182682,183882,1,0 P,0,182682,183882,A C,0,182682,,149,255,218 M,0,182682,182719,150,166,159.3585,165.5903 M,0,182719,182757,159.3585,165.5903,168.6557,164.4776 M,0,182757,182794,168.6557,164.4776,177.8395,162.6685 M,0,182794,182832,177.8395,162.6685,186.8584,160.1736 M,0,182832,182869,186.8584,160.1736,195.6619,157.0071 M,0,182869,182907,195.6619,157.0071,204.2006,153.1871 M,0,182907,182944,204.2006,153.1871,212.4267,148.7351 M,0,182944,182982,212.4267,148.7351,220.4101,143.8491 M,0,182982,183019,220.4101,143.8491,227.8358,138.1444 M,0,183019,183057,227.8358,138.1444,234.8084,131.899 M,0,183057,183094,234.8084,131.899,241.2888,125.1481 M,0,183094,183132,241.2888,125.1481,247.3932,118.0415
Sprite,Foreground,Centre,"sb/hl.png",0,0 S,2,183582,184782,0.7,0.14 F,2,183582,184782,1,0 P,0,183582,184782,A C,0,183582,,149,255,218 M,0,183582,183619,351,186,345.4175,193.5133 M,0,183619,183657,345.4175,193.5133,340.6354,201.5508 M,0,183657,183694,340.6354,201.5508,336.7019,210.0292 M,0,183694,183732,336.7019,210.0292,333.6565,218.8607 M,0,183732,183769,333.6565,218.8607,331.5301,227.9541 M,0,183769,183807,331.5301,227.9541,330.344,237.2157 M,0,183807,183844,330.344,237.2157,329.8688,246.5479 M,0,183844,183882,329.8688,246.5479,330.7094,255.8627 M,0,183882,183919,330.7094,255.8627,332.4958,265.0369 M,0,183919,183957,332.4958,265.0369,335.2086,273.9761 M,0,183957,183994,335.2086,273.9761,338.8194,282.5886 M,0,183994,184032,338.8194,282.5886,342.9852,290.9733
Sprite,Foreground,Centre,"sb/hl.png",0,0 S,2,184332,185532,0.7,0.14 F,2,184332,185532,1,0 P,0,184332,185532,A C,0,184332,,149,255,218 M,0,184332,184369,405,344,414.3244,343.027 M,0,184369,184407,414.3244,343.027,423.6487,342.054 M,0,184407,184444,423.6487,342.054,432.9731,341.0811 M,0,184444,184482,432.9731,341.0811,442.2975,340.1081 M,0,184482,184519,442.2975,340.1081,451.6219,339.1351 M,0,184519,184557,451.6219,339.1351,460.9462,338.1621 M,0,184557,184594,460.9462,338.1621,470.2706,337.1891 M,0,184594,184632,470.2706,337.1891,479.595,336.2162 M,0,184632,184669,479.595,336.2162,488.9194,335.2432 M,0,184669,184707,488.9194,335.2432,498.2437,334.2702 M,0,184707,184744,498.2437,334.2702,507.5681,333.2972 M,0,184744,184782,507.5681,333.2972,516.8925,332.3242
Sprite,Foreground,Centre,"sb/hl.png",0,0 S,2,9582,10632,0.7,0.14 F,2,9582,10632,1,0 P,0,9582,10632,A C,0,9582,,149,255,218 M,0,9582,9619,349,175,340.2595,171.6237 M,0,9619,9657,340.2595,171.6237,331.3191,168.8282 M,0,9657,9694,331.3191,168.8282,322.2169,166.625 M,0,9694,9732,322.2169,166.625,312.9919,165.0232 M,0,9732,9769,312.9919,165.0232,303.6833,164.0296 M,0,9769,9807,303.6833,164.0296,294.3311,163.6481 M,0,9807,9844,294.3311,163.6481,284.9751,163.8803 M,0,9844,9882,284.9751,163.8803,275.6551,164.725
Sprite,Foreground,Centre,"sb/hl.png",0,0 S,2,10332,11982,0.7,0.14 F,2,10332,11982,1,0 P,0,10332,11982,A C,0,10332,,149,255,218 M,0,10332,10369,179,242,179.7359,251.3461 M,0,10369,10407,179.7359,251.3461,180.4718,260.6921 M,0,10407,10444,180.4718,260.6921,181.2077,270.0382 M,0,10444,10482,181.2077,270.0382,181.9436,279.3843 M,0,10482,10519,181.9436,279.3843,182.6796,288.7303 M,0,10519,10557,182.6796,288.7303,183.4155,298.0764 M,0,10557,10594,183.4155,298.0764,184.1514,307.4225 M,0,10594,10632,184.1514,307.4225,184.8873,316.7686 M,0,10632,10669,184.8873,316.7686,185.6232,326.1147 M,0,10669,10707,185.6232,326.1147,186.3591,335.4607 M,0,10707,10744,186.3591,335.4607,187.095,344.8068 M,0,10744,10782,187.095,344.8068,187.8309,354.1529 M,0,10782,10819,187.8309,354.1529,187.095,344.8068 M,0,10819,10857,187.095,344.8068,186.3591,335.4607 M,0,10857,10894,186.3591,335.4607,185.6232,326.1147 M,0,10894,10932,185.6232,326.1147,184.8873,316.7686 M,0,10932,10969,184.8873,316.7686,184.1514,307.4225 M,0,10969,11007,184.1514,307.4225,183.4155,298.0764 M,0,11007,11044,183.4155,298.0764,182.6796,288.7303 M,0,11044,11082,182.6796,288.7303,181.9436,279.3843 M,0,11082,11119,181.9436,279.3843,181.2077,270.0382 M,0,11119,11157,181.2077,270.0382,180.4718,260.6921 M,0,11157,11194,180.4718,260.6921,179.7359,251.3461 M,0,11194,11232,179.7359,251.3461,179,242
Sprite,Foreground,Centre,"sb/hl.png",0,0 S,2,11682,13032,0.7,0.14 F,2,11682,13032,1,0 P,0,11682,13032,A C,0,11682,,36,74,255 M,0,11682,11719,121,133,111.8937,135.1615 M,0,11719,11757,111.8937,135.1615,103.127,138.4172 M,0,11757,11794,103.127,138.4172,94.83041,142.7169 M,0,11794,11832,94.83041,142.7169,87.12692,147.995 M,0,11832,11869,87.12692,147.995,80.13083,154.1717 M,0,11869,11907,80.13083,154.1717,73.94581,161.1536 M,0,11907,11944,73.94581,161.1536,68.66344,168.836 M,0,11944,11982,68.66344,168.836,64.3619,177.1033 M,0,11982,12019,64.3619,177.1033,68.66344,168.836 M,0,12019,12057,68.66344,168.836,73.94581,161.1536 M,0,12057,12094,73.94581,161.1536,80.13083,154.1717 M,0,12094,12132,80.13083,154.1717,87.12692,147.995 M,0,12132,12169,87.12692,147.995,94.83041,142.7169 M,0,12169,12207,94.83041,142.7169,103.127,138.4172 M,0,12207,12244,103.127,138.4172,111.8937,135.1615 M,0,12244,12282,111.8937,135.1615,121,133
Sprite,Foreground,Centre,"sb/hl.png",237,176 S,2,12732,13482,0.7,0.14 F,2,12732,13482,1,0 P,0,12732,13482,A C,0,12732,,36,74,255
Sprite,Foreground,Centre,"sb/hl.png",0,0 S,2,13182,14832,0.7,0.14 F,2,13182,14832,1,0 P,0,13182,14832,A C,0,13182,,36,74,255 M,0,13182,13219,345,115,351.0409,107.8414 M,0,13219,13257,351.0409,107.8414,357.6226,101.1826 M,0,13257,13294,357.6226,101.1826,364.7047,95.06409 M,0,13294,13332,364.7047,95.06409,372.2434,89.52283 M,0,13332,13369,372.2434,89.52283,380.1924,84.59245 M,0,13369,13407,380.1924,84.59245,388.5031,80.30289 M,0,13407,13444,388.5031,80.30289,397.1246,76.68022 M,0,13444,13482,397.1246,76.68022,405.9376,73.52869 M,0,13482,13519,405.9376,73.52869,415.0504,71.37636 M,0,13519,13557,415.0504,71.37636,424.3005,69.94745 M,0,13557,13594,424.3005,69.94745,433.6313,69.25023 M,0,13594,13632,433.6313,69.25023,442.9856,69.28857 M,0,13632,13669,442.9856,69.28857,433.6313,69.25023 M,0,13669,13707,433.6313,69.25023,424.3005,69.94745 M,0,13707,13744,424.3005,69.94745,415.0504,71.37636 M,0,13744,13782,415.0504,71.37636,405.9376,73.52869 M,0,13782,13819,405.9376,73.52869,397.1246,76.68022 M,0,13819,13857,397.1246,76.68022,388.5031,80.30289 M,0,13857,13894,388.5031,80.30289,380.1924,84.59245 M,0,13894,13932,380.1924,84.59245,372.2434,89.52283 M,0,13932,13969,372.2434,89.52283,364.7047,95.06409 M,0,13969,14007,364.7047,95.06409,357.6226,101.1826 M,0,14007,14044,357.6226,101.1826,351.0409,107.8414 M,0,14044,14082,351.0409,107.8414,345,115
Sprite,Foreground,Centre,"sb/hl.png",329,196 S,2,14382,15132,0.7,0.14 F,2,14382,15132,1,0 P,0,14382,15132,A C,0,14382,,223,223,223
Sprite,Foreground,Centre,"sb/hl.png",464,351 S,2,15132,15882,0.7,0.14 F,2,15132,15882,1,0 P,0,15132,15882,A C,0,15132,,223,223,223
Sprite,Foreground,Centre,"sb/hl.png",0,0 S,2,15582,16782,0.7,0.14 F,2,15582,16782,1,0 P,0,15582,16782,A C,0,15582,,223,223,223 M,0,15582,15619,358,415,349.3718,418.65 M,0,15619,15657,349.3718,418.65,340.5191,421.705 M,0,15657,15694,340.5191,421.705,331.4821,424.1516 M,0,15694,15732,331.4821,424.1516,322.3018,425.9789 M,0,15732,15769,322.3018,425.9789,313.0201,427.1788 M,0,15769,15807,313.0201,427.1788,303.6854,427.9759 M,0,15807,15844,303.6854,427.9759,294.3185,427.8275 M,0,15844,15882,294.3185,427.8275,284.9866,427.0442 M,0,15882,15919,284.9866,427.0442,275.7319,425.6298 M,0,15919,15957,275.7319,425.6298,266.5964,423.5911 M,0,15957,15994,266.5964,423.5911,257.6216,420.9375 M,0,15994,16032,257.6216,420.9375,249,418
Sprite,Foreground,Centre,"sb/hl.png",0,0 S,2,16482,17832,0.7,0.14 F,2,16482,17832,1,0 P,0,16482,17832,A C,0,16482,,149,255,218 M,0,16482,16519,151,342,144.0267,348.2431 M,0,16519,16557,144.0267,348.2431,137.8702,355.283 M,0,16557,16594,137.8702,355.283,132.6205,363.0142 M,0,16594,16632,132.6205,363.0142,128.3539,371.3216 M,0,16632,16669,128.3539,371.3216,125.1325,380.0814 M,0,16669,16707,125.1325,380.0814,123.003,389.1634 M,0,16707,16744,123.003,389.1634,121.9958,398.4329 M,0,16744,16782,121.9958,398.4329,121.816,407.7877 M,0,16782,16819,121.816,407.7877,121.9958,398.4329 M,0,16819,16857,121.9958,398.4329,123.003,389.1634 M,0,16857,16894,123.003,389.1634,125.1325,380.0814 M,0,16894,16932,125.1325,380.0814,128.3539,371.3216 M,0,16932,16969,128.3539,371.3216,132.6205,363.0142 M,0,16969,17007,132.6205,363.0142,137.8702,355.283 M,0,17007,17044,137.8702,355.283,144.0267,348.2431 M,0,17044,17082,144.0267,348.2431,151,342
Sprite,Foreground,Centre,"sb/hl.png",261,285 S,2,17532,18282,0.7,0.14 F,2,17532,18282,1,0 P,0,17532,18282,A C,0,17532,,149,255,218
Sprite,Foreground,Centre,"sb/hl.png",0,0 S,2,17982,19182,0.7,0.14 F,2,17982,19182,1,0 P,0,17982,19182,A C,0,17982,,149,255,218 M,0,17982,18019,149,231,143.4464,223.4599 M,0,18019,18057,143.4464,223.4599,138.592,215.458 M,0,18057,18094,138.592,215.458,134.4749,207.0581 M,0,18094,18132,134.4749,207.0581,131.1268,198.3271 M,0,18132,18169,131.1268,198.3271,128.574,189.3345 M,0,18169,18207,128.574,189.3345,126.8362,180.1516 M,0,18207,18244,126.8362,180.1516,125.9271,170.8513 M,0,18244,18282,125.9271,170.8513,125.5623,161.4996 M,0,18282,18319,125.5623,161.4996,126.4134,152.1763 M,0,18319,18357,126.4134,152.1763,128.094,142.9715 M,0,18357,18394,128.094,142.9715,130.5901,133.9579 M,0,18394,18432,130.5901,133.9579,133.7032,125.1245
Sprite,Foreground,Centre,"sb/hl.png",284,57 S,2,19032,19782,0.7,0.14 F,2,19032,19782,1,0 P,0,19032,19782,A C,0,19032,,149,255,218
Sprite,Foreground,Centre,"sb/hl.png",0,0 S,2,21582,22932,0.7,0.14 F,2,21582,22932,1,0 P,0,21582,22932,A C,0,21582,,36,74,255 M,0,21582,21619,345,168,336.963,163.1793 M,0,21619,21657,336.963,163.1793,328.6978,158.7644 M,0,21657,21694,328.6978,158.7644,320.2248,154.7659 M,0,21694,21732,320.2248,154.7659,311.5648,151.1937 M,0,21732,21769,311.5648,151.1937,302.739,148.0562 M,0,21769,21807,302.739,148.0562,293.7689,145.3612 M,0,21807,21844,293.7689,145.3612,284.6766,143.1151 M,0,21844,21882,284.6766,143.1151,275.4842,141.3235 M,0,21882,21919,275.4842,141.3235,266.2347,139.8255 M,0,21919,21957,266.2347,139.8255,256.9002,138.9982 M,0,21957,21994,256.9002,138.9982,247.5376,138.6355 M,0,21994,22032,247.5376,138.6355,238.1697,138.7382 M,0,22032,22069,238.1697,138.7382,228.8196,139.306 M,0,22069,22107,228.8196,139.306,219.51,140.3373 M,0,22107,22144,219.51,140.3373,210.2637,141.8296 M,0,22144,22182,210.2637,141.8296,201.1034,143.7792
Sprite,Foreground,Centre,"sb/hl.png",125,177 S,2,22482,23232,0.7,0.14 F,2,22482,23232,1,0 P,0,22482,23232,A C,0,22482,,36,74,255
Sprite,Foreground,Centre,"sb/hl.png",89,251 S,2,22782,23532,0.7,0.14 F,2,22782,23532,1,0 P,0,22782,23532,A C,0,22782,,36,74,255
Sprite,Foreground,Centre,"sb/hl.png",189,382 S,2,23382,24132,0.7,0.14 F,2,23382,24132,1,0 P,0,23382,24132,A C,0,23382,,36,74,255
Sprite,Foreground,Centre,"sb/hl.png",0,0 S,2,23982,25332,0.7,0.14 F,2,23982,25332,1,0 P,0,23982,25332,A C,0,23982,,223,223,223 M,0,23982,24019,251,228,260.2747,226.6326 M,0,24019,24057,260.2747,226.6326,269.5495,225.2651 M,0,24057,24094,269.5495,225.2651,278.8242,223.8977 M,0,24094,24132,278.8242,223.8977,288.0989,222.5303 M,0,24132,24169,288.0989,222.5303,297.3737,221.1629 M,0,24169,24207,297.3737,221.1629,306.6484,219.7954 M,0,24207,24244,306.6484,219.7954,315.9232,218.428 M,0,24244,24282,315.9232,218.428,325.1979,217.0606 M,0,24282,24319,325.1979,217.0606,334.4727,215.6931 M,0,24319,24357,334.4727,215.6931,343.7474,214.3257 M,0,24357,24394,343.7474,214.3257,353.0221,212.9583 M,0,24394,24432,353.0221,212.9583,362.2968,211.5909 M,0,24432,24469,362.2968,211.5909,371.5716,210.2234 M,0,24469,24507,371.5716,210.2234,380.8463,208.856 M,0,24507,24544,380.8463,208.856,390.1211,207.4886 M,0,24544,24582,390.1211,207.4886,399.3958,206.1211
Sprite,Foreground,Centre,"sb/hl.png",481,196 S,2,24882,25632,0.7,0.14 F,2,24882,25632,1,0 P,0,24882,25632,A C,0,24882,,223,223,223
Sprite,Foreground,Centre,"sb/hl.png",548,243 S,2,25182,25932,0.7,0.14 F,2,25182,25932,1,0 P,0,25182,25932,A C,0,25182,,223,223,223
Sprite,Foreground,Centre,"sb/hl.png",489,397 S,2,25782,26532,0.7,0.14 F,2,25782,26532,1,0 P,0,25782,26532,A C,0,25782,,223,223,223
Sprite,Foreground,Centre,"sb/hl.png",0,0 S,2,26382,27732,0.7,0.14 F,2,26382,27732,1,0 P,0,26382,27732,A C,0,26382,,149,255,218 M,0,26382,26419,352,305,342.6927,303.9532 M,0,26419,26457,342.6927,303.9532,333.3348,303.6941 M,0,26457,26494,333.3348,303.6941,323.9924,304.224 M,0,26494,26532,323.9924,304.224,314.7311,305.5386 M,0,26532,26569,314.7311,305.5386,305.6162,307.6282 M,0,26569,26607,305.6162,307.6282,296.7116,310.4776 M,0,26607,26644,296.7116,310.4776,288.08,314.0667 M,0,26644,26682,288.08,314.0667,279.7822,318.37 M,0,26682,26719,279.7822,318.37,271.7407,323.1525 M,0,26719,26757,271.7407,323.1525,264.3188,328.8586 M,0,26757,26794,264.3188,328.8586,257.4069,335.1668 M,0,26794,26832,257.4069,335.1668,251.0533,342.0323 M,0,26832,26869,251.0533,342.0323,245.3025,349.4066 M,0,26869,26907,245.3025,349.4066,240.1944,357.2375 M,0,26907,26944,240.1944,357.2375,235.7651,365.4696 M,0,26944,26982,235.7651,365.4696,232.0454,374.045
Sprite,Foreground,Centre,"sb/hl.png",155,405 S,2,27282,28032,0.7,0.14 F,2,27282,28032,1,0 P,0,27282,28032,A C,0,27282,,149,255,218
Sprite,Foreground,Centre,"sb/hl.png",91,352 S,2,27582,28332,0.7,0.14 F,2,27582,28332,1,0 P,0,27582,28332,A C,0,27582,,149,255,218
Sprite,Foreground,Centre,"sb/hl.png",197,226 S,2,28182,28932,0.7,0.14 F,2,28182,28932,1,0 P,0,28182,28932,A C,0,28182,,149,255,218
Sprite,Foreground,Centre,"sb/hl.png",0,0 S,2,28782,30132,0.7,0.14 F,2,28782,30132,1,0 P,0,28782,30132,A C,0,28782,,36,74,255 M,0,28782,28819,337,311,345.9798,313.6767 M,0,28819,28857,345.9798,313.6767,355.1016,315.8088 M,0,28857,28894,355.1016,315.8088,364.3329,317.3889 M,0,28894,28932,364.3329,317.3889,373.6409,318.4116 M,0,28932,28969,373.6409,318.4116,382.9922,318.8734 M,0,28969,29007,382.9922,318.8734,392.3535,318.7727 M,0,29007,29044,392.3535,318.7727,401.6914,318.11 M,0,29044,29082,401.6914,318.11,410.9962,317.0488 M,0,29082,29119,410.9962,317.0488,420.1817,315.2094 M,0,29119,29157,420.1817,315.2094,429.2382,312.8224 M,0,29157,29194,429.2382,312.8224,438.1333,309.8962 M,0,29194,29232,438.1333,309.8962,446.8355,306.4417 M,0,29232,29269,446.8355,306.4417,455.3137,302.4711 M,0,29269,29307,455.3137,302.4711,463.5376,297.9987 M,0,29307,29344,463.5376,297.9987,471.5693,293.1814 M,0,29344,29382,471.5693,293.1814,479.2034,287.7451
Sprite,Foreground,Centre,"sb/hl.png",501,208 S,2,29682,30432,0.7,0.14 F,2,29682,30432,1,0 P,0,29682,30432,A C,0,29682,,36,74,255
Sprite,Foreground,Centre,"sb/hl.png",0,0 S,2,30282,31632,0.7,0.14 F,2,30282,31632,1,0 P,0,30282,31632,A C,0,30282,,36,74,255 M,0,30282,30319,393,83,383.8209,81.14404 M,0,30319,30357,383.8209,81.14404,374.5084,80.2032 M,0,30357,30394,374.5084,80.2032,365.153,80.18574 M,0,30394,30432,365.153,80.18574,355.8457,81.09103 M,0,30432,30469,355.8457,81.09103,346.6768,82.90958 M,0,30469,30507,346.6768,82.90958,337.7351,85.62307 M,0,30507,30544,337.7351,85.62307,329.1075,89.20461 M,0,30544,30582,329.1075,89.20461,320.7401,93.4058 M,0,30582,30619,320.7401,93.4058,329.1075,89.20461 M,0,30619,30657,329.1075,89.20461,337.7351,85.62307 M,0,30657,30694,337.7351,85.62307,346.6768,82.90958 M,0,30694,30732,346.6768,82.90958,355.8457,81.09103 M,0,30732,30769,355.8457,81.09103,365.153,80.18574 M,0,30769,30807,365.153,80.18574,374.5084,80.2032 M,0,30807,30844,374.5084,80.2032,383.8209,81.14404 M,0,30844,30882,383.8209,81.14404,393,83
Sprite,Foreground,Centre,"sb/hl.png",468,115 S,2,31182,31932,0.7,0.14 F,2,31182,31932,1,0 P,0,31182,31932,A C,0,31182,,223,223,223
Sprite,Foreground,Centre,"sb/hl.png",0,0 S,2,32082,33132,0.7,0.14 F,2,32082,33132,1,0 P,0,32082,33132,A C,0,32082,,223,223,223 M,0,32082,32119,329,320,321.8725,313.9211 M,0,32119,32157,321.8725,313.9211,315.2298,307.3212 M,0,32157,32194,315.2298,307.3212,309.1096,300.2383 M,0,32194,32232,309.1096,300.2383,303.5466,292.7134 M,0,32232,32269,303.5466,292.7134,298.5722,284.7895 M,0,32269,32307,298.5722,284.7895,294.2148,276.5122 M,0,32307,32344,294.2148,276.5122,290.4991,267.9288 M,0,32344,32382,290.4991,267.9288,287.4463,259.0886
Sprite,Foreground,Centre,"sb/hl.png",0,0 S,2,32682,33732,0.7,0.14 F,2,32682,33732,1,0 P,0,32682,33732,A C,0,32682,,223,223,223 M,0,32682,32719,222,208,222.3864,198.6415 M,0,32719,32757,222.3864,198.6415,223.5487,189.3519 M,0,32757,32794,223.5487,189.3519,225.4783,180.1949 M,0,32794,32832,225.4783,180.1949,228.1613,171.2329 M,0,32832,32869,228.1613,171.2329,231.5791,162.5275 M,0,32869,32907,231.5791,162.5275,235.7077,154.1382 M,0,32907,32944,235.7077,154.1382,240.5188,146.1223 M,0,32944,32982,240.5188,146.1223,245.7445,138.3495
Sprite,Foreground,Centre,"sb/hl.png",306,80 S,2,33282,34032,0.7,0.14 F,2,33282,34032,1,0 P,0,33282,34032,A C,0,33282,,223,223,223
Sprite,Foreground,Centre,"sb/hl.png",0,0 S,2,33582,35232,0.7,0.14 F,2,33582,35232,1,0 P,0,33582,35232,A C,0,33582,,149,255,218 M,0,33582,33619,366,136,367.229,145.2941 M,0,33619,33657,367.229,145.2941,368.4579,154.5882 M,0,33657,33694,368.4579,154.5882,369.6869,163.8823 M,0,33694,33732,369.6869,163.8823,370.9159,173.1764 M,0,33732,33769,370.9159,173.1764,372.1449,182.4705 M,0,33769,33807,372.1449,182.4705,373.3738,191.7646 M,0,33807,33844,373.3738,191.7646,374.6028,201.0587 M,0,33844,33882,374.6028,201.0587,375.8318,210.3528 M,0,33882,33919,375.8318,210.3528,377.0607,219.6469 M,0,33919,33957,377.0607,219.6469,378.2897,228.941 M,0,33957,33994,378.2897,228.941,379.5187,238.2351 M,0,33994,34032,379.5187,238.2351,380.7477,247.5292 M,0,34032,34069,380.7477,247.5292,379.5187,238.2351 M,0,34069,34107,379.5187,238.2351,378.2897,228.941 M,0,34107,34144,378.2897,228.941,377.0607,219.6469 M,0,34144,34182,377.0607,219.6469,375.8318,210.3528 M,0,34182,34219,375.8318,210.3528,374.6028,201.0587 M,0,34219,34257,374.6028,201.0587,373.3738,191.7646 M,0,34257,34294,373.3738,191.7646,372.1449,182.4705 M,0,34294,34332,372.1449,182.4705,370.9159,173.1764 M,0,34332,34369,370.9159,173.1764,369.6869,163.8823 M,0,34369,34407,369.6869,163.8823,368.4579,154.5882 M,0,34407,34444,368.4579,154.5882,367.229,145.2941 M,0,34444,34482,367.229,145.2941,366,136
Sprite,Foreground,Centre,"sb/hl.png",520,77 S,2,35082,35832,0.7,0.14 F,2,35082,35832,1,0 P,0,35082,35832,A C,0,35082,,149,255,218
Sprite,Foreground,Centre,"sb/hl.png",0,0 S,2,35382,36432,0.7,0.14 F,2,35382,36432,1,0 P,0,35382,36432,A C,0,35382,,149,255,218 M,0,35382,35419,576,139,576.0192,148.3696 M,0,35419,35457,576.0192,148.3696,575.4153,157.7169 M,0,35457,35494,575.4153,157.7169,574.1912,167.0009 M,0,35494,35532,574.1912,167.0009,572.3525,176.1809 M,0,35532,35569,572.3525,176.1809,569.9077,185.2165 M,0,35569,35607,569.9077,185.2165,566.8676,194.0682 M,0,35607,35644,566.8676,194.0682,563.2455,202.6972 M,0,35644,35682,563.2455,202.6972,559.0576,211.0654
Sprite,Foreground,Centre,"sb/hl.png",0,0 S,2,35982,37332,0.7,0.14 F,2,35982,37332,1,0 P,0,35982,37332,A C,0,35982,,36,74,255 M,0,35982,36019,490,257,496.8201,263.4276 M,0,36019,36057,496.8201,263.4276,503.3084,270.1875 M,0,36057,36094,503.3084,270.1875,509.4489,277.263 M,0,36094,36132,509.4489,277.263,515.2265,284.6363 M,0,36132,36169,515.2265,284.6363,520.6268,292.2892 M,0,36169,36207,520.6268,292.2892,525.6366,300.2025 M,0,36207,36244,525.6366,300.2025,530.2434,308.3567 M,0,36244,36282,530.2434,308.3567,534.5541,316.6739 M,0,36282,36319,534.5541,316.6739,538.2757,325.273 M,0,36319,36357,538.2757,325.273,541.5613,334.0464 M,0,36357,36394,541.5613,334.0464,544.4027,342.9724 M,0,36394,36432,544.4027,342.9724,546.7932,352.0286 M,0,36432,36469,546.7932,352.0286,548.7267,361.1927 M,0,36469,36507,548.7267,361.1927,550.1985,370.4419 M,0,36507,36544,550.1985,370.4419,551.3369,379.7404 M,0,36544,36582,551.3369,379.7404,551.8751,389.0977
Sprite,Foreground,Centre,"sb/hl.png",482,434 S,2,36882,37632,0.7,0.14 F,2,36882,37632,1,0 P,0,36882,37632,A C,0,36882,,36,74,255
Sprite,Foreground,Centre,"sb/hl.png",338,353 S,2,37482,38232,0.7,0.14 F,2,37482,38232,1,0 P,0,37482,38232,A C,0,37482,,36,74,255
Sprite,Foreground,Centre,"sb/hl.png",0,0 S,2,37782,38832,0.7,0.14 F,2,37782,38832,1,0 P,0,37782,38832,A C,0,37782,,36,74,255 M,0,37782,37819,256,365,246.7217,366.3429 M,0,37819,37857,246.7217,366.3429,237.4434,367.6858 M,0,37857,37894,237.4434,367.6858,228.165,369.0287 M,0,37894,37932,228.165,369.0287,218.8867,370.3717 M,0,37932,37969,218.8867,370.3717,209.6084,371.7146 M,0,37969,38007,209.6084,371.7146,200.3301,373.0575 M,0,38007,38044,200.3301,373.0575,191.0518,374.4004 M,0,38044,38082,191.0518,374.4004,181.7734,375.7433
Sprite,Foreground,Centre,"sb/hl.png",0,0 S,2,38382,40032,0.7,0.14 F,2,38382,40032,1,0 P,0,38382,40032,A C,0,38382,,223,223,223 M,0,38382,38419,104,347,99.41613,338.8332 M,0,38419,38457,99.41613,338.8332,95.53223,330.3168 M,0,38457,38494,95.53223,330.3168,92.37443,321.5097 M,0,38494,38532,92.37443,321.5097,89.96395,312.4726 M,0,38532,38569,89.96395,312.4726,88.31703,303.2679 M,0,38569,38607,88.31703,303.2679,87.44476,293.9591 M,0,38607,38644,87.44476,293.9591,87.12533,284.6072 M,0,38644,38682,87.12533,284.6072,87.90947,275.2786 M,0,38682,38719,87.90947,275.2786,89.4691,266.0524 M,0,38719,38757,89.4691,266.0524,91.79292,256.9919 M,0,38757,38794,91.79292,256.9919,94.86451,248.1594 M,0,38794,38832,94.86451,248.1594,98.66245,239.6157 M,0,38832,38869,98.66245,239.6157,94.86451,248.1594 M,0,38869,38907,94.86451,248.1594,91.79292,256.9919 M,0,38907,38944,91.79292,256.9919,89.4691,266.0524 M,0,38944,38982,89.4691,266.0524,87.90947,275.2786 M,0,38982,39019,87.90947,275.2786,87.12533,284.6072 M,0,39019,39057,87.12533,284.6072,87.44476,293.9591 M,0,39057,39094,87.44476,293.9591,88.31703,303.2679 M,0,39094,39132,88.31703,303.2679,89.96395,312.4726 M,0,39132,39169,89.96395,312.4726,92.37443,321.5097 M,0,39169,39207,92.37443,321.5097,95.53223,330.3168 M,0,39207,39244,95.53223,330.3168,99.41613,338.8332 M,0,39244,39282,99.41613,338.8332,104,347
Sprite,Foreground,Centre,"sb/hl.png",0,0 S,2,39882,41232,0.7,0.14 F,2,39882,41232,1,0 P,0,39882,41232,A C,0,39882,,223,223,223 M,0,39882,39919,268,373,275.2408,367.0679 M,0,39919,39957,275.2408,367.0679,283.1084,362.01 M,0,39957,39994,283.1084,362.01,291.4987,357.8915 M,0,39994,40032,291.4987,357.8915,300.3008,354.7654 M,0,40032,40069,300.3008,354.7654,309.3986,352.6716 M,0,40069,40107,309.3986,352.6716,318.6723,351.6367 M,0,40107,40144,318.6723,351.6367,327.9998,351.6734 M,0,40144,40182,327.9998,351.6734,337.2584,352.7806 M,0,40182,40219,337.2584,352.7806,327.9998,351.6734 M,0,40219,40257,327.9998,351.6734,318.6723,351.6367 M,0,40257,40294,318.6723,351.6367,309.3986,352.6716 M,0,40294,40332,309.3986,352.6716,300.3008,354.7654 M,0,40332,40369,300.3008,354.7654,291.4987,357.8915 M,0,40369,40407,291.4987,357.8915,283.1084,362.01 M,0,40407,40444,283.1084,362.01,275.2408,367.0679 M,0,40444,40482,275.2408,367.0679,268,373
Sprite,Foreground,Centre,"sb/ring.png",345,168 S,19,21582,22332,0.125,0.55 F,6,21582,22332,0.7,0
Sprite,Foreground,Centre,"sb/ring.png",574,219 S,19,187182,187682,0.125,0.55 F,6,187182,187682,0.7,0
Sprite,Foreground,Centre,"sb/ring.png",195,412 S,19,40782,41532,0.125,0.55 F,6,40782,41532,0.7,0
Sprite,Foreground,Centre,"sb/ring.png",570,221 S,19,59982,60732,0.125,0.55 F,6,59982,60732,0.7,0
Sprite,Foreground,Centre,"sb/hl.png",0,0 S,2,57582,60132,0.7,0.14 F,2,57582,60132,1,0 P,0,57582,60132,A C,0,57582,,36,74,255 M,0,57582,57619,330,373,339.3355,372.1402 M,0,57619,57657,339.3355,372.1402,348.671,371.2803 M,0,57657,57694,348.671,371.2803,358.0065,370.4205 M,0,57694,57732,358.0065,370.4205,367.3419,369.5606 M,0,57732,57769,367.3419,369.5606,376.6774,368.7008 M,0,57769,57807,376.6774,368.7008,386.0129,367.8409 M,0,57807,57844,386.0129,367.8409,395.3484,366.9811 M,0,57844,57882,395.3484,366.9811,404.6839,366.1212 M,0,57882,57919,404.6839,366.1212,414.0193,365.2614 M,0,57919,57957,414.0193,365.2614,423.3549,364.4015 M,0,57957,57994,423.3549,364.4015,432.6903,363.5417 M,0,57994,58032,432.6903,363.5417,442.0258,362.6818 M,0,58032,58069,442.0258,362.6818,451.3613,361.822 M,0,58069,58107,451.3613,361.822,460.6968,360.9621 M,0,58107,58144,460.6968,360.9621,470.0323,360.1023 M,0,58144,58182,470.0323,360.1023,479.3678,359.2424 M,0,58182,58219,479.3678,359.2424,470.0323,360.1023 M,0,58219,58257,470.0323,360.1023,460.6968,360.9621 M,0,58257,58294,460.6968,360.9621,451.3613,361.822 M,0,58294,58332,451.3613,361.822,442.0258,362.6818 M,0,58332,58369,442.0258,362.6818,432.6903,363.5417 M,0,58369,58407,432.6903,363.5417,423.3549,364.4015 M,0,58407,58444,423.3549,364.4015,414.0193,365.2614 M,0,58444,58482,414.0193,365.2614,404.6839,366.1212 M,0,58482,58519,404.6839,366.1212,395.3484,366.9811 M,0,58519,58557,395.3484,366.9811,386.0129,367.8409 M,0,58557,58594,386.0129,367.8409,376.6774,368.7008 M,0,58594,58632,376.6774,368.7008,367.3419,369.5606 M,0,58632,58669,367.3419,369.5606,358.0065,370.4205 M,0,58669,58707,358.0065,370.4205,348.671,371.2803 M,0,58707,58744,348.671,371.2803,339.3355,372.1402 M,0,58744,58782,339.3355,372.1402,330,373 M,0,58782,58819,330,373,339.3355,372.1402 M,0,58819,58857,339.3355,372.1402,348.671,371.2803 M,0,58857,58894,348.671,371.2803,358.0065,370.4205 M,0,58894,58932,358.0065,370.4205,367.3419,369.5606 M,0,58932,58969,367.3419,369.5606,376.6774,368.7008 M,0,58969,59007,376.6774,368.7008,386.0129,367.8409 M,0,59007,59044,386.0129,367.8409,395.3484,366.9811 M,0,59044,59082,395.3484,366.9811,404.6839,366.1212 M,0,59082,59119,404.6839,366.1212,414.0193,365.2614 M,0,59119,59157,414.0193,365.2614,423.3549,364.4015 M,0,59157,59194,423.3549,364.4015,432.6903,363.5417 M,0,59194,59232,432.6903,363.5417,442.0258,362.6818 M,0,59232,59269,442.0258,362.6818,451.3613,361.822 M,0,59269,59307,451.3613,361.822,460.6968,360.9621 M,0,59307,59344,460.6968,360.9621,470.0323,360.1023 M,0,59344,59382,470.0323,360.1023,479.3678,359.2424
Sprite,Foreground,Centre,"sb/hl.png",0,0 S,2,76782,79332,0.7,0.14 F,2,76782,79332,1,0 P,0,76782,79332,A C,0,76782,,149,255,218 M,0,76782,76819,324,223,327.6747,231.6243 M,0,76819,76857,327.6747,231.6243,331.1868,240.3158 M,0,76857,76894,331.1868,240.3158,334.535,249.0714 M,0,76894,76932,334.535,249.0714,337.7184,257.8882 M,0,76932,76969,337.7184,257.8882,340.7356,266.7632 M,0,76969,77007,340.7356,266.7632,343.5858,275.6931 M,0,77007,77044,343.5858,275.6931,346.3173,284.6604 M,0,77044,77082,346.3173,284.6604,348.8101,293.6972 M,0,77082,77119,348.8101,293.6972,351.1327,302.779 M,0,77119,77157,351.1327,302.779,353.2845,311.9026 M,0,77157,77194,353.2845,311.9026,355.2646,321.0649 M,0,77194,77232,355.2646,321.0649,357.0724,330.2627 M,0,77232,77269,357.0724,330.2627,358.7642,339.4831 M,0,77269,77307,358.7642,339.4831,360.2047,348.7461 M,0,77307,77344,360.2047,348.7461,361.4711,358.0343 M,0,77344,77382,361.4711,358.0343,362.5991,367.3409 M,0,77382,77419,362.5991,367.3409,361.4711,358.0343 M,0,77419,77457,361.4711,358.0343,360.2047,348.7461 M,0,77457,77494,360.2047,348.7461,358.7642,339.4831 M,0,77494,77532,358.7642,339.4831,357.0724,330.2627 M,0,77532,77569,357.0724,330.2627,355.2646,321.0649 M,0,77569,77607,355.2646,321.0649,353.2845,311.9026 M,0,77607,77644,353.2845,311.9026,351.1327,302.779 M,0,77644,77682,351.1327,302.779,348.8101,293.6972 M,0,77682,77719,348.8101,293.6972,346.3173,284.6604 M,0,77719,77757,346.3173,284.6604,343.5858,275.6931 M,0,77757,77794,343.5858,275.6931,340.7356,266.7632 M,0,77794,77832,340.7356,266.7632,337.7184,257.8882 M,0,77832,77869,337.7184,257.8882,334.535,249.0714 M,0,77869,77907,334.535,249.0714,331.1868,240.3158 M,0,77907,77944,331.1868,240.3158,327.6747,231.6243 M,0,77944,77982,327.6747,231.6243,324,223 M,0,77982,78019,324,223,327.6747,231.6243 M,0,78019,78057,327.6747,231.6243,331.1868,240.3158 M,0,78057,78094,331.1868,240.3158,334.535,249.0714 M,0,78094,78132,334.535,249.0714,337.7184,257.8882 M,0,78132,78169,337.7184,257.8882,340.7356,266.7632 M,0,78169,78207,340.7356,266.7632,343.5858,275.6931 M,0,78207,78244,343.5858,275.6931,346.3173,284.6604 M,0,78244,78282,346.3173,284.6604,348.8101,293.6972 M,0,78282,78319,348.8101,293.6972,351.1327,302.779 M,0,78319,78357,351.1327,302.779,353.2845,311.9026 M,0,78357,78394,353.2845,311.9026,355.2646,321.0649 M,0,78394,78432,355.2646,321.0649,357.0724,330.2627 M,0,78432,78469,357.0724,330.2627,358.7642,339.4831 M,0,78469,78507,358.7642,339.4831,360.2047,348.7461 M,0,78507,78544,360.2047,348.7461,361.4711,358.0343 M,0,78544,78582,361.4711,358.0343,362.5991,367.3409
Sprite,Foreground,Centre,"sb/ring.png",210,432 S,19,79182,79932,0.125,0.55 F,6,79182,79932,0.7,0
Sprite,Foreground,Centre,"sb/ring.png",479,348 S,19,98382,99132,0.125,0.55 F,6,98382,99132,0.7,0
Sprite,Foreground,Centre,"sb/ring.png",329,428 S,19,117582,118332,0.125,0.55 F,6,117582,118332,0.7,0
Sprite,Foreground,Centre,"sb/ring.png",283,326 S,19,129282,130032,0.125,0.55 F,6,129282,130032,0.7,0
Sprite,Foreground,Centre,"sb/ring.png",205,354 S,19,129582,130332,0.125,0.55 F,6,129582,130332,0.7,0
Sprite,Foreground,Centre,"sb/ring.png",218,384 S,19,139182,140682,0.125,0.55 F,6,139182,140682,0.7,0
Sprite,Foreground,Centre,"sb/ring.png",133,205 S,19,131682,133182,0.125,0.55 F,6,131682,133182,0.7,0
Sprite,Foreground,Centre,"sb/ring.png",214,219 S,19,131982,133482,0.125,0.55 F,6,131982,133482,0.7,0
Sprite,Foreground,Centre,"sb/ring.png",218,384 S,19,143982,144482,0.125,0.55 F,6,143982,144482,0.7,0
Sprite,Foreground,Centre,"sb/ring.png",401,112 S,19,146382,146882,0.125,0.55 F,6,146382,146882,0.7,0
Sprite,Foreground,Centre,"sb/ring.png",379,218 S,19,153582,154082,0.125,0.55 F,6,153582,154082,0.7,0
Sprite,Foreground,Centre,"sb/ring.png",67,311 S,19,155982,156482,0.125,0.55 F,6,155982,156482,0.7,0
Sprite,Foreground,Centre,"sb/ring.png",410,410 S,19,194382,194882,0.125,0.55 F,6,194382,194882,0.7,0
Sprite,Foreground,Centre,"sb/ring.png",329,391 S,19,195582,196082,0.125,0.55 F,6,195582,196082,0.7,0
Sprite,Foreground,Centre,"sb/ring.png",248,374 S,19,195882,196382,0.125,0.55 F,6,195882,196382,0.7,0
Sprite,Foreground,Centre,"sb/ring.png",279,386 S,19,203982,204482,0.125,0.55 F,6,203982,204482,0.7,0
Sprite,Foreground,Centre,"sb/ring.png",79,334 S,19,204882,205382,0.125,0.55 F,6,204882,205382,0.7,0
Sprite,Foreground,Centre,"sb/ring.png",171,141 S,19,205782,206282,0.125,0.55 F,6,205782,206282,0.7,0
Sprite,Foreground,Centre,"sb/ring.png",278,266 S,19,206382,206882,0.125,0.55 F,6,206382,206882,0.7,0
Sprite,Foreground,Centre,"sb/ring.png",263,425 S,19,223182,223682,0.125,0.55 F,6,223182,223682,0.7,0
Sprite,Foreground,Centre,"sb/ring.png",67,316 S,19,224082,224582,0.125,0.55 F,6,224082,224582,0.7,0
Sprite,Foreground,Centre,"sb/ring.png",262,204 S,19,224981,225481,0.125,0.55 F,6,224981,225481,0.7,0
Sprite,Foreground,Centre,"sb/ring.png",384,314 S,19,225582,226082,0.125,0.55 F,6,225582,226082,0.7,0
Sprite,Foreground,Centre,"sb/ring.png",275,301 S,19,244782,246282,0.125,0.55 F,6,244782,246282,0.7,0
Sprite,Foreground,Centre,"sb/d.png",0,0 M,4,187182,187782,574,219,641,314 F,0,187182,187782,1,0 S,0,187182,187782,0.7,0.28 P,0,187182,187782,A
Sprite,Foreground,Centre,"sb/d.png",0,0 M,4,187182,187782,574,219,654,236 F,0,187182,187782,1,0 S,0,187182,187782,0.7,0.28 P,0,187182,187782,A
Sprite,Foreground,Centre,"sb/d.png",0,0 M,4,187182,187782,574,219,485,236 F,0,187182,187782,1,0 S,0,187182,187782,0.7,0.28 P,0,187182,187782,A
Sprite,Foreground,Centre,"sb/d.png",0,0 M,4,187182,187782,574,219,695,201 F,0,187182,187782,1,0 S,0,187182,187782,0.7,0.28 P,0,187182,187782,A
Sprite,Foreground,Centre,"sb/d.png",0,0 M,4,187182,187782,574,219,717,151 F,0,187182,187782,1,0 S,0,187182,187782,0.7,0.28 P,0,187182,187782,A
Sprite,Foreground,Centre,"sb/d.png",0,0 M,4,187182,187782,574,219,511,209 F,0,187182,187782,1,0 S,0,187182,187782,0.7,0.28 P,0,187182,187782,A
Sprite,Foreground,Centre,"sb/d.png",0,0 M,4,187182,187782,574,219,613,209 F,0,187182,187782,1,0 S,0,187182,187782,0.7,0.28 P,0,187182,187782,A
Sprite,Foreground,Centre,"sb/d.png",0,0 M,4,188082,188682,402,103,546,-38 F,0,188082,188682,1,0 S,0,188082,188682,0.7,0.28 P,0,188082,188682,A
Sprite,Foreground,Centre,"sb/d.png",0,0 M,4,188082,188682,402,103,510,251 F,0,188082,188682,1,0 S,0,188082,188682,0.7,0.28 P,0,188082,188682,A
Sprite,Foreground,Centre,"sb/d.png",0,0 M,4,188082,188682,402,103,455,47 F,0,188082,188682,1,0 S,0,188082,188682,0.7,0.28 P,0,188082,188682,A
Sprite,Foreground,Centre,"sb/d.png",0,0 M,4,188082,188682,402,103,497,207 F,0,188082,188682,1,0 S,0,188082,188682,0.7,0.28 P,0,188082,188682,A
Sprite,Foreground,Centre,"sb/d.png",0,0 M,4,188082,188682,402,103,549,-38 F,0,188082,188682,1,0 S,0,188082,188682,0.7,0.28 P,0,188082,188682,A
Sprite,Foreground,Centre,"sb/d.png",0,0 M,4,188082,188682,402,103,461,110 F,0,188082,188682,1,0 S,0,188082,188682,0.7,0.28 P,0,188082,188682,A
Sprite,Foreground,Centre,"sb/d.png",0,0 M,4,188082,188682,402,103,532,159 F,0,188082,188682,1,0 S,0,188082,188682,0.7,0.28 P,0,188082,188682,A
Sprite,Foreground,Centre,"sb/d.png",0,0 M,4,188682,189282,257,182,271,56 F,0,188682,189282,1,0 S,0,188682,189282,0.7,0.28 P,0,188682,189282,A
Sprite,Foreground,Centre,"sb/d.png",0,0 M,4,188682,189282,257,182,163,167 F,0,188682,189282,1,0 S,0,188682,189282,0.7,0.28 P,0,188682,189282,A
Sprite,Foreground,Centre,"sb/d.png",0,0 M,4,188682,189282,257,182,196,328 F,0,188682,189282,1,0 S,0,188682,189282,0.7,0.28 P,0,188682,189282,A
Sprite,Foreground,Centre,"sb/d.png",0,0 M,4,188682,189282,257,182,299,260 F,0,188682,189282,1,0 S,0,188682,189282,0.7,0.28 P,0,188682,189282,A
Sprite,Foreground,Centre,"sb/d.png",0,0 M,4,188682,189282,257,182,116,146 F,0,188682,189282,1,0 S,0,188682,189282,0.7,0.28 P,0,188682,189282,A
Sprite,Foreground,Centre,"sb/d.png",0,0 M,4,188682,189282,257,182,209,319 F,0,188682,189282,1,0 S,0,188682,189282,0.7,0.28 P,0,188682,189282,A
Sprite,Foreground,Centre,"sb/d.png",0,0 M,4,188682,189282,257,182,258,246 F,0,188682,189282,1,0 S,0,188682,189282,0.7,0.28 P,0,188682,189282,A
Sprite,Foreground,Centre,"sb/d.png",0,0 M,4,189582,190182,66,224,-49,156 F,0,189582,190182,1,0 S,0,189582,190182,0.7,0.28 P,0,189582,190182,A
Sprite,Foreground,Centre,"sb/d.png",0,0 M,4,189582,190182,66,224,188,312 F,0,189582,190182,1,0 S,0,189582,190182,0.7,0.28 P,0,189582,190182,A
Sprite,Foreground,Centre,"sb/d.png",0,0 M,4,189582,190182,66,224,17,211 F,0,189582,190182,1,0 S,0,189582,190182,0.7,0.28 P,0,189582,190182,A
Sprite,Foreground,Centre,"sb/d.png",0,0 M,4,189582,190182,66,224,-40,140 F,0,189582,190182,1,0 S,0,189582,190182,0.7,0.28 P,0,189582,190182,A
Sprite,Foreground,Centre,"sb/d.png",0,0 M,4,189582,190182,66,224,39,289 F,0,189582,190182,1,0 S,0,189582,190182,0.7,0.28 P,0,189582,190182,A
Sprite,Foreground,Centre,"sb/d.png",0,0 M,4,189582,190182,66,224,101,220 F,0,189582,190182,1,0 S,0,189582,190182,0.7,0.28 P,0,189582,190182,A
Sprite,Foreground,Centre,"sb/d.png",0,0 M,4,189582,190182,66,224,-26,337 F,0,189582,190182,1,0 S,0,189582,190182,0.7,0.28 P,0,189582,190182,A
Sprite,Foreground,Centre,"sb/d.png",0,0 M,4,191082,191682,180,104,277,174 F,0,191082,191682,1,0 S,0,191082,191682,0.7,0.28 P,0,191082,191682,A
Sprite,Foreground,Centre,"sb/d.png",0,0 M,4,191082,191682,180,104,287,157 F,0,191082,191682,1,0 S,0,191082,191682,0.7,0.28 P,0,191082,191682,A
Sprite,Foreground,Centre,"sb/d.png",0,0 M,4,191082,191682,180,104,217,19 F,0,191082,191682,1,0 S,0,191082,191682,0.7,0.28 P,0,191082,191682,A
Sprite,Foreground,Centre,"sb/d.png",0,0 M,4,191082,191682,180,104,298,222 F,0,191082,191682,1,0 S,0,191082,191682,0.7,0.28 P,0,191082,191682,A
Sprite,Foreground,Centre,"sb/d.png",0,0 M,4,191082,191682,180,104,55,205 F,0,191082,191682,1,0 S,0,191082,191682,0.7,0.28 P,0,191082,191682,A
Sprite,Foreground,Centre,"sb/d.png",0,0 M,4,191082,191682,180,104,81,147 F,0,191082,191682,1,0 S,0,191082,191682,0.7,0.28 P,0,191082,191682,A
Sprite,Foreground,Centre,"sb/d.png",0,0 M,4,191082,191682,180,104,278,19 F,0,191082,191682,1,0 S,0,191082,191682,0.7,0.28 P,0,191082,191682,A
Sprite,Foreground,Centre,"sb/d.png",0,0 M,4,191382,191982,252,144,401,138 F,0,191382,191982,1,0 S,0,191382,191982,0.7,0.28 P,0,191382,191982,A
Sprite,Foreground,Centre,"sb/d.png",0,0 M,4,191382,191982,252,144,297,209 F,0,191382,191982,1,0 S,0,191382,191982,0.7,0.28 P,0,191382,191982,A
Sprite,Foreground,Centre,"sb/d.png",0,0 M,4,191382,191982,252,144,344,24 F,0,191382,191982,1,0 S,0,191382,191982,0.7,0.28 P,0,191382,191982,A
Sprite,Foreground,Centre,"sb/d.png",0,0 M,4,191382,191982,252,144,320,209 F,0,191382,191982,1,0 S,0,191382,191982,0.7,0.28 P,0,191382,191982,A
Sprite,Foreground,Centre,"sb/d.png",0,0 M,4,191382,191982,252,144,139,265 F,0,191382,191982,1,0 S,0,191382,191982,0.7,0.28 P,0,191382,191982,A
Sprite,Foreground,Centre,"sb/d.png",0,0 M,4,191382,191982,252,144,158,137 F,0,191382,191982,1,0 S,0,191382,191982,0.7,0.28 P,0,191382,191982,A
Sprite,Foreground,Centre,"sb/d.png",0,0 M,4,191382,191982,252,144,264,91 F,0,191382,191982,1,0 S,0,191382,191982,0.7,0.28 P,0,191382,191982,A
Sprite,Foreground,Centre,"sb/d.png",0,0 M,4,191982,192582,398,108,449,98 F,0,191982,192582,1,0 S,0,191982,192582,0.7,0.28 P,0,191982,192582,A
Sprite,Foreground,Centre,"sb/d.png",0,0 M,4,191982,192582,398,108,498,200 F,0,191982,192582,1,0 S,0,191982,192582,0.7,0.28 P,0,191982,192582,A
Sprite,Foreground,Centre,"sb/d.png",0,0 M,4,191982,192582,398,108,486,187 F,0,191982,192582,1,0 S,0,191982,192582,0.7,0.28 P,0,191982,192582,A
Sprite,Foreground,Centre,"sb/d.png",0,0 M,4,191982,192582,398,108,529,46 F,0,191982,192582,1,0 S,0,191982,192582,0.7,0.28 P,0,191982,192582,A
Sprite,Foreground,Centre,"sb/d.png",0,0 M,4,191982,192582,398,108,404,157 F,0,191982,192582,1,0 S,0,191982,192582,0.7,0.28 P,0,191982,192582,A
Sprite,Foreground,Centre,"sb/d.png",0,0 M,4,191982,192582,398,108,347,44 F,0,191982,192582,1,0 S,0,191982,192582,0.7,0.28 P,0,191982,192582,A
Sprite,Foreground,Centre,"sb/d.png",0,0 M,4,191982,192582,398,108,494,24 F,0,191982,192582,1,0 S,0,191982,192582,0.7,0.28 P,0,191982,192582,A
Sprite,Foreground,Centre,"sb/d.png",0,0 M,4,193482,194082,299,240,205,110 F,0,193482,194082,1,0 S,0,193482,194082,0.7,0.28 P,0,193482,194082,A
Sprite,Foreground,Centre,"sb/d.png",0,0 M,4,193482,194082,299,240,336,297 F,0,193482,194082,1,0 S,0,193482,194082,0.7,0.28 P,0,193482,194082,A
Sprite,Foreground,Centre,"sb/d.png",0,0 M,4,193482,194082,299,240,338,368 F,0,193482,194082,1,0 S,0,193482,194082,0.7,0.28 P,0,193482,194082,A
Sprite,Foreground,Centre,"sb/d.png",0,0 M,4,193482,194082,299,240,215,368 F,0,193482,194082,1,0 S,0,193482,194082,0.7,0.28 P,0,193482,194082,A
Sprite,Foreground,Centre,"sb/d.png",0,0 M,4,193482,194082,299,240,168,360 F,0,193482,194082,1,0 S,0,193482,194082,0.7,0.28 P,0,193482,194082,A
Sprite,Foreground,Centre,"sb/d.png",0,0 M,4,193482,194082,299,240,352,118 F,0,193482,194082,1,0 S,0,193482,194082,0.7,0.28 P,0,193482,194082,A
Sprite,Foreground,Centre,"sb/d.png",0,0 M,4,193482,194082,299,240,193,122 F,0,193482,194082,1,0 S,0,193482,194082,0.7,0.28 P,0,193482,194082,A
Sprite,Foreground,Centre,"sb/d.png",0,0 M,4,193782,194382,301,323,333,458 F,0,193782,194382,1,0 S,0,193782,194382,0.7,0.28 P,0,193782,194382,A
Sprite,Foreground,Centre,"sb/d.png",0,0 M,4,193782,194382,301,323,298,217 F,0,193782,194382,1,0 S,0,193782,194382,0.7,0.28 P,0,193782,194382,A
Sprite,Foreground,Centre,"sb/d.png",0,0 M,4,193782,194382,301,323,354,343 F,0,193782,194382,1,0 S,0,193782,194382,0.7,0.28 P,0,193782,194382,A
Sprite,Foreground,Centre,"sb/d.png",0,0 M,4,193782,194382,301,323,218,358 F,0,193782,194382,1,0 S,0,193782,194382,0.7,0.28 P,0,193782,194382,A
Sprite,Foreground,Centre,"sb/d.png",0,0 M,4,193782,194382,301,323,152,281 F,0,193782,194382,1,0 S,0,193782,194382,0.7,0.28 P,0,193782,194382,A
Sprite,Foreground,Centre,"sb/d.png",0,0 M,4,193782,194382,301,323,406,191 F,0,193782,194382,1,0 S,0,193782,194382,0.7,0.28 P,0,193782,194382,A
Sprite,Foreground,Centre,"sb/d.png",0,0 M,4,193782,194382,301,323,235,384 F,0,193782,194382,1,0 S,0,193782,194382,0.7,0.28 P,0,193782,194382,A
Sprite,Foreground,Centre,"sb/d.png",0,0 M,4,194382,194982,410,410,547,556 F,0,194382,194982,1,0 S,0,194382,194982,0.7,0.28 P,0,194382,194982,A
Sprite,Foreground,Centre,"sb/d.png",0,0 M,4,194382,194982,410,410,376,416 F,0,194382,194982,1,0 S,0,194382,194982,0.7,0.28 P,0,194382,194982,A
Sprite,Foreground,Centre,"sb/d.png",0,0 M,4,194382,194982,410,410,344,411 F,0,194382,194982,1,0 S,0,194382,194982,0.7,0.28 P,0,194382,194982,A
Sprite,Foreground,Centre,"sb/d.png",0,0 M,4,194382,194982,410,410,419,277 F,0,194382,194982,1,0 S,0,194382,194982,0.7,0.28 P,0,194382,194982,A
Sprite,Foreground,Centre,"sb/d.png",0,0 M,4,194382,194982,410,410,344,408 F,0,194382,194982,1,0 S,0,194382,194982,0.7,0.28 P,0,194382,194982,A
Sprite,Foreground,Centre,"sb/d.png",0,0 M,4,194382,194982,410,410,513,443 F,0,194382,194982,1,0 S,0,194382,194982,0.7,0.28 P,0,194382,194982,A
Sprite,Foreground,Centre,"sb/d.png",0,0 M,4,194382,194982,410,410,291,482 F,0,194382,194982,1,0 S,0,194382,194982,0.7,0.28 P,0,194382,194982,A
Sprite,Foreground,Centre,"sb/d.png",0,0 M,4,195582,196182,329,391,299,521 F,0,195582,196182,1,0 S,0,195582,196182,0.7,0.28 P,0,195582,196182,A
Sprite,Foreground,Centre,"sb/d.png",0,0 M,4,195582,196182,329,391,218,450 F,0,195582,196182,1,0 S,0,195582,196182,0.7,0.28 P,0,195582,196182,A
Sprite,Foreground,Centre,"sb/d.png",0,0 M,4,195582,196182,329,391,363,490 F,0,195582,196182,1,0 S,0,195582,196182,0.7,0.28 P,0,195582,196182,A
Sprite,Foreground,Centre,"sb/d.png",0,0 M,4,195582,196182,329,391,384,411 F,0,195582,196182,1,0 S,0,195582,196182,0.7,0.28 P,0,195582,196182,A
Sprite,Foreground,Centre,"sb/d.png",0,0 M,4,195582,196182,329,391,230,296 F,0,195582,196182,1,0 S,0,195582,196182,0.7,0.28 P,0,195582,196182,A
Sprite,Foreground,Centre,"sb/d.png",0,0 M,4,195582,196182,329,391,361,316 F,0,195582,196182,1,0 S,0,195582,196182,0.7,0.28 P,0,195582,196182,A
Sprite,Foreground,Centre,"sb/d.png",0,0 M,4,195582,196182,329,391,478,411 F,0,195582,196182,1,0 S,0,195582,196182,0.7,0.28 P,0,195582,196182,A
Sprite,Foreground,Centre,"sb/d.png",0,0 M,4,195882,196482,248,374,117,303 F,0,195882,196482,1,0 S,0,195882,196482,0.7,0.28 P,0,195882,196482,A
Sprite,Foreground,Centre,"sb/d.png",0,0 M,4,195882,196482,248,374,350,394 F,0,195882,196482,1,0 S,0,195882,196482,0.7,0.28 P,0,195882,196482,A
Sprite,Foreground,Centre,"sb/d.png",0,0 M,4,195882,196482,248,374,291,378 F,0,195882,196482,1,0 S,0,195882,196482,0.7,0.28 P,0,195882,196482,A
Sprite,Foreground,Centre,"sb/d.png",0,0 M,4,195882,196482,248,374,389,247 F,0,195882,196482,1,0 S,0,195882,196482,0.7,0.28 P,0,195882,196482,A
Sprite,Foreground,Centre,"sb/d.png",0,0 M,4,195882,196482,248,374,251,270 F,0,195882,196482,1,0 S,0,195882,196482,0.7,0.28 P,0,195882,196482,A
Sprite,Foreground,Centre,"sb/d.png",0,0 M,4,195882,196482,248,374,342,416 F,0,195882,196482,1,0 S,0,195882,196482,0.7,0.28 P,0,195882,196482,A
Sprite,Foreground,Centre,"sb/d.png",0,0 M,4,195882,196482,248,374,270,389 F,0,195882,196482,1,0 S,0,195882,196482,0.7,0.28 P,0,195882,196482,A
Sprite,Foreground,Centre,"sb/d.png",0,0 M,4,196782,197382,304,313,355,461 F,0,196782,197382,1,0 S,0,196782,197382,0.7,0.28 P,0,196782,197382,A
Sprite,Foreground,Centre,"sb/d.png",0,0 M,4,196782,197382,304,313,244,182 F,0,196782,197382,1,0 S,0,196782,197382,0.7,0.28 P,0,196782,197382,A
Sprite,Foreground,Centre,"sb/d.png",0,0 M,4,196782,197382,304,313,293,307 F,0,196782,197382,1,0 S,0,196782,197382,0.7,0.28 P,0,196782,197382,A
Sprite,Foreground,Centre,"sb/d.png",0,0 M,4,196782,197382,304,313,218,184 F,0,196782,197382,1,0 S,0,196782,197382,0.7,0.28 P,0,196782,197382,A
Sprite,Foreground,Centre,"sb/d.png",0,0 M,4,196782,197382,304,313,223,208 F,0,196782,197382,1,0 S,0,196782,197382,0.7,0.28 P,0,196782,197382,A
Sprite,Foreground,Centre,"sb/d.png",0,0 M,4,196782,197382,304,313,288,298 F,0,196782,197382,1,0 S,0,196782,197382,0.7,0.28 P,0,196782,197382,A
Sprite,Foreground,Centre,"sb/d.png",0,0 M,4,196782,197382,304,313,159,279 F,0,196782,197382,1,0 S,0,196782,197382,0.7,0.28 P,0,196782,197382,A
Sprite,Foreground,Centre,"sb/d.png",0,0 M,4,197682,198282,219,131,313,41 F,0,197682,198282,1,0 S,0,197682,198282,0.7,0.28 P,0,197682,198282,A
Sprite,Foreground,Centre,"sb/d.png",0,0 M,4,197682,198282,219,131,343,-11 F,0,197682,198282,1,0 S,0,197682,198282,0.7,0.28 P,0,197682,198282,A
Sprite,Foreground,Centre,"sb/d.png",0,0 M,4,197682,198282,219,131,221,269 F,0,197682,198282,1,0 S,0,197682,198282,0.7,0.28 P,0,197682,198282,A
Sprite,Foreground,Centre,"sb/d.png",0,0 M,4,197682,198282,219,131,367,-14 F,0,197682,198282,1,0 S,0,197682,198282,0.7,0.28 P,0,197682,198282,A
Sprite,Foreground,Centre,"sb/d.png",0,0 M,4,197682,198282,219,131,265,64 F,0,197682,198282,1,0 S,0,197682,198282,0.7,0.28 P,0,197682,198282,A
Sprite,Foreground,Centre,"sb/d.png",0,0 M,4,197682,198282,219,131,359,157 F,0,197682,198282,1,0 S,0,197682,198282,0.7,0.28 P,0,197682,198282,A
Sprite,Foreground,Centre,"sb/d.png",0,0 M,4,197682,198282,219,131,300,78 F,0,197682,198282,1,0 S,0,197682,198282,0.7,0.28 P,0,197682,198282,A
Sprite,Foreground,Centre,"sb/d.png",0,0 M,4,198282,198882,107,252,83,394 F,0,198282,198882,1,0 S,0,198282,198882,0.7,0.28 P,0,198282,198882,A
Sprite,Foreground,Centre,"sb/d.png",0,0 M,4,198282,198882,107,252,222,393 F,0,198282,198882,1,0 S,0,198282,198882,0.7,0.28 P,0,198282,198882,A
Sprite,Foreground,Centre,"sb/d.png",0,0 M,4,198282,198882,107,252,33,141 F,0,198282,198882,1,0 S,0,198282,198882,0.7,0.28 P,0,198282,198882,A
Sprite,Foreground,Centre,"sb/d.png",0,0 M,4,198282,198882,107,252,226,155 F,0,198282,198882,1,0 S,0,198282,198882,0.7,0.28 P,0,198282,198882,A
Sprite,Foreground,Centre,"sb/d.png",0,0 M,4,198282,198882,107,252,221,265 F,0,198282,198882,1,0 S,0,198282,198882,0.7,0.28 P,0,198282,198882,A
Sprite,Foreground,Centre,"sb/d.png",0,0 M,4,198282,198882,107,252,192,256 F,0,198282,198882,1,0 S,0,198282,198882,0.7,0.28 P,0,198282,198882,A
Sprite,Foreground,Centre,"sb/d.png",0,0 M,4,198282,198882,107,252,62,399 F,0,198282,198882,1,0 S,0,198282,198882,0.7,0.28 P,0,198282,198882,A
Sprite,Foreground,Centre,"sb/d.png",0,0 M,4,199182,199782,138,175,-2,232 F,0,199182,199782,1,0 S,0,199182,199782,0.7,0.28 P,0,199182,199782,A
Sprite,Foreground,Centre,"sb/d.png",0,0 M,4,199182,199782,138,175,24,83 F,0,199182,199782,1,0 S,0,199182,199782,0.7,0.28 P,0,199182,199782,A
Sprite,Foreground,Centre,"sb/d.png",0,0 M,4,199182,199782,138,175,136,199 F,0,199182,199782,1,0 S,0,199182,199782,0.7,0.28 P,0,199182,199782,A
Sprite,Foreground,Centre,"sb/d.png",0,0 M,4,199182,199782,138,175,66,118 F,0,199182,199782,1,0 S,0,199182,199782,0.7,0.28 P,0,199182,199782,A
Sprite,Foreground,Centre,"sb/d.png",0,0 M,4,199182,199782,138,175,60,260 F,0,199182,199782,1,0 S,0,199182,199782,0.7,0.28 P,0,199182,199782,A
Sprite,Foreground,Centre,"sb/d.png",0,0 M,4,199182,199782,138,175,27,208 F,0,199182,199782,1,0 S,0,199182,199782,0.7,0.28 P,0,199182,199782,A
Sprite,Foreground,Centre,"sb/d.png",0,0 M,4,199182,199782,138,175,155,221 F,0,199182,199782,1,0 S,0,199182,199782,0.7,0.28 P,0,199182,199782,A
Sprite,Foreground,Centre,"sb/d.png",0,0 M,4,200682,201282,303,171,255,27 F,0,200682,201282,1,0 S,0,200682,201282,0.7,0.28 P,0,200682,201282,A
Sprite,Foreground,Centre,"sb/d.png",0,0 M,4,200682,201282,303,171,182,284 F,0,200682,201282,1,0 S,0,200682,201282,0.7,0.28 P,0,200682,201282,A
Sprite,Foreground,Centre,"sb/d.png",0,0 M,4,200682,201282,303,171,366,288 F,0,200682,201282,1,0 S,0,200682,201282,0.7,0.28 P,0,200682,201282,A
Sprite,Foreground,Centre,"sb/d.png",0,0 M,4,200682,201282,303,171,348,97 F,0,200682,201282,1,0 S,0,200682,201282,0.7,0.28 P,0,200682,201282,A
Sprite,Foreground,Centre,"sb/d.png",0,0 M,4,200682,201282,303,171,232,163 F,0,200682,201282,1,0 S,0,200682,201282,0.7,0.28 P,0,200682,201282,A
Sprite,Foreground,Centre,"sb/d.png",0,0 M,4,200682,201282,303,171,211,287 F,0,200682,201282,1,0 S,0,200682,201282,0.7,0.28 P,0,200682,201282,A
Sprite,Foreground,Centre,"sb/d.png",0,0 M,4,200682,201282,303,171,300,212 F,0,200682,201282,1,0 S,0,200682,201282,0.7,0.28 P,0,200682,201282,A
Sprite,Foreground,Centre,"sb/d.png",0,0 M,4,200982,201582,380,141,325,101 F,0,200982,201582,1,0 S,0,200982,201582,0.7,0.28 P,0,200982,201582,A
Sprite,Foreground,Centre,"sb/d.png",0,0 M,4,200982,201582,380,141,303,289 F,0,200982,201582,1,0 S,0,200982,201582,0.7,0.28 P,0,200982,201582,A
Sprite,Foreground,Centre,"sb/d.png",0,0 M,4,200982,201582,380,141,413,-9 F,0,200982,201582,1,0 S,0,200982,201582,0.7,0.28 P,0,200982,201582,A
Sprite,Foreground,Centre,"sb/d.png",0,0 M,4,200982,201582,380,141,525,279 F,0,200982,201582,1,0 S,0,200982,201582,0.7,0.28 P,0,200982,201582,A
Sprite,Foreground,Centre,"sb/d.png",0,0 M,4,200982,201582,380,141,277,222 F,0,200982,201582,1,0 S,0,200982,201582,0.7,0.28 P,0,200982,201582,A
Sprite,Foreground,Centre,"sb/d.png",0,0 M,4,200982,201582,380,141,257,48 F,0,200982,201582,1,0 S,0,200982,201582,0.7,0.28 P,0,200982,201582,A
Sprite,Foreground,Centre,"sb/d.png",0,0 M,4,200982,201582,380,141,248,24 F,0,200982,201582,1,0 S,0,200982,201582,0.7,0.28 P,0,200982,201582,A
Sprite,Foreground,Centre,"sb/d.png",0,0 M,4,201582,202182,504,224,573,104 F,0,201582,202182,1,0 S,0,201582,202182,0.7,0.28 P,0,201582,202182,A
Sprite,Foreground,Centre,"sb/d.png",0,0 M,4,201582,202182,504,224,605,266 F,0,201582,202182,1,0 S,0,201582,202182,0.7,0.28 P,0,201582,202182,A
Sprite,Foreground,Centre,"sb/d.png",0,0 M,4,201582,202182,504,224,525,146 F,0,201582,202182,1,0 S,0,201582,202182,0.7,0.28 P,0,201582,202182,A
Sprite,Foreground,Centre,"sb/d.png",0,0 M,4,201582,202182,504,224,605,331 F,0,201582,202182,1,0 S,0,201582,202182,0.7,0.28 P,0,201582,202182,A
Sprite,Foreground,Centre,"sb/d.png",0,0 M,4,201582,202182,504,224,488,346 F,0,201582,202182,1,0 S,0,201582,202182,0.7,0.28 P,0,201582,202182,A
Sprite,Foreground,Centre,"sb/d.png",0,0 M,4,201582,202182,504,224,594,212 F,0,201582,202182,1,0 S,0,201582,202182,0.7,0.28 P,0,201582,202182,A
Sprite,Foreground,Centre,"sb/d.png",0,0 M,4,201582,202182,504,224,456,307 F,0,201582,202182,1,0 S,0,201582,202182,0.7,0.28 P,0,201582,202182,A
Sprite,Foreground,Centre,"sb/d.png",0,0 M,4,203082,203682,462,384,440,428 F,0,203082,203682,1,0 S,0,203082,203682,0.7,0.28 P,0,203082,203682,A
Sprite,Foreground,Centre,"sb/d.png",0,0 M,4,203082,203682,462,384,611,416 F,0,203082,203682,1,0 S,0,203082,203682,0.7,0.28 P,0,203082,203682,A
Sprite,Foreground,Centre,"sb/d.png",0,0 M,4,203082,203682,462,384,338,421 F,0,203082,203682,1,0 S,0,203082,203682,0.7,0.28 P,0,203082,203682,A
Sprite,Foreground,Centre,"sb/d.png",0,0 M,4,203082,203682,462,384,609,495 F,0,203082,203682,1,0 S,0,203082,203682,0.7,0.28 P,0,203082,203682,A
Sprite,Foreground,Centre,"sb/d.png",0,0 M,4,203082,203682,462,384,473,275 F,0,203082,203682,1,0 S,0,203082,203682,0.7,0.28 P,0,203082,203682,A
Sprite,Foreground,Centre,"sb/d.png",0,0 M,4,203082,203682,462,384,312,401 F,0,203082,203682,1,0 S,0,203082,203682,0.7,0.28 P,0,203082,203682,A
Sprite,Foreground,Centre,"sb/d.png",0,0 M,4,203082,203682,462,384,513,347 F,0,203082,203682,1,0 S,0,203082,203682,0.7,0.28 P,0,203082,203682,A
Sprite,Foreground,Centre,"sb/d.png",0,0 M,4,203382,203982,410,319,519,266 F,0,203382,203982,1,0 S,0,203382,203982,0.7,0.28 P,0,203382,203982,A
Sprite,Foreground,Centre,"sb/d.png",0,0 M,4,203382,203982,410,319,495,324 F,0,203382,203982,1,0 S,0,203382,203982,0.7,0.28 P,0,203382,203982,A
Sprite,Foreground,Centre,"sb/d.png",0,0 M,4,203382,203982,410,319,508,331 F,0,203382,203982,1,0 S,0,203382,203982,0.7,0.28 P,0,203382,203982,A
Sprite,Foreground,Centre,"sb/d.png",0,0 M,4,203382,203982,410,319,416,217 F,0,203382,203982,1,0 S,0,203382,203982,0.7,0.28 P,0,203382,203982,A
Sprite,Foreground,Centre,"sb/d.png",0,0 M,4,203382,203982,410,319,450,334 F,0,203382,203982,1,0 S,0,203382,203982,0.7,0.28 P,0,203382,203982,A
Sprite,Foreground,Centre,"sb/d.png",0,0 M,4,203382,203982,410,319,354,243 F,0,203382,203982,1,0 S,0,203382,203982,0.7,0.28 P,0,203382,203982,A
Sprite,Foreground,Centre,"sb/d.png",0,0 M,4,203382,203982,410,319,500,307 F,0,203382,203982,1,0 S,0,203382,203982,0.7,0.28 P,0,203382,203982,A
Sprite,Foreground,Centre,"sb/d.png",0,0 M,4,203982,204582,279,386,405,337 F,0,203982,204582,1,0 S,0,203982,204582,0.7,0.28 P,0,203982,204582,A
Sprite,Foreground,Centre,"sb/d.png",0,0 M,4,203982,204582,279,386,186,281 F,0,203982,204582,1,0 S,0,203982,204582,0.7,0.28 P,0,203982,204582,A
Sprite,Foreground,Centre,"sb/d.png",0,0 M,4,203982,204582,279,386,327,297 F,0,203982,204582,1,0 S,0,203982,204582,0.7,0.28 P,0,203982,204582,A
Sprite,Foreground,Centre,"sb/d.png",0,0 M,4,203982,204582,279,386,289,388 F,0,203982,204582,1,0 S,0,203982,204582,0.7,0.28 P,0,203982,204582,A
Sprite,Foreground,Centre,"sb/d.png",0,0 M,4,203982,204582,279,386,360,380 F,0,203982,204582,1,0 S,0,203982,204582,0.7,0.28 P,0,203982,204582,A
Sprite,Foreground,Centre,"sb/d.png",0,0 M,4,203982,204582,279,386,159,367 F,0,203982,204582,1,0 S,0,203982,204582,0.7,0.28 P,0,203982,204582,A
Sprite,Foreground,Centre,"sb/d.png",0,0 M,4,203982,204582,279,386,164,493 F,0,203982,204582,1,0 S,0,203982,204582,0.7,0.28 P,0,203982,204582,A
Sprite,Foreground,Centre,"sb/d.png",0,0 M,4,204882,205482,79,334,97,394 F,0,204882,205482,1,0 S,0,204882,205482,0.7,0.28 P,0,204882,205482,A
Sprite,Foreground,Centre,"sb/d.png",0,0 M,4,204882,205482,79,334,121,188 F,0,204882,205482,1,0 S,0,204882,205482,0.7,0.28 P,0,204882,205482,A
Sprite,Foreground,Centre,"sb/d.png",0,0 M,4,204882,205482,79,334,99,321 F,0,204882,205482,1,0 S,0,204882,205482,0.7,0.28 P,0,204882,205482,A
Sprite,Foreground,Centre,"sb/d.png",0,0 M,4,204882,205482,79,334,227,220 F,0,204882,205482,1,0 S,0,204882,205482,0.7,0.28 P,0,204882,205482,A
Sprite,Foreground,Centre,"sb/d.png",0,0 M,4,204882,205482,79,334,-35,268 F,0,204882,205482,1,0 S,0,204882,205482,0.7,0.28 P,0,204882,205482,A
Sprite,Foreground,Centre,"sb/d.png",0,0 M,4,204882,205482,79,334,118,423 F,0,204882,205482,1,0 S,0,204882,205482,0.7,0.28 P,0,204882,205482,A
Sprite,Foreground,Centre,"sb/d.png",0,0 M,4,204882,205482,79,334,5,263 F,0,204882,205482,1,0 S,0,204882,205482,0.7,0.28 P,0,204882,205482,A
Sprite,Foreground,Centre,"sb/d.png",0,0 M,4,205782,206382,171,141,24,124 F,0,205782,206382,1,0 S,0,205782,206382,0.7,0.28 P,0,205782,206382,A
Sprite,Foreground,Centre,"sb/d.png",0,0 M,4,205782,206382,171,141,109,242 F,0,205782,206382,1,0 S,0,205782,206382,0.7,0.28 P,0,205782,206382,A
Sprite,Foreground,Centre,"sb/d.png",0,0 M,4,205782,206382,171,141,267,150 F,0,205782,206382,1,0 S,0,205782,206382,0.7,0.28 P,0,205782,206382,A
Sprite,Foreground,Centre,"sb/d.png",0,0 M,4,205782,206382,171,141,306,51 F,0,205782,206382,1,0 S,0,205782,206382,0.7,0.28 P,0,205782,206382,A
Sprite,Foreground,Centre,"sb/d.png",0,0 M,4,205782,206382,171,141,304,246 F,0,205782,206382,1,0 S,0,205782,206382,0.7,0.28 P,0,205782,206382,A
Sprite,Foreground,Centre,"sb/d.png",0,0 M,4,205782,206382,171,141,289,131 F,0,205782,206382,1,0 S,0,205782,206382,0.7,0.28 P,0,205782,206382,A
Sprite,Foreground,Centre,"sb/d.png",0,0 M,4,205782,206382,171,141,274,97 F,0,205782,206382,1,0 S,0,205782,206382,0.7,0.28 P,0,205782,206382,A
Sprite,Foreground,Centre,"sb/d.png",0,0 M,4,206382,206982,278,266,293,207 F,0,206382,206982,1,0 S,0,206382,206982,0.7,0.28 P,0,206382,206982,A
Sprite,Foreground,Centre,"sb/d.png",0,0 M,4,206382,206982,278,266,253,233 F,0,206382,206982,1,0 S,0,206382,206982,0.7,0.28 P,0,206382,206982,A
Sprite,Foreground,Centre,"sb/d.png",0,0 M,4,206382,206982,278,266,254,314 F,0,206382,206982,1,0 S,0,206382,206982,0.7,0.28 P,0,206382,206982,A
Sprite,Foreground,Centre,"sb/d.png",0,0 M,4,206382,206982,278,266,308,395 F,0,206382,206982,1,0 S,0,206382,206982,0.7,0.28 P,0,206382,206982,A
Sprite,Foreground,Centre,"sb/d.png",0,0 M,4,206382,206982,278,266,401,205 F,0,206382,206982,1,0 S,0,206382,206982,0.7,0.28 P,0,206382,206982,A
Sprite,Foreground,Centre,"sb/d.png",0,0 M,4,206382,206982,278,266,332,218 F,0,206382,206982,1,0 S,0,206382,206982,0.7,0.28 P,0,206382,206982,A
Sprite,Foreground,Centre,"sb/d.png",0,0 M,4,206382,206982,278,266,268,355 F,0,206382,206982,1,0 S,0,206382,206982,0.7,0.28 P,0,206382,206982,A
Sprite,Foreground,Centre,"sb/d.png",0,0 M,4,207282,207882,448,167,363,289 F,0,207282,207882,1,0 S,0,207282,207882,0.7,0.28 P,0,207282,207882,A
Sprite,Foreground,Centre,"sb/d.png",0,0 M,4,207282,207882,448,167,453,275 F,0,207282,207882,1,0 S,0,207282,207882,0.7,0.28 P,0,207282,207882,A
Sprite,Foreground,Centre,"sb/d.png",0,0 M,4,207282,207882,448,167,582,98 F,0,207282,207882,1,0 S,0,207282,207882,0.7,0.28 P,0,207282,207882,A
Sprite,Foreground,Centre,"sb/d.png",0,0 M,4,207282,207882,448,167,447,115 F,0,207282,207882,1,0 S,0,207282,207882,0.7,0.28 P,0,207282,207882,A
Sprite,Foreground,Centre,"sb/d.png",0,0 M,4,207282,207882,448,167,354,95 F,0,207282,207882,1,0 S,0,207282,207882,0.7,0.28 P,0,207282,207882,A
Sprite,Foreground,Centre,"sb/d.png",0,0 M,4,207282,207882,448,167,482,193 F,0,207282,207882,1,0 S,0,207282,207882,0.7,0.28 P,0,207282,207882,A
Sprite,Foreground,Centre,"sb/d.png",0,0 M,4,207282,207882,448,167,570,125 F,0,207282,207882,1,0 S,0,207282,207882,0.7,0.28 P,0,207282,207882,A
Sprite,Foreground,Centre,"sb/d.png",0,0 M,4,207882,208482,320,62,397,148 F,0,207882,208482,1,0 S,0,207882,208482,0.7,0.28 P,0,207882,208482,A
Sprite,Foreground,Centre,"sb/d.png",0,0 M,4,207882,208482,320,62,205,-58 F,0,207882,208482,1,0 S,0,207882,208482,0.7,0.28 P,0,207882,208482,A
Sprite,Foreground,Centre,"sb/d.png",0,0 M,4,207882,208482,320,62,354,103 F,0,207882,208482,1,0 S,0,207882,208482,0.7,0.28 P,0,207882,208482,A
Sprite,Foreground,Centre,"sb/d.png",0,0 M,4,207882,208482,320,62,341,156 F,0,207882,208482,1,0 S,0,207882,208482,0.7,0.28 P,0,207882,208482,A
Sprite,Foreground,Centre,"sb/d.png",0,0 M,4,207882,208482,320,62,429,-17 F,0,207882,208482,1,0 S,0,207882,208482,0.7,0.28 P,0,207882,208482,A
Sprite,Foreground,Centre,"sb/d.png",0,0 M,4,207882,208482,320,62,283,89 F,0,207882,208482,1,0 S,0,207882,208482,0.7,0.28 P,0,207882,208482,A
Sprite,Foreground,Centre,"sb/d.png",0,0 M,4,207882,208482,320,62,369,-64 F,0,207882,208482,1,0 S,0,207882,208482,0.7,0.28 P,0,207882,208482,A
Sprite,Foreground,Centre,"sb/d.png",0,0 M,4,208482,209082,229,199,238,347 F,0,208482,209082,1,0 S,0,208482,209082,0.7,0.28 P,0,208482,209082,A
Sprite,Foreground,Centre,"sb/d.png",0,0 M,4,208482,209082,229,199,126,193 F,0,208482,209082,1,0 S,0,208482,209082,0.7,0.28 P,0,208482,209082,A
Sprite,Foreground,Centre,"sb/d.png",0,0 M,4,208482,209082,229,199,98,94 F,0,208482,209082,1,0 S,0,208482,209082,0.7,0.28 P,0,208482,209082,A
Sprite,Foreground,Centre,"sb/d.png",0,0 M,4,208482,209082,229,199,374,59 F,0,208482,209082,1,0 S,0,208482,209082,0.7,0.28 P,0,208482,209082,A
Sprite,Foreground,Centre,"sb/d.png",0,0 M,4,208482,209082,229,199,178,59 F,0,208482,209082,1,0 S,0,208482,209082,0.7,0.28 P,0,208482,209082,A
Sprite,Foreground,Centre,"sb/d.png",0,0 M,4,208482,209082,229,199,234,221 F,0,208482,209082,1,0 S,0,208482,209082,0.7,0.28 P,0,208482,209082,A
Sprite,Foreground,Centre,"sb/d.png",0,0 M,4,208482,209082,229,199,336,116 F,0,208482,209082,1,0 S,0,208482,209082,0.7,0.28 P,0,208482,209082,A
Sprite,Foreground,Centre,"sb/d.png",0,0 M,4,208782,209382,157,157,41,54 F,0,208782,209382,1,0 S,0,208782,209382,0.7,0.28 P,0,208782,209382,A
Sprite,Foreground,Centre,"sb/d.png",0,0 M,4,208782,209382,157,157,239,256 F,0,208782,209382,1,0 S,0,208782,209382,0.7,0.28 P,0,208782,209382,A
Sprite,Foreground,Centre,"sb/d.png",0,0 M,4,208782,209382,157,157,233,79 F,0,208782,209382,1,0 S,0,208782,209382,0.7,0.28 P,0,208782,209382,A
Sprite,Foreground,Centre,"sb/d.png",0,0 M,4,208782,209382,157,157,59,44 F,0,208782,209382,1,0 S,0,208782,209382,0.7,0.28 P,0,208782,209382,A
Sprite,Foreground,Centre,"sb/d.png",0,0 M,4,208782,209382,157,157,60,180 F,0,208782,209382,1,0 S,0,208782,209382,0.7,0.28 P,0,208782,209382,A
Sprite,Foreground,Centre,"sb/d.png",0,0 M,4,208782,209382,157,157,225,255 F,0,208782,209382,1,0 S,0,208782,209382,0.7,0.28 P,0,208782,209382,A
Sprite,Foreground,Centre,"sb/d.png",0,0 M,4,208782,209382,157,157,75,127 F,0,208782,209382,1,0 S,0,208782,209382,0.7,0.28 P,0,208782,209382,A
Sprite,Foreground,Centre,"sb/d.png",0,0 M,4,210282,210882,131,319,-6,253 F,0,210282,210882,1,0 S,0,210282,210882,0.7,0.28 P,0,210282,210882,A
Sprite,Foreground,Centre,"sb/d.png",0,0 M,4,210282,210882,131,319,126,276 F,0,210282,210882,1,0 S,0,210282,210882,0.7,0.28 P,0,210282,210882,A
Sprite,Foreground,Centre,"sb/d.png",0,0 M,4,210282,210882,131,319,163,293 F,0,210282,210882,1,0 S,0,210282,210882,0.7,0.28 P,0,210282,210882,A
Sprite,Foreground,Centre,"sb/d.png",0,0 M,4,210282,210882,131,319,219,226 F,0,210282,210882,1,0 S,0,210282,210882,0.7,0.28 P,0,210282,210882,A
Sprite,Foreground,Centre,"sb/d.png",0,0 M,4,210282,210882,131,319,11,209 F,0,210282,210882,1,0 S,0,210282,210882,0.7,0.28 P,0,210282,210882,A
Sprite,Foreground,Centre,"sb/d.png",0,0 M,4,210282,210882,131,319,138,395 F,0,210282,210882,1,0 S,0,210282,210882,0.7,0.28 P,0,210282,210882,A
Sprite,Foreground,Centre,"sb/d.png",0,0 M,4,210282,210882,131,319,93,385 F,0,210282,210882,1,0 S,0,210282,210882,0.7,0.28 P,0,210282,210882,A
Sprite,Foreground,Centre,"sb/d.png",0,0 M,4,210582,211182,185,381,172,256 F,0,210582,211182,1,0 S,0,210582,211182,0.7,0.28 P,0,210582,211182,A
Sprite,Foreground,Centre,"sb/d.png",0,0 M,4,210582,211182,185,381,210,243 F,0,210582,211182,1,0 S,0,210582,211182,0.7,0.28 P,0,210582,211182,A
Sprite,Foreground,Centre,"sb/d.png",0,0 M,4,210582,211182,185,381,268,334 F,0,210582,211182,1,0 S,0,210582,211182,0.7,0.28 P,0,210582,211182,A
Sprite,Foreground,Centre,"sb/d.png",0,0 M,4,210582,211182,185,381,244,443 F,0,210582,211182,1,0 S,0,210582,211182,0.7,0.28 P,0,210582,211182,A
Sprite,Foreground,Centre,"sb/d.png",0,0 M,4,210582,211182,185,381,174,394 F,0,210582,211182,1,0 S,0,210582,211182,0.7,0.28 P,0,210582,211182,A
Sprite,Foreground,Centre,"sb/d.png",0,0 M,4,210582,211182,185,381,286,357 F,0,210582,211182,1,0 S,0,210582,211182,0.7,0.28 P,0,210582,211182,A
Sprite,Foreground,Centre,"sb/d.png",0,0 M,4,210582,211182,185,381,306,353 F,0,210582,211182,1,0 S,0,210582,211182,0.7,0.28 P,0,210582,211182,A
Sprite,Foreground,Centre,"sb/d.png",0,0 M,4,211182,211782,307,309,401,333 F,0,211182,211782,1,0 S,0,211182,211782,0.7,0.28 P,0,211182,211782,A
Sprite,Foreground,Centre,"sb/d.png",0,0 M,4,211182,211782,307,309,382,229 F,0,211182,211782,1,0 S,0,211182,211782,0.7,0.28 P,0,211182,211782,A
Sprite,Foreground,Centre,"sb/d.png",0,0 M,4,211182,211782,307,309,434,334 F,0,211182,211782,1,0 S,0,211182,211782,0.7,0.28 P,0,211182,211782,A
Sprite,Foreground,Centre,"sb/d.png",0,0 M,4,211182,211782,307,309,454,174 F,0,211182,211782,1,0 S,0,211182,211782,0.7,0.28 P,0,211182,211782,A
Sprite,Foreground,Centre,"sb/d.png",0,0 M,4,211182,211782,307,309,321,207 F,0,211182,211782,1,0 S,0,211182,211782,0.7,0.28 P,0,211182,211782,A
Sprite,Foreground,Centre,"sb/d.png",0,0 M,4,211182,211782,307,309,446,291 F,0,211182,211782,1,0 S,0,211182,211782,0.7,0.28 P,0,211182,211782,A
Sprite,Foreground,Centre,"sb/d.png",0,0 M,4,211182,211782,307,309,286,436 F,0,211182,211782,1,0 S,0,211182,211782,0.7,0.28 P,0,211182,211782,A
Sprite,Foreground,Centre,"sb/d.png",0,0 M,4,212682,213282,428,420,294,462 F,0,212682,213282,1,0 S,0,212682,213282,0.7,0.28 P,0,212682,213282,A
Sprite,Foreground,Centre,"sb/d.png",0,0 M,4,212682,213282,428,420,370,569 F,0,212682,213282,1,0 S,0,212682,213282,0.7,0.28 P,0,212682,213282,A
Sprite,Foreground,Centre,"sb/d.png",0,0 M,4,212682,213282,428,420,537,406 F,0,212682,213282,1,0 S,0,212682,213282,0.7,0.28 P,0,212682,213282,A
Sprite,Foreground,Centre,"sb/d.png",0,0 M,4,212682,213282,428,420,478,298 F,0,212682,213282,1,0 S,0,212682,213282,0.7,0.28 P,0,212682,213282,A
Sprite,Foreground,Centre,"sb/d.png",0,0 M,4,212682,213282,428,420,575,476 F,0,212682,213282,1,0 S,0,212682,213282,0.7,0.28 P,0,212682,213282,A
Sprite,Foreground,Centre,"sb/d.png",0,0 M,4,212682,213282,428,420,293,534 F,0,212682,213282,1,0 S,0,212682,213282,0.7,0.28 P,0,212682,213282,A
Sprite,Foreground,Centre,"sb/d.png",0,0 M,4,212682,213282,428,420,488,371 F,0,212682,213282,1,0 S,0,212682,213282,0.7,0.28 P,0,212682,213282,A
Sprite,Foreground,Centre,"sb/d.png",0,0 M,4,212982,213582,448,340,542,471 F,0,212982,213582,1,0 S,0,212982,213582,0.7,0.28 P,0,212982,213582,A
Sprite,Foreground,Centre,"sb/d.png",0,0 M,4,212982,213582,448,340,453,245 F,0,212982,213582,1,0 S,0,212982,213582,0.7,0.28 P,0,212982,213582,A
Sprite,Foreground,Centre,"sb/d.png",0,0 M,4,212982,213582,448,340,451,305 F,0,212982,213582,1,0 S,0,212982,213582,0.7,0.28 P,0,212982,213582,A
Sprite,Foreground,Centre,"sb/d.png",0,0 M,4,212982,213582,448,340,411,346 F,0,212982,213582,1,0 S,0,212982,213582,0.7,0.28 P,0,212982,213582,A
Sprite,Foreground,Centre,"sb/d.png",0,0 M,4,212982,213582,448,340,413,277 F,0,212982,213582,1,0 S,0,212982,213582,0.7,0.28 P,0,212982,213582,A
Sprite,Foreground,Centre,"sb/d.png",0,0 M,4,212982,213582,448,340,547,427 F,0,212982,213582,1,0 S,0,212982,213582,0.7,0.28 P,0,212982,213582,A
Sprite,Foreground,Centre,"sb/d.png",0,0 M,4,212982,213582,448,340,516,311 F,0,212982,213582,1,0 S,0,212982,213582,0.7,0.28 P,0,212982,213582,A
Sprite,Foreground,Centre,"sb/d.png",0,0 M,4,213282,213882,386,285,396,262 F,0,213282,213882,1,0 S,0,213282,213882,0.7,0.28 P,0,213282,213882,A
Sprite,Foreground,Centre,"sb/d.png",0,0 M,4,213282,213882,386,285,258,235 F,0,213282,213882,1,0 S,0,213282,213882,0.7,0.28 P,0,213282,213882,A
Sprite,Foreground,Centre,"sb/d.png",0,0 M,4,213282,213882,386,285,510,367 F,0,213282,213882,1,0 S,0,213282,213882,0.7,0.28 P,0,213282,213882,A
Sprite,Foreground,Centre,"sb/d.png",0,0 M,4,213282,213882,386,285,431,382 F,0,213282,213882,1,0 S,0,213282,213882,0.7,0.28 P,0,213282,213882,A
Sprite,Foreground,Centre,"sb/d.png",0,0 M,4,213282,213882,386,285,307,386 F,0,213282,213882,1,0 S,0,213282,213882,0.7,0.28 P,0,213282,213882,A
Sprite,Foreground,Centre,"sb/d.png",0,0 M,4,213282,213882,386,285,403,270 F,0,213282,213882,1,0 S,0,213282,213882,0.7,0.28 P,0,213282,213882,A
Sprite,Foreground,Centre,"sb/d.png",0,0 M,4,213282,213882,386,285,458,351 F,0,213282,213882,1,0 S,0,213282,213882,0.7,0.28 P,0,213282,213882,A
Sprite,Foreground,Centre,"sb/d.png",0,0 M,4,213582,214182,307,309,333,177 F,0,213582,214182,1,0 S,0,213582,214182,0.7,0.28 P,0,213582,214182,A
Sprite,Foreground,Centre,"sb/d.png",0,0 M,4,213582,214182,307,309,211,171 F,0,213582,214182,1,0 S,0,213582,214182,0.7,0.28 P,0,213582,214182,A
Sprite,Foreground,Centre,"sb/d.png",0,0 M,4,213582,214182,307,309,422,355 F,0,213582,214182,1,0 S,0,213582,214182,0.7,0.28 P,0,213582,214182,A
Sprite,Foreground,Centre,"sb/d.png",0,0 M,4,213582,214182,307,309,227,341 F,0,213582,214182,1,0 S,0,213582,214182,0.7,0.28 P,0,213582,214182,A
Sprite,Foreground,Centre,"sb/d.png",0,0 M,4,213582,214182,307,309,349,393 F,0,213582,214182,1,0 S,0,213582,214182,0.7,0.28 P,0,213582,214182,A
Sprite,Foreground,Centre,"sb/d.png",0,0 M,4,213582,214182,307,309,436,172 F,0,213582,214182,1,0 S,0,213582,214182,0.7,0.28 P,0,213582,214182,A
Sprite,Foreground,Centre,"sb/d.png",0,0 M,4,213582,214182,307,309,320,319 F,0,213582,214182,1,0 S,0,213582,214182,0.7,0.28 P,0,213582,214182,A
Sprite,Foreground,Centre,"sb/d.png",0,0 M,4,214782,215382,329,134,256,-11 F,0,214782,215382,1,0 S,0,214782,215382,0.7,0.28 P,0,214782,215382,A
Sprite,Foreground,Centre,"sb/d.png",0,0 M,4,214782,215382,329,134,229,6 F,0,214782,215382,1,0 S,0,214782,215382,0.7,0.28 P,0,214782,215382,A
Sprite,Foreground,Centre,"sb/d.png",0,0 M,4,214782,215382,329,134,396,62 F,0,214782,215382,1,0 S,0,214782,215382,0.7,0.28 P,0,214782,215382,A
Sprite,Foreground,Centre,"sb/d.png",0,0 M,4,214782,215382,329,134,346,154 F,0,214782,215382,1,0 S,0,214782,215382,0.7,0.28 P,0,214782,215382,A
Sprite,Foreground,Centre,"sb/d.png",0,0 M,4,214782,215382,329,134,363,199 F,0,214782,215382,1,0 S,0,214782,215382,0.7,0.28 P,0,214782,215382,A
Sprite,Foreground,Centre,"sb/d.png",0,0 M,4,214782,215382,329,134,468,261 F,0,214782,215382,1,0 S,0,214782,215382,0.7,0.28 P,0,214782,215382,A
Sprite,Foreground,Centre,"sb/d.png",0,0 M,4,214782,215382,329,134,384,281 F,0,214782,215382,1,0 S,0,214782,215382,0.7,0.28 P,0,214782,215382,A
Sprite,Foreground,Centre,"sb/d.png",0,0 M,4,215382,215982,445,73,505,127 F,0,215382,215982,1,0 S,0,215382,215982,0.7,0.28 P,0,215382,215982,A
Sprite,Foreground,Centre,"sb/d.png",0,0 M,4,215382,215982,445,73,482,-60 F,0,215382,215982,1,0 S,0,215382,215982,0.7,0.28 P,0,215382,215982,A
Sprite,Foreground,Centre,"sb/d.png",0,0 M,4,215382,215982,445,73,487,119 F,0,215382,215982,1,0 S,0,215382,215982,0.7,0.28 P,0,215382,215982,A
Sprite,Foreground,Centre,"sb/d.png",0,0 M,4,215382,215982,445,73,574,19 F,0,215382,215982,1,0 S,0,215382,215982,0.7,0.28 P,0,215382,215982,A
Sprite,Foreground,Centre,"sb/d.png",0,0 M,4,215382,215982,445,73,327,160 F,0,215382,215982,1,0 S,0,215382,215982,0.7,0.28 P,0,215382,215982,A
Sprite,Foreground,Centre,"sb/d.png",0,0 M,4,215382,215982,445,73,566,-55 F,0,215382,215982,1,0 S,0,215382,215982,0.7,0.28 P,0,215382,215982,A
Sprite,Foreground,Centre,"sb/d.png",0,0 M,4,215382,215982,445,73,345,200 F,0,215382,215982,1,0 S,0,215382,215982,0.7,0.28 P,0,215382,215982,A
Sprite,Foreground,Centre,"sb/d.png",0,0 M,4,215982,216582,575,120,660,57 F,0,215982,216582,1,0 S,0,215982,216582,0.7,0.28 P,0,215982,216582,A
Sprite,Foreground,Centre,"sb/d.png",0,0 M,4,215982,216582,575,120,545,231 F,0,215982,216582,1,0 S,0,215982,216582,0.7,0.28 P,0,215982,216582,A
Sprite,Foreground,Centre,"sb/d.png",0,0 M,4,215982,216582,575,120,494,5 F,0,215982,216582,1,0 S,0,215982,216582,0.7,0.28 P,0,215982,216582,A
Sprite,Foreground,Centre,"sb/d.png",0,0 M,4,215982,216582,575,120,594,35 F,0,215982,216582,1,0 S,0,215982,216582,0.7,0.28 P,0,215982,216582,A
Sprite,Foreground,Centre,"sb/d.png",0,0 M,4,215982,216582,575,120,626,114 F,0,215982,216582,1,0 S,0,215982,216582,0.7,0.28 P,0,215982,216582,A
Sprite,Foreground,Centre,"sb/d.png",0,0 M,4,215982,216582,575,120,642,114 F,0,215982,216582,1,0 S,0,215982,216582,0.7,0.28 P,0,215982,216582,A
Sprite,Foreground,Centre,"sb/d.png",0,0 M,4,215982,216582,575,120,473,-24 F,0,215982,216582,1,0 S,0,215982,216582,0.7,0.28 P,0,215982,216582,A
Sprite,Foreground,Centre,"sb/d.png",0,0 M,4,216882,217482,544,350,528,339 F,0,216882,217482,1,0 S,0,216882,217482,0.7,0.28 P,0,216882,217482,A
Sprite,Foreground,Centre,"sb/d.png",0,0 M,4,216882,217482,544,350,416,487 F,0,216882,217482,1,0 S,0,216882,217482,0.7,0.28 P,0,216882,217482,A
Sprite,Foreground,Centre,"sb/d.png",0,0 M,4,216882,217482,544,350,684,273 F,0,216882,217482,1,0 S,0,216882,217482,0.7,0.28 P,0,216882,217482,A
Sprite,Foreground,Centre,"sb/d.png",0,0 M,4,216882,217482,544,350,665,488 F,0,216882,217482,1,0 S,0,216882,217482,0.7,0.28 P,0,216882,217482,A
Sprite,Foreground,Centre,"sb/d.png",0,0 M,4,216882,217482,544,350,440,462 F,0,216882,217482,1,0 S,0,216882,217482,0.7,0.28 P,0,216882,217482,A
Sprite,Foreground,Centre,"sb/d.png",0,0 M,4,216882,217482,544,350,515,466 F,0,216882,217482,1,0 S,0,216882,217482,0.7,0.28 P,0,216882,217482,A
Sprite,Foreground,Centre,"sb/d.png",0,0 M,4,216882,217482,544,350,574,480 F,0,216882,217482,1,0 S,0,216882,217482,0.7,0.28 P,0,216882,217482,A
Sprite,Foreground,Centre,"sb/d.png",0,0 M,4,217482,218082,400,267,522,229 F,0,217482,218082,1,0 S,0,217482,218082,0.7,0.28 P,0,217482,218082,A
Sprite,Foreground,Centre,"sb/d.png",0,0 M,4,217482,218082,400,267,300,312 F,0,217482,218082,1,0 S,0,217482,218082,0.7,0.28 P,0,217482,218082,A
Sprite,Foreground,Centre,"sb/d.png",0,0 M,4,217482,218082,400,267,277,306 F,0,217482,218082,1,0 S,0,217482,218082,0.7,0.28 P,0,217482,218082,A
Sprite,Foreground,Centre,"sb/d.png",0,0 M,4,217482,218082,400,267,485,213 F,0,217482,218082,1,0 S,0,217482,218082,0.7,0.28 P,0,217482,218082,A
Sprite,Foreground,Centre,"sb/d.png",0,0 M,4,217482,218082,400,267,344,145 F,0,217482,218082,1,0 S,0,217482,218082,0.7,0.28 P,0,217482,218082,A
Sprite,Foreground,Centre,"sb/d.png",0,0 M,4,217482,218082,400,267,458,287 F,0,217482,218082,1,0 S,0,217482,218082,0.7,0.28 P,0,217482,218082,A
Sprite,Foreground,Centre,"sb/d.png",0,0 M,4,217482,218082,400,267,377,262 F,0,217482,218082,1,0 S,0,217482,218082,0.7,0.28 P,0,217482,218082,A
Sprite,Foreground,Centre,"sb/d.png",0,0 M,4,218082,218682,271,344,123,237 F,0,218082,218682,1,0 S,0,218082,218682,0.7,0.28 P,0,218082,218682,A
Sprite,Foreground,Centre,"sb/d.png",0,0 M,4,218082,218682,271,344,221,242 F,0,218082,218682,1,0 S,0,218082,218682,0.7,0.28 P,0,218082,218682,A
Sprite,Foreground,Centre,"sb/d.png",0,0 M,4,218082,218682,271,344,269,467 F,0,218082,218682,1,0 S,0,218082,218682,0.7,0.28 P,0,218082,218682,A
Sprite,Foreground,Centre,"sb/d.png",0,0 M,4,218082,218682,271,344,382,386 F,0,218082,218682,1,0 S,0,218082,218682,0.7,0.28 P,0,218082,218682,A
Sprite,Foreground,Centre,"sb/d.png",0,0 M,4,218082,218682,271,344,335,478 F,0,218082,218682,1,0 S,0,218082,218682,0.7,0.28 P,0,218082,218682,A
Sprite,Foreground,Centre,"sb/d.png",0,0 M,4,218082,218682,271,344,152,471 F,0,218082,218682,1,0 S,0,218082,218682,0.7,0.28 P,0,218082,218682,A
Sprite,Foreground,Centre,"sb/d.png",0,0 M,4,218082,218682,271,344,127,440 F,0,218082,218682,1,0 S,0,218082,218682,0.7,0.28 P,0,218082,218682,A
Sprite,Foreground,Centre,"sb/d.png",0,0 M,4,218382,218982,209,288,100,296 F,0,218382,218982,1,0 S,0,218382,218982,0.7,0.28 P,0,218382,218982,A
Sprite,Foreground,Centre,"sb/d.png",0,0 M,4,218382,218982,209,288,199,240 F,0,218382,218982,1,0 S,0,218382,218982,0.7,0.28 P,0,218382,218982,A
Sprite,Foreground,Centre,"sb/d.png",0,0 M,4,218382,218982,209,288,213,326 F,0,218382,218982,1,0 S,0,218382,218982,0.7,0.28 P,0,218382,218982,A
Sprite,Foreground,Centre,"sb/d.png",0,0 M,4,218382,218982,209,288,152,226 F,0,218382,218982,1,0 S,0,218382,218982,0.7,0.28 P,0,218382,218982,A
Sprite,Foreground,Centre,"sb/d.png",0,0 M,4,218382,218982,209,288,153,160 F,0,218382,218982,1,0 S,0,218382,218982,0.7,0.28 P,0,218382,218982,A
Sprite,Foreground,Centre,"sb/d.png",0,0 M,4,218382,218982,209,288,175,297 F,0,218382,218982,1,0 S,0,218382,218982,0.7,0.28 P,0,218382,218982,A
Sprite,Foreground,Centre,"sb/d.png",0,0 M,4,218382,218982,209,288,130,175 F,0,218382,218982,1,0 S,0,218382,218982,0.7,0.28 P,0,218382,218982,A
Sprite,Foreground,Centre,"sb/d.png",0,0 M,4,219882,220482,341,386,236,529 F,0,219882,220482,1,0 S,0,219882,220482,0.7,0.28 P,0,219882,220482,A
Sprite,Foreground,Centre,"sb/d.png",0,0 M,4,219882,220482,341,386,270,356 F,0,219882,220482,1,0 S,0,219882,220482,0.7,0.28 P,0,219882,220482,A
Sprite,Foreground,Centre,"sb/d.png",0,0 M,4,219882,220482,341,386,436,362 F,0,219882,220482,1,0 S,0,219882,220482,0.7,0.28 P,0,219882,220482,A
Sprite,Foreground,Centre,"sb/d.png",0,0 M,4,219882,220482,341,386,476,239 F,0,219882,220482,1,0 S,0,219882,220482,0.7,0.28 P,0,219882,220482,A
Sprite,Foreground,Centre,"sb/d.png",0,0 M,4,219882,220482,341,386,352,308 F,0,219882,220482,1,0 S,0,219882,220482,0.7,0.28 P,0,219882,220482,A
Sprite,Foreground,Centre,"sb/d.png",0,0 M,4,219882,220482,341,386,309,443 F,0,219882,220482,1,0 S,0,219882,220482,0.7,0.28 P,0,219882,220482,A
Sprite,Foreground,Centre,"sb/d.png",0,0 M,4,219882,220482,341,386,210,316 F,0,219882,220482,1,0 S,0,219882,220482,0.7,0.28 P,0,219882,220482,A
Sprite,Foreground,Centre,"sb/d.png",0,0 M,4,220182,220782,420,362,467,278 F,0,220182,220782,1,0 S,0,220182,220782,0.7,0.28 P,0,220182,220782,A
Sprite,Foreground,Centre,"sb/d.png",0,0 M,4,220182,220782,420,362,433,262 F,0,220182,220782,1,0 S,0,220182,220782,0.7,0.28 P,0,220182,220782,A
Sprite,Foreground,Centre,"sb/d.png",0,0 M,4,220182,220782,420,362,453,500 F,0,220182,220782,1,0 S,0,220182,220782,0.7,0.28 P,0,220182,220782,A
Sprite,Foreground,Centre,"sb/d.png",0,0 M,4,220182,220782,420,362,325,448 F,0,220182,220782,1,0 S,0,220182,220782,0.7,0.28 P,0,220182,220782,A
Sprite,Foreground,Centre,"sb/d.png",0,0 M,4,220182,220782,420,362,458,318 F,0,220182,220782,1,0 S,0,220182,220782,0.7,0.28 P,0,220182,220782,A
Sprite,Foreground,Centre,"sb/d.png",0,0 M,4,220182,220782,420,362,285,450 F,0,220182,220782,1,0 S,0,220182,220782,0.7,0.28 P,0,220182,220782,A
Sprite,Foreground,Centre,"sb/d.png",0,0 M,4,220182,220782,420,362,321,425 F,0,220182,220782,1,0 S,0,220182,220782,0.7,0.28 P,0,220182,220782,A
Sprite,Foreground,Centre,"sb/d.png",0,0 M,4,220482,221082,469,295,567,223 F,0,220482,221082,1,0 S,0,220482,221082,0.7,0.28 P,0,220482,221082,A
Sprite,Foreground,Centre,"sb/d.png",0,0 M,4,220482,221082,469,295,551,433 F,0,220482,221082,1,0 S,0,220482,221082,0.7,0.28 P,0,220482,221082,A
Sprite,Foreground,Centre,"sb/d.png",0,0 M,4,220482,221082,469,295,521,369 F,0,220482,221082,1,0 S,0,220482,221082,0.7,0.28 P,0,220482,221082,A
Sprite,Foreground,Centre,"sb/d.png",0,0 M,4,220482,221082,469,295,466,365 F,0,220482,221082,1,0 S,0,220482,221082,0.7,0.28 P,0,220482,221082,A
Sprite,Foreground,Centre,"sb/d.png",0,0 M,4,220482,221082,469,295,523,356 F,0,220482,221082,1,0 S,0,220482,221082,0.7,0.28 P,0,220482,221082,A
Sprite,Foreground,Centre,"sb/d.png",0,0 M,4,220482,221082,469,295,351,324 F,0,220482,221082,1,0 S,0,220482,221082,0.7,0.28 P,0,220482,221082,A
Sprite,Foreground,Centre,"sb/d.png",0,0 M,4,220482,221082,469,295,579,182 F,0,220482,221082,1,0 S,0,220482,221082,0.7,0.28 P,0,220482,221082,A
Sprite,Foreground,Centre,"sb/d.png",0,0 M,4,220782,221382,461,212,607,129 F,0,220782,221382,1,0 S,0,220782,221382,0.7,0.28 P,0,220782,221382,A
Sprite,Foreground,Centre,"sb/d.png",0,0 M,4,220782,221382,461,212,594,309 F,0,220782,221382,1,0 S,0,220782,221382,0.7,0.28 P,0,220782,221382,A
Sprite,Foreground,Centre,"sb/d.png",0,0 M,4,220782,221382,461,212,480,75 F,0,220782,221382,1,0 S,0,220782,221382,0.7,0.28 P,0,220782,221382,A
Sprite,Foreground,Centre,"sb/d.png",0,0 M,4,220782,221382,461,212,501,90 F,0,220782,221382,1,0 S,0,220782,221382,0.7,0.28 P,0,220782,221382,A
Sprite,Foreground,Centre,"sb/d.png",0,0 M,4,220782,221382,461,212,469,127 F,0,220782,221382,1,0 S,0,220782,221382,0.7,0.28 P,0,220782,221382,A
Sprite,Foreground,Centre,"sb/d.png",0,0 M,4,220782,221382,461,212,586,144 F,0,220782,221382,1,0 S,0,220782,221382,0.7,0.28 P,0,220782,221382,A
Sprite,Foreground,Centre,"sb/d.png",0,0 M,4,220782,221382,461,212,593,171 F,0,220782,221382,1,0 S,0,220782,221382,0.7,0.28 P,0,220782,221382,A
Sprite,Foreground,Centre,"sb/d.png",0,0 M,4,222282,222882,438,375,393,498 F,0,222282,222882,1,0 S,0,222282,222882,0.7,0.28 P,0,222282,222882,A
Sprite,Foreground,Centre,"sb/d.png",0,0 M,4,222282,222882,438,375,393,231 F,0,222282,222882,1,0 S,0,222282,222882,0.7,0.28 P,0,222282,222882,A
Sprite,Foreground,Centre,"sb/d.png",0,0 M,4,222282,222882,438,375,363,297 F,0,222282,222882,1,0 S,0,222282,222882,0.7,0.28 P,0,222282,222882,A
Sprite,Foreground,Centre,"sb/d.png",0,0 M,4,222282,222882,438,375,342,308 F,0,222282,222882,1,0 S,0,222282,222882,0.7,0.28 P,0,222282,222882,A
Sprite,Foreground,Centre,"sb/d.png",0,0 M,4,222282,222882,438,375,428,354 F,0,222282,222882,1,0 S,0,222282,222882,0.7,0.28 P,0,222282,222882,A
Sprite,Foreground,Centre,"sb/d.png",0,0 M,4,222282,222882,438,375,292,319 F,0,222282,222882,1,0 S,0,222282,222882,0.7,0.28 P,0,222282,222882,A
Sprite,Foreground,Centre,"sb/d.png",0,0 M,4,222282,222882,438,375,520,502 F,0,222282,222882,1,0 S,0,222282,222882,0.7,0.28 P,0,222282,222882,A
Sprite,Foreground,Centre,"sb/d.png",0,0 M,4,222582,223182,371,326,382,428 F,0,222582,223182,1,0 S,0,222582,223182,0.7,0.28 P,0,222582,223182,A
Sprite,Foreground,Centre,"sb/d.png",0,0 M,4,222582,223182,371,326,239,180 F,0,222582,223182,1,0 S,0,222582,223182,0.7,0.28 P,0,222582,223182,A
Sprite,Foreground,Centre,"sb/d.png",0,0 M,4,222582,223182,371,326,248,193 F,0,222582,223182,1,0 S,0,222582,223182,0.7,0.28 P,0,222582,223182,A
Sprite,Foreground,Centre,"sb/d.png",0,0 M,4,222582,223182,371,326,460,296 F,0,222582,223182,1,0 S,0,222582,223182,0.7,0.28 P,0,222582,223182,A
Sprite,Foreground,Centre,"sb/d.png",0,0 M,4,222582,223182,371,326,343,243 F,0,222582,223182,1,0 S,0,222582,223182,0.7,0.28 P,0,222582,223182,A
Sprite,Foreground,Centre,"sb/d.png",0,0 M,4,222582,223182,371,326,289,214 F,0,222582,223182,1,0 S,0,222582,223182,0.7,0.28 P,0,222582,223182,A
Sprite,Foreground,Centre,"sb/d.png",0,0 M,4,222582,223182,371,326,243,396 F,0,222582,223182,1,0 S,0,222582,223182,0.7,0.28 P,0,222582,223182,A
Sprite,Foreground,Centre,"sb/d.png",0,0 M,4,223182,223782,263,425,333,441 F,0,223182,223782,1,0 S,0,223182,223782,0.7,0.28 P,0,223182,223782,A
Sprite,Foreground,Centre,"sb/d.png",0,0 M,4,223182,223782,263,425,126,394 F,0,223182,223782,1,0 S,0,223182,223782,0.7,0.28 P,0,223182,223782,A
Sprite,Foreground,Centre,"sb/d.png",0,0 M,4,223182,223782,263,425,354,313 F,0,223182,223782,1,0 S,0,223182,223782,0.7,0.28 P,0,223182,223782,A
Sprite,Foreground,Centre,"sb/d.png",0,0 M,4,223182,223782,263,425,228,505 F,0,223182,223782,1,0 S,0,223182,223782,0.7,0.28 P,0,223182,223782,A
Sprite,Foreground,Centre,"sb/d.png",0,0 M,4,223182,223782,263,425,219,300 F,0,223182,223782,1,0 S,0,223182,223782,0.7,0.28 P,0,223182,223782,A
Sprite,Foreground,Centre,"sb/d.png",0,0 M,4,223182,223782,263,425,217,463 F,0,223182,223782,1,0 S,0,223182,223782,0.7,0.28 P,0,223182,223782,A
Sprite,Foreground,Centre,"sb/d.png",0,0 M,4,223182,223782,263,425,395,487 F,0,223182,223782,1,0 S,0,223182,223782,0.7,0.28 P,0,223182,223782,A
Sprite,Foreground,Centre,"sb/d.png",0,0 M,4,224082,224682,67,316,143,319 F,0,224082,224682,1,0 S,0,224082,224682,0.7,0.28 P,0,224082,224682,A
Sprite,Foreground,Centre,"sb/d.png",0,0 M,4,224082,224682,67,316,159,240 F,0,224082,224682,1,0 S,0,224082,224682,0.7,0.28 P,0,224082,224682,A
Sprite,Foreground,Centre,"sb/d.png",0,0 M,4,224082,224682,67,316,-3,379 F,0,224082,224682,1,0 S,0,224082,224682,0.7,0.28 P,0,224082,224682,A
Sprite,Foreground,Centre,"sb/d.png",0,0 M,4,224082,224682,67,316,83,371 F,0,224082,224682,1,0 S,0,224082,224682,0.7,0.28 P,0,224082,224682,A
Sprite,Foreground,Centre,"sb/d.png",0,0 M,4,224082,224682,67,316,-36,436 F,0,224082,224682,1,0 S,0,224082,224682,0.7,0.28 P,0,224082,224682,A
Sprite,Foreground,Centre,"sb/d.png",0,0 M,4,224082,224682,67,316,-29,430 F,0,224082,224682,1,0 S,0,224082,224682,0.7,0.28 P,0,224082,224682,A
Sprite,Foreground,Centre,"sb/d.png",0,0 M,4,224082,224682,67,316,86,450 F,0,224082,224682,1,0 S,0,224082,224682,0.7,0.28 P,0,224082,224682,A
Sprite,Foreground,Centre,"sb/d.png",0,0 M,4,224981,225581,262,204,262,91 F,0,224981,225581,1,0 S,0,224981,225581,0.7,0.28 P,0,224981,225581,A
Sprite,Foreground,Centre,"sb/d.png",0,0 M,4,224981,225581,262,204,349,90 F,0,224981,225581,1,0 S,0,224981,225581,0.7,0.28 P,0,224981,225581,A
Sprite,Foreground,Centre,"sb/d.png",0,0 M,4,224981,225581,262,204,161,188 F,0,224981,225581,1,0 S,0,224981,225581,0.7,0.28 P,0,224981,225581,A
Sprite,Foreground,Centre,"sb/d.png",0,0 M,4,224981,225581,262,204,275,328 F,0,224981,225581,1,0 S,0,224981,225581,0.7,0.28 P,0,224981,225581,A
Sprite,Foreground,Centre,"sb/d.png",0,0 M,4,224981,225581,262,204,228,239 F,0,224981,225581,1,0 S,0,224981,225581,0.7,0.28 P,0,224981,225581,A
Sprite,Foreground,Centre,"sb/d.png",0,0 M,4,224981,225581,262,204,265,248 F,0,224981,225581,1,0 S,0,224981,225581,0.7,0.28 P,0,224981,225581,A
Sprite,Foreground,Centre,"sb/d.png",0,0 M,4,224981,225581,262,204,273,284 F,0,224981,225581,1,0 S,0,224981,225581,0.7,0.28 P,0,224981,225581,A
//Storyboard Sound Samples

[TimingPoints]
9582,300,4,2,2,60,1,0
20637,319.148936170213,4,2,2,60,1,0
20956,315.789473684211,4,2,2,60,1,0
21271,310.077519379845,4,2,2,60,1,0
21582,300,4,2,2,65,1,0
21582,-100,4,2,2,65,0,0
40782,-100,4,2,2,55,0,0
50382,-100,4,2,2,60,0,0
59982,-100,4,2,1,85,0,0
76782,-100,4,2,1,75,0,0
78582,-100,4,2,1,70,0,0
79182,-100,4,2,1,60,0,0
97182,-100,4,2,1,60,0,0
98382,-100,4,2,1,75,0,0
112782,-100,4,2,1,65,0,0
114882,-100,4,2,2,65,0,0
117582,-100,4,2,1,75,0,0
124782,-100,4,2,2,65,0,0
127182,-100,4,2,1,75,0,0
131982,-100,4,2,1,65,0,0
139182,-100,4,2,2,45,0,0
167982,-100,4,2,2,55,0,0
184782,318.302387267904,4,2,2,35,1,0
184782,-95.2380952380952,4,2,2,35,0,0
184942,300,4,2,2,35,1,0
187182,300,4,2,1,80,1,1
187182,-100,4,2,1,80,0,1
203982,-100,4,2,1,80,0,0
206382,-100,4,2,1,80,0,1
223182,-100,4,2,1,75,0,0
225582,-100,4,2,1,75,0,0
244482,-100,4,2,1,65,0,0
244932,-100,4,2,1,65,0,0
245007,-100,4,2,1,5,0,0
245082,-100,4,2,1,35,0,0
249582,-100,4,2,1,5,0,0

[Colours]
Combo1 : 223,223,223
Combo2 : 149,255,218
Combo3 : 36,74,255

[HitObjects]
285,119,9582,6,0,P|250:109|202:110,1,75,6|2,0:2|0:0,0:0:0:0:
115,186,10332,2,0,L|125:313,2,112.5,2|2|2,0:0|0:0|0:0,0:0:0:0:
57,77,11682,6,0,P|24:91|-4:132,2,75,2|0|2,0:0|0:0|0:0,0:0:0:0:
173,120,12732,1,2,0:0:0:0:
281,59,13182,2,0,P|337:19|390:14,2,112.5,2|2|2,0:2|0:2|0:0,0:0:0:0:
265,140,14382,5,0,0:2:0:0:
400,295,15132,1,2,0:0:0:0:
294,359,15582,2,0,P|239:372|185:362,1,112.5,2|2,0:0|0:0,0:0:0:0:
87,286,16482,6,0,P|69:306|58:355,2,75,2|2|0,0:0|0:2|0:0,0:0:0:0:
197,229,17532,1,2,0:2:0:0:
85,175,17982,2,0,P|62:120|71:66,1,112.5,2|2,0:2|0:2,0:0:0:0:
220,1,19032,1,10,0:0:0:0:
281,112,21582,6,0,P|221:87|128:90,1,150,6|0,1:2|1:2,0:0:0:0:
61,121,22482,1,2,0:2:0:0:
25,195,22782,1,2,0:2:0:0:
125,326,23382,1,2,0:2:0:0:
187,172,23982,6,0,L|343:149,1,150,2|0,1:2|1:0,0:0:0:0:
417,140,24882,1,2,0:2:0:0:
484,187,25182,1,2,0:2:0:0:
425,341,25782,1,2,0:2:0:0:
288,249,26382,6,0,P|228:256|165:326,1,150,0|0,1:2|1:2,0:0:0:0:
91,349,27282,1,0,0:0:0:0:
27,296,27582,1,2,0:2:0:0:
133,170,28182,1,2,0:2:0:0:
273,255,28782,6,0,P|353:260|420:228,1,150,2|8,1:2|1:2,0:0:0:0:
437,152,29682,1,2,0:2:0:0:
329,27,30282,2,0,P|291:25|254:39,2,75,2|2|2,0:2|0:2|0:2,0:0:0:0:
404,59,31182,5,2,1:2:0:0:
265,264,32082,2,0,P|235:230|221:195,1,75,2|2,0:2|0:2,0:0:0:0:
158,152,32682,2,0,P|164:115|182:82,1,75,2|2,0:2|0:2,0:0:0:0:
242,24,33282,1,2,0:2:0:0:
302,80,33582,6,0,L|318:201,2,112.5,2|2|2,1:2|0:2|0:2,0:0:0:0:
456,21,35082,1,2,0:2:0:0:
512,83,35382,2,0,P|510:113|486:170,1,75,2|2,0:2|0:2,0:0:0:0:
426,201,35982,6,0,P|473:266|488:339,1,150,0|0,1:2|1:2,0:0:0:0:
418,378,36882,1,2,0:2:0:0:
274,297,37482,1,2,0:2:0:0:
192,309,37782,2,0,L|116:320,1,75,2|2,0:2|0:2,0:0:0:0:
40,291,38382,6,0,P|23:232|43:169,2,112.5,2|2|2,1:2|0:2|0:2,0:0:0:0:
204,317,39882,2,0,P|238:298|284:299,2,75,2|2|2,0:2|0:2|0:2,0:0:0:0:
131,356,40782,5,14,0:2:0:0:
35,350,50382,5,2,0:2:0:0:
19,268,50682,1,2,0:2:0:0:
96,122,51282,2,0,P|154:95|270:183,1,225,2|2,0:2|1:2,0:0:0:0:
236,343,52782,5,2,0:2:0:0:
313,370,53082,2,0,P|390:366|457:325,1,150,2|2,0:2|0:2,0:0:0:0:
487,255,53982,1,2,3:2:0:0:
433,99,54582,1,2,1:2:0:0:
354,74,54882,1,2,0:2:0:0:
230,183,55482,6,0,B|169:183|127:146|127:146|100:206|43:230,1,225,2|2,3:2|0:2,0:0:0:0:
51,309,56682,1,2,0:2:0:0:
203,370,57282,1,2,0:2:0:0:
266,317,57582,6,0,L|418:303,3,150,0|0|0|2,3:0|3:0|3:0|3:2,0:0:0:0:
506,165,59982,6,0,P|447:148|389:80,1,150,4|0,3:1|0:0,0:0:0:0:
367,3,60882,1,10,0:2:0:0:
296,45,61182,2,0,P|255:62|203:55,1,75,0|10,3:2|0:0,0:0:0:0:
66,14,62082,1,10,0:0:0:0:
17,80,62382,6,0,P|3:149|23:235,1,150,0|2,3:2|0:2,0:0:0:0:
87,272,63282,1,8,0:0:0:0:
167,252,63582,2,0,P|188:211|197:138,1,112.5,2|0,3:2|3:2,0:0:0:0:
398,96,64782,6,0,P|424:174|425:249,1,150,2|0,3:2|0:0,0:0:0:0:
385,313,65682,1,10,0:2:0:0:
309,280,65982,2,0,P|269:270|218:273,1,75,2|10,3:2|0:0,0:0:0:0:
94,357,66882,1,10,0:0:0:0:
33,300,67182,6,0,P|6:230|9:156,1,150,0|0,3:2|0:2,0:0:0:0:
54,86,68082,1,10,0:0:0:0:
130,117,68382,2,0,P|174:134|224:128,1,75,2|8,3:2|0:0,0:0:0:0:
316,15,69282,1,8,0:0:0:0:
398,11,69582,6,0,P|452:43|494:122,1,150,0|0,3:2|0:0,0:0:0:0:
470,197,70482,1,10,0:0:0:0:
402,244,70782,2,0,L|324:225,1,75,2|10,3:2|0:0,0:0:0:0:
168,188,71682,1,8,0:0:0:0:
92,220,71982,6,0,P|76:294|114:367,1,150,0|2,3:2|0:0,0:0:0:0:
185,380,72882,1,8,0:0:0:0:
261,349,73182,2,0,P|275:306|270:272,1,75,0|10,3:2|0:0,0:0:0:0:
184,136,74082,1,10,0:0:0:0:
260,167,74382,6,0,P|333:168|407:121,1,150,2|0,3:2|0:0,0:0:0:0:
430,54,75282,1,10,0:0:0:0:
359,11,75582,2,0,P|318:4|270:19,1,75,2|10,3:2|0:0,0:0:0:0:
184,136,76482,1,10,0:0:0:0:
260,167,76782,6,0,P|283:231|299:315,3,150,0|0|2|8,3:2|1:2|1:2|0:0,0:0:0:0:
146,376,79182,5,4,3:1:0:0:
25,263,79782,1,0,3:2:0:0:
3,183,80082,1,10,0:2:0:0:
29,105,80382,2,0,P|64:90|104:88,1,75,2|10,3:2|0:2,0:0:0:0:
250,156,81282,6,0,L|264:71,1,75,2|10,3:2|0:2,0:0:0:0:
314,18,81882,2,0,P|401:24|443:78,1,150,10|10,0:0|0:0,0:0:0:0:
398,140,82782,1,2,3:2:0:0:
501,269,83382,2,0,L|507:351,2,75,2|10|2,0:0|0:0|3:2,0:0:0:0:
462,196,84282,5,8,0:0:0:0:
387,160,84582,2,0,P|312:183|265:239,1,150,2|2,0:0|3:2,0:0:0:0:
258,318,85482,1,10,0:0:0:0:
148,195,86082,1,10,0:0:0:0:
75,234,86382,5,2,3:2:0:0:
0,198,86682,1,8,0:0:0:0:
11,33,87282,2,0,P|48:17|87:19,1,75,10|2,3:2|3:2,0:0:0:0:
159,49,87882,1,10,0:0:0:0:
247,188,88482,1,8,3:2:0:0:
287,116,88782,6,0,P|323:100|360:100,1,75,2|10,3:2|0:0,0:0:0:0:
436,125,89382,2,0,P|403:199|418:282,1,150,2|2,0:0|3:2,0:0:0:0:
457,334,90282,1,10,0:0:0:0:
312,382,90882,6,0,P|281:343|273:311,1,75,10|2,0:0|3:2,0:0:0:0:
255,238,91482,1,10,0:0:0:0:
185,283,91782,2,0,P|109:302|30:284,1,150,2|2,0:0|3:2,0:0:0:0:
6,126,92982,1,2,0:0:0:0:
130,17,93582,5,2,3:2:0:0:
201,58,93882,1,10,0:0:0:0:
283,64,94182,2,0,L|431:39,1,150,2|0,0:0|3:2,0:0:0:0:
512,20,95082,1,8,0:0:0:0:
430,163,95682,2,0,L|345:177,1,75,10|2,0:0|3:2,0:0:0:0:
274,190,96282,5,10,0:0:0:0:
136,281,96882,1,10,3:2:0:0:
217,295,97182,2,0,L|302:309,1,75,2|10,3:2|0:0,0:0:0:0:
443,370,98082,1,10,3:2:0:0:
415,292,98382,5,4,3:1:0:0:
471,232,98682,1,10,0:0:0:0:
404,81,99282,2,0,P|336:45|245:57,1,150,10|10,0:0|0:0,0:0:0:0:
136,152,100482,1,10,0:0:0:0:
68,103,100782,6,0,P|99:161|94:251,1,150,2|2,3:2|0:0,0:0:0:0:
40,303,101682,1,8,0:0:0:0:
71,379,101982,1,0,3:2:0:0:
221,310,102582,2,0,B|295:322|295:322|372:309,1,150,2|2,0:0|3:2,0:0:0:0:
438,264,103482,5,8,0:0:0:0:
368,221,103782,2,0,P|347:142|376:73,1,150,2|2,0:0|3:2,0:0:0:0:
437,32,104682,1,10,0:0:0:0:
272,32,105282,2,0,P|232:44|191:40,1,75,8|0,0:0|3:2,0:0:0:0:
117,29,105882,5,8,0:0:0:0:
70,97,106182,2,0,P|76:165|151:218,1,150,2|2,0:0|3:2,0:0:0:0:
213,186,107082,1,8,0:0:0:0:
374,219,107682,1,8,0:0:0:0:
420,286,107982,6,0,L|403:359,1,75,0|8,3:2|0:0,0:0:0:0:
322,377,108582,2,0,P|282:336|188:326,1,150,2|2,0:0|3:2,0:0:0:0:
124,370,109482,1,8,0:0:0:0:
95,207,110082,1,8,0:0:0:0:
85,125,110382,6,0,P|97:86|102:38,2,75,2|10|2,3:2|0:0|0:0,0:0:0:0:
17,173,111282,2,0,P|9:209|19:246,1,75,8|2,0:0|3:2,0:0:0:0:
82,299,111882,2,0,B|126:300|155:282|155:282|227:292,1,150,10|10,0:0|0:0,0:0:0:0:
308,274,112782,5,2,3:2:0:0:
284,8,114882,1,0,3:2:0:0:
221,61,115182,6,0,L|241:210,3,150,0|0|0|0,3:2|1:2|1:2|3:0,0:0:0:0:
265,372,117582,5,4,3:1:0:0:
396,271,118182,1,2,0:0:0:0:
475,293,118482,2,0,P|499:236|499:178,2,112.5,10|2|2,0:0|0:0|0:0,0:0:0:0:
415,350,119682,1,10,0:0:0:0:
336,324,119982,5,2,3:2:0:0:
225,203,120582,1,2,0:0:0:0:
160,254,120882,2,0,L|143:380,2,112.5,10|2|2,0:0|0:0|0:0,0:0:0:0:
225,203,122082,1,10,0:0:0:0:
301,233,122382,5,0,3:2:0:0:
398,99,122982,1,2,0:0:0:0:
341,39,123282,2,0,P|284:17|209:23,2,112.5,10|2|2,0:0|0:0|0:0,0:0:0:0:
398,99,124482,1,10,0:0:0:0:
341,159,124782,1,2,3:2:0:0:
341,159,127182,5,2,3:2:0:0:
219,270,127782,1,2,0:0:0:0:
284,320,128082,2,0,P|343:334|403:326,2,112.5,10|2|0,0:0|0:0|3:2,0:0:0:0:
219,270,129282,1,10,3:2:0:0:
141,298,129582,5,0,3:2:0:0:
69,149,130182,1,2,0:0:0:0:
13,209,130482,2,0,P|-7:254|-6:327,2,112.5,10|2|0,0:0|0:0|3:2,0:0:0:0:
69,149,131682,1,8,3:2:0:0:
150,163,131982,5,0,3:2:0:0:
312,70,136782,6,0,P|288:139|275:215,3,150,10|2|2|2,3:2|0:0|0:0|3:2,0:0:0:0:
154,328,139182,5,6,3:2:0:0:
83,90,140082,1,2,0:0:0:0:
154,328,140982,1,2,0:0:0:0:
312,331,141582,5,2,3:2:0:0:
383,93,142482,1,2,3:2:0:0:
312,331,143382,1,2,0:0:0:0:
233,355,143682,1,2,0:0:0:0:
154,328,143982,6,0,B|143:273|105:228|105:228|164:244|204:194|204:194|166:140|110:149|110:149|162:110|175:52,1,450,14|10,0:0|0:0,0:0:0:0:
337,56,146382,2,0,B|349:110|401:149|401:149|345:140|307:194|307:194|347:244|406:228|406:228|368:273|358:328,1,450,10|10,0:0|0:0,0:0:0:0:
200,377,148782,5,6,3:2:0:0:
240,133,149682,1,2,0:0:0:0:
8,220,150582,1,2,0:0:0:0:
161,280,151182,1,2,3:2:0:0:
420,172,152082,5,2,3:2:0:0:
470,106,152382,2,0,L|484:26,2,75,2|2|2,0:0|0:0|0:0,0:0:0:0:
315,162,153582,6,0,B|268:129|260:67|260:67|206:104|194:156|194:156|162:97|117:74|117:74|86:87|86:87|48:77|48:77|13:92,1,450,14|10,0:0|0:0,0:0:0:0:
3,255,155982,2,0,B|50:288|58:350|58:350|111:313|123:261|123:261|155:320|201:343|201:343|232:330|232:330|269:340|269:340|303:325,1,450,10|10,0:0|0:0,0:0:0:0:
461,277,158382,6,0,L|474:358,2,75,6|2|2,0:0|0:0|1:2,0:0:0:0:
449,195,159282,1,2,0:0:0:0:
285,220,159882,1,2,0:0:0:0:
271,139,160182,1,2,1:2:0:0:
123,64,160782,6,0,P|104:99|95:141,2,75,2|2|2,0:0|0:0|1:2,0:0:0:0:
282,20,161982,1,2,1:2:0:0:
396,139,162582,2,0,P|386:175|368:207,1,75,2|2,1:2|0:0,0:0:0:0:
317,273,163182,6,0,L|328:348,2,75,2|2|2,0:0|0:0|1:2,0:0:0:0:
181,179,164382,2,0,L|192:104,2,75,2|2|2,0:0|0:0|1:2,0:0:0:0:
71,302,165582,2,0,L|82:377,2,75,2|2|2,0:0|0:0|1:2,0:0:0:0:
38,140,166782,5,2,1:2:0:0:
160,28,167382,1,2,1:2:0:0:
220,84,167682,1,2,0:0:0:0:
295,50,167982,1,6,3:2:0:0:
289,231,177882,5,2,0:0:0:0:
320,111,178332,2,0,P|345:64|396:27,2,112.5,2|2|2,0:0|0:0|0:0,0:0:0:0:
290,232,179682,1,2,0:0:0:0:
372,374,180282,6,0,P|327:336|273:331,1,112.5,2|2,0:0|0:0,0:0:0:0:
156,367,181182,2,0,P|63:368|9:315,1,150,2|2,0:0|0:0,0:0:0:0:
4,253,182082,1,2,0:0:0:0:
86,110,182682,6,0,P|145:95|185:60,1,112.5,2|2,0:0|0:0,0:0:0:0:
287,130,183582,2,0,P|266:181|279:235,1,112.5,2|2,0:0|0:0,0:0:0:0:
341,288,184332,2,0,L|456:276,1,112.5,2|2,0:0|3:2,0:0:0:0:
510,163,187182,6,0,P|425:157|368:118,1,150,6|2,3:1|0:0,0:0:0:0:
338,47,188082,1,10,0:0:0:0:
193,126,188682,2,0,P|128:100|35:103,1,150,10|10,0:0|0:0,0:0:0:0:
2,168,189582,6,0,L|23:286,2,112.5,2|2|10,3:2|0:0|0:0,0:0:0:0:
116,48,191082,1,8,0:0:0:0:
188,88,191382,2,0,P|229:95|268:89,1,75,2|10,0:0|0:0,0:0:0:0:
334,52,191982,6,0,P|385:35|451:37,2,112.5,2|2|10,3:2|0:0|0:0,0:0:0:0:
235,184,193482,1,8,0:0:0:0:
237,267,193782,2,0,P|244:303|264:334,1,75,2|10,0:0|0:0,0:0:0:0:
346,354,194382,6,0,L|466:335,2,112.5,2|2|10,3:2|3:2|0:0,0:0:0:0:
265,335,195582,1,2,0:0:0:0:
184,318,195882,2,0,L|99:335,2,75,10|2|10,0:0|3:2|0:0,0:0:0:0:
240,257,196782,6,0,P|254:174|221:108,1,150,2|2,3:2|0:0,0:0:0:0:
155,75,197682,1,10,0:0:0:0:
43,196,198282,2,0,P|46:238|68:276,2,75,10|2|10,0:0|0:0|0:0,0:0:0:0:
74,119,199182,6,0,P|33:79|18:16,2,112.5,2|2|10,3:2|0:0|0:0,0:0:0:0:
239,115,200682,1,8,0:0:0:0:
316,85,200982,2,0,P|352:89|395:111,1,75,2|10,0:0|0:0,0:0:0:0:
440,168,201582,6,0,L|481:47,2,112.5,2|2|10,3:2|0:0|0:0,0:0:0:0:
398,328,203082,1,8,0:0:0:0:
346,263,203382,2,0,P|300:262|268:276,1,75,2|10,0:0|0:0,0:0:0:0:
215,330,203982,6,0,P|154:358|100:355,1,112.5,0|0,3:2|3:2,0:0:0:0:
15,278,204882,2,0,P|4:211|21:160,1,112.5,0|0,3:2|3:2,0:0:0:0:
107,85,205782,1,0,3:2:0:0:
214,210,206382,6,0,P|292:218|366:180,1,150,6|2,3:1|0:0,0:0:0:0:
384,111,207282,1,10,0:0:0:0:
256,6,207882,1,10,0:0:0:0:
165,143,208482,1,10,0:0:0:0:
93,101,208782,6,0,P|45:58|-9:48,2,112.5,2|2|10,3:2|0:0|0:0,0:0:0:0:
67,263,210282,1,8,0:0:0:0:
121,325,210582,2,0,P|167:328|197:319,1,75,2|10,0:0|0:0,0:0:0:0:
243,253,211182,6,0,P|197:214|142:204,2,112.5,2|2|10,3:2|0:0|0:0,0:0:0:0:
364,364,212682,1,8,0:0:0:0:
384,284,212982,1,2,0:0:0:0:
322,229,213282,1,10,0:0:0:0:
243,253,213582,6,0,P|156:182|190:80,1,225,2|10,3:2|0:0,0:0:0:0:
265,78,214782,2,0,P|300:89|338:88,1,75,0|10,3:2|0:0,0:0:0:0:
381,17,215382,2,0,P|416:5|453:5,1,75,2|10,0:0|0:0,0:0:0:0:
511,64,215982,6,0,L|494:222,1,150,2|2,3:2|0:0,0:0:0:0:
480,294,216882,1,10,0:0:0:0:
336,211,217482,2,0,L|254:229,1,75,10|2,0:0|0:0,0:0:0:0:
207,288,218082,1,10,0:0:0:0:
145,232,218382,6,0,L|28:214,2,112.5,2|2|10,3:2|0:0|0:0,0:0:0:0:
277,330,219882,1,8,0:0:0:0:
356,306,220182,1,2,0:0:0:0:
405,239,220482,1,10,0:0:0:0:
397,156,220782,6,0,L|419:42,2,112.5,2|2|10,3:2|0:0|0:0,0:0:0:0:
374,319,222282,1,10,0:0:0:0:
307,270,222582,2,0,P|268:278|234:303,1,75,2|10,0:0|0:0,0:0:0:0:
199,369,223182,6,0,P|146:348|90:346,1,112.5,0|0,3:2|3:2,0:0:0:0:
3,260,224082,2,0,P|58:257|111:237,1,112.5,0|0,3:2|3:2,0:0:0:0:
198,148,224981,1,2,3:2:0:0:
320,258,225582,5,0,3:2:0:0:
379,200,225882,2,0,P|377:157|344:81,1,112.5,10|2,0:0|3:2,0:0:0:0:
231,62,226782,2,0,P|182:27|119:16,2,112.5,2|2|10,3:2|0:0|0:0,0:0:0:0:
226,144,227982,5,0,3:2:0:0:
155,186,228282,2,0,P|140:221|145:297,1,112.5,10|2,0:0|3:2,0:0:0:0:
265,315,229182,2,0,P|285:263|286:203,2,112.5,2|2|10,3:2|0:0|0:0,0:0:0:0:
195,359,230382,5,0,3:2:0:0:
133,304,230682,2,0,P|123:249|138:195,1,112.5,10|2,0:0|3:2,0:0:0:0:
212,96,231582,2,0,P|150:81|99:62,2,112.5,2|2|10,3:2|0:0|0:0,0:0:0:0:
291,75,232782,5,0,3:2:0:0:
355,23,233082,2,0,P|394:56|415:122,1,112.5,10|2,0:0|3:2,0:0:0:0:
394,234,233982,2,0,P|452:219|506:222,2,112.5,2|2|10,3:2|0:0|0:0,0:0:0:0:
326,282,235182,5,0,3:2:0:0:
270,221,235482,2,0,P|223:201|159:196,1,112.5,10|2,0:0|3:2,0:0:0:0:
49,247,236382,2,0,L|33:371,2,112.5,2|2|10,3:2|0:0|0:0,0:0:0:0:
26,167,237582,5,0,3:2:0:0:
81,105,237882,2,0,P|133:103|190:129,1,112.5,8|2,0:0|3:2,0:0:0:0:
282,206,238782,2,0,P|334:208|391:182,2,112.5,2|2|10,3:2|0:0|0:0,0:0:0:0:
214,254,239982,5,0,3:2:0:0:
280,302,240282,2,0,P|331:317|380:367,1,112.5,10|2,0:0|3:2,0:0:0:0:
476,287,241182,2,0,P|452:233|459:169,2,112.5,2|2|10,3:2|0:0|0:0,0:0:0:0:
458,367,242382,5,0,3:2:0:0:
373,356,242682,2,0,P|333:318|280:302,1,112.5,10|2,0:0|3:2,0:0:0:0:
156,306,243582,2,0,L|46:331,2,112.5,2|2|10,3:2|0:0|0:0,0:0:0:0:
211,245,244782,5,4,3:1:0:0:
256,192,244932,12,0,249582,0:0:0:0:
