osu file format v14

[General]
AudioFilename: audio.mp3
AudioLeadIn: 0
PreviewTime: 46322
Countdown: 0
SampleSet: Soft
StackLeniency: 0.7
Mode: 2
LetterboxInBreaks: 0
WidescreenStoryboard: 0

[Editor]
Bookmarks: 39909,53150,66391,86253,119357,124322
DistanceSpacing: 2.8
BeatDivisor: 4
GridSize: 16
TimelineZoom: 1

[Metadata]
Title:Ex Nihilo
TitleUnicode:Ex Nihilo
Artist:Fractal Dreamers
ArtistUnicode:Fractal Dreamers
Creator:wonjae
Version:Genesis
Source:osu!
Tags:jbh dapu dapuluous jbhyperion paranoid grapes electronic instrumental piano azure of the horizon featured artist artcore drum & bass epic orchestral soundtrack Sweden Helblinde
BeatmapID:2607991
BeatmapSetID:1254879

[Difficulty]
HPDrainRate:6
CircleSize:4.8
OverallDifficulty:9.3
ApproachRate:9.3
SliderMultiplier:2.2
SliderTickRate:2

[Events]
//Background and Video events
0,0,"jemzbg.jpg",0,0
//Break Periods
2,40109,45975
2,79833,80734
//Storyboard Layer 0 (Background)
//Storyboard Layer 1 (Fail)
//Storyboard Layer 2 (Pass)
//Storyboard Layer 3 (Foreground)
//Storyboard Layer 4 (Overlay)
//Storyboard Sound Samples

[TimingPoints]
185,413.793103448276,4,2,1,50,1,0
13426,-100,4,2,1,60,0,0
46529,-100,4,2,1,40,0,0
53150,-100,4,2,1,30,0,0
59771,-100,4,2,1,50,0,0
65978,-40,4,2,1,80,0,0
66391,-100,4,2,1,70,0,0
92874,-100,4,2,1,66,0,0
119771,-100,4,2,1,50,0,0
121012,-100,4,2,1,40,0,0
122253,-100,4,2,1,30,0,0
123495,-100,4,2,1,20,0,0
124322,-100,4,2,1,10,0,0

[Colours]
Combo1 : 131,138,175
Combo2 : 66,193,255
Combo3 : 128,128,255
Combo4 : 0,0,130

[HitObjects]
172,191,185,6,0,L|290:187,1,110,2|0,0:0|0:0,0:0:0:0:
199,40,598,1,0,0:0:0:0:
116,48,805,1,0,0:0:0:0:
81,118,1012,1,0,0:0:0:0:
75,192,1219,1,0,0:0:0:0:
112,258,1426,1,0,0:0:0:0:
204,276,1633,1,0,0:0:0:0:
298,292,1840,6,0,L|315:163,1,110,0|0,0:0|0:0,0:0:0:0:
211,165,2253,2,0,L|211:41,1,110,0|0,0:0|0:0,0:0:0:0:
114,152,2667,2,0,L|102:35,1,110,0|0,0:0|0:0,0:0:0:0:
200,32,3081,2,0,L|201:151,1,110,0|0,0:0|0:0,0:0:0:0:
243,159,3391,1,0,0:0:0:0:
281,172,3495,6,0,L|156:189,1,110,2|0,0:0|0:0,0:0:0:0:
262,123,3909,1,0,0:0:0:0:
355,156,4116,1,0,0:0:0:0:
387,222,4322,1,0,0:0:0:0:
380,292,4529,1,0,0:0:0:0:
321,344,4736,1,0,0:0:0:0:
237,342,4943,1,0,0:0:0:0:
146,341,5150,6,0,L|139:229,1,110,0|0,0:0|0:0,0:0:0:0:
240,212,5564,2,0,L|238:77,1,110,0|0,0:0|0:0,0:0:0:0:
327,158,5978,2,0,L|351:36,1,110,0|0,0:0|0:0,0:0:0:0:
229,56,6391,2,0,L|93:63,1,110,0|0,0:0|0:0,0:0:0:0:
170,58,6702,1,0,0:0:0:0:
294,89,6805,6,0,L|311:224,1,110,2|0,3:2|0:0,0:0:0:0:
211,187,7219,2,0,L|179:322,1,110,0|0,3:0|0:0,0:0:0:0:
305,226,7633,2,0,L|345:351,1,110,0|0,3:0|0:0,0:0:0:0:
179,220,8047,2,0,L|130:338,1,110,0|0,3:0|0:0,0:0:0:0:
321,211,8460,6,0,L|406:328,1,110,2|0,3:0|0:0,0:0:0:0:
172,206,8874,2,0,L|124:312,1,110,0|0,3:0|0:0,0:0:0:0:
333,197,9288,2,0,L|347:322,1,110,0|0,3:0|0:0,0:0:0:0:
183,201,9702,2,0,L|179:316,1,110,0|0,3:0|0:0,0:0:0:0:
237,315,10012,1,0,0:0:0:0:
363,311,10116,5,2,3:2:0:0:
455,290,10322,1,0,0:0:0:0:
311,242,10529,1,0,3:0:0:0:
470,194,10736,1,0,0:0:0:0:
256,176,10943,2,0,L|243:24,1,110,0|0,3:0|0:0,0:0:0:0:
480,176,11357,2,0,L|350:179,1,110,0|0,3:0|0:0,0:0:0:0:
175,270,11771,6,0,L|290:271,1,110,2|0,3:0|0:0,0:0:0:0:
89,227,12185,2,0,L|83:83,1,110,0|0,3:0|0:0,0:0:0:0:
297,42,12598,1,0,3:0:0:0:
173,61,12805,1,0,0:0:0:0:
130,124,13012,1,0,3:0:0:0:
119,189,13219,1,0,3:0:0:0:
386,246,13426,6,0,L|527:234,1,110,6|2,0:0|0:0,0:0:0:0:
303,188,13840,1,0,1:0:0:0:
486,75,14047,1,2,3:2:0:0:
272,75,14253,1,2,0:0:0:0:
198,107,14460,1,0,1:0:0:0:
175,176,14667,1,2,0:0:0:0:
209,253,14874,1,2,3:2:0:0:
294,269,15081,6,0,L|437:273,1,110,2|2,0:0|3:2,0:0:0:0:
188,306,15495,2,0,L|62:319,1,110,0|2,1:0|3:2,0:0:0:0:
135,303,15805,1,0,3:0:0:0:
261,211,15909,1,2,3:2:0:0:
310,194,16012,1,0,3:0:0:0:
260,163,16116,1,0,1:0:0:0:
149,134,16322,1,2,3:2:0:0:
357,90,16529,1,2,0:0:0:0:
133,154,16736,6,0,L|-12:174,1,110,2|2,3:2|0:0,0:0:0:0:
227,239,17150,1,0,1:0:0:0:
36,282,17357,1,2,3:2:0:0:
246,234,17564,1,2,0:0:0:0:
332,198,17771,1,0,1:0:0:0:
368,112,17978,1,2,3:2:0:0:
331,37,18185,1,2,0:0:0:0:
227,32,18391,6,0,L|108:33,1,110,2|2,3:2|3:2,0:0:0:0:
303,107,18805,2,0,L|426:109,1,110,0|2,1:0|3:2,0:0:0:0:
343,121,19116,1,0,3:0:0:0:
217,156,19219,1,2,3:2:0:0:
174,197,19322,1,0,3:0:0:0:
216,243,19426,1,0,1:0:0:0:
338,278,19633,1,2,3:2:0:0:
141,322,19840,1,2,3:2:0:0:
357,276,20047,6,0,L|495:279,1,110,2|2,3:2|0:0,0:0:0:0:
283,225,20460,2,0,L|370:94,1,110,0|2,1:0|3:2,0:0:0:0:
146,132,20874,2,0,L|28:131,1,110,2|0,0:0|1:0,0:0:0:0:
235,112,21288,2,0,L|185:15,1,110,2|2,3:2|0:0,0:0:0:0:
387,58,21702,5,2,3:2:0:0:
468,102,21909,1,2,3:2:0:0:
491,181,22116,1,0,1:0:0:0:
486,231,22219,1,2,2:0:0:0:
465,267,22322,1,2,3:2:0:0:
418,282,22426,1,0,3:0:0:0:
290,312,22529,2,0,L|152:322,1,110,2|0,3:2|1:0,0:0:0:0:
370,341,22943,2,0,L|516:355,1,110,2|2,3:2|0:0,0:0:0:0:
185,254,23357,5,2,3:2:0:0:
217,201,23564,1,2,0:0:0:0:
301,155,23771,1,0,1:0:0:0:
439,136,23978,1,2,3:2:0:0:
212,97,24185,1,2,3:2:0:0:
375,90,24391,1,0,1:0:0:0:
172,55,24598,1,2,3:2:0:0:
331,47,24805,1,2,0:0:0:0:
138,52,25012,5,2,3:2:0:0:
222,83,25219,1,2,3:2:0:0:
247,153,25426,1,0,1:0:0:0:
228,233,25633,1,2,3:2:0:0:
190,257,25736,1,0,3:0:0:0:
63,310,25840,2,0,L|66:169,1,110,2|0,3:2|1:0,0:0:0:0:
265,169,26253,2,0,L|145:169,1,110,2|2,3:2|0:0,0:0:0:0:
155,169,26564,1,0,0:0:0:0:
361,121,26667,6,0,L|509:127,1,110,2|2,3:2|0:0,0:0:0:0:
280,192,27081,1,0,1:0:0:0:
456,229,27288,1,2,3:2:0:0:
362,239,27391,1,2,2:2:0:0:
266,254,27495,1,2,0:0:0:0:
475,303,27702,1,0,1:0:0:0:
280,217,27909,2,0,L|429:199,1,110,2|2,3:2|0:0,0:0:0:0:
187,114,28322,5,2,3:2:0:0:
385,217,28529,1,2,3:2:0:0:
383,269,28633,1,2,0:0:0:0:
249,283,28736,1,0,1:0:0:0:
249,283,28943,1,2,3:2:0:0:
247,335,29047,1,0,3:0:0:0:
113,349,29150,1,2,3:2:0:0:
66,315,29253,1,0,3:0:0:0:
43,255,29357,1,0,1:0:0:0:
66,189,29460,1,0,0:0:0:0:
123,162,29564,1,2,3:2:0:0:
190,153,29667,1,0,3:0:0:0:
65,94,29771,1,2,3:2:0:0:
14,83,29874,1,0,3:0:0:0:
275,69,29978,5,2,3:2:0:0:
116,119,30185,1,2,0:0:0:0:
106,171,30288,1,2,0:0:0:0:
231,218,30391,1,0,1:0:0:0:
231,218,30598,1,2,3:2:0:0:
221,270,30701,1,0,0:0:0:0:
346,317,30804,1,2,0:0:0:0:
427,294,30909,1,0,3:0:0:0:
462,237,31012,1,0,1:0:0:0:
468,164,31116,1,0,0:0:0:0:
337,102,31219,1,2,3:2:0:0:
286,103,31322,1,0,3:0:0:0:
359,74,31426,1,2,3:2:0:0:
259,73,31529,1,0,0:0:0:0:
457,69,31633,5,2,3:2:0:0:
277,160,31840,1,2,3:2:0:0:
368,169,31943,1,0,3:0:0:0:
468,174,32047,1,0,1:0:0:0:
265,232,32253,1,2,3:2:0:0:
72,269,32460,1,2,3:2:0:0:
265,232,32667,1,0,1:0:0:0:
160,235,32770,1,0,0:0:0:0:
55,240,32874,1,2,3:2:0:0:
104,240,32978,1,0,0:0:0:0:
179,242,33081,1,2,0:0:0:0:
443,132,33288,6,0,L|472:276,1,110,2|2,3:2|0:0,0:0:0:0:
374,261,33598,1,2,0:0:0:0:
178,311,33702,1,0,1:0:0:0:
351,336,33909,1,2,3:2:0:0:
173,190,34116,1,2,3:2:0:0:
121,191,34219,1,0,0:0:0:0:
238,147,34322,1,0,1:0:0:0:
289,147,34426,1,0,0:0:0:0:
173,104,34529,1,2,3:2:0:0:
158,39,34633,1,0,0:0:0:0:
283,104,34736,1,2,0:0:0:0:
298,39,34840,1,0,0:0:0:0:
64,45,34943,6,0,L|54:179,1,110,2|2,3:2|3:2,0:0:0:0:
149,189,35253,1,2,0:0:0:0:
352,247,35357,1,0,1:0:0:0:
191,294,35564,1,2,3:2:0:0:
416,235,35771,1,2,3:2:0:0:
242,218,35978,1,0,1:0:0:0:
453,149,36185,1,2,3:2:0:0:
361,175,36288,1,0,0:0:0:0:
334,224,36391,1,2,0:0:0:0:
328,281,36495,1,0,0:0:0:0:
106,315,36598,6,0,L|277:284,2,165,2|2|2,3:2|0:0|0:0,0:0:0:0:
296,253,37426,2,0,P|335:192|221:103,1,220,2|2,0:0|3:2,0:0:0:0:
323,80,37943,1,2,0:0:0:0:
395,68,38047,1,2,0:0:0:0:
466,59,38150,1,0,0:0:0:0:
258,52,38253,6,0,L|76:79,2,165,2|2|2,3:2|0:0|3:2,0:0:0:0:
258,52,38978,1,0,0:0:0:0:
67,118,39081,2,0,L|50:174,2,55,2|0|0,3:2|3:0|1:0,0:0:0:0:
129,114,39391,1,0,0:0:0:0:
349,177,39495,1,2,3:2:0:0:
401,222,39598,1,0,3:0:0:0:
163,241,39702,1,2,3:2:0:0:
116,268,39805,1,0,3:0:0:0:
385,336,39909,5,6,3:2:0:0:
206,221,46529,6,0,L|78:223,1,110,0|2,1:0|0:0,0:0:0:0:
295,176,46943,1,2,3:2:0:0:
97,129,47150,1,2,0:0:0:0:
92,83,47253,1,2,0:0:0:0:
279,64,47357,1,2,3:2:0:0:
386,100,47564,1,2,0:0:0:0:
423,198,47771,1,2,3:2:0:0:
383,294,47978,1,8,0:0:0:0:
183,346,48185,6,0,L|331:361,1,110,0|0,1:0|0:0,0:0:0:0:
114,254,48598,1,2,3:2:0:0:
69,242,48702,1,2,0:0:0:0:
138,215,48805,1,2,0:0:0:0:
52,187,48909,1,0,0:0:0:0:
178,177,49012,1,2,3:2:0:0:
281,136,49219,1,2,0:0:0:0:
281,73,49322,1,0,0:0:0:0:
82,40,49426,2,0,L|78:159,1,110,2|2,3:2|0:0,0:0:0:0:
383,202,49840,5,0,1:0:0:0:
190,147,50047,2,0,L|313:148,1,110,2|2,0:0|3:2,0:0:0:0:
494,278,50460,1,10,0:0:0:0:
439,275,50564,1,2,0:0:0:0:
200,115,50667,1,2,3:2:0:0:
289,197,50874,1,2,0:0:0:0:
103,323,51081,1,0,3:0:0:0:
421,333,51288,1,2,0:0:0:0:
139,229,51495,6,0,L|22:230,1,110,0|0,1:0|0:0,0:0:0:0:
157,197,51909,2,0,L|83:110,1,110
272,45,52322,1,0,0:0:0:0:
328,47,52426,1,0,0:0:0:0:
212,94,52529,1,0,0:0:0:0:
160,110,52633,1,0,0:0:0:0:
376,166,52736,1,0,3:0:0:0:
434,167,52840,1,0,0:0:0:0:
187,239,52943,1,0,0:0:0:0:
110,246,53047,1,0,0:0:0:0:
369,322,53150,5,0,1:0:0:0:
403,286,53253,1,0,0:0:0:0:
419,233,53357,1,0,0:0:0:0:
401,189,53460,1,0,0:0:0:0:
360,157,53564,1,0,3:0:0:0:
327,117,53667,1,0,0:0:0:0:
321,69,53771,1,0,0:0:0:0:
346,33,53874,1,0,0:0:0:0:
380,21,53978,1,0,1:0:0:0:
418,39,54081,1,0,0:0:0:0:
437,96,54185,1,0,0:0:0:0:
429,144,54288,1,0,0:0:0:0:
400,178,54392,1,0,3:0:0:0:
339,196,54495,1,0,0:0:0:0:
444,274,54599,1,0,3:0:0:0:
473,311,54702,1,0,0:0:0:0:
358,315,54805,5,0,1:0:0:0:
299,315,54909,1,0,0:0:0:0:
197,317,55012,1,0,3:0:0:0:
205,256,55116,1,0,0:0:0:0:
239,209,55219,1,0,3:0:0:0:
288,185,55322,1,0,0:0:0:0:
308,147,55426,1,0,3:0:0:0:
294,104,55529,1,0,0:0:0:0:
245,75,55633,1,0,1:0:0:0:
202,70,55736,1,0,0:0:0:0:
99,102,55840,1,0,0:0:0:0:
79,142,55943,1,0,0:0:0:0:
183,179,56047,1,0,3:0:0:0:
229,218,56150,1,0,0:0:0:0:
235,277,56253,1,0,0:0:0:0:
200,325,56357,1,0,0:0:0:0:
93,324,56460,5,0,1:0:0:0:
36,334,56564,1,0,0:0:0:0:
93,324,56667,1,0,3:0:0:0:
150,312,56771,1,0,0:0:0:0:
93,324,56874,1,0,3:0:0:0:
36,334,56978,1,0,0:0:0:0:
93,324,57081,1,0,0:0:0:0:
150,312,57185,1,0,0:0:0:0:
260,288,57288,1,0,1:0:0:0:
319,248,57391,1,0,0:0:0:0:
346,183,57495,1,0,0:0:0:0:
321,110,57598,1,0,0:0:0:0:
248,67,57702,1,0,3:0:0:0:
179,57,57805,1,0,0:0:0:0:
294,58,57909,1,0,3:0:0:0:
362,52,58012,1,0,0:0:0:0:
227,62,58116,5,0,1:0:0:0:
164,88,58219,1,0,0:0:0:0:
142,134,58322,1,0,3:0:0:0:
151,193,58426,1,0,0:0:0:0:
215,250,58529,1,0,3:0:0:0:
290,251,58633,1,0,0:0:0:0:
173,320,58736,1,0,3:0:0:0:
108,332,58840,1,0,0:0:0:0:
213,292,58943,1,0,1:0:0:0:
290,309,59047,1,0,0:0:0:0:
371,332,59150,1,0,0:0:0:0:
290,309,59253,1,0,0:0:0:0:
213,292,59357,1,0,3:0:0:0:
290,309,59460,1,0,0:0:0:0:
371,332,59564,1,0,3:0:0:0:
290,309,59667,1,0,0:0:0:0:
103,262,59771,5,0,1:0:0:0:
37,288,59874,1,0,0:0:0:0:
144,257,59978,1,0,0:0:0:0:
201,299,60081,1,0,0:0:0:0:
81,211,60185,1,0,3:0:0:0:
76,156,60288,1,0,0:0:0:0:
184,134,60391,1,0,3:0:0:0:
194,80,60495,1,0,0:0:0:0:
390,44,60598,1,0,1:0:0:0:
431,85,60702,1,0,0:0:0:0:
324,126,60805,1,0,0:0:0:0:
266,128,60909,1,0,0:0:0:0:
437,180,61012,1,0,3:0:0:0:
459,233,61116,1,0,0:0:0:0:
278,251,61219,1,0,3:0:0:0:
337,250,61322,1,0,0:0:0:0:
171,121,61426,5,0,1:0:0:0:
82,133,61529,1,0,0:0:0:0:
54,187,61633,1,0,3:0:0:0:
47,252,61736,1,0,0:0:0:0:
167,229,61840,1,0,3:0:0:0:
245,231,61943,1,0,0:0:0:0:
300,269,62047,1,0,3:0:0:0:
306,341,62150,1,0,0:0:0:0:
126,319,62253,1,0,1:0:0:0:
68,330,62357,1,0,0:0:0:0:
182,285,62460,1,0,0:0:0:0:
238,268,62564,1,0,0:0:0:0:
345,232,62667,1,0,3:0:0:0:
346,176,62771,1,0,0:0:0:0:
159,129,62874,1,0,3:0:0:0:
221,124,62978,1,0,0:0:0:0:
35,47,63081,5,0,1:0:0:0:
117,56,63185,1,0,0:0:0:0:
175,99,63288,1,0,0:0:0:0:
185,185,63391,1,0,0:0:0:0:
71,272,63495,1,0,3:0:0:0:
132,277,63598,1,0,0:0:0:0:
322,310,63702,1,0,3:0:0:0:
387,316,63805,1,0,0:0:0:0:
201,234,63909,1,0,1:0:0:0:
140,189,64012,1,0,0:0:0:0:
208,158,64116,1,0,0:0:0:0:
281,132,64219,1,0,0:0:0:0:
457,73,64322,1,0,3:0:0:0:
463,130,64426,1,0,0:0:0:0:
273,175,64529,1,0,3:0:0:0:
334,176,64633,1,0,0:0:0:0:
155,52,64736,5,0,1:0:0:0:
103,79,64840,1,0,0:0:0:0:
81,125,64943,1,0,3:0:0:0:
93,186,65047,1,0,0:0:0:0:
156,229,65150,1,0,3:0:0:0:
214,271,65253,1,0,0:0:0:0:
232,331,65357,1,0,3:0:0:0:
214,271,65460,1,0,0:0:0:0:
156,229,65564,2,0,L|41:229,1,110,0|0,3:0|0:0,0:0:0:0:
400,136,65978,2,0,L|124:135,1,275,8|0,3:3|0:0,0:0:0:0:
410,77,66391,6,0,L|425:203,1,110,4|0,1:2|3:0,0:0:0:0:
295,215,66702,2,0,L|290:342,1,110,2|0,0:0|0:0,0:0:0:0:
410,343,67012,2,0,L|317:351,1,55,2|0,0:0|0:0,0:0:0:0:
142,308,67219,1,2,3:2:0:0:
82,281,67322,1,0,0:0:0:0:
53,222,67426,1,0,0:0:0:0:
85,160,67529,1,0,0:0:0:0:
148,141,67633,1,0,3:0:0:0:
214,140,67736,1,0,0:0:0:0:
94,97,67840,1,0,0:0:0:0:
34,99,67943,1,0,0:0:0:0:
314,56,68047,6,0,L|337:187,1,110,0|0,1:0|3:0,0:0:0:0:
226,174,68357,2,0,L|189:290,1,110,2|0,0:0|0:0,0:0:0:0:
312,317,68667,2,0,L|388:335,1,55,2|0,0:0|0:0,0:0:0:0:
174,319,68874,1,2,3:2:0:0:
107,336,68978,1,0,0:0:0:0:
172,351,69081,1,0,0:0:0:0:
238,364,69185,1,0,0:0:0:0:
172,351,69288,1,0,3:0:0:0:
107,336,69391,1,0,0:0:0:0:
174,319,69495,1,0,0:0:0:0:
241,302,69598,1,0,0:0:0:0:
29,191,69702,6,0,L|31:79,1,110,0|0,1:0|3:0,0:0:0:0:
145,133,70012,2,0,L|184:9,1,110,2|0,0:0|0:0,0:0:0:0:
292,44,70322,2,0,L|384:40,1,55,2|0,0:0|0:0,0:0:0:0:
133,131,70529,1,2,3:2:0:0:
72,141,70633,1,0,0:0:0:0:
250,186,70736,1,0,0:0:0:0:
268,233,70840,1,0,0:0:0:0:
102,203,70943,1,0,3:0:0:0:
45,213,71047,1,0,0:0:0:0:
225,309,71150,1,0,0:0:0:0:
280,309,71253,1,0,0:0:0:0:
487,209,71357,6,0,L|474:91,1,110,0|0,1:0|3:0,0:0:0:0:
362,118,71667,2,0,L|299:5,1,110,2|0,0:0|0:0,0:0:0:0:
200,30,71978,2,0,L|125:27,1,55,2|0,0:0|0:0,0:0:0:0:
333,55,72185,1,2,3:2:0:0:
417,66,72288,1,0,0:0:0:0:
468,127,72391,1,0,0:0:0:0:
475,192,72495,1,0,0:0:0:0:
261,245,72598,1,0,3:0:0:0:
195,242,72702,1,0,0:0:0:0:
417,300,72805,1,0,0:0:0:0:
483,303,72909,1,0,0:0:0:0:
218,291,73012,5,0,1:0:0:0:
180,231,73116,1,0,0:0:0:0:
218,169,73219,1,0,3:0:0:0:
436,205,73322,1,2,0:0:0:0:
406,170,73426,1,0,3:0:0:0:
346,158,73529,1,0,0:0:0:0:
148,83,73633,1,2,0:0:0:0:
98,80,73736,1,0,0:0:0:0:
353,35,73840,1,2,3:2:0:0:
420,59,73943,1,0,0:0:0:0:
459,114,74047,1,0,0:0:0:0:
421,169,74150,1,0,0:0:0:0:
316,214,74253,1,0,3:0:0:0:
390,234,74357,1,0,0:0:0:0:
474,249,74460,1,0,0:0:0:0:
390,234,74564,1,0,0:0:0:0:
155,297,74667,5,0,1:0:0:0:
69,280,74771,1,0,0:0:0:0:
30,235,74874,1,0,3:0:0:0:
222,195,74978,1,2,0:0:0:0:
275,159,75081,1,0,3:0:0:0:
218,113,75185,1,0,0:0:0:0:
32,91,75288,1,2,0:0:0:0:
93,90,75391,1,0,0:0:0:0:
309,113,75495,1,2,3:2:0:0:
390,141,75598,1,0,0:0:0:0:
474,164,75702,1,0,0:0:0:0:
390,141,75805,1,0,0:0:0:0:
274,84,75909,1,0,3:0:0:0:
206,90,76012,1,0,0:0:0:0:
134,110,76116,1,0,0:0:0:0:
206,91,76219,1,0,0:0:0:0:
433,140,76322,6,0,L|455:267,1,110,0|0,1:0|3:0,0:0:0:0:
260,303,76633,2,0,L|120:328,1,110,2|0,0:0|0:0,0:0:0:0:
341,330,76943,2,0,L|274:337,1,55,2|0,0:0|0:0,0:0:0:0:
453,256,77150,1,2,3:2:0:0:
453,193,77253,1,0,0:0:0:0:
276,134,77357,1,0,0:0:0:0:
215,140,77460,1,0,0:0:0:0:
389,58,77564,1,0,3:0:0:0:
455,60,77667,1,0,0:0:0:0:
263,74,77771,1,0,0:0:0:0:
244,122,77874,1,0,0:0:0:0:
463,212,77978,5,0,1:0:0:0:
420,253,78081,1,0,0:0:0:0:
334,257,78185,1,0,3:0:0:0:
130,288,78288,1,2,0:0:0:0:
215,301,78391,1,0,3:0:0:0:
240,349,78495,1,0,0:0:0:0:
66,333,78598,1,2,0:0:0:0:
11,335,78702,1,0,0:0:0:0:
202,228,78805,1,2,3:2:0:0:
281,227,78909,1,2,0:0:0:0:
202,228,79012,1,2,0:0:0:0:
281,227,79116,1,0,0:0:0:0:
88,191,79219,2,0,L|22:205,1,55,0|0,3:0|0:0,0:0:0:0:
290,95,79426,2,0,L|359:89,1,55,2|0,0:0|0:0,0:0:0:0:
116,44,79633,5,4,1:2:0:0:
368,146,81288,5,0,1:0:0:0:
83,147,81495,1,0,1:0:0:0:
371,221,82529,1,0,3:0:0:0:
180,236,82736,1,0,3:0:0:0:
289,238,82840,1,0,3:0:0:0:
67,282,82943,5,0,1:0:0:0:
328,182,84185,1,0,3:0:0:0:
245,158,84288,1,0,0:0:0:0:
328,182,84391,1,0,3:0:0:0:
245,158,84495,1,0,3:0:0:0:
490,149,84598,5,0,1:0:0:0:
295,306,85322,1,0,3:0:0:0:
405,314,85426,1,0,3:0:0:0:
203,265,85633,1,0,3:0:0:0:
278,232,85736,1,0,3:0:0:0:
301,160,85840,1,0,3:0:0:0:
277,103,85943,1,0,3:0:0:0:
198,78,86047,1,0,3:0:0:0:
470,251,86253,6,0,L|484:136,1,110,4|0,1:2|3:0,0:0:0:0:
389,126,86564,1,0,3:0:0:0:
291,106,86667,2,0,L|207:95,1,55,0|0,3:0|0:0,0:0:0:0:
345,69,86874,2,0,L|407:52,1,55,0|0,3:0|0:0,0:0:0:0:
206,59,87081,1,0,3:0:0:0:
145,84,87185,1,0,0:0:0:0:
120,132,87288,1,0,3:0:0:0:
128,193,87391,1,0,3:0:0:0:
249,244,87495,1,0,3:0:0:0:
301,263,87598,1,0,0:0:0:0:
256,277,87702,1,0,3:0:0:0:
207,291,87805,1,0,0:0:0:0:
93,343,87909,5,0,1:0:0:0:
170,329,88012,1,0,0:0:0:0:
215,262,88116,1,0,3:0:0:0:
215,193,88219,1,0,3:0:0:0:
115,136,88322,1,0,3:0:0:0:
51,128,88426,1,0,0:0:0:0:
157,80,88529,1,2,3:2:0:0:
206,57,88633,1,0,0:0:0:0:
328,54,88736,1,2,3:2:0:0:
390,50,88840,1,0,0:0:0:0:
219,109,88943,1,2,3:2:0:0:
219,157,89047,1,0,3:2:0:0:
380,198,89150,1,2,3:2:0:0:
441,199,89253,1,0,0:0:0:0:
219,278,89357,1,2,3:2:0:0:
160,295,89460,1,0,0:0:0:0:
420,340,89564,6,0,L|426:216,1,110,0|0,1:0|3:0,0:0:0:0:
206,218,89874,2,0,L|58:200,1,110,2|0,0:2|0:0,0:0:0:0:
300,152,90185,2,0,L|400:141,1,55,2|0,3:2|0:0,0:0:0:0:
186,73,90391,1,2,3:2:0:0:
124,101,90495,1,0,3:0:0:0:
90,159,90598,1,2,3:2:0:0:
104,230,90702,1,0,3:0:0:0:
174,276,90805,1,2,3:2:0:0:
248,282,90909,1,0,0:0:0:0:
146,336,91012,1,2,3:2:0:0:
73,352,91116,1,0,3:0:0:0:
366,344,91219,6,0,P|472:287|345:71,1,440,0|0,1:0|0:0,0:0:0:0:
144,70,92460,2,0,L|140:275,1,165,0|0,3:0|0:0,0:0:0:0:
361,159,92874,6,0,L|373:281,1,110,6|0,2:0|3:0,0:0:0:0:
338,277,93133,1,0,0:0:0:0:
296,285,93185,1,0,3:0:0:0:
258,294,93236,1,0,0:0:0:0:
109,226,93288,2,0,P|79:272|86:336,1,110,2|2,3:0|0:0,0:0:0:0:
246,327,93702,2,0,L|127:332,1,110,0|2,3:0|3:0,0:0:0:0:
402,262,94116,2,0,L|511:265,1,110,2|0,3:0|3:0,0:0:0:0:
239,236,94529,6,0,P|191:160|296:86,1,220,2|2,1:2|3:0,0:0:0:0:
402,84,95150,1,2,0:0:0:0:
99,97,95357,1,2,3:2:0:0:
226,93,95564,1,2,0:0:0:0:
309,85,95771,1,2,3:0:0:0:
332,43,95978,1,2,0:0:0:0:
57,106,96185,6,0,L|41:229,1,110,2|0,1:2|3:0,0:0:0:0:
82,225,96443,1,0,0:0:0:0:
116,233,96495,1,0,3:0:0:0:
150,242,96547,1,0,0:0:0:0:
291,207,96598,2,0,P|330:248|318:313,1,110,2|2,3:0|0:0,0:0:0:0:
152,327,97012,2,0,L|389:322,1,220,2|2,3:2|3:0,0:0:0:0:
82,192,97633,2,0,L|19:199,1,55,2|0,0:0|3:0,0:0:0:0:
253,145,97840,6,0,L|469:113,2,165,2|2|2,1:2|0:0|3:2,0:0:0:0:
65,171,98667,2,0,P|37:231|111:298,1,165,2|0,3:2|0:0,0:0:0:0:
208,311,99081,2,0,L|360:320,1,110,2|0,3:0|3:0,0:0:0:0:
53,309,99495,6,0,L|41:153,1,110,2|0,1:2|3:0,0:0:0:0:
82,174,99753,1,0,0:0:0:0:
125,159,99805,1,0,3:0:0:0:
164,143,99857,1,0,0:0:0:0:
318,145,99909,2,0,P|368:102|363:36,1,110,2|2,3:0|0:0,0:0:0:0:
196,49,100322,2,0,L|353:43,1,110,2|2,3:2|3:0,0:0:0:0:
35,127,100736,1,2,3:0:0:0:
179,196,100943,2,0,L|184:256,1,55,2|0,3:2|0:0,0:0:0:0:
384,302,101150,6,0,L|181:334,2,165,2|2|2,1:2|0:0|3:2,0:0:0:0:
394,274,101874,1,0,0:0:0:0:
247,211,101978,1,2,3:2:0:0:
182,199,102081,1,0,0:0:0:0:
292,164,102185,1,0,3:0:0:0:
352,144,102288,1,0,0:0:0:0:
188,75,102391,1,2,3:0:0:0:
117,103,102495,1,0,0:0:0:0:
87,171,102598,1,2,0:0:0:0:
112,241,102702,1,0,3:0:0:0:
309,306,102805,6,0,L|465:310,1,110,2|0,1:2|3:0,0:0:0:0:
378,308,103064,1,0,0:0:0:0:
331,309,103116,1,2,0:0:0:0:
291,309,103167,1,0,0:0:0:0:
136,310,103219,2,0,L|81:317,1,55,2|0,3:0|0:0,0:0:0:0:
270,245,103426,2,0,L|354:234,1,55,2|0,3:2|0:0,0:0:0:0:
125,219,103633,2,0,P|54:165|146:99,1,220,2|2,3:2|3:0,0:0:0:0:
303,98,104253,1,0,3:0:0:0:
29,199,104460,6,0,L|243:210,2,165,2|2|2,1:2|0:0|3:2,0:0:0:0:
34,159,105185,1,0,0:0:0:0:
291,36,105288,1,2,3:2:0:0:
376,67,105391,1,0,0:0:0:0:
399,139,105495,1,0,3:0:0:0:
382,216,105598,1,0,0:0:0:0:
304,250,105702,1,2,3:0:0:0:
228,258,105805,1,0,0:0:0:0:
344,321,105909,1,2,3:2:0:0:
405,330,106012,1,0,0:0:0:0:
218,324,106116,6,0,L|-27:350,1,220,2|2,1:2|3:0,0:0:0:0:
196,218,106736,2,0,L|235:225,3,27.5,2|0|0|0,3:2|0:0|3:0|0:0,0:0:0:0:
41,149,106943,2,0,P|25:118|59:53,1,110,0|2,3:0|3:0,0:0:0:0:
348,234,107357,2,0,L|481:240,1,110,2|2,3:0|0:0,0:0:0:0:
391,234,107667,1,0,0:0:0:0:
171,324,107771,6,0,L|121:212,1,110,2|2,1:2|3:2,0:0:0:0:
445,173,108185,2,0,L|320:173,1,110,2|2,3:0|3:2,0:0:0:0:
72,71,108598,1,2,3:2:0:0:
32,117,108702,1,0,3:0:0:0:
22,183,108805,1,0,3:0:0:0:
52,251,108909,1,0,0:0:0:0:
138,244,109012,1,2,3:0:0:0:
196,261,109116,1,0,3:0:0:0:
83,303,109219,1,0,3:0:0:0:
30,337,109322,1,0,0:0:0:0:
226,336,109426,6,0,L|357:333,3,110,2|2|2|2,1:2|0:0|3:0|3:2,0:0:0:0:
300,319,110098,1,0,0:0:0:0:
266,305,110150,1,0,3:0:0:0:
232,292,110202,1,0,0:0:0:0:
458,264,110253,2,0,L|462:135,1,110,2|2,3:2|3:0,0:0:0:0:
406,141,110564,1,0,0:0:0:0:
248,145,110667,2,0,L|164:144,1,55,2|0,3:0|0:0,0:0:0:0:
373,100,110874,2,0,L|437:100,1,55,2|0,0:0|3:0,0:0:0:0:
144,82,111081,6,0,L|134:200,1,110,2|0,1:2|3:0,0:0:0:0:
190,215,111391,1,0,0:0:0:0:
367,177,111495,1,2,3:0:0:0:
430,220,111598,1,0,0:0:0:0:
445,303,111702,1,2,0:0:0:0:
390,361,111805,1,0,0:0:0:0:
202,335,111909,1,2,3:2:0:0:
118,347,112012,1,0,3:0:0:0:
202,335,112116,1,0,3:0:0:0:
139,341,112219,1,0,0:0:0:0:
322,305,112322,1,2,3:0:0:0:
331,246,112426,1,0,3:0:0:0:
165,201,112529,1,2,3:2:0:0:
104,176,112633,1,0,0:0:0:0:
360,84,112736,6,0,L|216:91,1,110,2|2,1:2|0:0,0:0:0:0:
234,134,113047,1,0,0:0:0:0:
435,153,113150,1,2,3:0:0:0:
256,214,113357,1,2,0:0:0:0:
296,229,113409,1,0,0:0:0:0:
331,246,113460,1,0,3:0:0:0:
366,260,113512,1,0,0:0:0:0:
215,321,113564,2,0,L|62:333,1,110,2|2,3:2|3:0,0:0:0:0:
99,289,113874,1,0,0:0:0:0:
310,258,113978,2,0,L|399:250,1,55,2|0,3:0|0:0,0:0:0:0:
176,223,114185,2,0,L|164:128,1,55,2|0,3:2|0:0,0:0:0:0:
392,160,114391,6,0,L|399:23,1,110,2|0,1:2|3:0,0:0:0:0:
126,34,114805,1,2,3:0:0:0:
203,55,114909,1,2,0:0:0:0:
239,113,115012,1,2,0:0:0:0:
224,176,115116,1,0,0:0:0:0:
133,216,115219,1,2,3:2:0:0:
309,238,115426,1,0,3:0:0:0:
42,263,115633,2,0,L|25:377,1,110,2|2,3:0|3:2,0:0:0:0:
86,372,115943,1,0,0:0:0:0:
283,349,116047,6,0,L|437:345,1,110,2|2,1:2|0:0,0:0:0:0:
428,344,116357,1,0,0:0:0:0:
230,261,116460,1,2,3:0:0:0:
386,221,116667,1,2,3:2:0:0:
345,226,116719,1,0,0:0:0:0:
303,228,116771,1,0,3:0:0:0:
263,234,116822,1,0,0:0:0:0:
422,150,116874,2,0,L|427:268,1,110,2|2,3:2|3:0,0:0:0:0:
151,312,117288,1,2,3:0:0:0:
432,335,117495,2,0,L|348:330,1,55,2|0,0:0|3:0,0:0:0:0:
157,260,117702,6,0,L|148:186,1,55,2|0,1:2|0:0,0:0:0:0:
271,179,117909,2,0,L|328:141,1,55,2|0,3:2|0:0,0:0:0:0:
134,123,118116,2,0,L|73:114,1,55,2|0,3:0|0:0,0:0:0:0:
308,96,118322,2,0,L|321:26,1,55,2|0,3:2|3:0,0:0:0:0:
83,43,118529,1,2,0:0:0:0:
89,81,118633,1,0,0:0:0:0:
131,133,118736,1,0,3:0:0:0:
230,140,118840,1,0,0:0:0:0:
459,226,118943,1,2,3:0:0:0:
456,284,119047,1,0,0:0:0:0:
239,322,119150,1,0,3:0:0:0:
199,330,119202,1,0,0:0:0:0:
161,338,119253,1,0,0:0:0:0:
423,335,119357,5,4,1:2:0:0:
256,192,119564,12,0,124322,0:0:0:0:
