osu file format v14

[General]
AudioFilename: audio.mp3
AudioLeadIn: 0
PreviewTime: 49683
Countdown: 0
SampleSet: Soft
StackLeniency: 0.7
Mode: 2
LetterboxInBreaks: 0
WidescreenStoryboard: 1

[Editor]
Bookmarks: 0,22293,25721,49683
DistanceSpacing: 1.2
BeatDivisor: 4
GridSize: 4
TimelineZoom: 1.5

[Metadata]
Title:Everything for a Dream
TitleUnicode:Everything for a Dream
Artist:Fractal Dreamers
ArtistUnicode:Fractal Dreamers
Creator:JBHyperion
Version:Rain
Source:osu!
Tags:Helblinde skymuted instrumental piano Featured Artist Mappers Guild fruit factory
BeatmapID:1971061
BeatmapSetID:943803

[Difficulty]
HPDrainRate:6
CircleSize:6
OverallDifficulty:7
ApproachRate:7
SliderMultiplier:2
SliderTickRate:1

[Events]
//Background and Video events
0,0,"mountains-1412683_960_720.png",0,0
//Break Periods
//Storyboard Layer 0 (Background)
//Storyboard Layer 1 (Fail)
//Storyboard Layer 2 (Pass)
//Storyboard Layer 3 (Foreground)
//Storyboard Sound Samples

[TimingPoints]
0,571.428571428571,3,2,1,40,1,0
20571,574.162679425837,3,2,1,35,1,0
21145,-100,3,2,1,30,0,0
21719,-100,3,2,1,25,0,0
22293,571.428571428571,3,2,1,40,1,0
22578,-100,3,2,1,20,0,0
25435,-100,3,2,1,5,0,0
25721,500,3,2,1,20,1,0
27221,487.80487804878,3,2,1,20,1,0
27708,500,3,2,1,25,1,0
28708,500,3,2,1,20,1,0
30708,-100,3,2,1,30,0,0
31708,-100,3,2,1,20,0,0
34708,-100,3,2,1,25,0,0
37708,-100,3,2,1,20,0,0
46708,495.867768595041,3,2,1,20,1,0
46955,-100,3,2,1,25,0,0
49187,-100,3,2,1,30,0,0
49683,501.043841336117,3,2,1,25,1,0
67720,-100,3,2,1,30,0,0
69223,-100,3,2,1,35,0,0
69724,497.92531120332,4,2,1,35,1,0
70719,502.092050209205,4,2,1,30,1,0
71723,500,4,2,1,30,1,0
73723,500,3,2,1,35,1,0
82723,-80,3,2,1,35,0,0
83223,-100,3,2,1,35,0,0
91723,-80,3,2,1,35,0,0
92223,-100,3,2,1,35,0,0
93223,-80,3,2,1,35,0,0
93473,-100,3,2,1,35,0,0
97098,-100,3,2,1,10,0,0
97223,-100,3,2,1,35,0,0
97598,-100,3,2,1,10,0,0
97723,-80,3,2,77,40,0,1
114098,-80,3,2,77,10,0,1
114223,-80,3,2,77,40,0,1
115598,-80,3,2,77,10,0,1
115723,-80,3,2,77,40,0,1
120223,-100,3,2,77,40,0,0
120723,-100,3,2,1,28,0,0
121223,-100,3,2,1,25,0,0
121723,-100,3,2,1,23,0,0
121973,-100,3,2,1,21,0,0
122223,-100,3,2,1,19,0,0
122473,-100,3,2,1,17,0,0
122723,-100,3,2,1,15,0,0
122973,-100,3,2,1,13,0,0
123223,-100,3,2,1,11,0,0
123723,-100,3,2,1,9,0,0
124223,-100,3,2,1,7,0,0
124723,-100,3,2,1,5,0,0

[Colours]
Combo1 : 160,160,250
Combo2 : 255,180,150

[HitObjects]
256,192,0,5,4,0:0:0:0:
348,192,1142,1,2,0:0:0:0:
108,192,1714,1,0,0:0:0:0:
308,192,2285,1,0,0:0:0:0:
148,192,2857,1,2,0:0:0:0:
496,192,3428,5,0,0:0:0:0:
256,192,3999,1,2,0:0:0:0:
456,192,4571,1,0,0:0:0:0:
16,192,5142,1,4,0:0:0:0:
276,192,6285,5,2,0:0:0:0:
496,192,6857,1,0,0:0:0:0:
144,192,7428,1,8,0:0:0:0:
416,192,7999,1,2,0:0:0:0:
56,192,8571,5,8,0:0:0:0:
276,192,9142,1,0,0:0:0:0:
16,192,9714,1,2,0:0:0:0:
476,192,10285,1,4,0:0:0:0:
136,172,11428,6,0,L|124:376,1,200,2|0,0:0|0:0,0:0:0:0:
344,372,12571,1,0,0:0:0:0:
104,372,13142,1,2,0:0:0:0:
484,276,13714,5,0,0:0:0:0:
252,276,14285,1,2,0:0:0:0:
20,276,14857,1,0,0:0:0:0:
484,276,15428,1,4,0:0:0:0:
480,204,16571,6,0,L|476:0,1,200,2|0,0:0|0:0,0:0:0:0:
136,4,17714,1,8,0:0:0:0:
376,8,18285,1,2,0:0:0:0:
16,76,18857,1,8,0:0:0:0:
296,76,19428,1,2,0:0:0:0:
36,76,19999,1,0,0:0:0:0:
244,192,20428,2,0,L|276:192,1,25
356,192,20571,5,8,0:0:0:0:
416,168,20714,1,0,0:0:0:0:
416,104,20858,1,0,0:0:0:0:
356,76,21001,1,0,0:0:0:0:
216,76,21145,1,2,0:0:0:0:
226,149,21288,1,0,0:0:0:0:
274,205,21432,1,0,0:0:0:0:
345,224,21575,1,0,0:0:0:0:
484,224,21719,2,0,L|432:224,1,50,2|0,0:0|0:0,0:0:0:0:
292,296,22006,2,0,L|239:296,1,50,2|0,0:0|0:0,0:0:0:0:
40,296,22293,5,4,0:0:0:0:
256,192,22578,12,0,25435,0:0:0:0:
376,192,25721,5,0,0:0:0:0:
404,192,25783,2,0,L|412:16,1,175,8|0,0:0|0:0,0:0:0:0:
192,16,26721,1,2,0:0:0:0:
311,15,26971,1,0,0:0:0:0:
64,16,27221,1,0,0:0:0:0:
36,16,27281,2,0,P|32:48|48:88,1,75,2|0,0:0|0:0,0:0:0:0:
380,84,27708,2,0,P|432:156|440:264,1,200,8|0,0:0|0:0,0:0:0:0:
60,192,28708,5,0,0:0:0:0:
88,192,28770,2,0,L|264:192,1,175,8|0,0:0|0:0,0:0:0:0:
24,192,29708,1,8,0:0:0:0:
304,192,30208,1,0,0:0:0:0:
56,292,30708,2,0,L|64:192,1,100,2|0,0:0|0:0,0:0:0:0:
316,292,31208,2,0,L|416:292,1,100,2|0,0:0|0:0,0:0:0:0:
64,292,31708,5,0,0:0:0:0:
28,292,31770,2,0,P|36:236|128:168,1,175,8|0,0:0|0:0,0:0:0:0:
408,168,32708,1,2,0:0:0:0:
28,168,33208,2,0,L|24:128,1,25,0|8,0:0|0:0,0:0:0:0:
236,144,33708,1,2,0:0:0:0:
476,144,34208,1,0,0:0:0:0:
176,48,34708,6,0,L|280:48,2,100,2|0|0,0:0|0:0|0:0,0:0:0:0:
296,48,35458,1,0,0:0:0:0:
76,48,35708,2,0,L|68:156,1,100,2|0,0:0|0:0,0:0:0:0:
308,148,36208,2,0,P|372:204|308:272,1,200,8|0,0:0|0:0,0:0:0:0:
428,272,36958,1,0,0:0:0:0:
288,272,37208,2,0,L|188:272,1,100,2|0,0:0|0:0,0:0:0:0:
428,272,37708,5,0,0:0:0:0:
468,272,37770,2,0,P|496:208|404:144,1,200,8|0,0:0|0:0,0:0:0:0:
196,144,38708,1,2,0:0:0:0:
328,144,38958,1,0,0:0:0:0:
88,144,39208,1,0,0:0:0:0:
56,144,39270,2,0,L|48:68,1,75,2|0,0:0|0:0,0:0:0:0:
288,20,39708,2,0,L|88:20,1,200,8|0,0:0|0:0,0:0:0:0:
456,20,40708,6,0,L|460:52,1,25,0|2,0:0|0:0,0:0:0:0:
248,44,41208,1,0,0:0:0:0:
496,44,41708,1,8,0:0:0:0:
124,44,42208,1,0,0:0:0:0:
484,140,42708,1,8,0:0:0:0:
384,140,42958,1,0,0:0:0:0:
164,248,43208,1,2,0:0:0:0:
304,248,43458,1,0,0:0:0:0:
64,248,43708,5,0,0:0:0:0:
28,248,43770,2,0,L|48:176,1,75,8|0,0:0|0:0,0:0:0:0:
280,176,44208,1,2,0:0:0:0:
80,176,44708,1,0,0:0:0:0:
480,176,45208,2,0,L|484:136,1,25,0|8,0:0|0:0,0:0:0:0:
236,176,45708,1,2,0:0:0:0:
464,176,46208,1,0,0:0:0:0:
100,176,46708,6,0,L|200:176,2,100,4|0|0,0:0|0:0|0:0,0:0:0:0:
224,176,47451,1,0,0:0:0:0:
20,176,47699,2,0,L|12:76,1,100,2|0,0:0|0:0,0:0:0:0:
252,76,48195,2,0,P|356:108|444:272,1,300,8|0,0:0|0:0,0:0:0:0:
212,264,49187,1,2,0:0:0:0:
80,264,49435,1,0,0:0:0:0:
412,372,49683,6,0,L|416:272,1,100,8|0,0:0|0:0,0:0:0:0:
208,272,50184,2,0,L|104:272,1,100,8|0,0:0|0:0,0:0:0:0:
292,192,50685,1,2,0:0:0:0:
80,192,50935,1,0,0:0:0:0:
332,192,51186,2,0,L|436:192,2,100,8|0|0,0:0|0:0|0:0,0:0:0:0:
92,192,52188,1,2,0:0:0:0:
472,192,52689,6,0,L|476:84,1,100,8|0,0:0|0:0,0:0:0:0:
256,92,53190,1,2,0:0:0:0:
376,92,53440,1,0,0:0:0:0:
116,92,53691,2,0,L|16:92,1,100,8|0,0:0|0:0,0:0:0:0:
348,92,54192,1,8,0:0:0:0:
420,124,54442,1,0,0:0:0:0:
420,204,54693,1,0,0:0:0:0:
349,244,54943,1,2,0:0:0:0:
84,244,55194,2,0,L|172:192,1,100,8|0,0:0|0:0,0:0:0:0:
472,204,55695,5,8,0:0:0:0:
488,304,55946,1,0,0:0:0:0:
408,360,56196,1,0,0:0:0:0:
288,360,56447,1,0,0:0:0:0:
500,204,56697,2,0,L|396:204,1,100,2|0,0:0|0:0,0:0:0:0:
180,204,57198,2,0,L|300:204,1,100,8|0,0:0|0:0,0:0:0:0:
40,204,57699,2,0,L|32:92,1,100,2|0,0:0|0:0,0:0:0:0:
252,104,58200,1,2,0:0:0:0:
112,104,58451,1,0,0:0:0:0:
444,104,58701,6,0,L|448:72,1,25,0|8,0:0|0:0,0:0:0:0:
344,80,58951,1,0,0:0:0:0:
344,220,59202,1,0,0:0:0:0:
484,220,59453,1,0,0:0:0:0:
344,220,59703,1,2,0:0:0:0:
204,220,59954,1,0,0:0:0:0:
452,224,60204,2,0,P|480:128|452:32,1,200,8|0,0:0|0:0,0:0:0:0:
256,36,61207,2,0,L|360:36,1,100,2|0,0:0|0:0,0:0:0:0:
44,36,61708,5,8,0:0:0:0:
16,136,61958,1,0,0:0:0:0:
116,192,62209,1,0,0:0:0:0:
348,192,62459,1,8,0:0:0:0:
228,192,62710,1,2,0:0:0:0:
108,192,62960,1,0,0:0:0:0:
368,192,63211,2,0,L|472:192,1,100,8|0,0:0|0:0,0:0:0:0:
328,264,63712,2,0,L|220:264,1,100,2|0,0:0|0:0,0:0:0:0:
448,340,64213,2,0,L|344:340,1,100,2|0,0:0|0:0,0:0:0:0:
106,340,64714,6,0,L|4:340,1,100,8|0,0:0|0:0,0:0:0:0:
228,264,65215,2,0,L|332:264,1,100,2|0,0:0|0:0,0:0:0:0:
68,264,65716,2,0,P|72:204|128:136,1,150,8|0,0:0|0:0,0:0:0:0:
296,136,66175,1,0,0:0:0:0:
340,136,66217,1,4,0:0:0:0:
480,136,66467,1,0,0:0:0:0:
476,4,66718,1,0,0:0:0:0:
344,4,66969,1,0,0:0:0:0:
124,4,67219,1,2,0:0:0:0:
259,53,67595,1,0,0:0:0:0:
228,80,67657,1,0,0:0:0:0:
76,72,67720,6,0,L|72:196,1,100,8|0,0:0|0:0,0:0:0:0:
312,172,68221,2,0,L|308:72,1,100,2|0,0:0|0:0,0:0:0:0:
48,72,68722,1,2,0:0:0:0:
288,172,69223,2,0,L|184:172,1,100,8|0,0:0|0:0,0:0:0:0:
420,172,69724,2,0,L|424:280,1,100,2|0,0:0|0:0,0:0:0:0:
184,272,70221,1,2,0:0:0:0:
312,272,70595,1,0,0:0:0:0:
260,272,70657,1,0,0:0:0:0:
112,272,70719,5,4,0:0:0:0:
12,272,70970,1,0,0:0:0:0:
12,172,71221,1,0,0:0:0:0:
112,172,71472,1,0,0:0:0:0:
332,172,71723,2,0,L|436:172,1,100,2|0,0:0|0:0,0:0:0:0:
292,172,72223,1,2,0:0:0:0:
452,172,72473,1,0,0:0:0:0:
220,172,72723,2,0,L|216:272,1,100,2|0,0:0|0:0,0:0:0:0:
456,272,73223,2,0,L|348:272,1,100,8|0,0:0|0:0,0:0:0:0:
132,128,73723,5,4,0:0:0:0:
128,228,73973,1,0,0:0:0:0:
200,296,74223,1,0,0:0:0:0:
320,296,74473,1,0,0:0:0:0:
80,296,74723,2,0,L|72:184,1,100,2|0,0:0|0:0,0:0:0:0:
380,192,75223,1,8,0:0:0:0:
480,192,75473,1,0,0:0:0:0:
480,92,75723,1,0,0:0:0:0:
380,92,75973,1,0,0:0:0:0:
160,92,76223,2,0,L|56:92,1,100,2|0,0:0|0:0,0:0:0:0:
380,92,76723,5,4,0:0:0:0:
500,92,76973,1,0,0:0:0:0:
360,92,77223,2,0,L|252:92,1,100,2|0,0:0|0:0,0:0:0:0:
492,92,77723,2,0,L|488:192,1,100,8|0,0:0|0:0,0:0:0:0:
268,192,78223,2,0,L|168:192,2,100,8|0|0,0:0|0:0|0:0,0:0:0:0:
108,192,78973,2,0,L|104:260,1,50
304,344,79223,2,0,L|360:344,1,50,8|2,0:0|0:0,0:0:0:0:
252,280,79473,2,0,L|196:280,1,50,2|2,0:0|0:0,0:0:0:0:
404,280,79723,6,0,L|504:280,2,100,4|0|0,0:0|0:0|0:0,0:0:0:0:
280,280,80473,1,0,0:0:0:0:
40,280,80723,2,0,L|36:176,1,100,8|0,0:0|0:0,0:0:0:0:
256,180,81223,2,0,L|156:180,1,100,2|0,0:0|0:0,0:0:0:0:
16,180,81723,2,0,L|116:180,1,100,2|0,0:0|0:0,0:0:0:0:
360,180,82223,2,0,P|408:128|360:88,1,150,8|0,0:0|0:0,0:0:0:0:
296,88,82660,1,0,0:0:0:0:
192,88,82723,6,0,L|64:88,2,125,4|0|0,0:0|0:0|0:0,0:0:0:0:
312,88,83473,1,0,0:0:0:0:
52,88,83723,2,0,L|48:192,1,100,2|0,0:0|0:0,0:0:0:0:
356,188,84223,1,8,0:0:0:0:
348,288,84473,1,0,0:0:0:0:
260,336,84723,1,0,0:0:0:0:
140,336,84973,1,0,0:0:0:0:
368,360,85223,2,0,L|372:260,1,100,2|0,0:0|0:0,0:0:0:0:
132,336,85723,6,0,L|38:301,2,100,4|0|0,0:0|0:0|0:0,0:0:0:0:
272,336,86473,1,2,0:0:0:0:
38,301,86723,2,0,L|34:197,1,100,2|0,0:0|0:0,0:0:0:0:
364,192,87223,2,0,L|260:192,1,100,8|0,0:0|0:0,0:0:0:0:
144,192,87723,2,0,L|248:192,1,100
16,124,88223,1,8,0:0:0:0:
156,124,88473,1,2,0:0:0:0:
476,128,88723,5,4,0:0:0:0:
472,220,88973,1,0,0:0:0:0:
404,288,89223,1,0,0:0:0:0:
288,288,89473,1,2,0:0:0:0:
48,288,89723,1,8,0:0:0:0:
448,288,90223,2,0,L|452:184,1,100,8|0,0:0|0:0,0:0:0:0:
312,192,90723,2,0,L|300:92,1,100,2|0,0:0|0:0,0:0:0:0:
60,92,91223,2,0,P|80:36|160:0,1,150,8|0,0:0|0:0,0:0:0:0:
211,0,91660,1,0,0:0:0:0:
316,0,91723,6,0,L|440:0,1,125,4|0,0:0|0:0,0:0:0:0:
220,84,92223,2,0,L|116:84,1,100,2|0,0:0|0:0,0:0:0:0:
360,84,92723,1,8,0:0:0:0:
32,192,93223,2,0,L|156:192,1,125,8|0,0:0|0:0,0:0:0:0:
396,284,93723,2,8,L|296:284,1,100,2|0,0:0|0:0,0:0:0:0:
416,284,94223,1,2,0:0:0:0:
256,192,94598,1,0,0:0:0:0:
308,192,94660,1,0,0:0:0:0:
416,192,94723,5,4,0:0:0:0:
500,224,94973,1,0,0:0:0:0:
500,312,95223,1,0,0:0:0:0:
416,348,95473,1,0,0:0:0:0:
276,348,95723,2,0,L|168:348,1,100,2|0,0:0|0:0,0:0:0:0:
416,224,96223,1,8,0:0:0:0:
316,224,96723,2,0,P|328:148|376:96,1,150
436,224,97223,2,0,P|424:148|376:96,1,150,2|0,0:0|0:0,0:0:0:0:
152,64,97723,6,0,L|24:64,2,125,4|0|0,0:0|0:0|0:0,0:0:0:0:
388,64,98473,1,8,0:0:0:0:
252,64,98723,2,0,P|264:116|320:156,1,125,2|0,0:0|0:0,0:0:0:0:
80,152,99223,2,0,L|204:152,2,125,8|0|0,0:0|0:0|0:0,0:0:0:0:
316,224,99973,1,8,0:0:0:0:
124,224,100223,1,2,0:0:0:0:
348,224,100473,1,8,0:0:0:0:
52,224,100723,6,0,P|0:160|108:76,1,250,8|0,0:0|0:0,0:0:0:0:
332,76,101473,1,8,0:0:0:0:
136,76,101723,2,0,L|132:200,1,125,2|0,0:0|0:0,0:0:0:0:
366,286,102223,2,0,L|129:199,1,250,8|0,0:0|0:0,0:0:0:0:
368,200,102973,1,8,0:0:0:0:
231,200,103223,1,2,0:0:0:0:
196,332,103473,1,8,0:0:0:0:
496,332,103723,6,0,L|368:332,1,125,8|0,0:0|0:0,0:0:0:0:
232,332,104223,1,0,0:0:0:0:
468,332,104473,1,8,0:0:0:0:
316,332,104723,2,0,P|336:272|388:240,1,125,2|0,0:0|0:0,0:0:0:0:
148,244,105223,1,8,0:0:0:0:
172,132,105473,1,0,0:0:0:0:
316,132,105723,1,0,0:0:0:0:
84,132,105973,1,8,0:0:0:0:
276,132,106223,1,2,0:0:0:0:
56,132,106473,1,8,0:0:0:0:
364,132,106723,6,0,P|452:80|364:16,1,250,8|0,0:0|0:0,0:0:0:0:
160,12,107473,1,8,0:0:0:0:
396,16,107723,1,2,0:0:0:0:
148,104,108223,1,8,0:0:0:0:
296,104,108473,1,0,0:0:0:0:
444,104,108723,1,2,0:0:0:0:
216,192,108973,1,8,0:0:0:0:
412,192,109223,2,0,P|440:256|412:300,1,125
100,296,109723,6,0,L|224:296,2,125,8|0|0,0:0|0:0|0:0,0:0:0:0:
324,296,110473,1,8,0:0:0:0:
132,360,110723,2,0,B|8:360|8:360|8:296,1,187.5,2|0,0:0|0:0,0:0:0:0:
216,360,111223,2,0,L|340:360,2,125,8|0|0,0:0|0:0|0:0,0:0:0:0:
452,284,111973,1,8,0:0:0:0:
328,284,112223,1,2,0:0:0:0:
100,284,112473,1,8,0:0:0:0:
404,192,112723,6,0,P|452:176|480:112,2,125,8|0|0,0:0|0:0|0:0,0:0:0:0:
172,192,113473,1,8,0:0:0:0:
372,192,113723,2,0,P|388:136|304:56,1,187.5,2|0,0:0|0:0,0:0:0:0:
132,56,114223,1,8,0:0:0:0:
240,56,114473,1,0,0:0:0:0:
348,56,114723,1,0,0:0:0:0:
112,124,114973,1,8,0:0:0:0:
236,124,115223,2,0,B|360:124|360:124|360:196,1,187.5,2|0,0:0|0:0,0:0:0:0:
108,192,115723,5,8,0:0:0:0:
20,256,115973,1,0,0:0:0:0:
108,324,116223,1,0,0:0:0:0:
336,324,116473,1,8,0:0:0:0:
136,324,116723,2,0,L|128:200,1,125,2|0,0:0|0:0,0:0:0:0:
432,192,117223,6,0,L|300:192,2,125,8|0|0,0:0|0:0|0:0,0:0:0:0:
196,192,117973,1,8,0:0:0:0:
396,192,118223,1,2,0:0:0:0:
168,192,118473,1,8,0:0:0:0:
464,316,118723,6,0,L|472:188,1,125,8|0,0:0|0:0,0:0:0:0:
340,192,119223,1,0,0:0:0:0:
104,192,119473,1,8,0:0:0:0:
256,192,119723,1,2,0:0:0:0:
44,192,119973,1,8,0:0:0:0:
396,192,120223,5,4,0:0:0:0:
256,192,120473,12,0,124723,0:0:0:0:
