osu file format v14

[General]
AudioFilename: audio.mp3
AudioLeadIn: 0
PreviewTime: 49683
Countdown: 0
SampleSet: Soft
StackLeniency: 0.7
Mode: 2
LetterboxInBreaks: 0
WidescreenStoryboard: 0

[Editor]
Bookmarks: 0,22293,25721,49683
DistanceSpacing: 1.5
BeatDivisor: 2
GridSize: 4
TimelineZoom: 1

[Metadata]
Title:Everything for a Dream
TitleUnicode:Everything for a Dream
Artist:Fractal Dreamers
ArtistUnicode:Fractal Dreamers
Creator:JBHyperion
Version:Cup
Source:osu!
Tags:Helblinde skymuted instrumental piano Featured Artist Mappers Guild fruit factory
BeatmapID:1971059
BeatmapSetID:943803

[Difficulty]
HPDrainRate:3
CircleSize:3
OverallDifficulty:5
ApproachRate:5
SliderMultiplier:1.4
SliderTickRate:1

[Events]
//Background and Video events
0,0,"mountains-1412683_960_720.png",0,0
//Break Periods
//Storyboard Layer 0 (Background)
//Storyboard Layer 1 (Fail)
//Storyboard Layer 2 (Pass)
//Storyboard Layer 3 (Foreground)
//Storyboard Sound Samples

[TimingPoints]
0,571.428571428571,3,2,1,40,1,0
20571,574.162679425837,3,2,1,35,1,0
21145,-100,3,2,1,30,0,0
21719,-100,3,2,1,25,0,0
22293,571.428571428571,3,2,1,40,1,0
22578,-100,3,2,1,20,0,0
25435,-100,3,2,1,5,0,0
25721,500,3,2,1,20,1,0
27221,487.80487804878,3,2,1,20,1,0
27708,500,3,2,1,25,1,0
28708,500,3,2,1,20,1,0
30708,-100,3,2,1,30,0,0
31708,-100,3,2,1,20,0,0
34708,-100,3,2,1,25,0,0
37708,-100,3,2,1,20,0,0
46708,495.867768595041,3,2,1,20,1,0
46955,-100,3,2,1,25,0,0
49187,-100,3,2,1,30,0,0
49683,501.043841336117,3,2,1,25,1,0
67720,-100,3,2,1,30,0,0
69223,-100,3,2,1,35,0,0
69724,497.92531120332,4,2,1,35,1,0
70719,502.092050209205,4,2,1,30,1,0
71723,500,4,2,1,30,1,0
73723,500,3,2,1,35,1,0
97098,-100,3,2,1,10,0,0
97223,-100,3,2,1,35,0,0
97598,-100,3,2,1,10,0,0
97723,-100,3,2,77,40,0,1
114098,-100,3,2,77,10,0,1
114223,-100,3,2,77,40,0,1
115598,-100,3,2,77,10,0,1
115723,-100,3,2,77,40,0,1
120223,-100,3,2,77,40,0,0
120723,-100,3,2,1,28,0,0
121223,-100,3,2,1,25,0,0
121723,-100,3,2,1,23,0,0
121973,-100,3,2,1,21,0,0
122223,-100,3,2,1,19,0,0
122473,-100,3,2,1,17,0,0
122723,-100,3,2,1,15,0,0
122973,-100,3,2,1,13,0,0
123223,-100,3,2,1,11,0,0
123723,-100,3,2,1,9,0,0
124223,-100,3,2,1,7,0,0
124723,-100,3,2,1,5,0,0

[Colours]
Combo1 : 160,160,250
Combo2 : 255,180,150

[HitObjects]
256,192,0,5,4,0:0:0:0:
144,192,1142,1,2,0:0:0:0:
151,52,1714,1,0,0:0:0:0:
308,192,2285,1,0,0:0:0:0:
168,192,2857,1,2,0:0:0:0:
324,192,3428,5,0,0:0:0:0:
464,192,3999,1,2,0:0:0:0:
308,192,4571,1,0,0:0:0:0:
98,192,5142,1,4,0:0:0:0:
256,84,6285,5,2,0:0:0:0:
116,84,6857,1,0,0:0:0:0:
296,88,7428,1,8,0:0:0:0:
448,88,7999,1,2,0:0:0:0:
252,88,8571,5,8,0:0:0:0:
100,88,9142,1,0,0:0:0:0:
276,88,9714,1,2,0:0:0:0:
68,88,10285,1,4,0:0:0:0:
264,88,11428,6,0,L|264:236,1,140,2|0,0:0|0:0,0:0:0:0:
124,228,12571,1,0,0:0:0:0:
292,228,13142,1,2,0:0:0:0:
460,228,13714,5,0,0:0:0:0:
320,228,14285,1,2,0:0:0:0:
180,228,14857,1,0,0:0:0:0:
388,228,15428,1,4,0:0:0:0:
96,192,16571,5,2,0:0:0:0:
264,192,17142,1,0,0:0:0:0:
432,192,17714,1,8,0:0:0:0:
244,192,18285,1,2,0:0:0:0:
456,192,18857,5,8,0:0:0:0:
288,192,19428,2,0,L|288:52,1,140,2|0,0:0|0:0,0:0:0:0:
256,192,20571,12,4,22293,0:0:0:0:
160,192,25721,6,0,L|156:48,1,140,0|0,0:0|0:0,0:0:0:0:
324,52,26721,1,2,0:0:0:0:
368,124,26971,1,0,0:0:0:0:
308,184,27221,2,0,L|168:184,1,140,0|8,0:0|0:0,0:0:0:0:
308,184,28208,1,0,0:0:0:0:
140,184,28708,6,0,L|136:328,1,140,0|0,0:0|0:0,0:0:0:0:
320,324,29708,1,8,0:0:0:0:
164,324,30208,1,0,0:0:0:0:
344,324,30708,1,2,0:0:0:0:
384,267,30958,1,0,0:0:0:0:
393,198,31208,1,2,0:0:0:0:
369,133,31458,1,0,0:0:0:0:
288,263,31708,6,0,L|164:199,2,140,0|0|2,0:0|0:0|0:0,0:0:0:0:
456,263,33208,1,0,0:0:0:0:
316,263,33708,1,2,0:0:0:0:
176,263,34208,1,0,0:0:0:0:
344,263,34708,5,2,0:0:0:0:
236,199,35708,2,0,L|228:127,1,70,2|0,0:0|0:0,0:0:0:0:
312,75,36208,1,8,0:0:0:0:
200,75,37208,2,0,L|120:75,1,70,2|0,0:0|0:0,0:0:0:0:
48,75,37708,6,0,L|44:215,1,140,0|0,0:0|0:0,0:0:0:0:
184,215,38708,1,2,0:0:0:0:
364,215,39208,2,0,L|220:215,1,140,0|8,0:0|0:0,0:0:0:0:
348,215,40208,1,0,0:0:0:0:
180,307,40708,5,0,0:0:0:0:
332,307,41208,1,0,0:0:0:0:
488,307,41708,1,8,0:0:0:0:
308,307,42208,1,0,0:0:0:0:
464,307,42708,2,0,L|472:163,1,140,8|2,0:0|0:0,0:0:0:0:
304,167,43708,6,0,L|160:167,1,140,0|2,0:0|0:0,0:0:0:0:
288,167,44708,1,0,0:0:0:0:
108,79,45208,1,0,0:0:0:0:
232,79,45708,1,2,0:0:0:0:
356,79,46208,1,0,0:0:0:0:
180,79,46708,6,0,L|168:155,2,70,4|0|0,0:0|0:0|0:0,0:0:0:0:
308,79,47699,2,0,L|428:149,1,140,2|8,0:0|0:0,0:0:0:0:
232,200,48939,2,0,L|304:199,1,70,0|2,0:0|0:0,0:0:0:0:
484,199,49683,5,8,0:0:0:0:
308,199,50184,1,8,0:0:0:0:
448,199,50685,1,2,0:0:0:0:
400,199,50935,1,0,0:0:0:0:
352,199,51186,2,0,L|227:271,1,140,8|0,0:0|0:0,0:0:0:0:
384,267,52188,1,2,0:0:0:0:
216,267,52689,5,8,0:0:0:0:
188,187,52939,1,0,0:0:0:0:
248,127,53190,1,2,0:0:0:0:
416,127,53691,1,8,0:0:0:0:
208,128,54192,1,8,0:0:0:0:
76,132,55194,2,0,L|160:132,1,70,8|0,0:0|0:0,0:0:0:0:
220,131,55695,6,0,L|224:272,1,140,8|0,0:0|0:0,0:0:0:0:
56,272,56697,2,0,L|172:192,2,140,2|8|2,0:0|0:0|0:0,0:0:0:0:
196,272,58200,1,2,0:0:0:0:
392,272,58701,5,0,0:0:0:0:
256,192,59453,1,0,0:0:0:0:
264,124,59703,1,2,0:0:0:0:
316,76,59954,1,0,0:0:0:0:
384,76,60204,1,8,0:0:0:0:
200,76,61207,1,2,0:0:0:0:
20,76,61708,5,8,0:0:0:0:
232,192,62459,1,8,0:0:0:0:
220,276,62710,1,2,0:0:0:0:
156,328,62960,1,0,0:0:0:0:
72,344,63211,2,0,L|216:344,1,140,8|2,0:0|0:0,0:0:0:0:
380,344,64213,1,2,0:0:0:0:
212,344,64714,5,8,0:0:0:0:
396,344,65215,1,2,0:0:0:0:
196,344,65716,1,8,0:0:0:0:
412,344,66217,1,4,0:0:0:0:
352,244,67219,1,2,0:0:0:0:
172,244,67720,6,0,L|300:180,2,140,8|2|2,0:0|0:0|0:0,0:0:0:0:
368,244,69223,1,8,0:0:0:0:
200,244,69724,1,2,0:0:0:0:
32,244,70221,1,2,0:0:0:0:
240,244,70719,6,0,L|248:96,1,140,4|0,0:0|0:0,0:0:0:0:
144,104,71723,1,2,0:0:0:0:
296,104,72223,2,0,L|444:104,1,140,2|2,0:0|0:0,0:0:0:0:
372,127,72973,1,0,0:0:0:0:
344,189,73223,1,8,0:0:0:0:
368,253,73473,1,0,0:0:0:0:
431,279,73723,6,0,L|436:108,1,140,4|0,0:0|0:0,0:0:0:0:
252,144,74723,1,2,0:0:0:0:
72,144,75223,1,8,0:0:0:0:
280,144,76223,1,2,0:0:0:0:
100,144,76723,6,0,L|96:300,1,140,4|2,0:0|0:0,0:0:0:0:
264,284,77723,1,8,0:0:0:0:
432,284,78223,1,8,0:0:0:0:
244,284,78973,1,0,0:0:0:0:
252,200,79223,1,8,0:0:0:0:
324,156,79473,1,2,0:0:0:0:
408,152,79723,6,0,P|424:80|404:12,1,140,4|0,0:0|0:0,0:0:0:0:
256,80,80723,2,0,L|380:16,2,140,8|2|2,0:0|0:0|0:0,0:0:0:0:
72,80,82223,1,8,0:0:0:0:
280,80,82723,5,4,0:0:0:0:
152,192,83723,1,2,0:0:0:0:
332,192,84223,1,8,0:0:0:0:
80,192,85223,1,2,0:0:0:0:
44,276,85473,1,0,0:0:0:0:
116,332,85723,6,0,L|256:332,1,140,4|0,0:0|0:0,0:0:0:0:
96,332,86723,1,2,0:0:0:0:
288,332,87223,2,0,L|292:188,1,140,8|0,0:0|0:0,0:0:0:0:
124,192,88223,1,8,0:0:0:0:
224,192,88473,1,2,0:0:0:0:
324,192,88723,5,4,0:0:0:0:
72,84,89723,1,8,0:0:0:0:
268,84,90223,2,0,L|408:84,1,140,8|2,0:0|0:0,0:0:0:0:
224,84,91223,1,8,0:0:0:0:
408,192,91723,6,0,L|272:116,2,140,4|2|8,0:0|0:0|0:0,0:0:0:0:
212,192,93223,1,8,0:0:0:0:
352,192,93723,1,2,0:0:0:0:
492,192,94223,1,2,0:0:0:0:
324,192,94723,6,0,P|288:136|320:76,1,140,4|0,0:0|0:0,0:0:0:0:
460,76,95723,1,2,0:0:0:0:
390,76,95973,1,0,0:0:0:0:
319,76,96223,2,0,L|175:76,1,140,8|0,0:0|0:0,0:0:0:0:
456,192,97723,6,0,L|460:340,1,140,4|0,0:0|0:0,0:0:0:0:
376,332,98473,1,8,0:0:0:0:
292,332,98723,1,2,0:0:0:0:
124,332,99223,2,0,L|272:332,1,140,8|0,0:0|0:0,0:0:0:0:
332,332,99973,1,8,0:0:0:0:
192,332,100473,1,8,0:0:0:0:
94,332,100723,6,0,P|30:264|98:192,1,210,8|8,0:0|0:0,0:0:0:0:
182,192,101723,1,2,0:0:0:0:
372,192,102223,2,0,P|396:108|320:16,1,210,8|8,0:0|0:0,0:0:0:0:
240,16,103223,1,2,0:0:0:0:
240,100,103473,1,8,0:0:0:0:
338,100,103723,6,0,P|398:116|470:240,1,210,8|8,0:0|0:0,0:0:0:0:
470,236,104723,1,2,0:0:0:0:
288,236,105223,2,0,L|80:192,1,210,8|8,0:0|0:0,0:0:0:0:
168,192,106223,2,0,L|236:168,1,70,2|8,0:0|0:0,0:0:0:0:
332,168,106723,6,0,P|396:92|336:20,1,210,8|8,0:0|0:0,0:0:0:0:
240,16,107723,1,2,0:0:0:0:
44,16,108223,1,8,0:0:0:0:
196,16,108723,2,0,L|200:96,1,70,2|8,0:0|0:0,0:0:0:0:
116,84,109223,1,0,0:0:0:0:
296,84,109723,6,0,P|280:156|168:224,1,210,8|8,0:0|0:0,0:0:0:0:
100,224,110723,1,2,0:0:0:0:
280,224,111223,2,0,L|488:192,1,210,8|8,0:0|0:0,0:0:0:0:
404,192,112223,1,2,0:0:0:0:
320,192,112473,1,8,0:0:0:0:
404,192,112723,6,0,L|408:112,1,70,8|0,0:0|0:0,0:0:0:0:
240,124,113473,2,0,L|164:124,1,70,8|2,0:0|0:0,0:0:0:0:
352,124,114223,2,0,P|392:192|384:252,1,140,8|0,0:0|0:0,0:0:0:0:
308,252,114973,1,8,0:0:0:0:
232,252,115223,1,2,0:0:0:0:
36,252,115723,5,8,0:0:0:0:
40,176,115973,1,0,0:0:0:0:
72,104,116223,1,0,0:0:0:0:
140,68,116473,1,8,0:0:0:0:
216,68,116723,1,2,0:0:0:0:
400,68,117223,5,8,0:0:0:0:
332,68,117473,1,0,0:0:0:0:
264,68,117723,1,0,0:0:0:0:
348,68,117973,2,0,L|352:208,1,140,8|8,0:0|0:0,0:0:0:0:
268,208,118723,6,0,L|192:208,1,70,8|0,0:0|0:0,0:0:0:0:
364,204,119473,1,8,0:0:0:0:
388,284,119723,1,2,0:0:0:0:
320,332,119973,1,8,0:0:0:0:
216,332,120223,5,4,0:0:0:0:
256,192,120723,12,0,124723,0:0:0:0:
