osu file format v14

[General]
AudioFilename: audio.mp3
AudioLeadIn: 0
PreviewTime: 28730
Countdown: 1
SampleSet: Soft
StackLeniency: 0.7
Mode: 0
LetterboxInBreaks: 0
WidescreenStoryboard: 1

[Editor]
Bookmarks: 28805,62405,91205,110405,139055
DistanceSpacing: 1.3
BeatDivisor: 4
GridSize: 16
TimelineZoom: 2.8

[Metadata]
Title:Celestial Horizon
TitleUnicode:Celestial Horizon
Artist:Fractal Dreamers
ArtistUnicode:Fractal Dreamers
Creator:loli catgirl
Version:Insane
Source:
Tags:cococolaco featured_artist fa helblinde naotoshi icekalt nao tomori
BeatmapID:1589519
BeatmapSetID:752921

[Difficulty]
HPDrainRate:6
CircleSize:4
OverallDifficulty:8
ApproachRate:9
SliderMultiplier:1.6
SliderTickRate:1

[Events]
//Background and Video events
0,0,"iB2m0Zl.png",0,0
//Break Periods
2,81805,85805
//Storyboard Layer 0 (Background)
//Storyboard Layer 1 (Fail)
//Storyboard Layer 2 (Pass)
//Storyboard Layer 3 (Foreground)
//Storyboard Sound Samples

[TimingPoints]
5,300,4,2,0,15,1,0
5,-166.666666666667,4,2,0,15,0,0
9605,-125,4,2,0,15,0,0
10055,-166.666666666667,4,2,0,15,0,0
12005,-125,4,2,0,15,0,0
12455,-166.666666666667,4,2,0,15,0,0
14405,-125,4,2,0,15,0,0
14855,-166.666666666667,4,2,0,15,0,0
16805,-125,4,2,0,15,0,0
17255,-166.666666666667,4,2,0,15,0,0
19205,-125,4,2,0,35,0,0
28805,-100,4,2,0,45,0,0
36005,-100,4,2,0,25,0,0
38405,-111.111111111111,4,2,0,35,0,0
62705,-125,4,2,0,35,0,0
74405,-90.9090909090909,4,2,0,35,0,0
74855,-125,4,2,0,35,0,0
91205,-166.666666666667,4,2,0,15,0,0
109805,-166.666666666667,4,2,0,35,0,0
110405,-83.3333333333333,4,2,0,55,0,1
120005,-83.3333333333333,4,2,0,45,0,1
126305,-100,4,2,0,45,0,1
126605,-125,4,2,0,45,0,1
126905,-166.666666666667,4,2,0,45,0,1
127205,-83.3333333333333,4,2,0,45,0,1
129605,-166.666666666667,4,2,0,45,0,0
129680,-166.666666666667,4,2,0,15,0,0

[Colours]
Combo1 : 229,229,229
Combo2 : 255,174,239
Combo3 : 234,254,186
Combo4 : 209,141,226
Combo5 : 168,255,201
Combo6 : 255,0,0
Combo7 : 250,100,10
Combo8 : 247,115,91

[HitObjects]
86,68,5,6,0,P|56:56|21:52,2,47.9999985351563,2|0|0,0:0|0:0|0:0,0:0:0:0:
110,154,455,2,0,L|218:139,1,95.9999970703126,2|0,0:0|0:0,0:0:0:0:
222,250,905,2,0,L|168:242,1,47.9999985351563,2|0,0:0|0:0,0:0:0:0:
125,357,1205,6,0,P|148:351|170:342,2,47.9999985351563,2|0|0,0:0|0:0|0:0,0:0:0:0:
54,301,1655,2,0,L|67:192,1,95.9999970703126,2|0,0:0|0:0,0:0:0:0:
120,139,2105,2,0,L|112:84,1,47.9999985351563,2|0,0:0|0:0,0:0:0:0:
45,0,2405,6,0,P|13:5|-12:25,2,47.9999985351563,2|0|0,0:0|0:0|0:0,0:0:0:0:
128,13,2855,2,0,L|232:26,1,95.9999970703126,2|0,0:0|0:0,0:0:0:0:
294,79,3305,2,0,L|297:139,1,47.9999985351563,2|0,0:0|0:0,0:0:0:0:
410,149,3605,6,0,P|402:126|389:106,2,47.9999985351563,2|0|0,0:0|0:0|0:0,0:0:0:0:
349,222,4055,2,0,L|243:217,1,95.9999970703126,2|0,0:0|0:0,0:0:0:0:
421,294,4505,2,0,L|475:285,1,47.9999985351563,2|0,0:0|0:0,0:0:0:0:
367,376,4805,70,0,P|349:360|334:325,1,47.9999985351563,2|0,0:0|0:0,0:0:0:0:
256,305,5105,1,0,0:0:0:0:
173,364,5255,2,0,L|151:263,1,95.9999970703126,2|0,0:0|0:0,0:0:0:0:
84,212,5705,2,0,L|19:207,1,47.9999985351563,2|0,0:0|0:0,0:0:0:0:
148,145,6005,6,0,P|177:131|212:128,1,47.9999985351563,2|0,0:0|0:0,0:0:0:0:
269,182,6305,1,0,0:0:0:0:
276,95,6455,2,0,L|264:-4,1,95.9999970703126,2|0,0:0|0:0,0:0:0:0:
362,46,6905,2,0,L|417:56,1,47.9999985351563,2|0,0:0|0:0,0:0:0:0:
512,148,7205,6,0,P|469:141|449:145,1,47.9999985351563,2|0,0:0|0:0,0:0:0:0:
392,189,7505,1,0,0:0:0:0:
310,140,7655,2,0,L|298:247,1,95.9999970703126,2|0,0:0|0:0,0:0:0:0:
339,313,8105,2,0,L|392:305,1,47.9999985351563,2|0,0:0|0:0,0:0:0:0:
263,369,8405,6,0,L|210:361,1,47.9999985351563,2|0,0:0|0:0,0:0:0:0:
125,358,8705,1,0,0:0:0:0:
180,282,8855,2,0,P|190:235|176:176,1,95.9999970703126,2|0,0:0|0:0,0:0:0:0:
53,84,9305,2,0,L|20:62,3,23.9999992675781,2|2|2|0,0:0|0:0|0:0|0:0,0:0:0:0:
100,166,9605,70,0,P|130:120|200:108,1,128,6|0,0:0|0:0,0:0:0:0:
284,163,10055,2,0,L|295:47,1,95.9999970703126,2|0,0:0|0:0,0:0:0:0:
368,24,10505,1,2,0:0:0:0:
368,24,10655,1,0,0:0:0:0:
446,71,10805,6,0,L|442:125,1,47.9999985351563,2|0,0:0|0:0,0:0:0:0:
388,269,11105,1,0,0:0:0:0:
457,218,11255,2,0,P|403:186|354:189,1,95.9999970703126,2|0,0:0|0:0,0:0:0:0:
311,236,11705,1,2,0:0:0:0:
311,236,11855,1,0,0:0:0:0:
240,186,12005,6,0,B|221:228|221:228|241:326,1,128,6|0,0:0|0:0,0:0:0:0:
204,384,12455,2,0,L|98:370,1,95.9999970703126,2|0,0:0|0:0,0:0:0:0:
31,359,12905,1,2,0:0:0:0:
31,359,13055,1,0,0:0:0:0:
81,289,13205,6,0,P|86:260|86:235,1,47.9999985351563,2|0,0:0|0:0,0:0:0:0:
44,161,13505,1,0,0:0:0:0:
219,149,13655,2,0,L|114:171,1,95.9999970703126,2|0,0:0|0:0,0:0:0:0:
18,45,14105,1,2,0:0:0:0:
18,45,14255,1,0,0:0:0:0:
65,113,14405,70,0,P|100:62|91:0,1,128,6|0,0:0|0:0,0:0:0:0:
183,38,14855,2,0,L|280:51,1,95.9999970703126,2|0,0:0|0:0,0:0:0:0:
364,37,15305,1,2,0:0:0:0:
364,37,15455,1,0,0:0:0:0:
450,58,15605,6,0,L|440:106,1,47.9999985351563,2|0,0:0|0:0,0:0:0:0:
462,218,15905,1,0,0:0:0:0:
387,171,16055,2,0,P|357:169|297:204,1,95.9999970703126,2|0,0:0|0:0,0:0:0:0:
271,277,16505,1,2,0:0:0:0:
271,277,16655,1,0,0:0:0:0:
106,229,16805,6,0,B|136:196|136:196|218:205,1,128,6|0,0:0|0:0,0:0:0:0:
275,281,17255,2,0,P|283:306|269:373,1,95.9999970703126,2|0,0:0|0:0,0:0:0:0:
192,314,17705,1,2,0:0:0:0:
192,314,17855,1,0,0:0:0:0:
356,376,18005,6,0,L|409:385,1,47.9999985351563,2|0,0:0|0:0,0:0:0:0:
474,327,18305,1,0,0:0:0:0:
402,209,18455,2,0,P|390:236|395:304,1,95.9999970703126,2|0,0:0|0:0,0:0:0:0:
332,159,18905,2,0,L|326:134,3,23.9999992675781,2|2|2|0,0:0|0:0|0:0|0:0,0:0:0:0:
371,64,19205,38,0,B|329:52|329:52|236:77,1,128,6|4,0:0|0:3,0:0:0:0:
161,50,19655,1,4,0:3:0:0:
326,135,19805,1,0,1:0:0:0:
169,140,19955,6,0,L|135:151,2,32,0|0|8,0:0|0:0|0:0,0:0:0:0:
250,182,20255,1,8,0:0:0:0:
250,182,20405,2,0,L|244:268,1,64,2|8,0:0|0:0,0:0:0:0:
266,325,20705,2,0,L|274:340,4,16,2|0|2|0|2,0:0|0:0|0:0|0:0|0:0,0:0:0:0:
164,272,21005,102,0,P|123:269|47:314,1,128,2|0,0:0|0:0,0:0:0:0:
0,52,21605,6,0,B|40:18|90:30|90:30|141:113|73:196,1,256,6|4,0:0|0:3,0:0:0:0:
85,179,22805,1,4,0:3:0:0:
147,112,22955,2,0,P|228:111|213:215,1,192,2|8,0:0|0:0,0:0:0:0:
376,55,24005,102,0,B|405:86|405:86|393:180,1,128,6|4,0:0|0:3,0:0:0:0:
419,258,24455,1,4,0:3:0:0:
492,125,24605,1,0,1:0:0:0:
311,119,24755,6,0,L|267:127,2,32,0|0|8,0:0|0:0|0:0,0:0:0:0:
328,227,25055,1,8,0:0:0:0:
328,227,25205,2,0,L|316:311,1,64,2|8,0:0|0:0,0:0:0:0:
263,360,25505,2,0,L|268:388,4,16,2|0|2|0|2,0:0|0:0|0:0|0:0|0:0,0:0:0:0:
403,274,25805,102,0,P|446:276|517:330,1,128,2|0,0:0|0:0,0:0:0:0:
221,175,26405,6,0,B|184:260|258:322|258:322|312:305|309:231,1,256,6|2,0:0|0:0,0:0:0:0:
308,253,27305,1,0,1:0:0:0:
185,374,27455,101,0,3:0:0:0:
185,374,27530,1,0,3:0:0:0:
185,374,27605,2,0,L|118:362,1,64,4|8,3:0|3:0,0:0:0:0:
16,218,27905,1,0,0:0:0:0:
0,313,28055,5,0,3:0:0:0:
0,313,28130,1,0,3:0:0:0:
0,313,28205,2,0,L|67:301,1,64,2|0,3:0|0:0,0:0:0:0:
359,26,28805,6,0,P|375:62|383:101,1,80,4|0,0:3|0:0,0:0:0:0:
365,205,29105,1,0,1:2:0:0:
457,177,29255,2,0,L|377:188,1,80,2|2,0:0|0:0,0:0:0:0:
327,367,29555,1,4,0:3:0:0:
303,277,29705,2,0,L|382:288,1,80,2|0,1:2|0:0,0:0:0:0:
297,155,30005,1,2,0:0:0:0:
111,291,30155,6,0,P|99:329|93:368,1,80,4|0,3:0|1:2,0:0:0:0:
203,157,30455,1,2,0:0:0:0:
203,157,30530,2,0,P|163:162|125:174,1,80,4|0,0:3|0:0,0:0:0:0:
43,219,30755,1,4,0:3:0:0:
43,219,30830,1,0,0:0:0:0:
43,219,30905,2,0,L|2:231,1,40,0|0,1:2|0:0,0:0:0:0:
45,118,31055,2,0,L|-2:102,1,40,2|2,0:0|0:0,0:0:0:0:
122,123,31205,6,0,B|114:162|114:162|122:201,1,80,4|0,0:3|0:0,0:0:0:0:
269,100,31505,2,0,B|277:61|277:61|269:21,1,80,0|2,1:2|0:0,0:0:0:0:
188,65,31805,1,2,0:0:0:0:
359,15,31955,2,0,L|438:26,1,80,4|0,0:3|1:2,0:0:0:0:
374,185,32255,1,2,0:0:0:0:
374,185,32330,1,2,0:0:0:0:
374,185,32405,6,0,P|362:146|356:107,1,80,4|2,0:3|0:0,0:0:0:0:
466,166,32705,1,2,1:2:0:0:
461,205,32780,1,0,0:0:0:0:
457,245,32855,2,0,L|411:267,1,40,4|4,0:3|0:3,0:0:0:0:
339,300,33005,2,0,L|288:290,3,40,4|0|4|0,0:3|0:0|0:3|0:0,0:0:0:0:
468,337,33305,1,0,1:0:0:0:
469,346,33380,1,0,0:0:0:0:
471,356,33455,1,4,0:3:0:0:
473,366,33530,1,0,0:0:0:0:
474,376,33605,70,0,P|432:372|388:363,1,80,4|0,0:3|0:0,0:0:0:0:
342,208,33905,1,0,1:2:0:0:
220,303,34055,2,0,P|259:299|299:291,1,80,2|2,0:0|0:0,0:0:0:0:
394,364,34355,1,4,0:3:0:0:
435,230,34505,2,0,L|417:135,1,80,2|2,1:2|0:0,0:0:0:0:
420,151,34730,1,2,0:0:0:0:
420,151,34805,1,2,0:0:0:0:
512,181,34955,1,4,0:3:0:0:
343,125,35105,6,0,P|297:137|263:159,1,80,2|2,1:2|0:0,0:0:0:0:
344,21,35330,1,4,0:3:0:0:
344,21,35405,2,0,P|378:40|417:49,1,80,0|4,0:0|0:3,0:0:0:0:
354,297,35705,2,0,L|335:206,1,80,0|0,1:2|0:0,0:0:0:0:
260,59,36005,1,4,0:1:0:0:
106,112,36605,6,0,L|111:72,3,40,2|0|0|0,0:0|0:0|0:0|0:0,0:0:0:0:
80,140,36905,2,0,L|95:229,1,80,2|0,0:3|0:0,0:0:0:0:
88,341,37205,6,0,P|131:320|155:297,1,80,2|4,0:0|0:3,0:0:0:0:
183,197,37505,2,0,P|212:223|249:239,1,80,2|4,0:0|0:3,0:0:0:0:
322,348,37805,1,2,0:0:0:0:
302,344,37880,1,2,0:0:0:0:
282,341,37955,1,2,0:0:0:0:
262,338,38030,1,2,0:0:0:0:
243,334,38105,2,0,L|224:370,3,40,2|2|2|2,0:0|0:0|0:0|0:0,0:0:0:0:
320,184,38405,70,0,P|333:229|335:261,1,71.9999978027344,4|0,0:3|0:0,0:0:0:0:
441,384,38705,2,0,P|445:348|456:314,1,71.9999978027344,2|2,1:2|0:3,0:0:0:0:
465,308,38930,1,2,0:3:0:0:
474,304,39005,2,0,L|397:311,1,71.9999978027344,6|0,0:3|0:0,0:0:0:0:
248,177,39305,2,0,L|325:184,1,71.9999978027344,2|0,1:2|0:0,0:0:0:0:
425,213,39605,6,0,P|420:177|409:143,1,71.9999978027344,4|0,0:3|0:0,0:0:0:0:
261,82,39905,2,0,P|225:86|191:97,1,71.9999978027344,2|0,1:2|0:0,0:0:0:0:
350,72,40205,2,0,L|367:31,3,35.9999989013672,4|2|2|2,0:3|0:3|0:3|0:3,0:0:0:0:
313,154,40505,2,0,L|303:231,1,71.9999978027344,2|0,1:2|0:0,0:0:0:0:
223,274,40805,6,0,P|187:269|153:258,1,71.9999978027344,4|0,0:3|0:0,0:0:0:0:
0,351,41105,2,0,P|35:355|69:366,1,71.9999978027344,2|2,1:2|0:3,0:0:0:0:
76,375,41330,1,2,0:3:0:0:
80,384,41405,2,0,L|73:307,1,71.9999978027344,6|0,0:3|0:0,0:0:0:0:
211,106,41705,2,0,L|204:177,1,71.9999978027344,2|0,1:2|0:0,0:0:0:0:
107,129,42005,6,0,P|71:133|37:144,1,71.9999978027344,4|0,0:3|0:0,0:0:0:0:
153,258,42305,2,0,P|187:269|222:273,1,71.9999978027344,2|2,1:2|0:3,0:0:0:0:
259,269,42530,1,2,0:3:0:0:
259,269,42605,2,0,L|249:314,3,35.9999989013672,4|2|2|2,0:3|0:3|0:3|0:3,0:0:0:0:
353,381,42905,2,0,L|339:287,1,71.9999978027344,2|0,1:2|0:0,0:0:0:0:
460,175,43205,70,0,L|438:317,1,143.999995605469,4|2,0:3|1:2,0:0:0:0:
369,227,43655,1,2,0:3:0:0:
369,227,43730,1,2,0:3:0:0:
369,227,43805,2,0,P|328:223|296:237,1,71.9999978027344,6|0,0:3|0:0,0:0:0:0:
435,98,44105,2,0,P|476:94|508:108,1,71.9999978027344,2|0,1:2|0:0,0:0:0:0:
335,68,44405,6,0,L|358:145,2,71.9999978027344,4|0|2,0:3|0:0|1:2,0:0:0:0:
255,26,44855,1,0,3:0:0:0:
210,185,45005,2,0,L|198:223,3,35.9999989013672,6|2|2|2,3:0|3:0|3:0|3:0,0:0:0:0:
182,110,45305,2,0,P|226:107|269:127,1,71.9999978027344,2|0,1:2|0:0,0:0:0:0:
229,298,45605,6,0,B|145:312|163:263|88:276,1,143.999995605469,4|2,0:3|1:2,0:0:0:0:
37,384,46055,1,2,0:3:0:0:
37,384,46130,1,2,0:3:0:0:
37,384,46205,2,0,P|72:375|107:360,1,71.9999978027344,6|0,0:3|0:0,0:0:0:0:
199,219,46505,2,0,P|190:184|176:151,1,71.9999978027344,2|0,1:2|0:0,0:0:0:0:
5,130,46805,6,0,B|100:110|100:110|121:92|130:60,1,143.999995605469,0|0,0:0|0:0,0:0:0:0:
237,90,47255,1,2,0:3:0:0:
237,90,47330,1,2,0:3:0:0:
237,90,47405,2,0,L|283:98,3,35.9999989013672,2|2|2|2,3:0|3:0|3:0|3:0,0:0:0:0:
358,50,47705,2,0,L|373:132,1,71.9999978027344,2|0,1:2|0:0,0:0:0:0:
227,257,48005,70,0,P|250:215|349:207,1,143.999995605469,4|2,0:3|1:2,0:0:0:0:
415,270,48455,1,2,0:3:0:0:
415,270,48530,1,2,0:3:0:0:
415,270,48605,2,0,L|400:352,1,71.9999978027344,6|0,0:3|0:0,0:0:0:0:
512,246,48905,2,0,L|499:175,1,71.9999978027344,2|0,1:2|0:0,0:0:0:0:
416,40,49205,6,0,B|372:67|380:123|380:123|409:161,1,143.999995605469,4|2,0:3|1:2,0:0:0:0:
298,58,49655,1,2,3:0:0:0:
298,58,49730,1,2,3:0:0:0:
298,58,49805,2,0,P|278:53|257:52,3,35.9999989013672,6|2|2|2,3:0|3:0|3:0|3:0,0:0:0:0:
206,121,50105,2,0,P|168:130|125:131,1,71.9999978027344,2|0,1:2|0:0,0:0:0:0:
37,72,50405,6,0,L|65:228,1,143.999995605469,4|2,0:3|1:2,0:0:0:0:
0,324,50855,1,2,3:0:0:0:
0,324,50930,1,2,3:0:0:0:
0,324,51005,2,0,P|40:310|74:304,1,71.9999978027344,6|0,3:0|0:0,0:0:0:0:
213,263,51305,2,0,P|177:255|143:243,1,71.9999978027344,2|0,1:2|0:0,0:0:0:0:
198,166,51605,69,6,0:0:0:0:
198,166,52505,53,4,0:3:0:0:
198,166,52805,69,4,0:3:0:0:
117,113,52955,2,0,P|98:66|97:24,1,71.9999978027344,0|0,0:0|1:2,0:0:0:0:
19,134,53255,2,0,L|3:213,1,71.9999978027344,2|2,0:0|0:0,0:0:0:0:
191,227,53555,1,4,0:3:0:0:
107,276,53705,2,0,L|92:205,1,71.9999978027344,0|2,1:0|0:0,0:0:0:0:
92,205,53930,1,2,0:0:0:0:
92,205,54005,1,4,0:3:0:0:
49,360,54155,5,4,0:3:0:0:
195,311,54305,2,0,P|227:310|272:330,1,71.9999978027344,2|0,1:2|0:0,0:0:0:0:
285,346,54530,2,0,L|421:328,1,107.999996704102,4|4,0:3|0:3,0:0:0:0:
247,170,54905,1,2,1:3:0:0:
247,170,54980,1,2,3:3:0:0:
247,170,55055,2,0,L|273:139,1,35.9999989013672,2|2,3:3|3:3,0:0:0:0:
307,244,55205,6,0,L|392:208,1,71.9999978027344,4|0,0:3|0:0,0:0:0:0:
475,230,55505,1,2,1:2:0:0:
425,144,55655,2,0,P|411:108|404:65,1,71.9999978027344,2|2,0:0|0:0,0:0:0:0:
504,82,55955,1,4,0:3:0:0:
334,17,56105,2,0,L|239:11,1,71.9999978027344,2|2,1:3|3:0,0:0:0:0:
170,44,56405,53,4,0:3:0:0:
174,64,56480,1,0,0:0:0:0:
177,84,56555,1,0,0:0:0:0:
180,104,56630,1,0,0:0:0:0:
184,123,56705,2,0,L|137:133,3,35.9999989013672,0|0|2|2,0:0|0:0|0:0|0:0,0:0:0:0:
271,184,57005,5,2,0:0:0:0:
275,164,57080,1,0,0:0:0:0:
278,144,57155,2,0,L|288:95,1,35.9999989013672,0|0,0:0|0:0,0:0:0:0:
182,213,57305,1,4,0:3:0:0:
185,230,57380,1,0,0:0:0:0:
193,246,57455,1,0,0:0:0:0:
204,260,57530,1,0,0:0:0:0:
219,270,57605,6,0,L|122:283,1,71.9999978027344,4|0,0:3|0:0,0:0:0:0:
46,123,57905,1,0,1:0:0:0:
0,208,58055,2,0,L|97:221,1,71.9999978027344,2|2,0:0|0:0,0:0:0:0:
196,361,58355,1,4,0:3:0:0:
52,384,58505,2,0,L|65:287,1,71.9999978027344,0|2,1:2|0:0,0:0:0:0:
167,182,58805,2,0,L|154:85,1,71.9999978027344,0|4,0:0|0:3,0:0:0:0:
98,41,59105,1,0,1:0:0:0:
258,153,59255,5,2,0:0:0:0:
258,153,59330,2,0,P|309:146|352:91,1,107.999996704102,4|4,0:3|0:3,0:0:0:0:
339,87,59630,1,0,0:0:0:0:
339,87,59705,2,0,L|326:40,3,35.9999989013672,2|2|2|2,1:3|3:0|3:0|3:0,0:0:0:0:
441,92,60005,6,0,L|431:163,1,71.9999978027344,6|0,3:0|0:0,0:0:0:0:
361,318,60305,1,0,1:2:0:0:
433,262,60455,2,0,P|408:243|358:227,1,71.9999978027344,2|2,0:0|0:0,0:0:0:0:
286,376,60755,1,4,0:3:0:0:
216,311,60905,2,0,P|241:292|291:276,1,71.9999978027344,2|2,0:0|0:0,0:0:0:0:
208,111,61205,53,4,0:3:0:0:
204,130,61280,1,0,0:0:0:0:
201,150,61355,2,0,L|145:156,1,35.9999989013672,0|0,0:0|0:0,0:0:0:0:
92,199,61505,2,0,L|36:193,3,35.9999989013672,0|0|2|2,0:0|0:0|0:0|0:0,0:0:0:0:
201,238,61805,5,2,0:0:0:0:
205,258,61880,1,0,0:0:0:0:
208,278,61955,1,0,0:0:0:0:
211,298,62030,1,0,0:0:0:0:
215,317,62106,2,0,L|257:306,3,35.9999989013672,6|2|2|2,3:3|3:0|3:0|3:0,0:0:0:0:
154,384,62405,1,4,0:3:0:0:
4,384,62555,5,4,0:3:0:0:
54,272,62705,2,0,P|76:302|82:342,1,64,0|2,1:2|0:0,0:0:0:0:
220,287,63155,5,4,0:3:0:0:
170,175,63305,2,0,P|148:205|142:245,1,64,0|2,1:2|0:0,0:0:0:0:
0,186,63755,5,4,0:3:0:0:
50,74,63905,2,0,P|72:104|78:144,1,64,0|2,1:2|0:0,0:0:0:0:
154,54,64205,2,0,P|162:24|182:0,1,64,2|0,0:0|0:0,0:0:0:0:
176,150,64506,1,0,1:0:0:0:
187,161,64581,1,0,3:0:0:0:
200,169,64656,1,0,3:0:0:0:
215,175,64731,1,0,3:0:0:0:
231,178,64806,1,4,0:3:0:0:
249,81,64955,5,4,0:3:0:0:
320,171,65105,2,0,P|316:206|292:245,1,64,0|2,1:0|0:0,0:0:0:0:
477,148,65555,69,4,0:3:0:0:
406,238,65705,2,0,P|410:273|434:312,1,64,0|2,1:0|0:0,0:0:0:0:
251,234,66155,5,4,0:3:0:0:
322,324,66305,2,0,P|318:359|294:398,1,64,0|2,1:0|0:0,0:0:0:0:
169,284,66605,2,0,P|155:255|152:223,1,64,0|4,0:0|0:3,0:0:0:0:
163,366,66905,1,0,1:0:0:0:
179,366,66980,1,0,3:0:0:0:
195,363,67055,1,0,3:0:0:0:
210,358,67130,1,0,3:0:0:0:
224,350,67205,1,4,0:3:0:0:
251,234,67355,5,4,0:3:0:0:
331,285,67505,2,0,L|346:353,1,64,0|2,1:0|0:0,0:0:0:0:
512,151,67955,5,4,0:3:0:0:
432,202,68105,2,0,L|417:270,1,64,0|2,1:0|0:0,0:0:0:0:
250,81,68555,69,4,0:3:0:0:
330,132,68705,2,0,L|345:200,1,64,0|2,1:0|0:0,0:0:0:0:
398,70,69005,2,0,P|371:51|340:45,1,64,2|4,0:0|0:3,0:0:0:0:
243,165,69305,1,0,1:0:0:0:
227,163,69380,1,0,3:0:0:0:
211,158,69455,1,0,3:0:0:0:
197,150,69530,1,0,3:0:0:0:
185,140,69605,1,4,3:0:0:0:
250,81,69755,5,4,0:3:0:0:
98,120,69905,2,0,L|114:204,1,64,0|0,1:0|0:0,0:0:0:0:
0,218,70355,5,4,0:3:0:0:
152,257,70505,2,0,L|136:341,1,64,0|2,1:0|0:0,0:0:0:0:
7,314,70805,6,0,P|48:288|79:281,1,64,4|0,0:3|0:0,0:0:0:0:
204,384,71105,2,0,P|230:343|237:312,1,64,0|2,0:0|0:0,0:0:0:0:
222,196,71405,2,0,P|181:170|150:163,1,64,2|0,0:0|0:0,0:0:0:0:
291,255,71705,2,0,P|320:243|346:224,1,64,4|2,0:3|0:0,0:0:0:0:
448,270,72005,70,0,L|434:174,1,96,4|0,0:3|0:0,0:0:0:0:
420,158,72305,1,2,1:2:0:0:
494,88,72455,1,2,0:0:0:0:
403,141,72605,2,0,P|357:137|330:125,1,64,2|4,0:0|0:3,0:0:0:0:
274,71,72905,2,0,P|243:61|211:61,1,64,0|2,1:0|0:0,0:0:0:0:
115,56,73205,5,2,0:0:0:0:
213,165,73355,1,4,0:3:0:0:
56,153,73505,2,0,L|127:141,1,64,0|2,1:0|0:0,0:0:0:0:
119,142,73730,1,4,0:3:0:0:
119,142,73805,1,0,0:0:0:0:
0,80,73955,1,0,0:0:0:0:
13,233,74105,1,0,1:3:0:0:
22,254,74180,1,0,0:3:0:0:
35,271,74255,2,0,L|71:289,1,32,2|2,0:0|0:3,0:0:0:0:
218,293,74405,6,0,B|123:293|161:375|43:378,1,176.000005371094,2|0,3:2|1:0,0:0:0:0:
219,380,74855,2,0,L|297:384,1,64,2|0,0:0|0:0,0:0:0:0:
309,229,75155,2,0,L|313:307,1,64,4|0,0:3|1:0,0:0:0:0:
400,384,75455,6,0,L|406:256,1,128,2|4,0:0|0:3,0:0:0:0:
494,158,75905,1,0,1:0:0:0:
315,236,76055,1,2,0:0:0:0:
315,236,76130,1,4,0:3:0:0:
315,236,76205,1,2,0:0:0:0:
398,83,76355,69,0,0:0:0:0:
412,172,76505,1,0,1:0:0:0:
396,175,76580,1,0,0:0:0:0:
379,173,76655,1,2,0:0:0:0:
364,167,76730,1,2,0:3:0:0:
352,156,76805,6,0,L|273:149,1,64,0|0,0:0|0:0,0:0:0:0:
149,251,77105,1,0,1:0:0:0:
194,326,77255,2,0,P|232:286|229:216,1,128,2|4,0:0|0:3,0:0:0:0:
123,156,77705,2,0,L|130:77,1,64,0|2,1:0|0:0,0:0:0:0:
207,135,78005,1,0,0:0:0:0:
36,140,78155,6,0,L|41:203,1,64,4|0,0:3|1:0,0:0:0:0:
4,331,78455,1,2,0:0:0:0:
14,313,78530,2,0,P|53:291|104:291,1,96,4|4,0:3|0:3,0:0:0:0:
154,361,78905,1,2,1:3:0:0:
169,362,78980,1,2,3:3:0:0:
185,364,79055,1,2,3:3:0:0:
201,366,79130,1,2,3:3:0:0:
217,367,79205,6,0,L|282:374,2,64,4|0|0,3:1|0:0|0:0,0:0:0:0:
260,282,79655,2,0,L|390:268,1,128,2|0,0:0|0:0,0:0:0:0:
472,299,80105,2,0,L|478:235,1,64,2|2,0:0|0:0,0:0:0:0:
399,112,80405,70,0,L|405:175,1,64,0|0,0:0|0:0,0:0:0:0:
310,146,80705,2,0,L|316:82,1,64,2|0,0:0|0:0,0:0:0:0:
216,82,81005,2,0,L|222:145,1,64,2|0,0:0|0:0,0:0:0:0:
127,175,81305,2,0,L|133:111,1,64,2|0,0:0|0:0,0:0:0:0:
57,232,81605,69,4,0:1:0:0:
256,192,86405,12,0,90905,0:0:0:0:
449,315,91205,22,0,P|413:287|362:291,1,95.9999970703126,2|0,0:0|0:0,0:0:0:0:
300,345,91655,2,0,L|196:329,1,95.9999970703126,2|0,0:0|0:0,0:0:0:0:
58,220,92105,1,2,0:0:0:0:
103,381,92405,6,0,B|123:348|123:348|117:285,1,95.9999970703126,2|0,0:0|0:0,0:0:0:0:
178,217,92855,2,0,P|215:206|277:230,1,95.9999970703126,2|0,0:0|0:0,0:0:0:0:
381,86,93305,1,2,0:0:0:0:
432,160,93605,102,0,P|387:176|341:165,1,95.9999970703126,2|0,0:0|0:0,0:0:0:0:
274,100,94055,2,0,L|288:3,1,95.9999970703126,2|0,0:0|0:0,0:0:0:0:
367,67,94505,1,2,0:0:0:0:
194,35,94805,6,0,L|99:50,1,95.9999970703126,2|0,0:0|0:0,0:0:0:0:
161,129,95255,2,0,P|168:163|148:223,1,95.9999970703126,2|0,0:0|0:0,0:0:0:0:
69,250,95705,2,0,L|21:240,1,47.9999985351563,2|2,0:0|0:0,0:0:0:0:
52,357,96005,102,0,L|148:337,1,95.9999970703126,2|0,0:0|0:0,0:0:0:0:
222,274,96455,2,0,L|318:294,1,95.9999970703126,2|0,0:0|0:0,0:0:0:0:
471,205,96905,1,2,0:0:0:0:
392,333,97205,6,0,B|404:302|404:302|393:229,1,95.9999970703126,2|0,0:0|0:0,0:0:0:0:
325,173,97655,2,0,P|282:164|225:183,1,95.9999970703126,2|0,0:0|0:0,0:0:0:0:
290,265,98105,1,2,0:0:0:0:
140,220,98405,102,0,L|150:119,1,95.9999970703126,2|0,0:0|0:0,0:0:0:0:
46,43,98855,2,0,L|55:138,1,95.9999970703126,2|0,0:0|0:0,0:0:0:0:
117,308,99305,1,2,0:0:0:0:
52,245,99605,6,0,P|91:219|139:219,1,95.9999970703126,2|0,0:0|0:0,0:0:0:0:
209,281,100055,2,0,L|309:262,1,95.9999970703126,2|0,0:0|0:0,0:0:0:0:
392,234,100505,2,0,L|387:296,1,47.9999985351563,2|0,0:0|0:0,0:0:0:0:
320,169,100805,101,2,0:0:0:0:
342,363,101255,1,2,0:0:0:0:
480,266,101705,1,2,0:0:0:0:
480,266,102305,5,2,0:0:0:0:
421,192,102605,1,2,0:0:0:0:
362,117,102905,2,0,L|307:124,1,47.9999985351563,2|0,0:0|0:0,0:0:0:0:
314,123,103130,1,0,0:0:0:0:
314,123,103205,1,2,0:0:0:0:
407,33,103655,101,2,0:0:0:0:
339,221,104105,2,0,B|258:232|282:189|194:198,1,143.999995605469,2|0,0:0|0:0,0:0:0:0:
224,292,104705,2,0,L|234:355,1,47.9999985351563,2|0,0:0|0:0,0:0:0:0:
126,306,105005,2,0,L|133:258,1,47.9999985351563,2|0,0:0|0:0,0:0:0:0:
30,223,105305,2,0,L|40:286,1,47.9999985351563,2|0,0:0|0:0,0:0:0:0:
103,170,105605,5,2,0:0:0:0:
0,347,106055,1,2,0:0:0:0:
0,135,106505,1,2,0:0:0:0:
256,192,106580,12,2,109805,3:3:0:0:
423,113,110405,86,0,B|387:86|387:86|404:210,1,143.999995605469,4|0,0:3|0:0,0:0:0:0:
436,259,110705,2,0,L|372:273,2,47.9999985351563,2|0|4,1:2|0:0|0:3,0:0:0:0:
484,185,111005,1,8,0:0:0:0:
428,349,111155,1,4,0:3:0:0:
299,312,111305,2,0,L|308:212,1,95.9999970703126,0|4,1:2|0:3,0:0:0:0:
223,39,111605,85,2,0:0:0:0:
199,34,111680,1,0,0:0:0:0:
176,35,111755,1,4,0:3:0:0:
153,44,111830,1,0,0:0:0:0:
136,61,111905,6,0,L|125:14,3,47.9999985351563,2|0|0|4,1:2|0:0|0:0|0:3,0:0:0:0:
126,15,112205,102,0,L|114:71,1,47.9999985351563,10|0,0:2|0:0,0:0:0:0:
208,172,112355,2,0,L|197:125,1,47.9999985351563,4|0,0:3|0:0,0:0:0:0:
307,4,112505,5,4,0:3:0:0:
311,28,112580,1,0,0:0:0:0:
311,52,112655,1,4,0:3:0:0:
305,75,112730,1,0,0:0:0:0:
293,96,112805,6,0,B|339:85|339:85|399:103,1,95.9999970703126,4|4,0:3|0:3,0:0:0:0:
256,256,113105,1,2,1:3:0:0:
256,256,113180,1,2,0:3:0:0:
256,256,113255,2,0,B|210:267|210:267|163:253,1,95.9999970703126,6|0,0:3|0:0,0:0:0:0:
92,311,113555,1,4,0:3:0:0:
206,173,113705,2,0,L|195:75,1,95.9999970703126,4|4,0:3|0:3,0:0:0:0:
20,51,114005,85,4,0:3:0:0:
20,51,114080,1,4,0:3:0:0:
20,51,114155,2,0,L|74:60,1,47.9999985351563,4|0,0:3|0:0,0:0:0:0:
119,144,114305,5,4,0:3:0:0:
119,144,114380,1,4,0:3:0:0:
119,144,114455,2,0,L|65:153,1,47.9999985351563,4|0,0:3|0:0,0:0:0:0:
27,239,114605,101,4,0:3:0:0:
27,239,114680,1,4,0:3:0:0:
27,239,114755,2,0,L|81:248,1,47.9999985351563,4|0,0:3|0:0,0:0:0:0:
126,332,114905,5,4,0:3:0:0:
126,332,114980,1,4,0:3:0:0:
126,332,115055,2,0,L|72:341,1,47.9999985351563,4|0,0:3|0:0,0:0:0:0:
165,247,115205,6,0,L|273:265,1,95.9999970703126,4|4,0:3|0:3,0:0:0:0:
368,309,115505,1,2,1:3:0:0:
368,309,115580,1,2,0:3:0:0:
368,309,115655,2,0,P|348:250|348:197,1,95.9999970703126,6|0,0:3|0:0,0:0:0:0:
203,111,115955,1,4,0:3:0:0:
295,86,116105,2,0,P|291:134|274:179,1,95.9999970703126,4|4,0:3|0:3,0:0:0:0:
379,121,116405,85,2,0:0:0:0:
403,116,116480,1,0,0:0:0:0:
426,117,116555,1,4,0:3:0:0:
449,126,116630,1,0,0:0:0:0:
473,143,116705,6,0,L|483:96,3,47.9999985351563,2|0|0|4,1:2|0:0|0:0|0:3,0:0:0:0:
483,96,117005,102,0,L|495:152,1,47.9999985351563,10|0,0:0|0:0,0:0:0:0:
394,254,117155,2,0,L|405:207,1,47.9999985351563,4|0,0:3|0:0,0:0:0:0:
295,86,117305,5,2,0:0:0:0:
291,110,117380,1,0,0:0:0:0:
291,134,117455,1,4,0:3:0:0:
297,157,117530,1,0,0:0:0:0:
309,178,117605,6,0,B|263:167|263:167|203:185,1,95.9999970703126,4|4,0:3|0:3,0:0:0:0:
106,88,117905,1,2,1:3:0:0:
106,88,117980,1,2,0:3:0:0:
106,88,118055,2,0,B|152:99|152:99|212:81,1,95.9999970703126,6|0,0:3|0:0,0:0:0:0:
148,11,118355,1,4,0:3:0:0:
216,180,118505,2,0,L|197:289,1,95.9999970703126,4|4,0:3|0:3,0:0:0:0:
0,211,118805,85,4,0:3:0:0:
4,230,118880,1,0,0:0:0:0:
9,250,118955,1,0,0:0:0:0:
14,270,119030,1,0,0:0:0:0:
17,289,119105,6,0,L|72:293,1,47.9999985351563,10|0,0:0|0:0,0:0:0:0:
134,198,119255,1,0,0:0:0:0:
134,198,119330,1,0,0:0:0:0:
134,198,119405,2,0,L|79:202,3,47.9999985351563,10|0|0|0,0:0|0:0|0:0|0:0,0:0:0:0:
146,319,119705,101,4,0:3:0:0:
138,341,119780,1,0,0:0:0:0:
123,360,119855,1,0,0:0:0:0:
103,372,119930,1,0,0:0:0:0:
79,377,120005,54,0,L|195:357,1,95.9999970703126,4|4,0:3|0:3,0:0:0:0:
223,239,120305,1,2,1:3:0:0:
223,239,120380,1,2,0:3:0:0:
223,239,120455,2,0,L|273:246,1,47.9999985351563,6|0,0:3|0:0,0:0:0:0:
388,375,120605,1,10,0:0:0:0:
428,288,120755,2,0,B|377:284|377:284|326:301,1,95.9999970703126,4|4,0:3|0:3,0:0:0:0:
270,245,121055,1,4,0:3:0:0:
438,192,121205,6,0,L|427:293,1,95.9999970703126,2|4,0:0|0:3,0:0:0:0:
332,106,121505,2,0,L|342:201,1,95.9999970703126,8|4,0:0|0:3,0:0:0:0:
242,56,121805,1,8,0:0:0:0:
240,67,122105,5,4,0:3:0:0:
238,78,122180,1,0,0:0:0:0:
237,90,122255,1,0,0:0:0:0:
235,102,122330,1,0,0:0:0:0:
233,113,122405,6,0,P|177:102|133:80,1,95.9999970703126,4|2,0:3|0:0,0:0:0:0:
66,217,122705,1,2,1:3:0:0:
66,217,122780,1,2,0:3:0:0:
66,217,122855,2,0,P|122:206|166:184,1,95.9999970703126,6|8,0:3|0:0,0:0:0:0:
211,13,123155,1,4,0:3:0:0:
340,114,123305,2,0,L|350:209,1,95.9999970703126,4|2,0:3|0:0,0:0:0:0:
350,209,123530,1,0,0:0:0:0:
350,209,123605,2,0,P|389:245|432:256,1,95.9999970703126,4|4,0:3|0:3,0:0:0:0:
285,289,123905,69,10,0:0:0:0:
285,289,123980,1,0,0:0:0:0:
285,289,124055,2,0,L|235:299,1,47.9999985351563,0|4,0:0|0:3,0:0:0:0:
93,213,124205,2,0,L|42:202,3,47.9999985351563,10|0|0|0,0:0|0:0|0:0|0:0,0:0:0:0:
157,324,124505,1,4,0:3:0:0:
155,301,124580,1,0,0:0:0:0:
159,277,124655,1,0,0:0:0:0:
170,256,124730,1,0,0:0:0:0:
186,238,124805,6,0,L|173:133,1,95.9999970703126,4|4,0:3|0:3,0:0:0:0:
99,21,125105,1,2,1:3:0:0:
99,21,125180,1,2,0:3:0:0:
99,21,125255,2,0,L|87:116,1,95.9999970703126,6|8,0:3|0:0,0:0:0:0:
0,56,125555,1,4,0:3:0:0:
184,62,125705,2,0,P|236:39|264:8,1,95.9999970703126,4|0,0:3|0:0,0:0:0:0:
275,17,125930,1,0,0:0:0:0:
286,24,126005,6,0,L|384:35,1,95.9999970703126,2|4,0:0|0:3,0:0:0:0:
441,118,126305,2,0,L|343:129,1,80,2|0,0:0|0:0,0:0:0:0:
310,212,126605,2,0,L|389:220,1,64,10|0,0:0|0:0,0:0:0:0:
417,307,126905,2,0,L|363:312,1,47.9999985351563,2|0,0:0|0:0,0:0:0:0:
235,376,127205,6,0,L|246:265,1,95.9999970703126,4|2,0:3|0:0,0:0:0:0:
104,274,127505,2,0,L|94:224,3,47.9999985351563,2|2|2|2,1:2|3:0|3:0|3:0,0:0:0:0:
181,221,127805,2,0,P|229:195|275:195,1,95.9999970703126,2|4,0:0|0:3,0:0:0:0:
361,108,128105,2,0,P|313:105|272:80,1,95.9999970703126,4|2,0:3|0:0,0:0:0:0:
196,120,128405,69,2,0:0:0:0:
196,120,128555,1,4,0:3:0:0:
341,19,128705,5,10,0:0:0:0:
355,190,128855,1,4,0:3:0:0:
408,114,129005,5,10,0:0:0:0:
388,110,129080,1,2,0:0:0:0:
368,107,129155,1,2,0:0:0:0:
348,104,129230,1,2,0:0:0:0:
329,100,129305,2,0,L|290:134,3,47.9999985351563,2|2|2|2,0:0|0:0|0:0|0:0,0:0:0:0:
241,49,129605,70,0,L|138:35,1,95.9999970703126,4|0,0:3|0:0,0:0:0:0:
95,114,130055,2,0,L|-8:128,1,95.9999970703126,2|0,0:0|0:0,0:0:0:0:
62,30,130505,1,2,0:0:0:0:
182,121,130805,6,0,P|184:169|172:222,1,95.9999970703126,2|0,0:0|0:0,0:0:0:0:
100,264,131255,2,0,L|-14:255,1,95.9999970703126,2|0,0:0|0:0,0:0:0:0:
95,172,131705,1,2,0:0:0:0:
62,358,132005,102,0,L|176:349,1,95.9999970703126,2|0,0:0|0:0,0:0:0:0:
211,277,132455,2,0,P|246:250|302:240,1,95.9999970703126,2|0,0:0|0:0,0:0:0:0:
287,328,132905,1,2,0:0:0:0:
394,265,133205,6,0,L|373:161,1,95.9999970703126,2|0,0:0|0:0,0:0:0:0:
498,95,133655,2,0,L|478:189,1,95.9999970703126,2|0,0:0|0:0,0:0:0:0:
404,77,134105,2,0,L|356:86,1,47.9999985351563,2|2,0:0|0:0,0:0:0:0:
293,158,134405,102,0,P|269:117|268:53,1,95.9999970703126,2|0,0:0|0:0,0:0:0:0:
186,0,134855,2,0,P|181:47|157:88,1,95.9999970703126,2|0,0:0|0:0,0:0:0:0:
191,166,135305,1,2,0:0:0:0:
101,17,135605,6,0,P|57:30|30:89,1,95.9999970703126,2|0,0:0|0:0,0:0:0:0:
89,135,136055,2,0,L|106:241,1,95.9999970703126,2|0,0:0|0:0,0:0:0:0:
56,384,136505,1,2,0:0:0:0:
12,313,136805,102,0,B|52:300|52:300|107:311,1,95.9999970703126,2|0,0:0|0:0,0:0:0:0:
183,349,137255,2,0,P|208:319|213:251,1,95.9999970703126,2|0,0:0|0:0,0:0:0:0:
227,137,137705,1,2,0:0:0:0:
296,193,138005,6,0,L|318:292,1,95.9999970703126,2|0,0:0|0:0,0:0:0:0:
401,355,138455,2,0,L|421:261,1,95.9999970703126,2|0,0:0|0:0,0:0:0:0:
296,384,138905,2,0,L|233:370,1,47.9999985351563,2|2,0:0|0:0,0:0:0:0:
