osu file format v14

[General]
AudioFilename: audio.mp3
AudioLeadIn: 0
PreviewTime: -1
Countdown: 1
SampleSet: Soft
StackLeniency: 0.7
Mode: 3
LetterboxInBreaks: 0
SpecialStyle: 0
WidescreenStoryboard: 0

[Editor]
DistanceSpacing: 1.3
BeatDivisor: 8
GridSize: 8
TimelineZoom: 1.2

[Metadata]
Title:Celestial Horizon
TitleUnicode:Celestial Horizon
Artist:Fractal Dreamers
ArtistUnicode:Fractal Dreamers
Creator:cheewee10
Version:Stage 4 : Illusion
Source:
Tags:
BeatmapID:1825718
BeatmapSetID:873409

[Difficulty]
HPDrainRate:8
CircleSize:4
OverallDifficulty:8
ApproachRate:5
SliderMultiplier:1.4
SliderTickRate:1

[Events]
//Background and Video events
0,0,"Hoshi.wo.Ou.Kodomo.full.918950.jpg",0,0
//Break Periods
//Storyboard Layer 0 (Background)
//Storyboard Layer 1 (Fail)
//Storyboard Layer 2 (Pass)
//Storyboard Layer 3 (Foreground)
//Storyboard Sound Samples

[TimingPoints]
1,300,4,2,0,37,1,0
1,-133.333333333333,4,2,0,37,0,0
9301,-129.87012987013,4,2,0,37,0,0
9338,-126.582278481013,4,2,0,37,0,0
9376,-123.456790123457,4,2,0,37,0,0
9413,-120.481927710843,4,2,0,37,0,0
9451,-117.647058823529,4,2,0,37,0,0
9488,-114.942528735632,4,2,0,37,0,0
9526,-111.111111111111,4,2,0,37,0,0
9563,-105.263157894737,4,2,0,37,0,0
9601,-100,4,2,0,37,0,0
28463,-166.666666666667,4,2,0,37,0,0
28651,-40,4,2,0,37,0,0
28763,-100,4,2,0,37,0,0
51601,-125,4,2,0,37,0,0
52051,-153.846153846154,4,2,0,37,0,0
52501,-43.4782608695652,4,2,0,37,0,0
52651,-250,4,2,0,37,0,0
52763,-45.4545454545455,4,2,0,37,0,0
52801,-100,4,2,0,37,0,0
81601,-101.010101010101,4,2,0,37,0,0
81676,-103.092783505155,4,2,0,37,0,0
81751,-105.263157894737,4,2,0,37,0,0
81826,-107.52688172043,4,2,0,37,0,0
81901,-111.111111111111,4,2,0,37,0,0
81976,-113.636363636364,4,2,0,37,0,0
82051,-116.279069767442,4,2,0,37,0,0
82126,-119.047619047619,4,2,0,37,0,0
82201,-121.951219512195,4,2,0,37,0,0
82276,-125,4,2,0,37,0,0
82351,-126.582278481013,4,2,0,37,0,0
82426,-128.205128205128,4,2,0,37,0,0
82501,-129.87012987013,4,2,0,37,0,0
82576,-131.578947368421,4,2,0,37,0,0
82651,-133.333333333333,4,2,0,37,0,0
82726,-135.135135135135,4,2,0,37,0,0
82801,-136.986301369863,4,2,0,37,0,0
82876,-138.888888888889,4,2,0,37,0,0
82951,-140.845070422535,4,2,0,37,0,0
83026,-142.857142857143,4,2,0,37,0,0
83101,-144.927536231884,4,2,0,37,0,0
83176,-147.058823529412,4,2,0,37,0,0
83251,-149.253731343284,4,2,0,37,0,0
83326,-151.515151515152,4,2,0,37,0,0
83401,-153.846153846154,4,2,0,37,0,0
83476,-156.25,4,2,0,37,0,0
83551,-158.730158730159,4,2,0,37,0,0
83626,-161.290322580645,4,2,0,37,0,0
83701,-163.934426229508,4,2,0,37,0,0
83851,-166.666666666667,4,2,0,37,0,0
89701,-142.857142857143,4,2,0,37,0,0
90301,-129.87012987013,4,2,0,37,0,0
90601,-117.647058823529,4,2,0,37,0,0
100801,-142.857142857143,4,2,0,37,0,0
106801,-138.888888888889,4,2,0,37,0,0
106876,-135.135135135135,4,2,0,37,0,0
106951,-131.578947368421,4,2,0,37,0,0
107026,-128.205128205128,4,2,0,37,0,0
107101,-126.582278481013,4,2,0,37,0,0
107176,-125,4,2,0,37,0,0
107251,-123.456790123457,4,2,0,37,0,0
107326,-121.951219512195,4,2,0,37,0,0
107401,-120.481927710843,4,2,0,37,0,0
107476,-119.047619047619,4,2,0,37,0,0
107551,-117.647058823529,4,2,0,37,0,0
107626,-116.279069767442,4,2,0,37,0,0
107701,-114.942528735632,4,2,0,37,0,0
107776,-113.636363636364,4,2,0,37,0,0
107851,-112.359550561798,4,2,0,37,0,0
107926,-111.111111111111,4,2,0,37,0,0
108301,-108.695652173913,4,2,0,37,0,0
108601,-106.382978723404,4,2,0,37,0,0
108901,-104.166666666667,4,2,0,37,0,0
109051,-102.040816326531,4,2,0,37,0,0
109201,-100,4,2,0,37,0,0
129601,-111.111111111111,4,2,0,37,0,0
130801,-114.942528735632,4,2,0,37,0,0
132001,-117.647058823529,4,2,0,37,0,0
133201,-120.481927710843,4,2,0,37,0,0
134401,-125,4,2,0,37,0,0
136801,-133.333333333333,4,2,0,37,0,0

[HitObjects]
64,192,1,5,0,0:0:0:0:
192,192,151,1,0,0:0:0:0:
64,192,301,1,0,0:0:0:0:
320,192,451,1,0,0:0:0:0:
448,192,751,1,0,0:0:0:0:
320,192,901,1,0,0:0:0:0:
192,192,1051,1,0,0:0:0:0:
64,192,1201,1,0,0:0:0:0:
192,192,1351,1,0,0:0:0:0:
64,192,1501,1,0,0:0:0:0:
320,192,1651,1,0,0:0:0:0:
448,192,1951,1,0,0:0:0:0:
448,192,2101,1,0,0:0:0:0:
320,192,2251,1,0,0:0:0:0:
64,192,2401,1,0,0:0:0:0:
192,192,2551,1,0,0:0:0:0:
64,192,2701,1,0,0:0:0:0:
320,192,2851,1,0,0:0:0:0:
448,192,3151,1,0,0:0:0:0:
320,192,3301,1,0,0:0:0:0:
192,192,3451,1,0,0:0:0:0:
64,192,3601,1,0,0:0:0:0:
192,192,3751,1,0,0:0:0:0:
64,192,3901,1,0,0:0:0:0:
320,192,4051,1,0,0:0:0:0:
192,192,4351,1,0,0:0:0:0:
448,192,4501,1,0,0:0:0:0:
320,192,4651,1,0,0:0:0:0:
448,192,4801,1,0,0:0:0:0:
64,192,4951,1,0,0:0:0:0:
192,192,5101,1,0,0:0:0:0:
320,192,5251,1,0,0:0:0:0:
448,192,5551,1,0,0:0:0:0:
320,192,5701,1,0,0:0:0:0:
192,192,5851,1,0,0:0:0:0:
64,192,6001,1,0,0:0:0:0:
192,192,6151,1,0,0:0:0:0:
320,192,6301,1,0,0:0:0:0:
448,192,6451,1,0,0:0:0:0:
320,192,6751,1,0,0:0:0:0:
448,192,6901,1,0,0:0:0:0:
192,192,7051,1,0,0:0:0:0:
64,192,7201,1,0,0:0:0:0:
320,192,7351,1,0,0:0:0:0:
192,192,7501,1,0,0:0:0:0:
448,192,7651,1,0,0:0:0:0:
448,192,7951,1,0,0:0:0:0:
320,192,8101,1,0,0:0:0:0:
192,192,8251,1,0,0:0:0:0:
64,192,8401,1,0,0:0:0:0:
192,192,8551,1,0,0:0:0:0:
320,192,8701,1,0,0:0:0:0:
448,192,8851,1,0,0:0:0:0:
192,192,9151,1,0,0:0:0:0:
320,192,9301,1,0,0:0:0:0:
448,192,9376,1,0,0:0:0:0:
320,192,9451,1,0,0:0:0:0:
192,192,9526,1,0,0:0:0:0:
64,192,9601,128,0,12001:0:0:0:0:
448,192,9601,1,0,0:0:0:0:
320,192,9751,1,0,0:0:0:0:
448,192,9901,1,0,0:0:0:0:
192,192,10051,1,0,0:0:0:0:
448,192,10351,1,0,0:0:0:0:
320,192,10501,1,0,0:0:0:0:
192,192,10651,1,0,0:0:0:0:
192,192,10801,1,0,0:0:0:0:
320,192,10951,1,0,0:0:0:0:
448,192,11101,1,0,0:0:0:0:
448,192,11251,1,0,0:0:0:0:
192,192,11551,1,0,0:0:0:0:
192,192,11701,1,0,0:0:0:0:
320,192,11851,1,0,0:0:0:0:
192,192,12001,1,0,0:0:0:0:
448,192,12001,128,0,14401:0:0:0:0:
320,192,12151,1,0,0:0:0:0:
192,192,12301,1,0,0:0:0:0:
64,192,12451,1,0,0:0:0:0:
64,192,12751,1,0,0:0:0:0:
192,192,12901,1,0,0:0:0:0:
320,192,13051,1,0,0:0:0:0:
64,192,13201,1,0,0:0:0:0:
320,192,13351,1,0,0:0:0:0:
192,192,13501,1,0,0:0:0:0:
64,192,13651,1,0,0:0:0:0:
64,192,13951,1,0,0:0:0:0:
192,192,14101,1,0,0:0:0:0:
320,192,14251,1,0,0:0:0:0:
64,192,14401,1,0,0:0:0:0:
192,192,14401,128,0,16801:0:0:0:0:
320,192,14551,1,0,0:0:0:0:
64,192,14701,1,0,0:0:0:0:
448,192,14851,1,0,0:0:0:0:
320,192,15151,1,0,0:0:0:0:
448,192,15301,1,0,0:0:0:0:
64,192,15451,1,0,0:0:0:0:
448,192,15601,1,0,0:0:0:0:
64,192,15751,1,0,0:0:0:0:
320,192,15901,1,0,0:0:0:0:
448,192,16051,1,0,0:0:0:0:
320,192,16351,1,0,0:0:0:0:
448,192,16501,1,0,0:0:0:0:
64,192,16651,1,0,0:0:0:0:
320,192,16801,128,0,19201:0:0:0:0:
448,192,16801,1,0,0:0:0:0:
192,192,16951,1,0,0:0:0:0:
64,192,17101,1,0,0:0:0:0:
448,192,17251,1,0,0:0:0:0:
448,192,17551,1,0,0:0:0:0:
192,192,17701,1,0,0:0:0:0:
64,192,17851,1,0,0:0:0:0:
448,192,18001,1,0,0:0:0:0:
64,192,18151,1,0,0:0:0:0:
192,192,18301,1,0,0:0:0:0:
448,192,18451,1,0,0:0:0:0:
64,192,18751,1,0,0:0:0:0:
448,192,18901,1,0,0:0:0:0:
192,192,18976,1,0,0:0:0:0:
64,192,19051,1,0,0:0:0:0:
192,192,19126,1,0,0:0:0:0:
64,192,19201,1,0,0:0:0:0:
448,192,19201,1,0,0:0:0:0:
320,192,19351,1,0,0:0:0:0:
64,192,19501,1,0,0:0:0:0:
192,192,19501,1,0,0:0:0:0:
64,192,19651,1,0,0:0:0:0:
192,192,19651,1,0,0:0:0:0:
320,192,19801,1,0,0:0:0:0:
448,192,19801,1,0,0:0:0:0:
64,192,19951,1,0,0:0:0:0:
192,192,20082,1,0,0:0:0:0:
448,192,20101,1,0,0:0:0:0:
192,192,20232,1,0,0:0:0:0:
448,192,20251,1,0,0:0:0:0:
64,192,20401,1,0,0:0:0:0:
320,192,20551,1,0,0:0:0:0:
448,192,20551,1,0,0:0:0:0:
448,192,20701,1,0,0:0:0:0:
320,192,20719,1,0,0:0:0:0:
192,192,20738,1,0,0:0:0:0:
64,192,20757,1,0,0:0:0:0:
320,192,21001,1,0,0:0:0:0:
448,192,21001,1,0,0:0:0:0:
64,192,21001,1,0,0:0:0:0:
320,192,21301,1,0,0:0:0:0:
64,192,21601,128,0,24001:0:0:0:0:
192,192,21601,128,0,21676:0:0:0:0:
448,192,21601,1,0,0:0:0:0:
320,192,22201,1,0,0:0:0:0:
192,192,22201,1,0,0:0:0:0:
448,192,22238,1,0,0:0:0:0:
448,192,22351,1,0,0:0:0:0:
320,192,22501,1,0,0:0:0:0:
448,192,22782,1,0,0:0:0:0:
320,192,22801,1,0,0:0:0:0:
192,192,22932,1,0,0:0:0:0:
320,192,22951,1,0,0:0:0:0:
192,192,23401,1,0,0:0:0:0:
320,192,23419,1,0,0:0:0:0:
448,192,23438,1,0,0:0:0:0:
192,192,23701,1,0,0:0:0:0:
448,192,24001,128,0,26401:0:0:0:0:
192,192,24001,1,0,0:0:0:0:
320,192,24001,128,0,24076:0:0:0:0:
64,192,24301,1,0,0:0:0:0:
320,192,24301,1,0,0:0:0:0:
64,192,24451,1,0,0:0:0:0:
192,192,24451,1,0,0:0:0:0:
320,192,24601,1,0,0:0:0:0:
192,192,24619,1,0,0:0:0:0:
64,192,24751,1,0,0:0:0:0:
192,192,24901,1,0,0:0:0:0:
320,192,24901,1,0,0:0:0:0:
320,192,25051,1,0,0:0:0:0:
192,192,25051,1,0,0:0:0:0:
64,192,25163,1,0,0:0:0:0:
320,192,25351,1,0,0:0:0:0:
64,192,25501,1,0,0:0:0:0:
320,192,25538,1,0,0:0:0:0:
192,192,25576,1,0,0:0:0:0:
64,192,25613,1,0,0:0:0:0:
64,192,25801,1,0,0:0:0:0:
192,192,25801,1,0,0:0:0:0:
320,192,26101,1,0,0:0:0:0:
64,192,26401,128,0,28801:0:0:0:0:
320,192,26401,1,0,0:0:0:0:
192,192,26401,128,0,26476:0:0:0:0:
192,192,27001,1,0,0:0:0:0:
320,192,27001,1,0,0:0:0:0:
192,192,27151,1,0,0:0:0:0:
320,192,27301,1,0,0:0:0:0:
448,192,27301,1,0,0:0:0:0:
320,192,27451,1,0,0:0:0:0:
192,192,27601,1,0,0:0:0:0:
320,192,27751,1,0,0:0:0:0:
448,192,27751,1,0,0:0:0:0:
192,192,27901,1,0,0:0:0:0:
448,192,27938,1,0,0:0:0:0:
320,192,27976,1,0,0:0:0:0:
192,192,28013,1,0,0:0:0:0:
320,192,28201,1,0,0:0:0:0:
448,192,28201,1,0,0:0:0:0:
192,192,28351,1,0,0:0:0:0:
320,192,28351,1,0,0:0:0:0:
448,192,28501,128,0,28576:0:0:0:0:
192,192,28801,1,0,0:0:0:0:
320,192,28801,1,0,0:0:0:0:
448,192,28801,1,0,0:0:0:0:
64,192,28951,1,0,0:0:0:0:
192,192,29101,1,0,0:0:0:0:
448,192,29101,1,0,0:0:0:0:
320,192,29251,1,0,0:0:0:0:
64,192,29401,1,0,0:0:0:0:
192,192,29551,1,0,0:0:0:0:
192,192,29701,1,0,0:0:0:0:
448,192,29701,1,0,0:0:0:0:
320,192,29851,1,0,0:0:0:0:
192,192,30001,1,0,0:0:0:0:
192,192,30151,1,0,0:0:0:0:
64,192,30151,1,0,0:0:0:0:
320,192,30301,1,0,0:0:0:0:
448,192,30301,1,0,0:0:0:0:
192,192,30451,1,0,0:0:0:0:
64,192,30526,1,0,0:0:0:0:
448,192,30526,1,0,0:0:0:0:
192,192,30601,1,0,0:0:0:0:
320,192,30601,1,0,0:0:0:0:
192,192,30751,1,0,0:0:0:0:
320,192,30751,1,0,0:0:0:0:
448,192,30826,1,0,0:0:0:0:
64,192,30901,1,0,0:0:0:0:
192,192,30976,1,0,0:0:0:0:
320,192,31051,1,0,0:0:0:0:
192,192,31126,1,0,0:0:0:0:
64,192,31201,1,0,0:0:0:0:
448,192,31201,1,0,0:0:0:0:
320,192,31201,1,0,0:0:0:0:
192,192,31351,1,0,0:0:0:0:
64,192,31501,1,0,0:0:0:0:
192,192,31501,1,0,0:0:0:0:
320,192,31501,1,0,0:0:0:0:
448,192,31651,1,0,0:0:0:0:
320,192,31801,1,0,0:0:0:0:
192,192,31951,1,0,0:0:0:0:
320,192,31951,1,0,0:0:0:0:
192,192,32101,1,0,0:0:0:0:
64,192,32101,1,0,0:0:0:0:
448,192,32101,1,0,0:0:0:0:
320,192,32251,1,0,0:0:0:0:
192,192,32326,1,0,0:0:0:0:
64,192,32401,1,0,0:0:0:0:
320,192,32401,1,0,0:0:0:0:
448,192,32401,1,0,0:0:0:0:
192,192,32476,1,0,0:0:0:0:
320,192,32551,1,0,0:0:0:0:
64,192,32626,1,0,0:0:0:0:
448,192,32701,1,0,0:0:0:0:
320,192,32776,1,0,0:0:0:0:
192,192,32851,1,0,0:0:0:0:
320,192,32926,1,0,0:0:0:0:
64,192,33001,1,0,0:0:0:0:
192,192,33001,1,0,0:0:0:0:
448,192,33076,1,0,0:0:0:0:
64,192,33151,1,0,0:0:0:0:
192,192,33151,1,0,0:0:0:0:
320,192,33226,1,0,0:0:0:0:
64,192,33301,1,0,0:0:0:0:
192,192,33301,1,0,0:0:0:0:
448,192,33376,1,0,0:0:0:0:
64,192,33451,1,0,0:0:0:0:
192,192,33451,1,0,0:0:0:0:
320,192,33526,1,0,0:0:0:0:
64,192,33601,1,0,0:0:0:0:
192,192,33601,1,0,0:0:0:0:
448,192,33601,1,0,0:0:0:0:
320,192,33751,1,0,0:0:0:0:
192,192,33901,1,0,0:0:0:0:
64,192,33901,1,0,0:0:0:0:
448,192,34051,1,0,0:0:0:0:
320,192,34201,1,0,0:0:0:0:
64,192,34351,1,0,0:0:0:0:
448,192,34501,1,0,0:0:0:0:
320,192,34501,1,0,0:0:0:0:
192,192,34501,1,0,0:0:0:0:
64,192,34651,1,0,0:0:0:0:
192,192,34726,1,0,0:0:0:0:
448,192,34801,1,0,0:0:0:0:
320,192,34951,1,0,0:0:0:0:
64,192,34951,1,0,0:0:0:0:
448,192,35101,1,0,0:0:0:0:
64,192,35101,1,0,0:0:0:0:
192,192,35251,1,0,0:0:0:0:
64,192,35326,1,0,0:0:0:0:
448,192,35326,1,0,0:0:0:0:
192,192,35401,1,0,0:0:0:0:
320,192,35401,1,0,0:0:0:0:
192,192,35551,1,0,0:0:0:0:
320,192,35551,1,0,0:0:0:0:
448,192,35701,1,0,0:0:0:0:
320,192,35776,1,0,0:0:0:0:
64,192,35851,1,0,0:0:0:0:
192,192,35926,1,0,0:0:0:0:
64,192,36001,1,0,0:0:0:0:
320,192,36001,1,0,0:0:0:0:
448,192,36001,1,0,0:0:0:0:
192,192,36151,1,0,0:0:0:0:
320,192,36301,1,0,0:0:0:0:
448,192,36451,1,0,0:0:0:0:
320,192,36601,1,0,0:0:0:0:
64,192,36676,1,0,0:0:0:0:
320,192,36751,1,0,0:0:0:0:
64,192,36826,1,0,0:0:0:0:
320,192,36901,1,0,0:0:0:0:
448,192,36901,1,0,0:0:0:0:
192,192,37051,1,0,0:0:0:0:
64,192,37201,128,0,38326:0:0:0:0:
320,192,37201,1,0,0:0:0:0:
448,192,37351,1,0,0:0:0:0:
192,192,37501,128,0,37801:0:0:0:0:
320,192,37651,128,0,37951:0:0:0:0:
448,192,37801,128,0,38401:0:0:0:0:
192,192,37951,128,0,38326:0:0:0:0:
64,192,38401,1,0,0:0:0:0:
192,192,38401,1,0,0:0:0:0:
320,192,38401,1,0,0:0:0:0:
192,192,38551,1,0,0:0:0:0:
64,192,38701,1,0,0:0:0:0:
320,192,38701,1,0,0:0:0:0:
448,192,38701,1,0,0:0:0:0:
192,192,38851,1,0,0:0:0:0:
320,192,38926,1,0,0:0:0:0:
64,192,39001,1,0,0:0:0:0:
448,192,39001,1,0,0:0:0:0:
192,192,39001,1,0,0:0:0:0:
192,192,39151,1,0,0:0:0:0:
64,192,39301,1,0,0:0:0:0:
320,192,39301,1,0,0:0:0:0:
448,192,39301,1,0,0:0:0:0:
448,192,39451,1,0,0:0:0:0:
64,192,39601,1,0,0:0:0:0:
192,192,39601,1,0,0:0:0:0:
320,192,39601,1,0,0:0:0:0:
192,192,39751,1,0,0:0:0:0:
64,192,39901,1,0,0:0:0:0:
448,192,39901,1,0,0:0:0:0:
320,192,39901,1,0,0:0:0:0:
320,192,40051,1,0,0:0:0:0:
192,192,40126,1,0,0:0:0:0:
320,192,40201,1,0,0:0:0:0:
448,192,40201,1,0,0:0:0:0:
64,192,40276,1,0,0:0:0:0:
448,192,40351,1,0,0:0:0:0:
64,192,40426,1,0,0:0:0:0:
448,192,40501,1,0,0:0:0:0:
320,192,40501,1,0,0:0:0:0:
192,192,40501,1,0,0:0:0:0:
320,192,40651,1,0,0:0:0:0:
64,192,40801,1,0,0:0:0:0:
192,192,40801,1,0,0:0:0:0:
448,192,40801,1,0,0:0:0:0:
192,192,40951,1,0,0:0:0:0:
64,192,41101,1,0,0:0:0:0:
192,192,41101,1,0,0:0:0:0:
448,192,41101,1,0,0:0:0:0:
320,192,41251,1,0,0:0:0:0:
192,192,41326,1,0,0:0:0:0:
64,192,41401,1,0,0:0:0:0:
320,192,41401,1,0,0:0:0:0:
448,192,41401,1,0,0:0:0:0:
192,192,41551,1,0,0:0:0:0:
64,192,41701,1,0,0:0:0:0:
320,192,41701,1,0,0:0:0:0:
448,192,41701,1,0,0:0:0:0:
320,192,41851,1,0,0:0:0:0:
64,192,42001,1,0,0:0:0:0:
192,192,42001,1,0,0:0:0:0:
320,192,42001,1,0,0:0:0:0:
64,192,42151,1,0,0:0:0:0:
192,192,42301,1,0,0:0:0:0:
320,192,42301,1,0,0:0:0:0:
448,192,42301,1,0,0:0:0:0:
448,192,42451,1,0,0:0:0:0:
320,192,42526,1,0,0:0:0:0:
448,192,42601,1,0,0:0:0:0:
64,192,42601,1,0,0:0:0:0:
192,192,42676,1,0,0:0:0:0:
320,192,42751,1,0,0:0:0:0:
192,192,42826,1,0,0:0:0:0:
64,192,42901,1,0,0:0:0:0:
320,192,42901,1,0,0:0:0:0:
448,192,42901,1,0,0:0:0:0:
192,192,43201,1,0,0:0:0:0:
448,192,43201,1,0,0:0:0:0:
64,192,43201,128,0,43651:0:0:0:0:
448,192,43501,1,0,0:0:0:0:
192,192,43651,128,0,44101:0:0:0:0:
320,192,43651,1,0,0:0:0:0:
64,192,43801,1,0,0:0:0:0:
320,192,44101,128,0,44401:0:0:0:0:
448,192,44101,1,0,0:0:0:0:
448,192,44401,128,0,45601:0:0:0:0:
64,192,44401,1,0,0:0:0:0:
64,192,44701,1,0,0:0:0:0:
192,192,44701,1,0,0:0:0:0:
320,192,45001,1,0,0:0:0:0:
192,192,45076,1,0,0:0:0:0:
320,192,45151,1,0,0:0:0:0:
192,192,45226,1,0,0:0:0:0:
320,192,45301,128,0,45601:0:0:0:0:
64,192,45601,128,0,46051:0:0:0:0:
192,192,45601,1,0,0:0:0:0:
448,192,45901,1,0,0:0:0:0:
320,192,46051,128,0,46501:0:0:0:0:
192,192,46051,1,0,0:0:0:0:
64,192,46201,1,0,0:0:0:0:
448,192,46501,128,0,46801:0:0:0:0:
192,192,46501,1,0,0:0:0:0:
64,192,46801,128,0,48001:0:0:0:0:
192,192,46801,1,0,0:0:0:0:
320,192,47101,1,0,0:0:0:0:
448,192,47101,1,0,0:0:0:0:
448,192,47401,1,0,0:0:0:0:
320,192,47476,1,0,0:0:0:0:
448,192,47551,1,0,0:0:0:0:
320,192,47626,1,0,0:0:0:0:
448,192,47701,128,0,48001:0:0:0:0:
192,192,48001,128,0,48451:0:0:0:0:
320,192,48001,1,0,0:0:0:0:
64,192,48301,1,0,0:0:0:0:
320,192,48451,128,0,48901:0:0:0:0:
448,192,48451,1,0,0:0:0:0:
192,192,48601,1,0,0:0:0:0:
448,192,48901,128,0,49201:0:0:0:0:
192,192,48901,1,0,0:0:0:0:
320,192,49201,128,0,50401:0:0:0:0:
64,192,49201,1,0,0:0:0:0:
192,192,49501,1,0,0:0:0:0:
448,192,49501,1,0,0:0:0:0:
64,192,49801,1,0,0:0:0:0:
192,192,49876,1,0,0:0:0:0:
64,192,49951,1,0,0:0:0:0:
192,192,50026,1,0,0:0:0:0:
64,192,50101,128,0,50401:0:0:0:0:
192,192,50401,128,0,50851:0:0:0:0:
448,192,50401,1,0,0:0:0:0:
64,192,50701,1,0,0:0:0:0:
320,192,50701,1,0,0:0:0:0:
448,192,50851,128,0,51301:0:0:0:0:
192,192,51001,1,0,0:0:0:0:
320,192,51001,1,0,0:0:0:0:
64,192,51301,1,0,0:0:0:0:
320,192,51301,128,0,51601:0:0:0:0:
192,192,51601,1,0,0:0:0:0:
448,192,51601,128,0,52051:0:0:0:0:
320,192,52051,128,0,52501:0:0:0:0:
64,192,52501,128,0,52801:0:0:0:0:
192,192,52501,1,0,0:0:0:0:
192,192,52801,1,0,0:0:0:0:
448,192,52801,128,0,52876:0:0:0:0:
320,192,52951,1,0,0:0:0:0:
320,192,53101,1,0,0:0:0:0:
192,192,53101,1,0,0:0:0:0:
448,192,53101,1,0,0:0:0:0:
64,192,53251,1,0,0:0:0:0:
192,192,53326,1,0,0:0:0:0:
448,192,53401,1,0,0:0:0:0:
320,192,53476,1,0,0:0:0:0:
64,192,53551,1,0,0:0:0:0:
192,192,53551,1,0,0:0:0:0:
192,192,53701,1,0,0:0:0:0:
320,192,53701,1,0,0:0:0:0:
448,192,53701,1,0,0:0:0:0:
320,192,53851,1,0,0:0:0:0:
192,192,53926,1,0,0:0:0:0:
448,192,54001,1,0,0:0:0:0:
64,192,54151,1,0,0:0:0:0:
192,192,54151,1,0,0:0:0:0:
192,192,54301,1,0,0:0:0:0:
448,192,54301,1,0,0:0:0:0:
320,192,54301,1,0,0:0:0:0:
64,192,54451,1,0,0:0:0:0:
192,192,54451,1,0,0:0:0:0:
320,192,54526,1,0,0:0:0:0:
448,192,54526,1,0,0:0:0:0:
64,192,54601,1,0,0:0:0:0:
192,192,54601,1,0,0:0:0:0:
64,192,54751,1,0,0:0:0:0:
192,192,54751,1,0,0:0:0:0:
192,192,54901,1,0,0:0:0:0:
448,192,54901,1,0,0:0:0:0:
320,192,54976,1,0,0:0:0:0:
192,192,55051,1,0,0:0:0:0:
64,192,55126,1,0,0:0:0:0:
192,192,55201,1,0,0:0:0:0:
320,192,55201,1,0,0:0:0:0:
448,192,55201,1,0,0:0:0:0:
320,192,55351,1,0,0:0:0:0:
64,192,55501,1,0,0:0:0:0:
192,192,55501,1,0,0:0:0:0:
448,192,55501,1,0,0:0:0:0:
192,192,55651,1,0,0:0:0:0:
320,192,55726,1,0,0:0:0:0:
448,192,55801,1,0,0:0:0:0:
320,192,55876,1,0,0:0:0:0:
192,192,55951,1,0,0:0:0:0:
64,192,56101,1,0,0:0:0:0:
320,192,56101,1,0,0:0:0:0:
448,192,56101,1,0,0:0:0:0:
320,192,56251,1,0,0:0:0:0:
448,192,56326,1,0,0:0:0:0:
320,192,56401,1,0,0:0:0:0:
192,192,56401,1,0,0:0:0:0:
448,192,56476,1,0,0:0:0:0:
192,192,56551,1,0,0:0:0:0:
320,192,56626,1,0,0:0:0:0:
64,192,56701,1,0,0:0:0:0:
192,192,56776,1,0,0:0:0:0:
320,192,56851,1,0,0:0:0:0:
192,192,56926,1,0,0:0:0:0:
448,192,57001,1,0,0:0:0:0:
320,192,57076,1,0,0:0:0:0:
192,192,57151,1,0,0:0:0:0:
448,192,57226,1,0,0:0:0:0:
64,192,57301,1,0,0:0:0:0:
192,192,57301,1,0,0:0:0:0:
448,192,57376,1,0,0:0:0:0:
320,192,57451,1,0,0:0:0:0:
192,192,57526,1,0,0:0:0:0:
320,192,57601,1,0,0:0:0:0:
448,192,57601,1,0,0:0:0:0:
64,192,57601,1,0,0:0:0:0:
320,192,57751,1,0,0:0:0:0:
192,192,57901,1,0,0:0:0:0:
448,192,57901,1,0,0:0:0:0:
64,192,57901,1,0,0:0:0:0:
320,192,58051,1,0,0:0:0:0:
64,192,58201,1,0,0:0:0:0:
192,192,58351,1,0,0:0:0:0:
320,192,58351,1,0,0:0:0:0:
448,192,58501,1,0,0:0:0:0:
64,192,58501,1,0,0:0:0:0:
320,192,58501,1,0,0:0:0:0:
192,192,58651,1,0,0:0:0:0:
320,192,58801,1,0,0:0:0:0:
192,192,58951,1,0,0:0:0:0:
320,192,58951,1,0,0:0:0:0:
64,192,59101,1,0,0:0:0:0:
192,192,59101,1,0,0:0:0:0:
448,192,59101,1,0,0:0:0:0:
64,192,59251,1,0,0:0:0:0:
320,192,59326,1,0,0:0:0:0:
448,192,59326,1,0,0:0:0:0:
64,192,59401,1,0,0:0:0:0:
192,192,59476,1,0,0:0:0:0:
320,192,59551,1,0,0:0:0:0:
448,192,59551,1,0,0:0:0:0:
192,192,59626,1,0,0:0:0:0:
448,192,59701,1,0,0:0:0:0:
64,192,59701,1,0,0:0:0:0:
320,192,59776,1,0,0:0:0:0:
192,192,59851,1,0,0:0:0:0:
64,192,59926,1,0,0:0:0:0:
192,192,60001,1,0,0:0:0:0:
320,192,60001,1,0,0:0:0:0:
448,192,60001,1,0,0:0:0:0:
64,192,60151,1,0,0:0:0:0:
192,192,60301,1,0,0:0:0:0:
320,192,60301,1,0,0:0:0:0:
448,192,60451,1,0,0:0:0:0:
320,192,60526,1,0,0:0:0:0:
192,192,60601,1,0,0:0:0:0:
64,192,60676,1,0,0:0:0:0:
192,192,60751,1,0,0:0:0:0:
320,192,60751,1,0,0:0:0:0:
64,192,60901,1,0,0:0:0:0:
320,192,60901,1,0,0:0:0:0:
448,192,60901,1,0,0:0:0:0:
320,192,61051,1,0,0:0:0:0:
192,192,61126,1,0,0:0:0:0:
448,192,61201,1,0,0:0:0:0:
64,192,61201,1,0,0:0:0:0:
320,192,61276,1,0,0:0:0:0:
192,192,61351,1,0,0:0:0:0:
320,192,61426,1,0,0:0:0:0:
64,192,61501,1,0,0:0:0:0:
192,192,61576,1,0,0:0:0:0:
320,192,61651,1,0,0:0:0:0:
192,192,61726,1,0,0:0:0:0:
448,192,61801,1,0,0:0:0:0:
320,192,61876,1,0,0:0:0:0:
64,192,61951,1,0,0:0:0:0:
192,192,62026,1,0,0:0:0:0:
320,192,62101,1,0,0:0:0:0:
448,192,62101,1,0,0:0:0:0:
192,192,62176,1,0,0:0:0:0:
64,192,62251,1,0,0:0:0:0:
192,192,62326,1,0,0:0:0:0:
320,192,62401,1,0,0:0:0:0:
448,192,62401,1,0,0:0:0:0:
192,192,62551,1,0,0:0:0:0:
320,192,62551,1,0,0:0:0:0:
64,192,62701,1,0,0:0:0:0:
192,192,62701,1,0,0:0:0:0:
448,192,62701,1,0,0:0:0:0:
192,192,62851,1,0,0:0:0:0:
320,192,63001,1,0,0:0:0:0:
448,192,63151,128,0,63226:0:0:0:0:
64,192,63151,1,0,0:0:0:0:
320,192,63151,1,0,0:0:0:0:
64,192,63301,1,0,0:0:0:0:
192,192,63301,1,0,0:0:0:0:
320,192,63301,1,0,0:0:0:0:
192,192,63451,1,0,0:0:0:0:
448,192,63451,1,0,0:0:0:0:
64,192,63601,128,0,63676:0:0:0:0:
320,192,63601,1,0,0:0:0:0:
192,192,63751,1,0,0:0:0:0:
320,192,63751,1,0,0:0:0:0:
64,192,63901,1,0,0:0:0:0:
320,192,63901,1,0,0:0:0:0:
448,192,63901,1,0,0:0:0:0:
448,192,64051,1,0,0:0:0:0:
320,192,64201,1,0,0:0:0:0:
192,192,64351,1,0,0:0:0:0:
448,192,64351,128,0,64426:0:0:0:0:
64,192,64351,1,0,0:0:0:0:
320,192,64501,1,0,0:0:0:0:
192,192,64501,1,0,0:0:0:0:
64,192,64651,1,0,0:0:0:0:
320,192,64801,128,0,64876:0:0:0:0:
448,192,64801,1,0,0:0:0:0:
192,192,64801,1,0,0:0:0:0:
192,192,64951,1,0,0:0:0:0:
320,192,64951,1,0,0:0:0:0:
64,192,65101,1,0,0:0:0:0:
192,192,65101,1,0,0:0:0:0:
448,192,65101,1,0,0:0:0:0:
448,192,65251,1,0,0:0:0:0:
320,192,65401,1,0,0:0:0:0:
192,192,65551,1,0,0:0:0:0:
64,192,65551,1,0,0:0:0:0:
448,192,65701,128,0,65776:0:0:0:0:
64,192,65701,1,0,0:0:0:0:
320,192,65701,1,0,0:0:0:0:
320,192,65851,1,0,0:0:0:0:
64,192,66001,1,0,0:0:0:0:
448,192,66001,1,0,0:0:0:0:
320,192,66151,128,0,66226:0:0:0:0:
64,192,66151,1,0,0:0:0:0:
192,192,66301,1,0,0:0:0:0:
448,192,66301,1,0,0:0:0:0:
64,192,66451,1,0,0:0:0:0:
320,192,66451,1,0,0:0:0:0:
192,192,66526,1,0,0:0:0:0:
448,192,66526,1,0,0:0:0:0:
64,192,66601,1,0,0:0:0:0:
320,192,66601,1,0,0:0:0:0:
448,192,66751,1,0,0:0:0:0:
320,192,66751,1,0,0:0:0:0:
192,192,66901,128,0,66976:0:0:0:0:
64,192,66901,1,0,0:0:0:0:
448,192,66901,1,0,0:0:0:0:
64,192,67051,1,0,0:0:0:0:
192,192,67201,1,0,0:0:0:0:
448,192,67201,1,0,0:0:0:0:
192,192,67351,1,0,0:0:0:0:
320,192,67351,1,0,0:0:0:0:
64,192,67501,1,0,0:0:0:0:
448,192,67501,1,0,0:0:0:0:
320,192,67501,1,0,0:0:0:0:
320,192,67651,1,0,0:0:0:0:
64,192,67801,1,0,0:0:0:0:
448,192,67951,128,0,68026:0:0:0:0:
64,192,67951,1,0,0:0:0:0:
192,192,68101,1,0,0:0:0:0:
320,192,68101,1,0,0:0:0:0:
192,192,68251,1,0,0:0:0:0:
448,192,68251,1,0,0:0:0:0:
320,192,68401,128,0,68476:0:0:0:0:
64,192,68401,1,0,0:0:0:0:
192,192,68551,1,0,0:0:0:0:
64,192,68701,1,0,0:0:0:0:
192,192,68701,1,0,0:0:0:0:
448,192,68701,1,0,0:0:0:0:
192,192,68851,1,0,0:0:0:0:
64,192,69001,1,0,0:0:0:0:
320,192,69151,128,0,69226:0:0:0:0:
192,192,69151,1,0,0:0:0:0:
448,192,69301,1,0,0:0:0:0:
320,192,69301,1,0,0:0:0:0:
64,192,69376,1,0,0:0:0:0:
192,192,69451,1,0,0:0:0:0:
320,192,69526,1,0,0:0:0:0:
192,192,69601,1,0,0:0:0:0:
64,192,69601,1,0,0:0:0:0:
64,192,69751,1,0,0:0:0:0:
192,192,69901,1,0,0:0:0:0:
320,192,69901,1,0,0:0:0:0:
448,192,69901,1,0,0:0:0:0:
192,192,70051,1,0,0:0:0:0:
320,192,70051,1,0,0:0:0:0:
64,192,70201,1,0,0:0:0:0:
192,192,70351,1,0,0:0:0:0:
320,192,70351,1,0,0:0:0:0:
192,192,70501,1,0,0:0:0:0:
320,192,70501,1,0,0:0:0:0:
448,192,70501,1,0,0:0:0:0:
320,192,70651,1,0,0:0:0:0:
64,192,70801,1,0,0:0:0:0:
192,192,70801,1,0,0:0:0:0:
320,192,70801,1,0,0:0:0:0:
192,192,70951,128,0,71026:0:0:0:0:
448,192,71101,1,0,0:0:0:0:
192,192,71251,1,0,0:0:0:0:
320,192,71401,1,0,0:0:0:0:
192,192,71551,1,0,0:0:0:0:
320,192,71701,128,0,71776:0:0:0:0:
448,192,71701,1,0,0:0:0:0:
64,192,71851,1,0,0:0:0:0:
192,192,72001,1,0,0:0:0:0:
320,192,72001,1,0,0:0:0:0:
448,192,72001,1,0,0:0:0:0:
320,192,72151,1,0,0:0:0:0:
64,192,72301,1,0,0:0:0:0:
192,192,72301,1,0,0:0:0:0:
448,192,72301,1,0,0:0:0:0:
320,192,72451,1,0,0:0:0:0:
64,192,72601,1,0,0:0:0:0:
320,192,72751,1,0,0:0:0:0:
192,192,72751,128,0,72826:0:0:0:0:
64,192,72901,1,0,0:0:0:0:
320,192,72901,1,0,0:0:0:0:
448,192,72901,1,0,0:0:0:0:
320,192,73051,1,0,0:0:0:0:
192,192,73201,128,0,73276:0:0:0:0:
64,192,73351,1,0,0:0:0:0:
320,192,73351,1,0,0:0:0:0:
192,192,73501,1,0,0:0:0:0:
320,192,73501,1,0,0:0:0:0:
448,192,73501,1,0,0:0:0:0:
64,192,73651,1,0,0:0:0:0:
192,192,73651,1,0,0:0:0:0:
320,192,73726,1,0,0:0:0:0:
448,192,73726,1,0,0:0:0:0:
64,192,73801,1,0,0:0:0:0:
192,192,73801,1,0,0:0:0:0:
192,192,73951,1,0,0:0:0:0:
64,192,73951,128,0,74026:0:0:0:0:
192,192,74101,1,0,0:0:0:0:
448,192,74101,1,0,0:0:0:0:
320,192,74176,1,0,0:0:0:0:
192,192,74251,1,0,0:0:0:0:
64,192,74326,1,0,0:0:0:0:
320,192,74401,1,0,0:0:0:0:
448,192,74401,1,0,0:0:0:0:
192,192,74401,128,0,74476:0:0:0:0:
64,192,74551,1,0,0:0:0:0:
192,192,74701,1,0,0:0:0:0:
320,192,74701,128,0,74776:0:0:0:0:
320,192,74851,1,0,0:0:0:0:
448,192,74851,128,0,74926:0:0:0:0:
192,192,75001,1,0,0:0:0:0:
320,192,75151,1,0,0:0:0:0:
64,192,75151,128,0,75226:0:0:0:0:
448,192,75301,1,0,0:0:0:0:
192,192,75301,1,0,0:0:0:0:
192,192,75451,128,0,75526:0:0:0:0:
320,192,75451,1,0,0:0:0:0:
64,192,75601,1,0,0:0:0:0:
192,192,75601,1,0,0:0:0:0:
448,192,75601,1,0,0:0:0:0:
192,192,75751,1,0,0:0:0:0:
448,192,75751,128,0,75826:0:0:0:0:
64,192,75901,128,0,75976:0:0:0:0:
320,192,75901,1,0,0:0:0:0:
448,192,76051,128,0,76126:0:0:0:0:
192,192,76051,1,0,0:0:0:0:
320,192,76126,1,0,0:0:0:0:
64,192,76201,128,0,76276:0:0:0:0:
192,192,76201,1,0,0:0:0:0:
192,192,76351,128,0,76426:0:0:0:0:
320,192,76351,1,0,0:0:0:0:
448,192,76501,128,0,76576:0:0:0:0:
64,192,76501,1,0,0:0:0:0:
320,192,76501,1,0,0:0:0:0:
320,192,76651,128,0,76726:0:0:0:0:
192,192,76651,1,0,0:0:0:0:
64,192,76801,1,0,0:0:0:0:
320,192,76801,1,0,0:0:0:0:
448,192,76801,128,0,76876:0:0:0:0:
64,192,76951,1,0,0:0:0:0:
192,192,77101,1,0,0:0:0:0:
320,192,77101,1,0,0:0:0:0:
448,192,77251,1,0,0:0:0:0:
64,192,77401,1,0,0:0:0:0:
320,192,77551,128,0,77626:0:0:0:0:
192,192,77551,1,0,0:0:0:0:
64,192,77701,1,0,0:0:0:0:
320,192,77701,1,0,0:0:0:0:
448,192,77701,1,0,0:0:0:0:
192,192,77776,1,0,0:0:0:0:
320,192,77851,1,0,0:0:0:0:
192,192,77926,1,0,0:0:0:0:
64,192,78001,128,0,78076:0:0:0:0:
64,192,78151,1,0,0:0:0:0:
192,192,78151,1,0,0:0:0:0:
192,192,78301,1,0,0:0:0:0:
320,192,78301,1,0,0:0:0:0:
448,192,78301,1,0,0:0:0:0:
64,192,78451,1,0,0:0:0:0:
192,192,78451,1,0,0:0:0:0:
320,192,78526,1,0,0:0:0:0:
448,192,78526,1,0,0:0:0:0:
64,192,78601,1,0,0:0:0:0:
192,192,78601,1,0,0:0:0:0:
320,192,78751,128,0,78826:0:0:0:0:
64,192,78751,1,0,0:0:0:0:
192,192,78751,1,0,0:0:0:0:
192,192,78901,1,0,0:0:0:0:
448,192,78901,1,0,0:0:0:0:
320,192,78976,1,0,0:0:0:0:
192,192,79051,1,0,0:0:0:0:
64,192,79126,1,0,0:0:0:0:
320,192,79201,1,0,0:0:0:0:
192,192,79201,128,0,79276:0:0:0:0:
64,192,79351,128,0,79426:0:0:0:0:
192,192,79501,128,0,79576:0:0:0:0:
448,192,79651,128,0,79726:0:0:0:0:
64,192,79951,128,0,80026:0:0:0:0:
192,192,80101,128,0,80176:0:0:0:0:
320,192,80251,128,0,80326:0:0:0:0:
192,192,80401,128,0,80476:0:0:0:0:
448,192,80401,128,0,80476:0:0:0:0:
64,192,80551,128,0,80626:0:0:0:0:
192,192,80701,128,0,80776:0:0:0:0:
448,192,80851,128,0,80926:0:0:0:0:
320,192,81001,128,0,81076:0:0:0:0:
192,192,81151,128,0,81226:0:0:0:0:
64,192,81301,128,0,81376:0:0:0:0:
320,192,81451,128,0,81526:0:0:0:0:
192,192,81601,1,0,0:0:0:0:
448,192,81601,128,0,81901:0:0:0:0:
64,192,81601,1,0,0:0:0:0:
64,192,81901,128,0,82051:0:0:0:0:
192,192,82051,128,0,82201:0:0:0:0:
320,192,82201,128,0,82501:0:0:0:0:
64,192,82501,128,0,82651:0:0:0:0:
192,192,82651,128,0,82801:0:0:0:0:
320,192,82801,128,0,82951:0:0:0:0:
448,192,82951,128,0,83101:0:0:0:0:
320,192,83101,128,0,83251:0:0:0:0:
448,192,83251,128,0,83551:0:0:0:0:
320,192,83551,128,0,83701:0:0:0:0:
192,192,83701,128,0,83851:0:0:0:0:
64,192,83851,128,0,84001:0:0:0:0:
320,192,84001,128,0,84301:0:0:0:0:
192,192,84301,128,0,84451:0:0:0:0:
448,192,84451,128,0,84751:0:0:0:0:
64,192,84751,128,0,85051:0:0:0:0:
320,192,85051,128,0,85351:0:0:0:0:
192,192,85351,128,0,85501:0:0:0:0:
64,192,85501,128,0,85651:0:0:0:0:
192,192,85651,128,0,85801:0:0:0:0:
320,192,85801,128,0,85951:0:0:0:0:
448,192,85951,128,0,86101:0:0:0:0:
320,192,86101,128,0,86251:0:0:0:0:
64,192,86251,128,0,86401:0:0:0:0:
192,192,86401,128,0,86851:0:0:0:0:
448,192,86401,128,0,86476:0:0:0:0:
64,192,86851,128,0,87301:0:0:0:0:
320,192,86851,128,0,86926:0:0:0:0:
192,192,87301,128,0,87751:0:0:0:0:
448,192,87601,128,0,87676:0:0:0:0:
320,192,87751,128,0,88201:0:0:0:0:
64,192,88051,128,0,88126:0:0:0:0:
192,192,88201,128,0,88501:0:0:0:0:
448,192,88201,128,0,88276:0:0:0:0:
320,192,88501,128,0,88801:0:0:0:0:
64,192,88501,128,0,88576:0:0:0:0:
448,192,88801,128,0,89251:0:0:0:0:
192,192,88801,128,0,88876:0:0:0:0:
192,192,89251,128,0,89701:0:0:0:0:
320,192,89251,128,0,89326:0:0:0:0:
64,192,89701,128,0,91201:0:0:0:0:
320,192,89701,128,0,89776:0:0:0:0:
448,192,90301,128,0,91201:0:0:0:0:
320,192,90601,128,0,91201:0:0:0:0:
192,192,91201,1,0,0:0:0:0:
64,192,91351,1,0,0:0:0:0:
64,192,91501,1,0,0:0:0:0:
192,192,91651,1,0,0:0:0:0:
448,192,91651,128,0,91726:0:0:0:0:
64,192,91801,1,0,0:0:0:0:
192,192,91951,1,0,0:0:0:0:
448,192,92101,1,0,0:0:0:0:
64,192,92251,1,0,0:0:0:0:
192,192,92401,1,0,0:0:0:0:
320,192,92401,128,0,92476:0:0:0:0:
64,192,92551,1,0,0:0:0:0:
64,192,92701,1,0,0:0:0:0:
192,192,92851,1,0,0:0:0:0:
448,192,92851,128,0,92926:0:0:0:0:
64,192,93001,1,0,0:0:0:0:
192,192,93151,1,0,0:0:0:0:
448,192,93301,1,0,0:0:0:0:
192,192,93451,1,0,0:0:0:0:
320,192,93601,1,0,0:0:0:0:
64,192,93601,128,0,93676:0:0:0:0:
192,192,93751,1,0,0:0:0:0:
192,192,93901,1,0,0:0:0:0:
448,192,94051,1,0,0:0:0:0:
320,192,94051,128,0,94126:0:0:0:0:
192,192,94201,1,0,0:0:0:0:
64,192,94351,1,0,0:0:0:0:
448,192,94501,1,0,0:0:0:0:
64,192,94651,1,0,0:0:0:0:
192,192,94801,1,0,0:0:0:0:
320,192,94801,128,0,94876:0:0:0:0:
448,192,94951,1,0,0:0:0:0:
448,192,95101,1,0,0:0:0:0:
320,192,95251,1,0,0:0:0:0:
192,192,95251,128,0,95326:0:0:0:0:
448,192,95401,1,0,0:0:0:0:
320,192,95551,1,0,0:0:0:0:
64,192,95701,1,0,0:0:0:0:
192,192,95851,1,0,0:0:0:0:
192,192,96001,1,0,0:0:0:0:
320,192,96001,128,0,96076:0:0:0:0:
64,192,96151,1,0,0:0:0:0:
64,192,96301,1,0,0:0:0:0:
192,192,96451,1,0,0:0:0:0:
448,192,96451,128,0,96526:0:0:0:0:
64,192,96601,1,0,0:0:0:0:
192,192,96751,1,0,0:0:0:0:
448,192,96901,1,0,0:0:0:0:
192,192,97051,1,0,0:0:0:0:
64,192,97201,128,0,97276:0:0:0:0:
320,192,97201,1,0,0:0:0:0:
192,192,97351,1,0,0:0:0:0:
192,192,97501,1,0,0:0:0:0:
64,192,97651,1,0,0:0:0:0:
320,192,97651,128,0,97726:0:0:0:0:
192,192,97801,1,0,0:0:0:0:
320,192,97951,1,0,0:0:0:0:
448,192,98101,1,0,0:0:0:0:
64,192,98251,1,0,0:0:0:0:
192,192,98401,1,0,0:0:0:0:
320,192,98401,128,0,98476:0:0:0:0:
64,192,98551,1,0,0:0:0:0:
64,192,98701,1,0,0:0:0:0:
448,192,98851,128,0,98926:0:0:0:0:
192,192,98851,1,0,0:0:0:0:
64,192,99001,1,0,0:0:0:0:
64,192,99151,1,0,0:0:0:0:
448,192,99301,1,0,0:0:0:0:
64,192,99451,1,0,0:0:0:0:
448,192,99601,1,0,0:0:0:0:
192,192,99601,128,0,99676:0:0:0:0:
320,192,99751,1,0,0:0:0:0:
320,192,99901,1,0,0:0:0:0:
64,192,100051,128,0,100126:0:0:0:0:
448,192,100051,1,0,0:0:0:0:
192,192,100201,1,0,0:0:0:0:
448,192,100351,1,0,0:0:0:0:
64,192,100501,1,0,0:0:0:0:
320,192,100651,1,0,0:0:0:0:
64,192,100801,128,0,101701:0:0:0:0:
192,192,101251,128,0,101326:0:0:0:0:
448,192,101701,128,0,103051:0:0:0:0:
320,192,101701,128,0,101776:0:0:0:0:
192,192,101701,128,0,101776:0:0:0:0:
320,192,102301,128,0,102376:0:0:0:0:
64,192,102601,128,0,102676:0:0:0:0:
192,192,102901,128,0,102976:0:0:0:0:
320,192,103051,128,0,103126:0:0:0:0:
192,192,103126,128,0,103201:0:0:0:0:
64,192,103201,128,0,104101:0:0:0:0:
192,192,103651,128,0,103726:0:0:0:0:
320,192,103651,128,0,103726:0:0:0:0:
192,192,104101,128,0,104176:0:0:0:0:
448,192,104101,128,0,104176:0:0:0:0:
320,192,104551,128,0,104626:0:0:0:0:
192,192,104701,128,0,104776:0:0:0:0:
64,192,104851,128,0,104926:0:0:0:0:
320,192,105001,128,0,105076:0:0:0:0:
192,192,105151,128,0,105226:0:0:0:0:
64,192,105301,128,0,105376:0:0:0:0:
192,192,105451,128,0,105526:0:0:0:0:
320,192,105601,128,0,105676:0:0:0:0:
448,192,105601,128,0,105676:0:0:0:0:
192,192,106051,128,0,106126:0:0:0:0:
320,192,106051,128,0,106126:0:0:0:0:
64,192,106501,128,0,106576:0:0:0:0:
192,192,106501,128,0,106576:0:0:0:0:
448,192,106801,1,0,0:0:0:0:
320,192,106876,1,0,0:0:0:0:
64,192,106951,1,0,0:0:0:0:
192,192,107026,1,0,0:0:0:0:
320,192,107101,1,0,0:0:0:0:
192,192,107176,1,0,0:0:0:0:
448,192,107251,1,0,0:0:0:0:
320,192,107326,1,0,0:0:0:0:
192,192,107401,1,0,0:0:0:0:
64,192,107476,1,0,0:0:0:0:
192,192,107551,1,0,0:0:0:0:
320,192,107626,1,0,0:0:0:0:
64,192,107701,1,0,0:0:0:0:
192,192,107776,1,0,0:0:0:0:
320,192,107851,1,0,0:0:0:0:
448,192,107926,1,0,0:0:0:0:
192,192,108001,1,0,0:0:0:0:
64,192,108076,1,0,0:0:0:0:
192,192,108151,1,0,0:0:0:0:
64,192,108226,1,0,0:0:0:0:
320,192,108301,1,0,0:0:0:0:
192,192,108376,1,0,0:0:0:0:
320,192,108451,1,0,0:0:0:0:
192,192,108526,1,0,0:0:0:0:
448,192,108601,1,0,0:0:0:0:
320,192,108676,1,0,0:0:0:0:
448,192,108751,1,0,0:0:0:0:
320,192,108826,1,0,0:0:0:0:
192,192,108901,1,0,0:0:0:0:
64,192,108976,1,0,0:0:0:0:
192,192,109051,1,0,0:0:0:0:
64,192,109126,1,0,0:0:0:0:
448,192,109201,1,0,0:0:0:0:
320,192,109276,1,0,0:0:0:0:
192,192,109351,1,0,0:0:0:0:
64,192,109426,1,0,0:0:0:0:
448,192,109501,1,0,0:0:0:0:
320,192,109576,1,0,0:0:0:0:
192,192,109651,1,0,0:0:0:0:
64,192,109726,1,0,0:0:0:0:
448,192,109801,1,0,0:0:0:0:
320,192,109801,1,0,0:0:0:0:
64,192,109876,1,0,0:0:0:0:
192,192,109876,1,0,0:0:0:0:
320,192,109951,1,0,0:0:0:0:
448,192,109951,1,0,0:0:0:0:
64,192,110026,1,0,0:0:0:0:
192,192,110026,1,0,0:0:0:0:
320,192,110101,1,0,0:0:0:0:
448,192,110101,128,0,110401:0:0:0:0:
192,192,110251,1,0,0:0:0:0:
64,192,110401,1,0,0:0:0:0:
192,192,110401,1,0,0:0:0:0:
320,192,110401,1,0,0:0:0:0:
192,192,110551,1,0,0:0:0:0:
320,192,110551,1,0,0:0:0:0:
448,192,110701,1,0,0:0:0:0:
320,192,110719,1,0,0:0:0:0:
64,192,110851,1,0,0:0:0:0:
192,192,110869,1,0,0:0:0:0:
192,192,111001,1,0,0:0:0:0:
320,192,111019,1,0,0:0:0:0:
448,192,111038,1,0,0:0:0:0:
64,192,111151,1,0,0:0:0:0:
320,192,111301,1,0,0:0:0:0:
448,192,111319,1,0,0:0:0:0:
192,192,111451,1,0,0:0:0:0:
320,192,111526,1,0,0:0:0:0:
448,192,111601,1,0,0:0:0:0:
320,192,111676,1,0,0:0:0:0:
192,192,111751,1,0,0:0:0:0:
64,192,111901,1,0,0:0:0:0:
320,192,111919,1,0,0:0:0:0:
448,192,111938,1,0,0:0:0:0:
192,192,112051,1,0,0:0:0:0:
320,192,112126,1,0,0:0:0:0:
448,192,112201,1,0,0:0:0:0:
64,192,112201,1,0,0:0:0:0:
192,192,112351,1,0,0:0:0:0:
320,192,112351,1,0,0:0:0:0:
64,192,112501,1,0,0:0:0:0:
448,192,112501,1,0,0:0:0:0:
192,192,112576,1,0,0:0:0:0:
320,192,112576,1,0,0:0:0:0:
64,192,112651,1,0,0:0:0:0:
448,192,112651,1,0,0:0:0:0:
192,192,112726,1,0,0:0:0:0:
320,192,112726,1,0,0:0:0:0:
64,192,112801,1,0,0:0:0:0:
448,192,112801,1,0,0:0:0:0:
192,192,112951,1,0,0:0:0:0:
448,192,112951,1,0,0:0:0:0:
64,192,113101,1,0,0:0:0:0:
320,192,113101,1,0,0:0:0:0:
192,192,113176,1,0,0:0:0:0:
320,192,113251,1,0,0:0:0:0:
64,192,113326,1,0,0:0:0:0:
192,192,113401,1,0,0:0:0:0:
320,192,113419,1,0,0:0:0:0:
448,192,113438,1,0,0:0:0:0:
64,192,113476,1,0,0:0:0:0:
192,192,113551,1,0,0:0:0:0:
320,192,113551,1,0,0:0:0:0:
448,192,113701,1,0,0:0:0:0:
320,192,113719,1,0,0:0:0:0:
192,192,113851,1,0,0:0:0:0:
320,192,113926,1,0,0:0:0:0:
448,192,114001,1,0,0:0:0:0:
320,192,114076,1,0,0:0:0:0:
192,192,114151,1,0,0:0:0:0:
64,192,114226,1,0,0:0:0:0:
448,192,114301,1,0,0:0:0:0:
320,192,114376,1,0,0:0:0:0:
192,192,114451,1,0,0:0:0:0:
320,192,114526,1,0,0:0:0:0:
64,192,114601,1,0,0:0:0:0:
192,192,114676,1,0,0:0:0:0:
320,192,114751,1,0,0:0:0:0:
192,192,114826,1,0,0:0:0:0:
448,192,114901,1,0,0:0:0:0:
320,192,114976,1,0,0:0:0:0:
192,192,115051,1,0,0:0:0:0:
64,192,115126,1,0,0:0:0:0:
320,192,115201,1,0,0:0:0:0:
448,192,115201,1,0,0:0:0:0:
64,192,115351,1,0,0:0:0:0:
448,192,115501,1,0,0:0:0:0:
320,192,115501,1,0,0:0:0:0:
192,192,115576,1,0,0:0:0:0:
64,192,115651,1,0,0:0:0:0:
192,192,115726,1,0,0:0:0:0:
448,192,115801,1,0,0:0:0:0:
64,192,115819,1,0,0:0:0:0:
320,192,115951,1,0,0:0:0:0:
448,192,116101,1,0,0:0:0:0:
192,192,116119,1,0,0:0:0:0:
64,192,116138,1,0,0:0:0:0:
320,192,116251,1,0,0:0:0:0:
192,192,116326,1,0,0:0:0:0:
448,192,116401,1,0,0:0:0:0:
320,192,116476,1,0,0:0:0:0:
192,192,116551,1,0,0:0:0:0:
64,192,116626,1,0,0:0:0:0:
320,192,116701,1,0,0:0:0:0:
192,192,116776,1,0,0:0:0:0:
64,192,116851,1,0,0:0:0:0:
320,192,116926,1,0,0:0:0:0:
448,192,117001,1,0,0:0:0:0:
192,192,117076,1,0,0:0:0:0:
64,192,117151,1,0,0:0:0:0:
320,192,117226,1,0,0:0:0:0:
64,192,117301,1,0,0:0:0:0:
192,192,117376,1,0,0:0:0:0:
320,192,117451,1,0,0:0:0:0:
448,192,117526,1,0,0:0:0:0:
64,192,117601,1,0,0:0:0:0:
192,192,117619,1,0,0:0:0:0:
320,192,117638,1,0,0:0:0:0:
448,192,117751,1,0,0:0:0:0:
64,192,117901,1,0,0:0:0:0:
320,192,117901,1,0,0:0:0:0:
192,192,117976,1,0,0:0:0:0:
320,192,118051,1,0,0:0:0:0:
192,192,118126,1,0,0:0:0:0:
64,192,118201,1,0,0:0:0:0:
320,192,118219,1,0,0:0:0:0:
448,192,118238,1,0,0:0:0:0:
64,192,118351,1,0,0:0:0:0:
192,192,118501,1,0,0:0:0:0:
320,192,118519,1,0,0:0:0:0:
448,192,118538,1,0,0:0:0:0:
64,192,118651,1,0,0:0:0:0:
192,192,118726,1,0,0:0:0:0:
448,192,118801,1,0,0:0:0:0:
320,192,118876,1,0,0:0:0:0:
192,192,118951,1,0,0:0:0:0:
64,192,119026,1,0,0:0:0:0:
448,192,119101,1,0,0:0:0:0:
192,192,119176,1,0,0:0:0:0:
320,192,119251,1,0,0:0:0:0:
448,192,119326,1,0,0:0:0:0:
64,192,119401,1,0,0:0:0:0:
192,192,119476,1,0,0:0:0:0:
320,192,119551,1,0,0:0:0:0:
192,192,119626,1,0,0:0:0:0:
448,192,119701,1,0,0:0:0:0:
320,192,119776,1,0,0:0:0:0:
192,192,119851,1,0,0:0:0:0:
64,192,119926,1,0,0:0:0:0:
320,192,120001,1,0,0:0:0:0:
448,192,120019,1,0,0:0:0:0:
320,192,120151,1,0,0:0:0:0:
64,192,120301,1,0,0:0:0:0:
192,192,120338,1,0,0:0:0:0:
320,192,120376,1,0,0:0:0:0:
64,192,120451,1,0,0:0:0:0:
192,192,120488,1,0,0:0:0:0:
320,192,120526,1,0,0:0:0:0:
64,192,120601,1,0,0:0:0:0:
448,192,120601,1,0,0:0:0:0:
192,192,120751,1,0,0:0:0:0:
192,192,120901,1,0,0:0:0:0:
320,192,120919,1,0,0:0:0:0:
448,192,120938,1,0,0:0:0:0:
320,192,121051,1,0,0:0:0:0:
192,192,121201,1,0,0:0:0:0:
448,192,121201,1,0,0:0:0:0:
64,192,121351,1,0,0:0:0:0:
320,192,121351,1,0,0:0:0:0:
320,192,121501,1,0,0:0:0:0:
192,192,121519,1,0,0:0:0:0:
64,192,121538,1,0,0:0:0:0:
192,192,121651,1,0,0:0:0:0:
64,192,121801,1,0,0:0:0:0:
320,192,121819,1,0,0:0:0:0:
448,192,121838,1,0,0:0:0:0:
64,192,121951,1,0,0:0:0:0:
192,192,122026,1,0,0:0:0:0:
448,192,122101,1,0,0:0:0:0:
320,192,122176,1,0,0:0:0:0:
192,192,122251,1,0,0:0:0:0:
64,192,122326,1,0,0:0:0:0:
192,192,122401,1,0,0:0:0:0:
320,192,122419,1,0,0:0:0:0:
448,192,122438,1,0,0:0:0:0:
320,192,122551,1,0,0:0:0:0:
448,192,122701,1,0,0:0:0:0:
320,192,122738,1,0,0:0:0:0:
64,192,122776,1,0,0:0:0:0:
192,192,122813,1,0,0:0:0:0:
448,192,122851,1,0,0:0:0:0:
320,192,122888,1,0,0:0:0:0:
64,192,122926,1,0,0:0:0:0:
192,192,122963,1,0,0:0:0:0:
448,192,123038,1,0,0:0:0:0:
320,192,123038,1,0,0:0:0:0:
448,192,123151,1,0,0:0:0:0:
192,192,123301,1,0,0:0:0:0:
320,192,123301,1,0,0:0:0:0:
448,192,123319,1,0,0:0:0:0:
192,192,123451,1,0,0:0:0:0:
320,192,123526,1,0,0:0:0:0:
64,192,123601,1,0,0:0:0:0:
192,192,123676,1,0,0:0:0:0:
320,192,123751,1,0,0:0:0:0:
192,192,123826,1,0,0:0:0:0:
448,192,123901,1,0,0:0:0:0:
320,192,123976,1,0,0:0:0:0:
192,192,124051,1,0,0:0:0:0:
320,192,124126,1,0,0:0:0:0:
448,192,124201,1,0,0:0:0:0:
320,192,124276,1,0,0:0:0:0:
448,192,124351,1,0,0:0:0:0:
320,192,124426,1,0,0:0:0:0:
64,192,124501,1,0,0:0:0:0:
192,192,124576,1,0,0:0:0:0:
64,192,124651,1,0,0:0:0:0:
192,192,124726,1,0,0:0:0:0:
320,192,124801,1,0,0:0:0:0:
448,192,124819,1,0,0:0:0:0:
64,192,124951,1,0,0:0:0:0:
320,192,125101,1,0,0:0:0:0:
448,192,125138,1,0,0:0:0:0:
192,192,125176,1,0,0:0:0:0:
64,192,125213,1,0,0:0:0:0:
320,192,125251,1,0,0:0:0:0:
448,192,125288,1,0,0:0:0:0:
192,192,125326,1,0,0:0:0:0:
64,192,125363,1,0,0:0:0:0:
320,192,125401,1,0,0:0:0:0:
448,192,125401,1,0,0:0:0:0:
192,192,125551,1,0,0:0:0:0:
64,192,125701,1,0,0:0:0:0:
320,192,125719,1,0,0:0:0:0:
448,192,125738,1,0,0:0:0:0:
192,192,125851,1,0,0:0:0:0:
320,192,125926,1,0,0:0:0:0:
448,192,126001,1,0,0:0:0:0:
320,192,126151,1,0,0:0:0:0:
192,192,126301,1,0,0:0:0:0:
320,192,126301,1,0,0:0:0:0:
64,192,126451,1,0,0:0:0:0:
320,192,126601,1,0,0:0:0:0:
448,192,126601,1,0,0:0:0:0:
64,192,126751,1,0,0:0:0:0:
192,192,126901,1,0,0:0:0:0:
320,192,127051,1,0,0:0:0:0:
192,192,127201,1,0,0:0:0:0:
448,192,127219,1,0,0:0:0:0:
64,192,127351,1,0,0:0:0:0:
448,192,127501,1,0,0:0:0:0:
320,192,127538,1,0,0:0:0:0:
64,192,127576,1,0,0:0:0:0:
192,192,127613,1,0,0:0:0:0:
448,192,127651,1,0,0:0:0:0:
320,192,127688,1,0,0:0:0:0:
64,192,127726,1,0,0:0:0:0:
192,192,127763,1,0,0:0:0:0:
320,192,127801,1,0,0:0:0:0:
448,192,127801,1,0,0:0:0:0:
64,192,127951,1,0,0:0:0:0:
192,192,127969,1,0,0:0:0:0:
192,192,128101,1,0,0:0:0:0:
320,192,128119,1,0,0:0:0:0:
448,192,128138,1,0,0:0:0:0:
320,192,128251,1,0,0:0:0:0:
64,192,128401,1,0,0:0:0:0:
192,192,128551,1,0,0:0:0:0:
320,192,128701,1,0,0:0:0:0:
448,192,128719,1,0,0:0:0:0:
192,192,128851,1,0,0:0:0:0:
64,192,129001,1,0,0:0:0:0:
448,192,129001,1,0,0:0:0:0:
320,192,129076,1,0,0:0:0:0:
192,192,129151,1,0,0:0:0:0:
64,192,129226,1,0,0:0:0:0:
320,192,129301,1,0,0:0:0:0:
192,192,129376,1,0,0:0:0:0:
320,192,129451,1,0,0:0:0:0:
192,192,129526,1,0,0:0:0:0:
64,192,129601,1,0,0:0:0:0:
320,192,129601,1,0,0:0:0:0:
448,192,129601,1,0,0:0:0:0:
192,192,129751,1,0,0:0:0:0:
192,192,129901,1,0,0:0:0:0:
320,192,130051,1,0,0:0:0:0:
448,192,130351,128,0,130426:0:0:0:0:
320,192,130501,128,0,130576:0:0:0:0:
64,192,130801,1,0,0:0:0:0:
320,192,130801,1,0,0:0:0:0:
192,192,130951,1,0,0:0:0:0:
192,192,131101,1,0,0:0:0:0:
320,192,131251,1,0,0:0:0:0:
320,192,131701,128,0,131776:0:0:0:0:
448,192,131851,128,0,131926:0:0:0:0:
64,192,132001,1,0,0:0:0:0:
192,192,132001,128,0,132076:0:0:0:0:
320,192,132151,1,0,0:0:0:0:
320,192,132301,1,0,0:0:0:0:
64,192,132451,128,0,132526:0:0:0:0:
448,192,132451,1,0,0:0:0:0:
448,192,132751,128,0,132826:0:0:0:0:
192,192,132901,128,0,132976:0:0:0:0:
448,192,133201,128,0,133276:0:0:0:0:
320,192,133201,1,0,0:0:0:0:
192,192,133351,1,0,0:0:0:0:
192,192,133501,1,0,0:0:0:0:
320,192,133651,128,0,133726:0:0:0:0:
64,192,133651,1,0,0:0:0:0:
192,192,134101,128,0,134176:0:0:0:0:
320,192,134251,128,0,134326:0:0:0:0:
320,192,134401,128,0,134476:0:0:0:0:
64,192,134401,1,0,0:0:0:0:
192,192,134551,1,0,0:0:0:0:
192,192,134701,1,0,0:0:0:0:
64,192,134851,128,0,134926:0:0:0:0:
320,192,134851,1,0,0:0:0:0:
192,192,135001,1,0,0:0:0:0:
192,192,135151,1,0,0:0:0:0:
448,192,135301,128,0,135376:0:0:0:0:
192,192,135451,1,0,0:0:0:0:
64,192,135601,128,0,135676:0:0:0:0:
320,192,135601,1,0,0:0:0:0:
192,192,135751,1,0,0:0:0:0:
192,192,135901,1,0,0:0:0:0:
64,192,136051,128,0,136126:0:0:0:0:
320,192,136051,1,0,0:0:0:0:
192,192,136201,1,0,0:0:0:0:
192,192,136351,1,0,0:0:0:0:
448,192,136501,128,0,136576:0:0:0:0:
192,192,136651,1,0,0:0:0:0:
192,192,136801,128,0,136876:0:0:0:0:
320,192,136801,128,0,136876:0:0:0:0:
448,192,137251,128,0,137326:0:0:0:0:
320,192,137251,128,0,137326:0:0:0:0:
64,192,138001,128,0,138076:0:0:0:0:
192,192,138001,128,0,138076:0:0:0:0:
192,192,138451,128,0,138526:0:0:0:0:
320,192,138451,128,0,138526:0:0:0:0:
448,192,138751,128,0,138826:0:0:0:0:
192,192,138901,128,0,138976:0:0:0:0:
320,192,139051,128,0,139126:0:0:0:0:
