osu file format v14

[General]
AudioFilename: audio.mp3
AudioLeadIn: 0
PreviewTime: 110405
Countdown: 0
SampleSet: Soft
StackLeniency: 0.7
Mode: 3
LetterboxInBreaks: 0
SpecialStyle: 0
WidescreenStoryboard: 1

[Editor]
DistanceSpacing: 1.3
BeatDivisor: 4
GridSize: 8
TimelineZoom: 2

[Metadata]
Title:Celestial Horizon
TitleUnicode:Celestial Horizon
Artist:Fractal Dreamers
ArtistUnicode:Fractal Dreamers
Creator:Voxa
Version:Asha's Normal
Source:osu!
Tags:piano drum and bass _asha rip46 kanon matsubara featured artist everything for a dream fa
BeatmapID:2137765
BeatmapSetID:1018454

[Difficulty]
HPDrainRate:7.5
CircleSize:4
OverallDifficulty:7.5
ApproachRate:5
SliderMultiplier:1.4
SliderTickRate:1

[Events]
//Background and Video events
0,0,"714235.png",0,0
//Break Periods
//Storyboard Layer 0 (Background)
//Storyboard Layer 1 (Fail)
//Storyboard Layer 2 (Pass)
//Storyboard Layer 3 (Foreground)
//Storyboard Layer 4 (Overlay)
//Storyboard Sound Samples

[TimingPoints]
5,300,4,2,1,20,1,0
9605,-100,4,2,1,25,0,0
19205,-100,4,2,1,40,0,0
28805,-100,4,2,1,50,0,0
36005,-100,4,2,1,35,0,0
38405,-100,4,2,1,45,0,0
51605,-100,4,2,1,35,0,0
52805,-100,4,2,1,45,0,0
61205,-100,4,2,1,35,0,0
62405,-100,4,2,1,45,0,0
70805,-100,4,2,1,40,0,0
72005,-100,4,2,1,45,0,0
79205,-100,4,2,1,35,0,0
81605,-100,4,2,1,30,0,0
100805,-100,4,2,1,35,0,0
108005,-100,4,2,1,40,0,0
110405,-100,4,2,1,60,0,1
129605,-100,4,2,1,40,0,0

[HitObjects]
192,192,5,5,0,0:0:0:0:
320,192,305,1,0,0:0:0:0:
448,192,455,1,0,0:0:0:0:
64,192,755,1,0,0:0:0:0:
320,192,905,1,0,0:0:0:0:
192,192,1205,1,0,0:0:0:0:
320,192,1505,1,0,0:0:0:0:
448,192,1655,1,0,0:0:0:0:
64,192,1955,1,0,0:0:0:0:
64,192,2105,1,0,0:0:0:0:
320,192,2405,1,0,0:0:0:0:
192,192,2705,1,0,0:0:0:0:
64,192,2855,1,0,0:0:0:0:
448,192,3155,1,0,0:0:0:0:
192,192,3305,1,0,0:0:0:0:
320,192,3605,1,0,0:0:0:0:
192,192,3905,1,0,0:0:0:0:
64,192,4055,1,0,0:0:0:0:
448,192,4355,1,0,0:0:0:0:
64,192,4505,1,0,0:0:0:0:
320,192,4805,1,0,0:0:0:0:
192,192,5105,1,0,0:0:0:0:
448,192,5255,1,0,0:0:0:0:
64,192,5555,1,0,0:0:0:0:
320,192,5705,1,0,0:0:0:0:
192,192,6005,1,0,0:0:0:0:
320,192,6305,1,0,0:0:0:0:
64,192,6455,1,0,0:0:0:0:
448,192,6755,1,0,0:0:0:0:
192,192,6905,1,0,0:0:0:0:
320,192,7205,1,0,0:0:0:0:
64,192,7505,1,0,0:0:0:0:
192,192,7655,1,0,0:0:0:0:
448,192,7955,1,0,0:0:0:0:
320,192,8105,1,0,0:0:0:0:
192,192,8405,1,0,0:0:0:0:
320,192,8705,1,0,0:0:0:0:
448,192,8855,1,0,0:0:0:0:
192,192,9155,1,0,0:0:0:0:
64,192,9305,128,0,9605:0:0:0:0:
448,192,9605,128,0,9905:0:0:0:0:
192,192,9905,1,0,0:0:0:0:
320,192,10055,1,0,0:0:0:0:
448,192,10355,1,0,0:0:0:0:
320,192,10505,1,0,0:0:0:0:
64,192,10805,1,0,0:0:0:0:
192,192,11105,1,0,0:0:0:0:
320,192,11255,1,0,0:0:0:0:
448,192,11555,1,0,0:0:0:0:
448,192,11705,1,0,0:0:0:0:
64,192,12005,128,0,12305:0:0:0:0:
320,192,12305,1,0,0:0:0:0:
192,192,12455,1,0,0:0:0:0:
64,192,12755,1,0,0:0:0:0:
192,192,12905,1,0,0:0:0:0:
448,192,13205,1,0,0:0:0:0:
320,192,13505,1,0,0:0:0:0:
192,192,13655,1,0,0:0:0:0:
64,192,13955,1,0,0:0:0:0:
448,192,14105,1,0,0:0:0:0:
320,192,14405,128,0,14705:0:0:0:0:
192,192,14705,1,0,0:0:0:0:
64,192,14855,1,0,0:0:0:0:
448,192,15155,1,0,0:0:0:0:
192,192,15305,1,0,0:0:0:0:
320,192,15605,1,0,0:0:0:0:
192,192,15905,1,0,0:0:0:0:
64,192,16055,1,0,0:0:0:0:
448,192,16355,1,0,0:0:0:0:
320,192,16505,1,0,0:0:0:0:
192,192,16805,128,0,17105:0:0:0:0:
320,192,17105,1,0,0:0:0:0:
448,192,17255,1,0,0:0:0:0:
64,192,17555,1,0,0:0:0:0:
320,192,17705,1,0,0:0:0:0:
192,192,18005,1,0,0:0:0:0:
448,192,18305,1,0,0:0:0:0:
64,192,18455,1,0,0:0:0:0:
320,192,18755,1,0,0:0:0:0:
192,192,18905,128,0,19205:0:0:0:0:
64,192,19205,1,2,0:0:0:0:
448,192,19205,128,4,19505:0:0:0:60:
320,192,19505,1,2,0:0:0:0:
192,192,19655,1,2,0:0:0:0:
64,192,19805,128,2,20105:0:0:0:0:
320,192,20105,1,0,0:0:0:30:Snare clap 1.wav
448,192,20105,1,0,0:0:0:0:
448,192,20255,1,0,0:0:0:30:Snare clap 1.wav
192,192,20405,1,0,0:0:0:0:
320,192,20555,1,2,0:0:0:0:
64,192,20705,128,0,20855:0:0:0:0:
448,192,20855,1,0,0:0:0:0:
192,192,21005,1,0,0:0:0:70:Snare clap 2.wav
320,192,21305,1,0,0:0:0:0:
64,192,21605,128,2,22205:0:0:0:0:
448,192,22205,1,2,0:0:0:0:
192,192,22505,1,0,0:0:0:0:
320,192,22805,1,2,0:0:0:0:
64,192,22955,1,2,0:0:0:0:
448,192,23255,1,0,0:0:0:0:
192,192,23405,1,0,0:0:0:70:Snare clap 2.wav
320,192,23405,1,0,0:0:0:0:
64,192,23705,1,0,0:0:0:0:
320,192,24005,128,2,24305:0:0:0:0:
192,192,24305,1,2,0:0:0:0:
448,192,24455,1,2,0:0:0:0:
64,192,24605,128,2,24905:0:0:0:0:
192,192,24905,1,0,0:0:0:20:Snare clap 1.wav
320,192,24905,1,0,0:0:0:0:
320,192,25055,1,0,0:0:0:20:Snare clap 1.wav
64,192,25205,1,0,0:0:0:0:
192,192,25355,1,2,0:0:0:0:
448,192,25505,128,0,25655:0:0:0:0:
64,192,25655,1,0,0:0:0:0:
320,192,25805,1,0,0:0:0:70:Snare clap 2.wav
192,192,26105,1,0,0:0:0:0:
448,192,26405,128,2,27005:0:0:0:0:
64,192,27005,1,2,0:0:0:0:
320,192,27155,1,0,0:0:0:0:
192,192,27305,1,0,0:0:0:0:
448,192,27455,1,0,0:0:0:0:
320,192,27605,1,2,0:0:0:0:
64,192,27755,1,0,0:0:0:0:
192,192,27755,1,0,0:0:0:0:
448,192,27905,1,0,0:0:0:0:
320,192,28055,1,0,0:0:0:0:
192,192,28205,1,0,0:0:0:0:
320,192,28505,1,0,0:0:0:0:
64,192,28805,1,2,0:0:0:0:
448,192,28805,1,4,0:0:0:60:
192,192,28955,1,0,0:0:0:0:
320,192,29105,1,8,0:0:0:0:
448,192,29105,1,0,0:0:0:0:
64,192,29255,1,0,0:0:0:0:
192,192,29405,1,0,0:0:0:0:
320,192,29555,1,2,0:0:0:0:
64,192,29705,1,8,0:0:0:0:
448,192,29705,1,0,0:0:0:0:
320,192,30005,1,0,0:0:0:0:
192,192,30155,1,2,0:0:0:0:
64,192,30305,1,8,0:0:0:0:
448,192,30305,1,0,0:0:0:0:
320,192,30455,1,0,0:0:0:0:
192,192,30605,1,0,0:0:0:0:
448,192,30755,1,2,0:0:0:0:
64,192,30905,128,8,31205:0:0:0:0:
320,192,30905,1,0,0:0:0:0:
448,192,31205,1,2,0:0:0:0:
192,192,31355,1,0,0:0:0:0:
64,192,31505,1,8,0:0:0:0:
320,192,31505,1,0,0:0:0:0:
448,192,31655,1,0,0:0:0:0:
192,192,31805,1,0,0:0:0:0:
320,192,31955,1,2,0:0:0:0:
64,192,32105,1,8,0:0:0:0:
448,192,32105,1,0,0:0:0:0:
192,192,32255,128,0,32405:0:0:0:0:
448,192,32405,1,2,0:0:0:0:
320,192,32555,1,0,0:0:0:0:
64,192,32705,128,8,32855:0:0:0:0:
192,192,32705,1,0,0:0:0:0:
448,192,32855,128,2,33005:0:0:0:0:
192,192,33005,128,2,33155:0:0:0:0:
448,192,33155,128,2,33305:0:0:0:0:
64,192,33305,128,8,33455:0:0:0:0:
192,192,33305,1,2,0:0:0:0:
320,192,33455,128,2,33605:0:0:0:0:
192,192,33605,1,2,0:0:0:0:
64,192,33755,1,0,0:0:0:0:
320,192,33905,1,8,0:0:0:0:
448,192,33905,1,0,0:0:0:0:
192,192,34055,1,0,0:0:0:0:
448,192,34205,1,0,0:0:0:0:
320,192,34355,1,2,0:0:0:0:
64,192,34505,1,8,0:0:0:0:
192,192,34505,1,0,0:0:0:0:
448,192,34655,128,0,34805:0:0:0:0:
64,192,34805,1,0,0:0:0:0:
192,192,34955,1,2,0:0:0:0:
320,192,35105,1,8,0:0:0:0:
448,192,35105,1,0,0:0:0:0:
64,192,35255,1,0,0:0:0:0:
192,192,35405,1,0,0:0:0:0:
320,192,35555,1,2,0:0:0:0:
64,192,35705,1,8,0:0:0:0:
448,192,35705,1,0,0:0:0:0:
320,192,35855,1,0,0:0:0:0:
64,192,36005,1,2,0:0:0:0:
192,192,36005,1,4,0:0:0:60:
320,192,36155,1,0,0:0:0:0:
192,192,36305,1,0,0:0:0:0:
64,192,36455,128,0,36605:0:0:0:0:
448,192,36605,128,0,36905:0:0:0:0:
192,192,36905,1,0,0:0:0:0:
320,192,37055,1,0,0:0:0:0:
64,192,37205,128,0,37355:0:0:0:0:
320,192,37355,1,2,0:0:0:0:
448,192,37505,128,0,37655:0:0:0:0:
192,192,37655,1,2,0:0:0:0:
64,192,37805,128,0,38405:0:0:0:0:
448,192,37955,1,2,0:0:0:0:
320,192,38105,1,0,0:0:0:0:
192,192,38255,1,0,0:0:0:0:
320,192,38405,1,2,0:0:0:0:
448,192,38405,1,0,0:0:0:0:
192,192,38555,1,0,0:0:0:0:
64,192,38705,1,2,0:0:0:0:
448,192,38705,1,8,0:0:0:0:
320,192,38855,1,0,0:0:0:0:
64,192,39005,1,2,0:0:0:0:
192,192,39155,1,0,0:0:0:0:
320,192,39305,1,8,0:0:0:0:
448,192,39305,1,0,0:0:0:0:
64,192,39455,1,0,0:0:0:0:
320,192,39605,1,2,0:0:0:0:
192,192,39755,1,0,0:0:0:0:
64,192,39905,1,8,0:0:0:0:
448,192,39905,1,2,0:0:0:0:
320,192,40055,1,0,0:0:0:0:
192,192,40205,128,2,40355:0:0:0:0:
448,192,40355,128,0,40505:0:0:0:0:
64,192,40505,1,8,0:0:0:0:
320,192,40505,1,2,0:0:0:0:
448,192,40655,1,0,0:0:0:0:
64,192,40805,1,2,0:0:0:0:
192,192,40955,1,0,0:0:0:0:
320,192,41105,1,2,0:0:0:0:
448,192,41105,1,8,0:0:0:0:
64,192,41255,1,0,0:0:0:0:
448,192,41405,1,2,0:0:0:0:
320,192,41555,1,0,0:0:0:0:
64,192,41705,1,8,0:0:0:0:
192,192,41705,1,0,0:0:0:0:
448,192,41855,1,0,0:0:0:0:
192,192,42005,1,2,0:0:0:0:
320,192,42155,1,0,0:0:0:0:
64,192,42305,1,8,0:0:0:0:
448,192,42305,1,2,0:0:0:0:
192,192,42455,128,0,42605:0:0:0:0:
320,192,42605,128,2,42755:0:0:0:0:
64,192,42755,128,0,42905:0:0:0:0:
192,192,42905,1,8,0:0:0:0:
448,192,42905,1,0,0:0:0:0:
64,192,43055,1,0,0:0:0:0:
448,192,43205,1,2,0:0:0:0:
192,192,43355,1,0,0:0:0:0:
64,192,43505,1,8,0:0:0:0:
320,192,43505,1,2,0:0:0:0:
448,192,43655,1,0,0:0:0:0:
192,192,43805,1,2,0:0:0:0:
320,192,43955,1,0,0:0:0:0:
64,192,44105,1,8,0:0:0:0:
448,192,44105,1,2,0:0:0:0:
192,192,44255,1,0,0:0:0:0:
448,192,44405,1,2,0:0:0:0:
320,192,44555,1,0,0:0:0:0:
64,192,44705,1,8,0:0:0:0:
192,192,44705,1,2,0:0:0:0:
448,192,44855,1,0,0:0:0:0:
192,192,45005,128,2,45155:0:0:0:0:
448,192,45155,128,0,45305:0:0:0:0:
64,192,45305,1,2,0:0:0:0:
320,192,45305,1,8,0:0:0:0:
448,192,45455,1,0,0:0:0:0:
64,192,45605,1,2,0:0:0:0:
320,192,45755,1,0,0:0:0:0:
192,192,45905,1,8,0:0:0:0:
448,192,45905,1,2,0:0:0:0:
64,192,46055,1,0,0:0:0:0:
448,192,46205,1,2,0:0:0:0:
320,192,46355,1,0,0:0:0:0:
64,192,46505,1,8,0:0:0:0:
192,192,46505,1,2,0:0:0:0:
448,192,46655,1,0,0:0:0:0:
64,192,46805,1,2,0:0:0:0:
192,192,46955,1,0,0:0:0:0:
320,192,47105,1,8,0:0:0:0:
448,192,47105,1,2,0:0:0:0:
64,192,47255,128,0,47405:0:0:0:0:
448,192,47405,128,2,47555:0:0:0:0:
192,192,47555,128,0,47705:0:0:0:0:
64,192,47705,1,8,0:0:0:0:
320,192,47705,1,2,0:0:0:0:
192,192,47855,1,0,0:0:0:0:
448,192,48005,1,2,0:0:0:0:
320,192,48155,1,0,0:0:0:0:
64,192,48305,1,8,0:0:0:0:
192,192,48305,1,2,0:0:0:0:
320,192,48455,1,0,0:0:0:0:
448,192,48605,1,2,0:0:0:0:
64,192,48755,1,0,0:0:0:0:
192,192,48905,1,2,0:0:0:0:
320,192,48905,1,8,0:0:0:0:
448,192,49055,1,0,0:0:0:0:
64,192,49205,1,2,0:0:0:0:
320,192,49355,1,0,0:0:0:0:
192,192,49505,1,8,0:0:0:0:
448,192,49505,1,2,0:0:0:0:
64,192,49655,1,0,0:0:0:0:
320,192,49805,128,2,49955:0:0:0:0:
64,192,49955,128,0,50105:0:0:0:0:
192,192,50105,1,8,0:0:0:0:
448,192,50105,1,2,0:0:0:0:
64,192,50255,1,0,0:0:0:0:
448,192,50405,1,2,0:0:0:0:
320,192,50555,1,0,0:0:0:0:
64,192,50705,1,8,0:0:0:0:
192,192,50705,1,2,0:0:0:0:
448,192,50855,1,0,0:0:0:0:
192,192,51005,1,2,0:0:0:0:
320,192,51155,1,0,0:0:0:0:
64,192,51305,1,8,0:0:0:0:
448,192,51305,1,2,0:0:0:0:
192,192,51455,1,0,0:0:0:0:
320,192,51605,1,2,0:0:0:0:
192,192,52055,1,0,0:0:0:0:
64,192,52505,1,2,0:0:0:0:
320,192,52505,1,0,0:0:0:0:
320,192,52805,1,2,0:0:0:0:
448,192,52805,1,0,0:0:0:0:
192,192,52955,1,0,0:0:0:0:
64,192,53105,1,8,0:0:0:0:
448,192,53105,1,0,0:0:0:0:
320,192,53255,1,0,0:0:0:0:
192,192,53405,1,0,0:0:0:0:
448,192,53555,1,2,0:0:0:0:
64,192,53705,1,8,0:0:0:0:
320,192,53705,1,0,0:0:0:0:
192,192,53855,1,0,0:0:0:0:
448,192,54005,1,0,0:0:0:0:
320,192,54155,1,2,0:0:0:0:
64,192,54305,1,8,0:0:0:0:
192,192,54305,1,0,0:0:0:0:
320,192,54455,1,0,0:0:0:0:
448,192,54605,1,0,0:0:0:0:
192,192,54755,1,2,0:0:0:0:
64,192,54905,1,8,0:0:0:0:
320,192,54905,1,0,0:0:0:0:
448,192,55055,1,0,0:0:0:0:
64,192,55205,1,2,0:0:0:0:
192,192,55355,1,0,0:0:0:0:
320,192,55505,1,8,0:0:0:0:
448,192,55505,1,0,0:0:0:0:
64,192,55655,1,0,0:0:0:0:
192,192,55805,1,0,0:0:0:0:
448,192,55955,1,2,0:0:0:0:
192,192,56105,1,8,0:0:0:0:
320,192,56105,1,0,0:0:0:0:
64,192,56255,1,0,0:0:0:0:
320,192,56405,128,2,56555:0:0:0:0:
192,192,56555,128,0,56705:0:0:0:0:
64,192,56705,128,0,56855:0:0:0:0:
448,192,56855,128,0,57005:0:0:0:0:
320,192,57005,128,0,57155:0:0:0:0:
192,192,57155,128,0,57305:0:0:0:0:
64,192,57305,1,2,0:0:0:0:
448,192,57305,128,0,57455:0:0:0:0:
320,192,57455,128,0,57605:0:0:0:0:
64,192,57605,1,2,0:0:0:0:
192,192,57755,1,0,0:0:0:0:
320,192,57905,1,8,0:0:0:0:
448,192,57905,1,0,0:0:0:0:
64,192,58055,1,0,0:0:0:0:
320,192,58355,1,2,0:0:0:0:
64,192,58505,1,8,0:0:0:0:
448,192,58505,1,0,0:0:0:0:
192,192,58655,1,0,0:0:0:0:
320,192,58955,1,2,0:0:0:0:
64,192,59105,1,8,0:0:0:0:
448,192,59105,1,0,0:0:0:0:
192,192,59255,1,0,0:0:0:0:
448,192,59405,1,0,0:0:0:0:
320,192,59555,1,2,0:0:0:0:
64,192,59705,1,8,0:0:0:0:
192,192,59705,1,0,0:0:0:0:
448,192,59855,1,0,0:0:0:0:
64,192,60005,1,2,0:0:0:0:
192,192,60155,1,0,0:0:0:0:
320,192,60305,1,8,0:0:0:0:
448,192,60305,1,0,0:0:0:0:
64,192,60455,1,0,0:0:0:0:
320,192,60755,1,2,0:0:0:0:
192,192,60905,1,8,0:0:0:0:
64,192,60905,1,0,0:0:0:0:
448,192,61055,1,0,0:0:0:0:
192,192,61205,128,2,61355:0:0:0:0:
320,192,61355,128,0,61505:0:0:0:0:
448,192,61505,128,0,61655:0:0:0:0:
64,192,61655,128,0,61805:0:0:0:0:
192,192,61805,128,0,61955:0:0:0:0:
320,192,61955,128,0,62105:0:0:0:0:
64,192,62105,128,2,62255:0:0:0:0:
448,192,62105,1,0,0:0:0:0:
192,192,62255,128,0,62405:0:0:0:0:
448,192,62405,1,2,0:0:0:0:
320,192,62555,1,2,0:0:0:0:
192,192,62705,1,8,0:0:0:0:
64,192,62705,1,0,0:0:0:0:
448,192,62855,1,0,0:0:0:0:
192,192,63155,1,2,0:0:0:0:
64,192,63305,1,8,0:0:0:0:
448,192,63305,1,0,0:0:0:0:
320,192,63455,1,2,0:0:0:0:
320,192,63755,1,2,0:0:0:0:
64,192,63905,1,8,0:0:0:0:
192,192,63905,1,0,0:0:0:0:
448,192,64055,1,0,0:0:0:0:
320,192,64205,1,0,0:0:0:0:
192,192,64355,1,2,0:0:0:0:
64,192,64505,1,8,0:0:0:0:
448,192,64505,1,0,0:0:0:0:
320,192,64655,1,0,0:0:0:0:
64,192,64805,1,2,0:0:0:0:
192,192,64955,1,2,0:0:0:0:
320,192,65105,1,8,0:0:0:0:
448,192,65105,1,0,0:0:0:0:
64,192,65255,1,0,0:0:0:0:
64,192,65555,1,2,0:0:0:0:
320,192,65705,1,8,0:0:0:0:
448,192,65705,1,0,0:0:0:0:
192,192,65855,1,0,0:0:0:0:
448,192,66005,1,0,0:0:0:0:
64,192,66155,1,2,0:0:0:0:
192,192,66305,1,8,0:0:0:0:
320,192,66305,1,0,0:0:0:0:
448,192,66455,1,0,0:0:0:0:
64,192,66605,1,0,0:0:0:0:
320,192,66755,1,2,0:0:0:0:
192,192,66905,1,8,0:0:0:0:
448,192,66905,1,0,0:0:0:0:
64,192,67055,1,0,0:0:0:0:
448,192,67205,1,2,0:0:0:0:
320,192,67355,1,2,0:0:0:0:
64,192,67505,1,8,0:0:0:0:
192,192,67505,1,0,0:0:0:0:
320,192,67655,1,0,0:0:0:0:
448,192,67955,1,2,0:0:0:0:
64,192,68105,1,8,0:0:0:0:
320,192,68105,1,0,0:0:0:0:
192,192,68255,1,2,0:0:0:0:
192,192,68555,1,2,0:0:0:0:
320,192,68705,1,8,0:0:0:0:
448,192,68705,1,0,0:0:0:0:
64,192,68855,1,0,0:0:0:0:
448,192,69005,1,0,0:0:0:0:
320,192,69155,1,2,0:0:0:0:
64,192,69305,1,8,0:0:0:0:
192,192,69305,1,0,0:0:0:0:
448,192,69455,1,0,0:0:0:0:
192,192,69605,1,2,0:0:0:0:
320,192,69755,1,0,0:0:0:0:
64,192,69905,1,8,0:0:0:0:
192,192,69905,1,0,0:0:0:0:
448,192,70055,1,2,0:0:0:0:
320,192,70355,1,2,0:0:0:0:
64,192,70505,1,8,0:0:0:0:
192,192,70505,1,0,0:0:0:0:
448,192,70655,1,0,0:0:0:0:
64,192,70805,1,2,0:0:0:0:
320,192,70955,1,0,0:0:0:0:
192,192,71105,1,0,0:0:0:0:
64,192,71255,1,0,0:0:0:0:
448,192,71405,1,0,0:0:0:0:
192,192,71555,1,0,0:0:0:0:
320,192,71705,1,2,0:0:0:0:
448,192,71705,1,0,0:0:0:0:
64,192,71855,1,0,0:0:0:0:
320,192,72005,1,2,0:0:0:0:
192,192,72155,1,0,0:0:0:0:
64,192,72305,1,8,0:0:0:0:
448,192,72305,1,0,0:0:0:0:
320,192,72455,1,0,0:0:0:0:
64,192,72605,1,0,0:0:0:0:
192,192,72755,1,2,0:0:0:0:
320,192,72905,1,8,0:0:0:0:
448,192,72905,1,0,0:0:0:0:
192,192,73055,1,0,0:0:0:0:
64,192,73205,1,0,0:0:0:0:
448,192,73355,1,2,0:0:0:0:
64,192,73505,1,8,0:0:0:0:
192,192,73505,1,0,0:0:0:0:
448,192,73655,1,0,0:0:0:0:
64,192,73955,1,2,0:0:0:0:
192,192,74105,1,8,0:0:0:0:
320,192,74105,1,0,0:0:0:0:
448,192,74255,1,0,0:0:0:0:
64,192,74405,1,2,0:0:0:0:
192,192,74705,1,8,0:0:0:0:
320,192,74705,1,0,0:0:0:0:
448,192,74855,1,0,0:0:0:0:
320,192,75155,1,2,0:0:0:0:
64,192,75305,1,8,0:0:0:0:
448,192,75305,1,0,0:0:0:0:
192,192,75455,1,0,0:0:0:0:
320,192,75755,1,2,0:0:0:0:
192,192,75905,1,8,0:0:0:0:
448,192,75905,1,0,0:0:0:0:
64,192,76055,1,0,0:0:0:0:
448,192,76205,1,0,0:0:0:0:
320,192,76355,1,2,0:0:0:0:
64,192,76505,1,8,0:0:0:0:
192,192,76505,1,0,0:0:0:0:
320,192,76655,1,0,0:0:0:0:
64,192,76805,1,2,0:0:0:0:
320,192,77105,1,8,0:0:0:0:
448,192,77105,1,0,0:0:0:0:
192,192,77255,1,0,0:0:0:0:
192,192,77555,1,2,0:0:0:0:
64,192,77705,1,8,0:0:0:0:
448,192,77705,1,0,0:0:0:0:
320,192,77855,1,0,0:0:0:0:
320,192,78155,1,2,0:0:0:0:
64,192,78305,1,8,0:0:0:0:
192,192,78305,1,0,0:0:0:0:
448,192,78455,1,0,0:0:0:0:
64,192,78605,1,0,0:0:0:0:
192,192,78755,1,2,0:0:0:0:
320,192,78905,1,8,0:0:0:0:
448,192,78905,1,0,0:0:0:0:
192,192,79055,1,0,0:0:0:0:
448,192,79205,128,2,80405:0:0:0:0:
64,192,79505,1,0,0:0:0:0:
320,192,79655,1,0,0:0:0:0:
192,192,80105,1,0,0:0:0:0:
320,192,80255,1,0,0:0:0:0:
64,192,80405,128,0,81605:0:0:0:0:
448,192,80555,1,0,0:0:0:0:
320,192,80705,1,0,0:0:0:0:
192,192,80855,1,0,0:0:0:0:
448,192,81005,1,0,0:0:0:0:
192,192,81155,1,0,0:0:0:0:
320,192,81305,1,0,0:0:0:0:
448,192,81455,1,0,0:0:0:0:
192,192,81605,1,2,0:0:0:0:
320,192,81605,128,4,82805:0:0:0:60:
64,192,82055,1,0,0:0:0:0:
448,192,82805,128,0,84005:0:0:0:0:
192,192,83255,1,0,0:0:0:0:
64,192,84005,128,0,85205:0:0:0:0:
320,192,84455,1,0,0:0:0:0:
192,192,85205,128,0,86405:0:0:0:0:
448,192,85655,1,0,0:0:0:0:
320,192,86405,128,0,87605:0:0:0:0:
64,192,86855,1,0,0:0:0:0:
448,192,87605,128,0,88805:0:0:0:0:
64,192,88055,1,0,0:0:0:0:
192,192,88805,128,0,90005:0:0:0:0:
320,192,89255,1,0,0:0:0:0:
64,192,90005,128,0,91205:0:0:0:0:
448,192,90455,1,0,0:0:0:0:
320,192,91205,128,0,92405:0:0:0:0:
192,192,91655,1,0,0:0:0:0:
448,192,92405,128,0,93605:0:0:0:0:
192,192,92855,1,0,0:0:0:0:
64,192,93605,128,0,94805:0:0:0:0:
320,192,94055,1,0,0:0:0:0:
192,192,94805,128,0,96005:0:0:0:0:
320,192,95255,1,0,0:0:0:0:
448,192,96005,128,0,97205:0:0:0:0:
64,192,96455,1,0,0:0:0:0:
320,192,97205,128,0,98405:0:0:0:0:
64,192,97655,1,0,0:0:0:0:
192,192,98405,128,0,99605:0:0:0:0:
448,192,98855,1,0,0:0:0:0:
64,192,99605,128,0,100805:0:0:0:0:
448,192,100055,1,0,0:0:0:0:
320,192,100805,1,0,0:0:0:0:
192,192,101255,1,0,0:0:0:0:
448,192,101705,1,0,0:0:0:0:
64,192,102305,1,0,0:0:0:0:
192,192,102605,1,0,0:0:0:0:
320,192,102905,1,0,0:0:0:0:
64,192,103055,1,0,0:0:0:0:
448,192,103205,1,0,0:0:0:0:
192,192,103655,1,0,0:0:0:0:
64,192,104105,1,0,0:0:0:0:
448,192,104555,1,0,0:0:0:0:
320,192,104705,1,0,0:0:0:0:
192,192,104855,1,0,0:0:0:0:
64,192,105005,1,0,0:0:0:0:
448,192,105155,1,0,0:0:0:0:
320,192,105305,1,0,0:0:0:0:
64,192,105455,1,0,0:0:0:0:
192,192,105605,1,0,0:0:0:0:
448,192,106055,1,0,0:0:0:0:
64,192,106505,1,0,0:0:0:0:
192,192,107105,1,0,0:0:0:0:
320,192,107405,1,0,0:0:0:0:
448,192,107705,1,0,0:0:0:0:
64,192,107855,1,0,0:0:0:0:
192,192,108005,1,0,0:0:0:0:
320,192,108455,1,0,0:0:0:0:
64,192,108905,1,0,0:0:0:0:
448,192,109355,1,0,0:0:0:0:
320,192,109505,1,0,0:0:0:0:
192,192,109655,1,0,0:0:0:0:
448,192,109805,128,2,110105:0:0:0:0:
64,192,110105,128,0,110255:0:0:0:0:
320,192,110255,1,0,0:0:0:0:
192,192,110405,1,2,0:0:0:0:
448,192,110405,1,4,0:0:0:60:
64,192,110555,1,2,0:0:0:0:
320,192,110705,1,10,0:0:0:0:
192,192,110855,1,2,0:0:0:0:
192,192,111155,1,2,0:0:0:0:
320,192,111305,1,10,0:0:0:0:
448,192,111455,128,0,111605:0:0:0:0:
64,192,111605,128,0,111755:0:0:0:0:
320,192,111755,128,2,111905:0:0:0:0:
192,192,111905,128,10,112055:0:0:0:0:
64,192,112055,128,0,112205:0:0:0:0:
320,192,112205,1,0,0:0:0:90:Clap.wav
448,192,112205,128,0,112355:0:0:0:0:
192,192,112355,128,2,112505:0:0:0:0:
320,192,112505,128,10,112655:0:0:0:0:
448,192,112655,128,2,112805:0:0:0:0:
64,192,112805,1,2,0:0:0:0:
192,192,112955,1,2,0:0:0:0:
320,192,113105,1,10,0:0:0:0:
448,192,113255,1,2,0:0:0:0:
448,192,113555,1,2,0:0:0:0:
192,192,113705,1,10,0:0:0:0:
320,192,113855,128,2,114005:0:0:0:0:
448,192,114005,128,2,114155:0:0:0:0:
64,192,114155,128,2,114305:0:0:0:0:
320,192,114305,128,2,114455:0:0:0:0:
448,192,114305,1,0,0:0:0:90:Clap.wav
192,192,114455,128,2,114605:0:0:0:0:
64,192,114605,1,2,0:0:0:0:
448,192,114605,128,0,114755:0:0:0:90:Clap.wav
320,192,114755,128,2,114905:0:0:0:0:
64,192,114905,128,2,115055:0:0:0:0:
192,192,115055,128,2,115205:0:0:0:0:
448,192,115205,1,2,0:0:0:0:
320,192,115355,1,2,0:0:0:0:
64,192,115505,1,10,0:0:0:0:
192,192,115655,1,2,0:0:0:0:
192,192,115955,1,2,0:0:0:0:
320,192,116105,1,10,0:0:0:0:
448,192,116255,128,2,116405:0:0:0:0:
64,192,116405,128,0,116555:0:0:0:0:
192,192,116555,128,2,116705:0:0:0:0:
320,192,116705,128,10,116855:0:0:0:0:
448,192,116855,128,0,117005:0:0:0:0:
64,192,117005,128,0,117155:0:0:0:90:Clap.wav
192,192,117005,1,0,0:0:0:0:
320,192,117155,128,2,117305:0:0:0:0:
192,192,117305,128,0,117455:0:0:0:0:
448,192,117455,128,2,117605:0:0:0:0:
320,192,117605,1,2,0:0:0:0:
192,192,117755,1,2,0:0:0:0:
448,192,117905,1,10,0:0:0:0:
320,192,118055,1,2,0:0:0:0:
320,192,118355,1,2,0:0:0:0:
192,192,118505,1,10,0:0:0:0:
64,192,118655,128,0,118805:0:0:0:0:
448,192,118805,128,2,118955:0:0:0:0:
320,192,118955,128,0,119105:0:0:0:0:
192,192,119105,128,0,119255:0:0:0:90:Clap.wav
448,192,119105,1,0,0:0:0:0:
64,192,119255,128,0,119405:0:0:0:0:
192,192,119405,1,0,0:0:0:90:Clap.wav
448,192,119405,128,0,119555:0:0:0:0:
320,192,119555,128,0,119705:0:0:0:0:
64,192,119705,128,2,119855:0:0:0:0:
192,192,119855,128,0,120005:0:0:0:0:
448,192,120005,1,2,0:0:0:0:
320,192,120155,1,2,0:0:0:0:
192,192,120305,1,10,0:0:0:0:
448,192,120455,1,2,0:0:0:0:
192,192,120605,1,0,0:0:0:0:
64,192,120755,1,2,0:0:0:0:
448,192,120905,128,10,121205:0:0:0:0:
64,192,121205,1,0,0:0:0:0:
192,192,121355,1,2,0:0:0:0:
320,192,121505,1,10,0:0:0:0:
64,192,121655,1,2,0:0:0:0:
320,192,121805,1,2,0:0:0:0:
448,192,121805,1,0,0:0:0:90:Clap.wav
192,192,121955,128,2,122105:0:0:0:0:
448,192,122105,128,2,122255:0:0:0:0:
64,192,122255,128,0,122405:0:0:0:0:
320,192,122405,1,2,0:0:0:0:
192,192,122555,1,0,0:0:0:0:
448,192,122705,1,10,0:0:0:0:
64,192,122855,1,0,0:0:0:0:
320,192,123005,1,0,0:0:0:0:
192,192,123155,1,2,0:0:0:0:
448,192,123305,1,10,0:0:0:0:
320,192,123455,128,0,123605:0:0:0:0:
64,192,123605,1,0,0:0:0:0:
192,192,123755,1,2,0:0:0:0:
320,192,123905,1,2,0:0:0:0:
448,192,123905,128,0,124055:0:0:0:90:Clap.wav
64,192,124055,128,0,124205:0:0:0:0:
192,192,124205,1,0,0:0:0:90:Clap.wav
448,192,124205,128,0,124355:0:0:0:0:
320,192,124355,128,2,124505:0:0:0:0:
192,192,124505,128,10,124655:0:0:0:0:
64,192,124655,128,0,124805:0:0:0:0:
448,192,124805,1,2,0:0:0:0:
320,192,124955,1,0,0:0:0:0:
192,192,125105,1,10,0:0:0:0:
448,192,125255,1,0,0:0:0:0:
192,192,125405,1,0,0:0:0:0:
64,192,125555,1,2,0:0:0:0:
320,192,125705,1,10,0:0:0:0:
192,192,125855,128,0,126005:0:0:0:0:
448,192,126005,1,0,0:0:0:0:
64,192,126155,1,2,0:0:0:0:
192,192,126305,1,2,0:0:0:0:
320,192,126455,1,0,0:0:0:0:
64,192,126605,1,0,0:0:0:90:Clap.wav
448,192,126605,1,0,0:0:0:0:
320,192,126755,1,0,0:0:0:0:
192,192,126905,1,0,0:0:0:0:
64,192,127055,1,0,0:0:0:0:
448,192,127205,1,2,0:0:0:0:
320,192,127355,1,0,0:0:0:0:
192,192,127505,1,10,0:0:0:0:
448,192,127655,128,0,127805:0:0:0:0:
64,192,127805,1,0,0:0:0:0:
192,192,127955,1,2,0:0:0:0:
320,192,128105,1,10,0:0:0:0:
448,192,128255,1,0,0:0:0:0:
64,192,128405,1,0,0:0:0:0:
192,192,128555,1,2,0:0:0:0:
320,192,128705,1,0,0:0:0:0:
448,192,128705,1,0,0:0:0:90:Clap.wav
64,192,128855,1,2,0:0:0:0:
320,192,129005,1,0,0:0:0:90:Clap.wav
448,192,129005,128,0,129155:0:0:0:0:
192,192,129155,128,2,129305:0:0:0:0:
320,192,129305,128,0,129455:0:0:0:0:
64,192,129455,128,0,129605:0:0:0:0:
192,192,129605,1,2,0:0:0:0:
448,192,129605,1,4,0:0:0:60:
