osu file format v14

[General]
AudioFilename: audio.mp3
AudioLeadIn: 0
PreviewTime: 110367
Countdown: 1
SampleSet: Normal
StackLeniency: 0.7
Mode: 1
LetterboxInBreaks: 0
WidescreenStoryboard: 1

[Editor]
Bookmarks: 5,19205,28805,38405,52805,72005,81605,110405,129605
DistanceSpacing: 1.3
BeatDivisor: 4
GridSize: 32
TimelineZoom: 1.8

[Metadata]
Title:Celestial Horizon
TitleUnicode:Celestial Horizon
Artist:Fractal Dreamers
ArtistUnicode:Fractal Dreamers
Creator:ICECAKE
Version:arc's Futsuu
Source:
Tags:featured artist fa piano dnb drum and bass orchestral artcore instrumental electronic everything for a dream arcpotato KuroKuroKuro
BeatmapID:3400219
BeatmapSetID:1661187

[Difficulty]
HPDrainRate:7
CircleSize:2
OverallDifficulty:4
ApproachRate:10
SliderMultiplier:1.4
SliderTickRate:1

[Events]
//Background and Video events
0,0,"Emotional.jpg",0,0
//Break Periods
//Storyboard Layer 0 (Background)
//Storyboard Layer 1 (Fail)
//Storyboard Layer 2 (Pass)
//Storyboard Layer 3 (Foreground)
//Storyboard Layer 4 (Overlay)
//Storyboard Sound Samples

[TimingPoints]
5,300,4,1,0,30,1,0
5,-117.647058823529,4,1,0,30,0,0
9605,-111.111111111111,4,1,0,30,0,0
19205,-105.263157894737,4,1,0,50,0,0
28805,-100,4,1,0,60,0,0
36155,-111.111111111111,4,1,0,60,0,0
38405,-105.263157894737,4,1,0,60,0,0
52805,-100,4,1,0,60,0,0
81605,-100,4,1,0,30,0,0
81755,-111.111111111111,4,1,0,30,0,0
109205,-105.263157894737,4,1,0,30,0,0
110405,-100,4,1,0,70,0,1
129605,-100,4,1,0,70,0,0
129905,-111.111111111111,4,1,0,30,0,0

[HitObjects]
256,192,5,5,0,0:0:0:0:
288,192,455,1,8,0:0:0:0:
256,192,755,1,0,0:0:0:0:
256,192,1205,1,0,0:0:0:0:
256,192,1655,1,8,0:0:0:0:
256,192,2405,1,8,0:0:0:0:
288,192,2855,1,0,0:0:0:0:
256,192,3155,1,8,0:0:0:0:
288,192,3605,1,8,0:0:0:0:
288,192,4055,1,0,0:0:0:0:
192,192,4805,1,8,0:0:0:0:
224,192,5255,1,0,0:0:0:0:
256,192,5555,1,0,0:0:0:0:
256,192,6005,1,8,0:0:0:0:
256,192,6455,1,0,0:0:0:0:
256,192,7205,1,0,0:0:0:0:
256,192,7655,1,8,0:0:0:0:
288,192,7955,1,8,0:0:0:0:
256,192,8405,1,0,0:0:0:0:
288,160,8855,1,8,0:0:0:0:
288,160,9605,1,8,0:0:0:0:
288,160,10055,1,0,0:0:0:0:
288,160,10505,1,8,0:0:0:0:
320,160,10805,1,0,0:0:0:0:
288,160,11255,1,8,0:0:0:0:
288,192,11705,1,0,0:0:0:0:
288,160,12005,1,8,0:0:0:0:
320,192,12455,1,8,0:0:0:0:
288,192,12905,1,8,0:0:0:0:
288,192,13205,1,0,0:0:0:0:
320,160,14105,1,8,0:0:0:0:
320,160,14405,1,8,0:0:0:0:
246,196,14555,1,0,0:0:0:0:
256,192,14855,1,8,0:0:0:0:
256,192,15305,1,0,0:0:0:0:
288,192,15605,1,0,0:0:0:0:
288,192,15755,1,8,0:0:0:0:
288,192,16055,1,8,0:0:0:0:
288,192,16805,1,0,0:0:0:0:
288,192,17105,1,8,0:0:0:0:
288,192,17255,1,0,0:0:0:0:
256,192,17555,1,8,0:0:0:0:
256,192,18005,1,0,0:0:0:0:
256,192,18305,1,8,0:0:0:0:
256,192,18455,1,0,0:0:0:0:
256,192,18755,1,0,0:0:0:0:
256,192,18905,1,8,0:0:0:0:
256,192,19205,1,12,0:0:0:0:
288,192,19505,1,0,0:0:0:0:
224,192,20105,1,8,0:0:0:0:
224,192,20255,1,0,0:0:0:0:
224,192,20555,1,8,0:0:0:0:
224,192,20705,1,0,0:0:0:0:
288,192,21005,1,8,0:0:0:0:
256,192,21605,1,0,0:0:0:0:
256,192,21905,1,8,0:0:0:0:
288,192,22205,1,0,0:0:0:0:
256,192,22805,1,8,0:0:0:0:
256,192,22955,1,0,0:0:0:0:
256,192,23405,1,8,0:0:0:0:
288,192,24005,1,8,0:0:0:0:
288,192,24305,1,0,0:0:0:0:
288,192,24605,1,8,0:0:0:0:
288,192,24905,1,0,0:0:0:0:
288,192,25055,1,8,0:0:0:0:
288,192,25355,1,0,0:0:0:0:
288,192,25505,1,8,0:0:0:0:
288,192,25805,1,0,0:0:0:0:
256,192,26405,1,8,0:0:0:0:
256,192,26705,1,0,0:0:0:0:
256,192,27005,1,8,0:0:0:0:
256,192,27155,1,0,0:0:0:0:
256,192,27305,1,8,0:0:0:0:
256,192,27605,1,0,0:0:0:0:
256,192,27755,1,8,0:0:0:0:
256,192,28505,1,0,0:0:0:0:
256,192,28805,1,12,0:0:0:0:
256,192,29105,1,0,0:0:0:0:
256,192,29255,1,8,0:0:0:0:
256,192,29405,1,0,0:0:0:0:
256,192,29705,1,8,0:0:0:0:
256,192,30005,1,0,0:0:0:0:
204,190,30155,1,0,0:0:0:0:
256,192,30305,1,8,0:0:0:0:
256,192,30605,1,8,0:0:0:0:
259,183,30755,1,8,0:0:0:0:
256,192,30905,1,0,0:0:0:0:
256,192,31205,1,8,0:0:0:0:
288,192,31355,1,0,0:0:0:0:
288,192,31655,1,0,0:0:0:0:
256,192,31955,1,8,0:0:0:0:
256,192,32105,1,0,0:0:0:0:
256,192,32405,1,8,0:0:0:0:
256,192,32705,1,8,0:0:0:0:
256,192,32855,1,0,0:0:0:0:
256,192,33005,1,8,0:0:0:0:
283,196,33305,1,8,0:0:0:0:
256,192,33605,1,0,0:0:0:0:
256,192,34205,1,8,0:0:0:0:
288,192,34505,1,0,0:0:0:0:
256,192,34805,1,8,0:0:0:0:
256,192,35105,1,0,0:0:0:0:
288,192,35255,1,0,0:0:0:0:
288,192,35405,1,8,0:0:0:0:
288,192,35705,1,0,0:0:0:0:
288,192,36005,1,12,0:0:0:0:
288,192,36605,1,0,0:0:0:0:
288,192,37205,1,0,0:0:0:0:
288,192,37505,1,0,0:0:0:0:
288,192,37805,1,8,0:0:0:0:
256,192,38405,1,0,0:0:0:0:
256,192,38705,1,8,0:0:0:0:
256,192,39005,1,0,0:0:0:0:
256,192,39305,1,8,0:0:0:0:
224,192,39605,1,0,0:0:0:0:
256,192,40205,1,0,0:0:0:0:
256,192,40355,1,0,0:0:0:0:
256,192,40505,1,8,0:0:0:0:
256,192,40805,1,8,0:0:0:0:
256,192,41105,1,0,0:0:0:0:
256,192,41405,1,8,0:0:0:0:
256,192,41705,1,0,0:0:0:0:
256,192,42005,1,8,0:0:0:0:
256,192,42605,1,8,0:0:0:0:
256,192,42755,1,8,0:0:0:0:
256,192,42905,1,0,0:0:0:0:
288,192,43205,1,8,0:0:0:0:
256,192,43505,1,0,0:0:0:0:
288,192,43655,1,0,0:0:0:0:
256,192,43805,1,8,0:0:0:0:
288,192,44105,1,8,0:0:0:0:
288,192,44405,1,0,0:0:0:0:
256,192,45005,1,0,0:0:0:0:
256,192,45155,1,0,0:0:0:0:
256,192,45305,1,8,0:0:0:0:
256,192,45605,1,0,0:0:0:0:
256,192,45905,1,8,0:0:0:0:
256,192,46055,1,8,0:0:0:0:
266,190,46205,1,0,0:0:0:0:
256,192,46505,1,8,0:0:0:0:
256,192,46805,1,0,0:0:0:0:
256,192,47405,1,8,0:0:0:0:
256,192,47555,1,8,0:0:0:0:
256,192,47705,1,0,0:0:0:0:
256,192,48005,1,8,0:0:0:0:
282,172,48305,1,0,0:0:0:0:
256,192,48455,1,0,0:0:0:0:
288,147,48605,1,8,0:0:0:0:
256,192,48905,1,8,0:0:0:0:
256,192,49205,1,0,0:0:0:0:
256,192,49805,1,0,0:0:0:0:
256,192,49955,1,0,0:0:0:0:
256,192,50105,1,8,0:0:0:0:
256,192,50405,1,0,0:0:0:0:
251,173,50705,1,8,0:0:0:0:
256,192,50855,1,0,0:0:0:0:
272,150,51005,1,8,0:0:0:0:
288,192,51305,1,0,0:0:0:0:
288,192,51605,1,8,0:0:0:0:
288,192,52055,1,8,0:0:0:0:
320,192,52505,1,0,0:0:0:0:
288,192,52805,1,4,0:0:0:0:
256,192,53105,1,8,0:0:0:0:
320,192,53705,1,8,0:0:0:0:
320,224,54005,1,0,0:0:0:0:
256,192,54305,1,8,0:0:0:0:
256,192,54605,1,0,0:0:0:0:
288,192,54755,1,0,0:0:0:0:
256,192,54905,1,8,0:0:0:0:
256,192,55205,1,0,0:0:0:0:
288,192,55505,1,8,0:0:0:0:
288,192,55655,1,0,0:0:0:0:
288,192,55955,1,0,0:0:0:0:
288,192,56105,1,8,0:0:0:0:
250,191,56405,1,0,0:0:0:0:
289,178,56705,1,8,0:0:0:0:
288,169,56855,1,0,0:0:0:0:
263,153,57005,1,8,0:0:0:0:
263,153,57305,1,0,0:0:0:0:
256,192,57605,1,0,0:0:0:0:
256,192,57905,1,8,0:0:0:0:
256,192,58505,1,8,0:0:0:0:
256,192,58655,1,8,0:0:0:0:
288,192,58805,1,0,0:0:0:0:
256,192,59105,1,8,0:0:0:0:
256,192,59405,1,0,0:0:0:0:
256,192,59555,1,0,0:0:0:0:
256,192,59705,1,8,0:0:0:0:
256,192,60005,1,0,0:0:0:0:
256,192,60305,1,8,0:0:0:0:
256,192,60455,1,0,0:0:0:0:
256,192,60905,1,8,0:0:0:0:
288,192,61055,1,8,0:0:0:0:
256,192,61205,1,0,0:0:0:0:
288,192,61805,1,0,0:0:0:0:
256,192,61955,1,0,0:0:0:0:
256,192,62105,1,8,0:0:0:0:
256,192,62405,1,0,0:0:0:0:
295,187,62705,1,8,0:0:0:0:
256,192,62855,1,0,0:0:0:0:
288,192,63155,1,0,0:0:0:0:
256,192,63305,1,8,0:0:0:0:
256,192,63455,1,0,0:0:0:0:
290,208,63755,1,0,0:0:0:0:
288,192,63905,1,8,0:0:0:0:
256,192,64205,1,0,0:0:0:0:
288,224,64805,1,0,0:0:0:0:
256,224,65105,1,8,0:0:0:0:
256,192,65255,1,0,0:0:0:0:
256,192,65555,1,8,0:0:0:0:
256,160,65705,1,8,0:0:0:0:
256,160,65855,1,0,0:0:0:0:
256,160,66155,1,0,0:0:0:0:
266,190,66305,1,8,0:0:0:0:
256,192,66605,1,0,0:0:0:0:
288,192,67205,1,0,0:0:0:0:
273,187,67505,1,8,0:0:0:0:
288,224,67655,1,0,0:0:0:0:
275,208,67955,1,0,0:0:0:0:
288,192,68105,1,8,0:0:0:0:
288,192,68255,1,0,0:0:0:0:
274,208,68555,1,8,0:0:0:0:
288,192,68705,1,8,0:0:0:0:
288,192,69005,1,0,0:0:0:0:
288,192,69605,1,0,0:0:0:0:
256,192,69905,1,8,0:0:0:0:
256,192,70055,1,0,0:0:0:0:
256,192,70355,1,0,0:0:0:0:
256,192,70505,1,8,0:0:0:0:
256,192,70805,1,0,0:0:0:0:
256,192,71405,1,0,0:0:0:0:
256,192,71705,1,0,0:0:0:0:
256,192,72005,1,8,0:0:0:0:
288,192,72305,1,8,0:0:0:0:
269,206,72455,1,0,0:0:0:0:
256,192,72605,1,0,0:0:0:0:
256,192,72905,1,8,0:0:0:0:
256,160,73055,1,0,0:0:0:0:
256,160,73205,1,0,0:0:0:0:
256,160,73505,1,8,0:0:0:0:
256,160,73805,1,0,0:0:0:0:
256,160,73955,1,0,0:0:0:0:
256,160,74105,1,8,0:0:0:0:
256,192,74405,1,0,0:0:0:0:
256,192,74705,1,8,0:0:0:0:
256,192,74855,1,0,0:0:0:0:
256,192,75155,1,0,0:0:0:0:
256,192,75455,1,8,0:0:0:0:
256,192,75755,1,0,0:0:0:0:
256,192,75905,1,8,0:0:0:0:
256,192,76205,1,0,0:0:0:0:
256,192,76805,1,0,0:0:0:0:
256,192,77255,1,8,0:0:0:0:
256,192,77555,1,0,0:0:0:0:
256,192,77705,1,0,0:0:0:0:
256,192,77855,1,8,0:0:0:0:
256,192,78155,1,8,0:0:0:0:
256,192,78605,1,8,0:0:0:0:
256,192,78755,1,0,0:0:0:0:
256,192,78905,1,0,0:0:0:0:
256,192,79205,1,8,0:0:0:0:
256,192,79505,1,0,0:0:0:0:
256,192,79655,1,8,0:0:0:0:
256,192,79955,1,0,0:0:0:0:
256,192,80105,1,0,0:0:0:0:
256,192,80255,1,8,0:0:0:0:
256,192,80555,1,0,0:0:0:0:
256,192,80705,1,8,0:0:0:0:
256,192,81005,1,0,0:0:0:0:
256,192,81305,1,8,0:0:0:0:
256,192,81605,1,4,0:0:0:0:
256,160,82055,1,0,0:0:0:0:
256,160,82505,1,8,0:0:0:0:
256,192,82805,1,0,0:0:0:0:
256,192,84005,1,8,0:0:0:0:
256,192,84455,1,8,0:0:0:0:
256,192,84905,1,0,0:0:0:0:
256,192,85205,1,8,0:0:0:0:
288,160,86405,1,0,0:0:0:0:
256,192,86855,1,0,0:0:0:0:
256,192,87305,1,8,0:0:0:0:
256,192,87605,1,0,0:0:0:0:
256,192,88055,1,0,0:0:0:0:
256,192,88505,1,8,0:0:0:0:
256,192,88805,1,0,0:0:0:0:
256,192,89255,1,0,0:0:0:0:
256,192,89705,1,8,0:0:0:0:
256,192,90005,1,0,0:0:0:0:
256,192,91205,1,0,0:0:0:0:
256,192,91655,1,8,0:0:0:0:
256,192,92105,1,8,0:0:0:0:
256,192,92405,1,0,0:0:0:0:
256,192,93605,1,0,0:0:0:0:
256,192,94055,1,0,0:0:0:0:
256,192,94505,1,8,0:0:0:0:
256,192,94805,1,0,0:0:0:0:
256,192,96005,1,8,0:0:0:0:
256,192,96455,1,8,0:0:0:0:
256,192,96905,1,0,0:0:0:0:
256,192,97205,1,8,0:0:0:0:
256,192,97655,1,8,0:0:0:0:
256,192,98105,1,0,0:0:0:0:
256,192,98405,1,8,0:0:0:0:
256,192,98855,1,8,0:0:0:0:
256,192,99305,1,0,0:0:0:0:
256,192,99605,1,8,0:0:0:0:
256,192,100055,1,0,0:0:0:0:
256,192,100355,1,8,0:0:0:0:
256,192,100505,1,0,0:0:0:0:
256,192,100805,1,0,0:0:0:0:
256,192,101255,1,0,0:0:0:0:
256,192,101705,1,8,0:0:0:0:
256,192,102305,1,8,0:0:0:0:
256,192,102605,1,0,0:0:0:0:
256,192,102905,1,0,0:0:0:0:
256,192,103205,1,8,0:0:0:0:
256,192,103655,1,0,0:0:0:0:
256,192,104105,1,8,0:0:0:0:
256,192,104555,1,8,0:0:0:0:
256,192,104705,1,0,0:0:0:0:
256,192,105005,1,8,0:0:0:0:
256,192,105155,1,8,0:0:0:0:
256,192,105305,1,0,0:0:0:0:
256,192,105605,1,8,0:0:0:0:
256,192,106055,1,0,0:0:0:0:
256,192,106505,1,0,0:0:0:0:
256,192,107105,1,8,0:0:0:0:
256,192,107405,1,0,0:0:0:0:
256,192,107705,1,0,0:0:0:0:
256,192,108005,12,0,109805,0:0:0:0:
256,192,110405,5,0,0:0:0:0:
256,192,110705,1,8,0:0:0:0:
256,192,110855,1,0,0:0:0:0:
210,195,111155,1,0,0:0:0:0:
220,194,111455,1,8,0:0:0:0:
256,192,111605,1,0,0:0:0:0:
256,192,111755,1,0,0:0:0:0:
288,192,111905,1,8,0:0:0:0:
288,192,112205,1,0,0:0:0:0:
242,212,112505,1,8,0:0:0:0:
256,160,112805,1,8,0:0:0:0:
304,190,112955,1,8,0:0:0:0:
256,160,113105,1,0,0:0:0:0:
246,184,113255,1,0,0:0:0:0:
256,192,113555,1,0,0:0:0:0:
256,192,113705,1,8,0:0:0:0:
256,192,114005,1,0,0:0:0:0:
256,192,114155,1,0,0:0:0:0:
256,192,114305,1,8,0:0:0:0:
256,192,114455,1,8,0:0:0:0:
256,192,114605,1,0,0:0:0:0:
256,192,114905,1,0,0:0:0:0:
288,192,115205,1,8,0:0:0:0:
288,192,115505,1,8,0:0:0:0:
288,192,115655,1,0,0:0:0:0:
429,202,116255,1,8,0:0:0:0:
288,192,116405,1,0,0:0:0:0:
254,184,116555,1,0,0:0:0:0:
288,192,116705,1,8,0:0:0:0:
288,192,117005,1,0,0:0:0:0:
288,192,117305,1,8,0:0:0:0:
288,192,117605,1,8,0:0:0:0:
288,192,117755,1,8,0:0:0:0:
288,192,117905,1,0,0:0:0:0:
290,171,118205,1,8,0:0:0:0:
288,192,118505,1,0,0:0:0:0:
256,224,118655,1,8,0:0:0:0:
288,192,118805,1,0,0:0:0:0:
288,192,118955,1,0,0:0:0:0:
288,192,119105,1,8,0:0:0:0:
256,192,119405,1,8,0:0:0:0:
256,192,120005,1,0,0:0:0:0:
256,192,120455,1,0,0:0:0:0:
256,192,120905,1,8,0:0:0:0:
256,192,121205,1,0,0:0:0:0:
256,192,121355,1,0,0:0:0:0:
256,192,121505,1,8,0:0:0:0:
256,192,121655,1,8,0:0:0:0:
256,192,121955,1,0,0:0:0:0:
256,192,122105,1,0,0:0:0:0:
256,192,122405,1,8,0:0:0:0:
256,192,122555,1,0,0:0:0:0:
274,188,122855,1,0,0:0:0:0:
256,192,123005,1,8,0:0:0:0:
256,192,123155,1,8,0:0:0:0:
256,192,123305,1,0,0:0:0:0:
256,192,123605,1,0,0:0:0:0:
255,184,123755,1,0,0:0:0:0:
256,192,123905,1,8,0:0:0:0:
224,160,124055,1,0,0:0:0:0:
256,192,124205,1,8,0:0:0:0:
256,192,124505,1,8,0:0:0:0:
256,128,124805,1,0,0:0:0:0:
224,192,125405,1,0,0:0:0:0:
256,224,125705,1,8,0:0:0:0:
256,224,125855,1,0,0:0:0:0:
256,192,126155,1,8,0:0:0:0:
256,192,126305,1,0,0:0:0:0:
288,224,126455,1,0,0:0:0:0:
288,224,126605,1,8,0:0:0:0:
288,224,126905,1,0,0:0:0:0:
288,224,127205,1,8,0:0:0:0:
288,224,127505,1,8,0:0:0:0:
288,224,127655,1,0,0:0:0:0:
288,224,127955,1,0,0:0:0:0:
288,224,128105,1,8,0:0:0:0:
288,224,128405,1,0,0:0:0:0:
313,214,128705,1,8,0:0:0:0:
288,224,128855,1,0,0:0:0:0:
288,224,129005,1,8,0:0:0:0:
288,224,129155,1,8,0:0:0:0:
288,224,129305,1,0,0:0:0:0:
256,192,129605,1,12,0:0:0:0:
288,192,130055,1,0,0:0:0:0:
256,192,130505,1,8,0:0:0:0:
288,160,130805,1,0,0:0:0:0:
256,192,132005,1,8,0:0:0:0:
288,192,132455,1,8,0:0:0:0:
256,192,132905,1,8,0:0:0:0:
256,192,133205,1,0,0:0:0:0:
256,192,134405,1,0,0:0:0:0:
256,192,134855,1,0,0:0:0:0:
256,192,135305,1,0,0:0:0:0:
256,192,135605,1,8,0:0:0:0:
256,192,136805,1,8,0:0:0:0:
256,192,137255,1,8,0:0:0:0:
256,192,137705,1,8,0:0:0:0:
256,192,138005,1,0,0:0:0:0:
256,192,138755,1,0,0:0:0:0:
256,192,138905,1,0,0:0:0:0:
256,192,139055,1,8,0:0:0:0:
