osu file format v14

[General]
AudioFilename: audio.mp3
AudioLeadIn: 0
PreviewTime: 110367
Countdown: 1
SampleSet: Normal
StackLeniency: 0.7
Mode: 1
LetterboxInBreaks: 0
WidescreenStoryboard: 1

[Editor]
Bookmarks: 5,19205,28805,38405,52805,72005,81605,110405,129605
DistanceSpacing: 1.3
BeatDivisor: 4
GridSize: 32
TimelineZoom: 1.4

[Metadata]
Title:Celestial Horizon
TitleUnicode:Celestial Horizon
Artist:Fractal Dreamers
ArtistUnicode:Fractal Dreamers
Creator:ICECAKE
Version:Muzukashii
Source:
Tags:featured artist fa piano dnb drum and bass orchestral artcore instrumental electronic everything for a dream arcpotato KuroKuroKuro
BeatmapID:3431671
BeatmapSetID:1661187

[Difficulty]
HPDrainRate:6
CircleSize:2
OverallDifficulty:5
ApproachRate:10
SliderMultiplier:1.4
SliderTickRate:1

[Events]
//Background and Video events
0,0,"Emotional.jpg",0,0
//Break Periods
//Storyboard Layer 0 (Background)
//Storyboard Layer 1 (Fail)
//Storyboard Layer 2 (Pass)
//Storyboard Layer 3 (Foreground)
//Storyboard Layer 4 (Overlay)
//Storyboard Sound Samples

[TimingPoints]
5,300,4,1,0,30,1,0
5,-125,4,1,0,30,0,0
19205,-111.111111111111,4,1,0,50,0,0
28805,-100,4,1,0,60,0,0
36080,-105.263157894737,4,1,0,60,0,0
38480,-111.111111111111,4,1,0,60,0,0
52505,-105.263157894737,4,1,0,60,0,0
52805,-100,4,1,0,60,0,0
81605,-100,4,1,0,30,0,0
81755,-111.111111111111,4,1,0,30,0,0
91280,-117.647058823529,4,1,0,30,0,0
100805,-125,4,1,0,30,0,0
109805,-111.111111111111,4,1,0,30,0,0
110405,-100,4,1,0,70,0,1
129605,-100,4,1,0,70,0,0
129680,-125,4,1,0,30,0,0

[HitObjects]
256,192,5,5,0,0:0:0:0:
256,192,455,1,0,0:0:0:0:
256,192,905,1,2,0:0:0:0:
256,192,1205,1,0,0:0:0:0:
256,192,1655,1,0,0:0:0:0:
256,192,1955,1,2,0:0:0:0:
256,192,2105,1,2,0:0:0:0:
256,192,2405,1,0,0:0:0:0:
256,192,2855,1,0,0:0:0:0:
256,192,3305,1,2,0:0:0:0:
256,192,3605,1,0,0:0:0:0:
256,192,4055,1,0,0:0:0:0:
256,192,4355,1,0,0:0:0:0:
256,192,4505,1,2,0:0:0:0:
256,192,4805,1,0,0:0:0:0:
256,192,5255,1,0,0:0:0:0:
256,192,5555,1,2,0:0:0:0:
256,192,5705,1,2,0:0:0:0:
256,192,6005,1,0,0:0:0:0:
256,192,6455,1,0,0:0:0:0:
256,192,6755,1,2,0:0:0:0:
256,192,6905,1,0,0:0:0:0:
256,192,7205,1,0,0:0:0:0:
256,192,7655,1,0,0:0:0:0:
256,192,8105,1,2,0:0:0:0:
256,192,8405,1,0,0:0:0:0:
256,192,8855,1,0,0:0:0:0:
256,192,9155,1,0,0:0:0:0:
256,192,9305,1,2,0:0:0:0:
256,192,9455,1,2,0:0:0:0:
256,192,9605,1,0,0:0:0:0:
256,192,10055,1,0,0:0:0:0:
256,192,10505,1,2,0:0:0:0:
256,192,10805,1,0,0:0:0:0:
256,192,11255,1,0,0:0:0:0:
256,192,11705,1,2,0:0:0:0:
256,192,12005,1,0,0:0:0:0:
256,192,12455,1,2,0:0:0:0:
256,192,12905,1,2,0:0:0:0:
256,192,13205,1,0,0:0:0:0:
256,192,13655,1,2,0:0:0:0:
256,192,13955,1,0,0:0:0:0:
256,192,14105,1,2,0:0:0:0:
256,192,14405,1,0,0:0:0:0:
256,192,14855,1,0,0:0:0:0:
256,192,15305,1,2,0:0:0:0:
256,192,15605,1,0,0:0:0:0:
256,192,16055,1,0,0:0:0:0:
256,192,16355,1,2,0:0:0:0:
256,192,16505,1,0,0:0:0:0:
256,192,16805,1,0,0:0:0:0:
256,192,17255,1,0,0:0:0:0:
256,192,17705,1,2,0:0:0:0:
256,192,18005,1,0,0:0:0:0:
256,192,18455,1,0,0:0:0:0:
256,192,18755,1,2,0:0:0:0:
256,192,18905,1,0,0:0:0:0:
256,192,19205,5,4,0:0:0:0:
256,192,19805,1,0,0:0:0:0:
256,192,20105,1,2,0:0:0:0:
256,192,20255,1,2,0:0:0:0:
256,192,20555,1,2,0:0:0:0:
256,192,20705,1,0,0:0:0:0:
256,192,21005,1,2,0:0:0:0:
256,192,21305,1,0,0:0:0:0:
256,192,21605,1,0,0:0:0:0:
256,192,22205,1,0,0:0:0:0:
256,192,22505,1,2,0:0:0:0:
256,192,22805,1,0,0:0:0:0:
256,192,23405,1,2,0:0:0:0:
256,192,24005,1,0,0:0:0:0:
256,192,24605,1,2,0:0:0:0:
256,192,24905,1,2,0:0:0:0:
256,192,25055,1,2,0:0:0:0:
256,192,25355,1,2,0:0:0:0:
256,192,25505,1,0,0:0:0:0:
256,192,25805,1,2,0:0:0:0:
256,192,26105,1,0,0:0:0:0:
256,192,26405,1,0,0:0:0:0:
256,192,27005,1,0,0:0:0:0:
256,192,27305,1,2,0:0:0:0:
256,192,27605,1,2,0:0:0:0:
256,192,28055,1,2,0:0:0:0:
256,192,28505,1,0,0:0:0:0:
256,192,28805,5,4,0:0:0:0:
256,192,29105,1,2,0:0:0:0:
256,192,29255,1,0,0:0:0:0:
256,192,29405,1,0,0:0:0:0:
256,192,29555,1,0,0:0:0:0:
256,192,29705,1,2,0:0:0:0:
256,192,30005,1,0,0:0:0:0:
256,192,30155,1,0,0:0:0:0:
256,192,30305,1,2,0:0:0:0:
256,192,30455,1,0,0:0:0:0:
256,192,30755,1,2,0:0:0:0:
256,192,30905,1,2,0:0:0:0:
256,192,30980,1,2,0:0:0:0:
256,192,31055,1,2,0:0:0:0:
256,192,31205,1,0,0:0:0:0:
256,192,31505,1,0,0:0:0:0:
256,192,31655,1,2,0:0:0:0:
256,192,31955,1,2,0:0:0:0:
256,192,32105,1,2,0:0:0:0:
256,192,32255,1,0,0:0:0:0:
256,192,32330,1,0,0:0:0:0:
256,192,32405,1,0,0:0:0:0:
256,192,32855,1,0,0:0:0:0:
256,192,33005,1,2,0:0:0:0:
256,192,33305,1,2,0:0:0:0:
256,192,33605,1,0,0:0:0:0:
256,192,33905,1,0,0:0:0:0:
256,192,34055,1,0,0:0:0:0:
256,192,34130,1,0,0:0:0:0:
256,192,34205,1,0,0:0:0:0:
256,192,34355,1,0,0:0:0:0:
256,192,34505,1,2,0:0:0:0:
256,192,34805,1,2,0:0:0:0:
256,192,34955,1,2,0:0:0:0:
256,192,35105,1,0,0:0:0:0:
256,192,35255,1,2,0:0:0:0:
256,192,35555,1,0,0:0:0:0:
256,192,35705,1,2,0:0:0:0:
256,192,35855,1,2,0:0:0:0:
256,192,36005,1,4,0:0:0:0:
256,192,36455,1,0,0:0:0:0:
256,192,36605,1,2,0:0:0:0:
256,192,36905,1,2,0:0:0:0:
256,192,37055,1,2,0:0:0:0:
256,192,37205,1,0,0:0:0:0:
256,192,37505,1,0,0:0:0:0:
256,192,37805,1,2,0:0:0:0:
256,192,37955,1,2,0:0:0:0:
256,192,38030,1,2,0:0:0:0:
256,192,38105,1,2,0:0:0:0:
256,192,38255,1,2,0:0:0:0:
256,192,38405,1,0,0:0:0:0:
256,192,38855,1,0,0:0:0:0:
256,192,39005,1,2,0:0:0:0:
256,192,39305,1,2,0:0:0:0:
256,192,39455,1,2,0:0:0:0:
256,192,39605,1,0,0:0:0:0:
256,192,39905,1,0,0:0:0:0:
256,192,40055,1,2,0:0:0:0:
256,192,40205,1,0,0:0:0:0:
256,192,40280,1,0,0:0:0:0:
256,192,40355,1,0,0:0:0:0:
256,192,40505,1,0,0:0:0:0:
256,192,40805,1,0,0:0:0:0:
256,192,41255,1,0,0:0:0:0:
256,192,41405,1,2,0:0:0:0:
256,192,41705,1,2,0:0:0:0:
256,192,41855,1,2,0:0:0:0:
256,192,42005,1,0,0:0:0:0:
256,192,42305,1,0,0:0:0:0:
256,192,42455,1,2,0:0:0:0:
256,192,42605,1,0,0:0:0:0:
256,192,42680,1,0,0:0:0:0:
256,192,42755,1,0,0:0:0:0:
256,192,42905,1,0,0:0:0:0:
256,192,43205,1,2,0:0:0:0:
256,192,43655,1,2,0:0:0:0:
256,192,43955,1,0,0:0:0:0:
256,192,44105,1,2,0:0:0:0:
256,192,44255,1,2,0:0:0:0:
256,192,44405,1,0,0:0:0:0:
256,192,44705,1,0,0:0:0:0:
256,192,44855,1,0,0:0:0:0:
256,192,45005,1,2,0:0:0:0:
256,192,45080,1,2,0:0:0:0:
256,192,45155,1,2,0:0:0:0:
256,192,45305,1,2,0:0:0:0:
256,192,45605,1,0,0:0:0:0:
256,192,46055,1,2,0:0:0:0:
256,192,46205,1,0,0:0:0:0:
256,192,46355,1,0,0:0:0:0:
256,192,46505,1,2,0:0:0:0:
256,192,46655,1,2,0:0:0:0:
256,192,46805,1,0,0:0:0:0:
256,192,47105,1,0,0:0:0:0:
256,192,47255,1,2,0:0:0:0:
256,192,47405,1,0,0:0:0:0:
256,192,47480,1,0,0:0:0:0:
256,192,47555,1,0,0:0:0:0:
256,192,47705,1,0,0:0:0:0:
256,192,48005,1,0,0:0:0:0:
256,192,48455,1,2,0:0:0:0:
256,192,48755,1,2,0:0:0:0:
256,192,48905,1,0,0:0:0:0:
256,192,49055,1,0,0:0:0:0:
256,192,49205,1,2,0:0:0:0:
256,192,49505,1,2,0:0:0:0:
256,192,49655,1,0,0:0:0:0:
256,192,49805,1,0,0:0:0:0:
256,192,49880,1,0,0:0:0:0:
256,192,49955,1,0,0:0:0:0:
256,192,50105,1,0,0:0:0:0:
256,192,50405,1,0,0:0:0:0:
256,192,50855,1,2,0:0:0:0:
256,192,51005,1,0,0:0:0:0:
256,192,51155,1,0,0:0:0:0:
256,192,51305,1,2,0:0:0:0:
256,192,51455,1,2,0:0:0:0:
256,192,51605,1,0,0:0:0:0:
256,192,52055,1,2,0:0:0:0:
256,192,52505,1,0,0:0:0:0:
256,192,52805,1,4,0:0:0:0:
256,192,53105,1,2,0:0:0:0:
256,192,53255,1,0,0:0:0:0:
256,192,53555,1,0,0:0:0:0:
256,192,53705,1,2,0:0:0:0:
256,192,53855,1,2,0:0:0:0:
256,192,53930,1,2,0:0:0:0:
256,192,54005,1,2,0:0:0:0:
256,192,54305,1,0,0:0:0:0:
256,192,54455,1,2,0:0:0:0:
256,192,54605,1,0,0:0:0:0:
256,192,54755,1,0,0:0:0:0:
256,192,54905,1,2,0:0:0:0:
256,192,55205,1,0,0:0:0:0:
256,192,55505,1,2,0:0:0:0:
256,192,55655,1,0,0:0:0:0:
256,192,55955,1,0,0:0:0:0:
256,192,56105,1,2,0:0:0:0:
256,192,56405,1,0,0:0:0:0:
256,192,56480,1,0,0:0:0:0:
256,192,56555,1,0,0:0:0:0:
256,192,56705,1,2,0:0:0:0:
256,192,56855,1,0,0:0:0:0:
256,192,57155,1,0,0:0:0:0:
256,192,57305,1,2,0:0:0:0:
256,192,57380,1,2,0:0:0:0:
256,192,57455,1,2,0:0:0:0:
256,192,57605,1,0,0:0:0:0:
256,192,57905,1,2,0:0:0:0:
256,192,58055,1,0,0:0:0:0:
256,192,58505,1,0,0:0:0:0:
256,192,58655,1,2,0:0:0:0:
256,192,58955,1,0,0:0:0:0:
256,192,59105,1,2,0:0:0:0:
256,192,59255,1,0,0:0:0:0:
256,192,59555,1,0,0:0:0:0:
256,192,59705,1,2,0:0:0:0:
256,192,59780,1,2,0:0:0:0:
256,192,59855,1,2,0:0:0:0:
256,192,60005,1,0,0:0:0:0:
256,192,60305,1,2,0:0:0:0:
256,192,60455,1,0,0:0:0:0:
256,192,60755,1,0,0:0:0:0:
256,192,61205,1,2,0:0:0:0:
256,192,61280,1,2,0:0:0:0:
256,192,61355,1,2,0:0:0:0:
256,192,61505,1,2,0:0:0:0:
256,192,61655,1,0,0:0:0:0:
256,192,61955,1,0,0:0:0:0:
256,192,62105,1,0,0:0:0:0:
256,192,62180,1,0,0:0:0:0:
256,192,62255,1,0,0:0:0:0:
256,192,62405,1,0,0:0:0:0:
256,192,62705,1,2,0:0:0:0:
256,192,63155,1,0,0:0:0:0:
256,192,63305,1,2,0:0:0:0:
256,192,63455,1,0,0:0:0:0:
256,192,63755,1,2,0:0:0:0:
256,192,63905,1,2,0:0:0:0:
256,192,64055,1,0,0:0:0:0:
256,192,64205,1,0,0:0:0:0:
256,192,64505,1,2,0:0:0:0:
256,192,64580,1,2,0:0:0:0:
256,192,64655,1,2,0:0:0:0:
256,192,64805,1,0,0:0:0:0:
256,192,65105,1,0,0:0:0:0:
256,192,65255,1,2,0:0:0:0:
256,192,65555,1,2,0:0:0:0:
256,192,65705,1,0,0:0:0:0:
256,192,65855,1,2,0:0:0:0:
256,192,66155,1,2,0:0:0:0:
256,192,66305,1,0,0:0:0:0:
256,192,66455,1,2,0:0:0:0:
256,192,66755,1,2,0:0:0:0:
256,192,66905,1,2,0:0:0:0:
256,192,66980,1,2,0:0:0:0:
256,192,67055,1,2,0:0:0:0:
256,192,67205,1,0,0:0:0:0:
256,192,67505,1,2,0:0:0:0:
256,192,67655,1,0,0:0:0:0:
256,192,67955,1,2,0:0:0:0:
256,192,68105,1,0,0:0:0:0:
256,192,68255,1,2,0:0:0:0:
256,192,68555,1,2,0:0:0:0:
256,192,68705,1,2,0:0:0:0:
256,192,68855,1,0,0:0:0:0:
256,192,69005,1,2,0:0:0:0:
256,192,69305,1,2,0:0:0:0:
256,192,69380,1,2,0:0:0:0:
256,192,69455,1,2,0:0:0:0:
256,192,69605,1,0,0:0:0:0:
256,192,69905,1,0,0:0:0:0:
256,192,70055,1,2,0:0:0:0:
256,192,70355,1,2,0:0:0:0:
256,192,70505,1,2,0:0:0:0:
256,192,70655,1,2,0:0:0:0:
256,192,70805,1,0,0:0:0:0:
256,192,71255,1,0,0:0:0:0:
256,192,71405,1,2,0:0:0:0:
256,192,71555,1,0,0:0:0:0:
256,192,71705,1,2,0:0:0:0:
256,192,72005,1,6,0:0:0:0:
256,192,72305,1,0,0:0:0:0:
256,192,72455,1,0,0:0:0:0:
256,192,72605,1,2,0:0:0:0:
256,192,72905,1,0,0:0:0:0:
256,192,73055,1,0,0:0:0:0:
256,192,73130,1,0,0:0:0:0:
256,192,73205,1,0,0:0:0:0:
256,192,73355,1,2,0:0:0:0:
256,192,73505,1,0,0:0:0:0:
256,192,73655,1,2,0:0:0:0:
256,192,73955,1,0,0:0:0:0:
256,192,74105,1,2,0:0:0:0:
256,192,74255,1,2,0:0:0:0:
256,192,74405,1,0,0:0:0:0:
256,192,74705,1,2,0:0:0:0:
256,192,74855,1,2,0:0:0:0:
256,192,75155,1,0,0:0:0:0:
256,192,75455,1,2,0:0:0:0:
256,192,75755,1,2,0:0:0:0:
256,192,75905,1,0,0:0:0:0:
256,192,76055,1,2,0:0:0:0:
256,192,76355,1,0,0:0:0:0:
256,192,76505,1,2,0:0:0:0:
256,192,76655,1,0,0:0:0:0:
256,192,76730,1,0,0:0:0:0:
256,192,76805,1,0,0:0:0:0:
256,192,77255,1,0,0:0:0:0:
256,192,77555,1,2,0:0:0:0:
256,192,77705,1,2,0:0:0:0:
256,192,77855,1,0,0:0:0:0:
256,192,78155,1,0,0:0:0:0:
256,192,78305,1,2,0:0:0:0:
256,192,78455,1,2,0:0:0:0:
256,192,78605,1,0,0:0:0:0:
256,192,78905,1,2,0:0:0:0:
256,192,78980,1,2,0:0:0:0:
256,192,79055,1,2,0:0:0:0:
256,192,79205,1,0,0:0:0:0:
256,192,79655,1,0,0:0:0:0:
256,192,80105,1,2,0:0:0:0:
256,192,80255,1,0,0:0:0:0:
256,192,80555,1,0,0:0:0:0:
256,192,80705,1,2,0:0:0:0:
256,192,80855,1,2,0:0:0:0:
256,192,81005,1,0,0:0:0:0:
256,192,81305,1,2,0:0:0:0:
256,192,81455,1,2,0:0:0:0:
256,192,81605,1,4,0:0:0:0:
256,192,82205,1,0,0:0:0:0:
256,192,82505,1,0,0:0:0:0:
256,192,82805,1,0,0:0:0:0:
256,192,83255,1,2,0:0:0:0:
256,192,83705,1,2,0:0:0:0:
256,192,84005,1,0,0:0:0:0:
256,192,84305,1,0,0:0:0:0:
256,192,84455,1,2,0:0:0:0:
256,192,84755,1,2,0:0:0:0:
256,192,85055,1,2,0:0:0:0:
256,192,85355,1,2,0:0:0:0:
256,192,85505,1,0,0:0:0:0:
256,192,85655,1,2,0:0:0:0:
256,192,85805,1,0,0:0:0:0:
256,192,86105,1,2,0:0:0:0:
256,192,86405,1,0,0:0:0:0:
256,192,86855,1,0,0:0:0:0:
256,192,87305,1,2,0:0:0:0:
256,192,87755,1,0,0:0:0:0:
256,192,88205,1,0,0:0:0:0:
256,192,88505,1,2,0:0:0:0:
256,192,88805,1,2,0:0:0:0:
256,192,89255,1,0,0:0:0:0:
256,192,89705,1,0,0:0:0:0:
256,192,90155,1,2,0:0:0:0:
256,192,90605,1,0,0:0:0:0:
256,192,90905,1,2,0:0:0:0:
256,192,91205,1,0,0:0:0:0:
256,192,91655,1,2,0:0:0:0:
256,192,91955,1,0,0:0:0:0:
256,192,92105,1,2,0:0:0:0:
256,192,92405,1,0,0:0:0:0:
256,192,92855,1,0,0:0:0:0:
256,192,93155,1,0,0:0:0:0:
256,192,93305,1,2,0:0:0:0:
256,192,93605,1,0,0:0:0:0:
256,192,94055,1,2,0:0:0:0:
256,192,94355,1,0,0:0:0:0:
256,192,94505,1,2,0:0:0:0:
256,192,94805,1,0,0:0:0:0:
256,192,95255,1,0,0:0:0:0:
256,192,95555,1,0,0:0:0:0:
256,192,95705,1,2,0:0:0:0:
256,192,95855,1,2,0:0:0:0:
256,192,96005,1,0,0:0:0:0:
256,192,96455,1,0,0:0:0:0:
256,192,96755,1,0,0:0:0:0:
256,192,96905,1,2,0:0:0:0:
256,192,97205,1,0,0:0:0:0:
256,192,97655,1,2,0:0:0:0:
256,192,97955,1,0,0:0:0:0:
256,192,98105,1,2,0:0:0:0:
256,192,98405,1,0,0:0:0:0:
256,192,98855,1,0,0:0:0:0:
256,192,99155,1,0,0:0:0:0:
256,192,99305,1,2,0:0:0:0:
256,192,99605,1,0,0:0:0:0:
256,192,100055,1,0,0:0:0:0:
256,192,100355,1,2,0:0:0:0:
256,192,100505,1,0,0:0:0:0:
256,192,100805,1,0,0:0:0:0:
256,192,101255,1,0,0:0:0:0:
256,192,101705,1,2,0:0:0:0:
256,192,102305,1,2,0:0:0:0:
256,192,102605,1,0,0:0:0:0:
256,192,102905,1,0,0:0:0:0:
256,192,103055,1,2,0:0:0:0:
256,192,103205,1,0,0:0:0:0:
256,192,103655,1,0,0:0:0:0:
256,192,104105,1,2,0:0:0:0:
256,192,104555,1,2,0:0:0:0:
256,192,104705,1,0,0:0:0:0:
256,192,105005,1,2,0:0:0:0:
256,192,105305,1,0,0:0:0:0:
256,192,105605,1,0,0:0:0:0:
256,192,106055,1,0,0:0:0:0:
256,192,106505,1,2,0:0:0:0:
256,192,107105,1,2,0:0:0:0:
256,192,107405,1,0,0:0:0:0:
256,192,107705,1,2,0:0:0:0:
256,192,107855,1,2,0:0:0:0:
256,192,108005,1,0,0:0:0:0:
256,192,108455,1,2,0:0:0:0:
256,192,108905,1,0,0:0:0:0:
256,192,109505,1,0,0:0:0:0:
256,192,109805,1,6,0:0:0:0:
256,192,110405,1,4,0:0:0:0:
256,192,110705,1,2,0:0:0:0:
256,192,111155,1,0,0:0:0:0:
256,192,111305,1,2,0:0:0:0:
256,192,111455,1,2,0:0:0:0:
256,192,111530,1,2,0:0:0:0:
256,192,111605,1,2,0:0:0:0:
256,192,111755,1,2,0:0:0:0:
256,192,111905,1,0,0:0:0:0:
256,192,112055,1,2,0:0:0:0:
256,192,112355,1,0,0:0:0:0:
256,192,112505,1,2,0:0:0:0:
256,192,112580,1,2,0:0:0:0:
256,192,112655,1,2,0:0:0:0:
256,192,112805,1,0,0:0:0:0:
256,192,113105,1,2,0:0:0:0:
256,192,113255,1,0,0:0:0:0:
256,192,113555,1,0,0:0:0:0:
256,192,113705,1,2,0:0:0:0:
256,192,114005,1,2,0:0:0:0:
256,192,114080,1,2,0:0:0:0:
256,192,114155,1,2,0:0:0:0:
256,192,114305,1,0,0:0:0:0:
256,192,114455,1,0,0:0:0:0:
256,192,114605,1,2,0:0:0:0:
256,192,114680,1,2,0:0:0:0:
256,192,114755,1,2,0:0:0:0:
256,192,114905,1,0,0:0:0:0:
256,192,115055,1,0,0:0:0:0:
256,192,115205,1,2,0:0:0:0:
256,192,115655,1,2,0:0:0:0:
256,192,115955,1,0,0:0:0:0:
256,192,116105,1,2,0:0:0:0:
256,192,116255,1,2,0:0:0:0:
256,192,116405,1,0,0:0:0:0:
256,192,116480,1,0,0:0:0:0:
256,192,116555,1,0,0:0:0:0:
256,192,116705,1,2,0:0:0:0:
256,192,116855,1,0,0:0:0:0:
256,192,117155,1,2,0:0:0:0:
256,192,117305,1,0,0:0:0:0:
256,192,117380,1,0,0:0:0:0:
256,192,117455,1,0,0:0:0:0:
256,192,117605,1,2,0:0:0:0:
256,192,117905,1,2,0:0:0:0:
256,192,118055,1,0,0:0:0:0:
256,192,118355,1,0,0:0:0:0:
256,192,118505,1,2,0:0:0:0:
256,192,118655,1,2,0:0:0:0:
256,192,118805,1,0,0:0:0:0:
256,192,119105,1,2,0:0:0:0:
256,192,119405,1,2,0:0:0:0:
256,192,119705,1,0,0:0:0:0:
256,192,119855,1,0,0:0:0:0:
256,192,120005,1,0,0:0:0:0:
256,192,120305,1,2,0:0:0:0:
256,192,120455,1,0,0:0:0:0:
256,192,120755,1,0,0:0:0:0:
256,192,120905,1,2,0:0:0:0:
256,192,121205,1,0,0:0:0:0:
256,192,121355,1,0,0:0:0:0:
256,192,121505,1,2,0:0:0:0:
256,192,121655,1,0,0:0:0:0:
256,192,121955,1,0,0:0:0:0:
256,192,122105,1,2,0:0:0:0:
256,192,122180,1,2,0:0:0:0:
256,192,122255,1,2,0:0:0:0:
256,192,122405,1,0,0:0:0:0:
256,192,122705,1,2,0:0:0:0:
256,192,122855,1,0,0:0:0:0:
256,192,123155,1,0,0:0:0:0:
256,192,123305,1,2,0:0:0:0:
256,192,123455,1,0,0:0:0:0:
256,192,123605,1,0,0:0:0:0:
256,192,123905,1,2,0:0:0:0:
256,192,124055,1,2,0:0:0:0:
256,192,124205,1,2,0:0:0:0:
256,192,124280,1,2,0:0:0:0:
256,192,124355,1,2,0:0:0:0:
256,192,124505,1,0,0:0:0:0:
256,192,124655,1,0,0:0:0:0:
256,192,124730,1,0,0:0:0:0:
256,192,124805,1,0,0:0:0:0:
256,192,125255,1,2,0:0:0:0:
256,192,125405,1,2,0:0:0:0:
256,192,125555,1,0,0:0:0:0:
256,192,125705,1,0,0:0:0:0:
256,192,125855,1,0,0:0:0:0:
256,192,125930,1,0,0:0:0:0:
256,192,126005,1,0,0:0:0:0:
256,192,126305,1,2,0:0:0:0:
256,192,126455,1,0,0:0:0:0:
256,192,126605,1,0,0:0:0:0:
256,192,126755,1,0,0:0:0:0:
256,192,126905,1,2,0:0:0:0:
256,192,127205,1,0,0:0:0:0:
256,192,127505,1,0,0:0:0:0:
256,192,127655,1,2,0:0:0:0:
256,192,127805,1,0,0:0:0:0:
256,192,127955,1,0,0:0:0:0:
256,192,128105,1,0,0:0:0:0:
256,192,128405,1,0,0:0:0:0:
256,192,128555,1,0,0:0:0:0:
256,192,128705,1,2,0:0:0:0:
256,192,128855,1,0,0:0:0:0:
256,192,129005,1,2,0:0:0:0:
256,192,129080,1,2,0:0:0:0:
256,192,129155,1,2,0:0:0:0:
256,192,129305,1,2,0:0:0:0:
256,192,129605,1,4,0:0:0:0:
256,192,130055,1,0,0:0:0:0:
256,192,130505,1,2,0:0:0:0:
256,192,130805,1,0,0:0:0:0:
256,192,131255,1,0,0:0:0:0:
256,192,131705,1,2,0:0:0:0:
256,192,132005,1,0,0:0:0:0:
256,192,132455,1,0,0:0:0:0:
256,192,132905,1,2,0:0:0:0:
256,192,133205,1,0,0:0:0:0:
256,192,133655,1,0,0:0:0:0:
256,192,134105,1,0,0:0:0:0:
256,192,134255,1,2,0:0:0:0:
256,192,134405,1,0,0:0:0:0:
256,192,134855,1,2,0:0:0:0:
256,192,135305,1,2,0:0:0:0:
256,192,135605,1,0,0:0:0:0:
256,192,136055,1,2,0:0:0:0:
256,192,136505,1,2,0:0:0:0:
256,192,136805,1,0,0:0:0:0:
256,192,137255,1,2,0:0:0:0:
256,192,137705,1,2,0:0:0:0:
256,192,138005,1,0,0:0:0:0:
256,192,138455,1,2,0:0:0:0:
256,192,138755,1,2,0:0:0:0:
256,192,138905,1,0,0:0:0:0:
