osu file format v14

[General]
AudioFilename: audio.mp3
AudioLeadIn: 0
PreviewTime: 110367
Countdown: 1
SampleSet: Normal
StackLeniency: 0.7
Mode: 1
LetterboxInBreaks: 0
WidescreenStoryboard: 1

[Editor]
Bookmarks: 5,19205,28805,38405,52805,72005,81605,110405,129605
DistanceSpacing: 1.3
BeatDivisor: 4
GridSize: 32
TimelineZoom: 2.1

[Metadata]
Title:Celestial Horizon
TitleUnicode:Celestial Horizon
Artist:Fractal Dreamers
ArtistUnicode:Fractal Dreamers
Creator:ICECAKE
Version:Kuro's Oni
Source:
Tags:featured artist fa piano dnb drum and bass orchestral artcore instrumental electronic everything for a dream arcpotato KuroKuroKuro
BeatmapID:3411831
BeatmapSetID:1661187

[Difficulty]
HPDrainRate:5.5
CircleSize:2
OverallDifficulty:5.5
ApproachRate:5
SliderMultiplier:1.4
SliderTickRate:1

[Events]
//Background and Video events
0,0,"Emotional.jpg",0,0
//Break Periods
//Storyboard Layer 0 (Background)
//Storyboard Layer 1 (Fail)
//Storyboard Layer 2 (Pass)
//Storyboard Layer 3 (Foreground)
//Storyboard Layer 4 (Overlay)
//Storyboard Sound Samples

[TimingPoints]
5,300,4,1,0,100,1,0
5,-125,4,1,0,50,0,0
18905,-125,4,1,0,50,0,0
18980,-121.212121212121,4,1,0,50,0,0
19055,-117.647058823529,4,1,0,50,0,0
19205,-111.111111111111,4,1,0,60,0,0
27005,-111.111111111111,4,1,0,60,0,0
27155,-109.89010989011,4,1,0,60,0,0
27305,-108.695652173913,4,1,0,60,0,0
27455,-107.52688172043,4,1,0,60,0,0
27530,-106.951871657754,4,1,0,60,0,0
27605,-106.382978723404,4,1,0,60,0,0
27755,-105.263157894737,4,1,0,60,0,0
27905,-104.166666666667,4,1,0,60,0,0
28055,-103.092783505155,4,1,0,60,0,0
28130,-102.564102564103,4,1,0,60,0,0
28205,-102.040816326531,4,1,0,60,0,0
28355,-101.010101010101,4,1,0,60,0,0
28505,-100,4,1,0,70,0,0
36005,-100,4,1,0,65,0,0
38405,-100,4,1,0,65,0,0
51905,-100,4,1,0,65,0,0
52805,-100,4,1,0,70,0,0
77555,-100,4,1,0,70,0,0
77705,-100.746268656716,4,1,0,70,0,0
77855,-101.503759398496,4,1,0,70,0,0
77930,-101.88679245283,4,1,0,70,0,0
78005,-102.272727272727,4,1,0,70,0,0
78155,-103.053435114504,4,1,0,70,0,0
78305,-103.846153846154,4,1,0,70,0,0
78455,-104.651162790698,4,1,0,70,0,0
78530,-105.058365758755,4,1,0,70,0,0
78605,-105.46875,4,1,0,70,0,0
78755,-106.299212598425,4,1,0,70,0,0
78905,-107.142857142857,4,1,0,70,0,0
79055,-108,4,1,0,70,0,0
79205,-108.870967741935,4,1,0,70,0,0
79505,-110.655737704918,4,1,0,70,0,0
79655,-111.570247933884,4,1,0,70,0,0
80105,-114.406779661017,4,1,0,70,0,0
80255,-115.384615384615,4,1,0,70,0,0
80405,-116.379310344828,4,1,0,70,0,0
80705,-118.421052631579,4,1,0,70,0,0
80855,-119.469026548673,4,1,0,70,0,0
81005,-120.535714285714,4,1,0,70,0,0
81155,-121.621621621622,4,1,0,70,0,0
81305,-122.727272727273,4,1,0,70,0,0
81605,-125,4,1,0,50,0,0
109355,-125,4,1,0,50,0,0
109505,-119.65811965812,4,1,0,50,0,0
109655,-114.754098360656,4,1,0,50,0,0
109805,-110.236220472441,4,1,0,50,0,0
109955,-106.060606060606,4,1,0,50,0,0
110030,-104.089219330855,4,1,0,50,0,0
110105,-102.189781021898,4,1,0,50,0,0
110405,-95.238095238095,4,1,0,80,0,1
128705,-95.238095238095,4,1,0,80,0,1
129605,-95.238095238095,4,1,0,80,0,0
129642,-125,4,1,0,50,0,0

[HitObjects]
256,192,5,5,0,0:0:0:0:
256,192,305,5,0,0:0:0:0:
256,192,455,1,8,0:0:0:0:
256,192,755,1,8,0:0:0:0:
256,192,905,1,0,0:0:0:0:
256,192,1205,1,0,0:0:0:0:
256,192,1505,1,0,0:0:0:0:
256,192,1655,1,8,0:0:0:0:
256,192,2105,1,8,0:0:0:0:
256,192,2405,1,0,0:0:0:0:
256,192,2705,1,0,0:0:0:0:
256,192,2855,1,8,0:0:0:0:
256,192,3155,1,8,0:0:0:0:
256,192,3305,1,8,0:0:0:0:
256,192,3455,1,0,0:0:0:0:
256,192,3605,1,0,0:0:0:0:
256,192,3905,1,0,0:0:0:0:
256,192,4055,1,8,0:0:0:0:
256,192,4505,1,8,0:0:0:0:
256,192,4805,1,0,0:0:0:0:
256,192,5105,1,0,0:0:0:0:
256,192,5255,1,8,0:0:0:0:
256,192,5555,1,8,0:0:0:0:
256,192,5705,1,8,0:0:0:0:
256,192,5855,1,0,0:0:0:0:
256,192,6005,1,0,0:0:0:0:
256,192,6305,5,0,0:0:0:0:
256,192,6455,1,8,0:0:0:0:
256,192,6755,1,8,0:0:0:0:
256,192,6905,1,8,0:0:0:0:
256,192,7055,1,8,0:0:0:0:
256,192,7205,1,0,0:0:0:0:
256,192,7505,1,0,0:0:0:0:
256,192,7655,1,8,0:0:0:0:
256,192,7955,1,0,0:0:0:0:
256,192,8105,1,0,0:0:0:0:
256,192,8255,1,8,0:0:0:0:
256,192,8405,1,0,0:0:0:0:
256,192,8705,5,0,0:0:0:0:
256,192,8855,5,8,0:0:0:0:
256,192,9305,1,8,0:0:0:0:
256,192,9380,1,8,0:0:0:0:
256,192,9455,1,8,0:0:0:0:
256,192,9605,1,0,0:0:0:0:
256,192,9905,1,0,0:0:0:0:
256,192,10055,1,8,0:0:0:0:
256,192,10355,1,0,0:0:0:0:
256,192,10505,1,0,0:0:0:0:
256,192,10655,1,8,0:0:0:0:
256,192,10805,1,0,0:0:0:0:
256,192,11105,1,8,0:0:0:0:
256,192,11255,1,0,0:0:0:0:
256,192,11555,1,0,0:0:0:0:
256,192,11705,1,8,0:0:0:0:
256,192,12005,1,0,0:0:0:0:
256,192,12155,1,0,0:0:0:0:
256,192,12305,1,8,0:0:0:0:
256,192,12455,1,0,0:0:0:0:
256,192,12755,1,8,0:0:0:0:
256,192,12905,1,8,0:0:0:0:
256,192,13055,1,0,0:0:0:0:
256,192,13205,1,0,0:0:0:0:
256,192,13505,1,0,0:0:0:0:
256,192,13655,1,8,0:0:0:0:
256,192,13955,1,0,0:0:0:0:
256,192,14105,1,8,0:0:0:0:
256,192,14405,1,0,0:0:0:0:
256,192,14705,1,0,0:0:0:0:
256,192,14855,1,8,0:0:0:0:
256,192,15155,1,0,0:0:0:0:
256,192,15305,1,0,0:0:0:0:
256,192,15455,1,8,0:0:0:0:
256,192,15605,1,0,0:0:0:0:
256,192,15905,1,0,0:0:0:0:
256,192,16055,1,8,0:0:0:0:
256,192,16355,1,0,0:0:0:0:
256,192,16505,1,8,0:0:0:0:
256,192,16805,1,0,0:0:0:0:
256,192,17105,1,8,0:0:0:0:
256,192,17255,1,0,0:0:0:0:
256,192,17555,1,8,0:0:0:0:
256,192,17705,1,8,0:0:0:0:
256,192,17855,1,0,0:0:0:0:
256,192,18005,1,0,0:0:0:0:
256,192,18305,1,0,0:0:0:0:
256,192,18455,1,8,0:0:0:0:
256,192,18905,1,8,0:0:0:0:
256,192,18980,1,8,0:0:0:0:
256,192,19055,1,8,0:0:0:0:
256,192,19205,1,4,0:0:0:0:
246,197,19505,1,0,0:0:0:0:
246,197,19655,1,0,0:0:0:0:
246,197,19805,1,8,0:0:0:0:
246,197,19955,1,0,0:0:0:0:
246,197,20030,1,0,0:0:0:0:
246,197,20105,1,8,0:0:0:0:
246,197,20255,1,8,0:0:0:0:
246,197,20405,1,0,0:0:0:0:
246,197,20555,1,8,0:0:0:0:
246,197,20705,1,8,0:0:0:0:
246,197,20780,1,8,0:0:0:0:
246,197,20855,1,0,0:0:0:0:
246,197,21005,1,8,0:0:0:0:
246,197,21605,1,0,0:0:0:0:
246,197,22205,1,8,0:0:0:0:
246,197,22805,1,8,0:0:0:0:
246,197,22955,1,0,0:0:0:0:
246,197,23405,1,8,0:0:0:0:
246,197,24005,1,0,0:0:0:0:
246,197,24305,1,0,0:0:0:0:
246,197,24455,1,0,0:0:0:0:
246,197,24605,1,8,0:0:0:0:
246,197,24755,1,0,0:0:0:0:
246,197,24830,1,0,0:0:0:0:
246,197,24905,1,8,0:0:0:0:
246,197,24980,1,0,0:0:0:0:
246,197,25055,1,8,0:0:0:0:
246,197,25205,1,0,0:0:0:0:
246,197,25355,1,8,0:0:0:0:
246,197,25505,1,0,0:0:0:0:
246,197,25580,1,0,0:0:0:0:
246,197,25655,1,0,0:0:0:0:
246,197,25805,1,8,0:0:0:0:
246,197,26405,1,0,0:0:0:0:
246,197,27005,1,0,0:0:0:0:
246,197,27155,1,0,0:0:0:0:
246,197,27305,1,8,0:0:0:0:
246,197,27455,1,0,0:0:0:0:
246,197,27530,1,0,0:0:0:0:
246,197,27605,1,0,0:0:0:0:
246,197,27755,1,8,0:0:0:0:
246,197,27905,1,0,0:0:0:0:
246,197,28055,1,8,0:0:0:0:
246,197,28130,1,8,0:0:0:0:
246,197,28205,1,0,0:0:0:0:
246,197,28355,1,8,0:0:0:0:
246,197,28505,1,0,0:0:0:0:
246,197,28805,1,4,0:0:0:0:
246,197,28955,1,8,0:0:0:0:
246,197,29105,1,0,0:0:0:0:
246,197,29255,1,8,0:0:0:0:
246,197,29330,1,8,0:0:0:0:
246,197,29405,1,0,0:0:0:0:
246,197,29555,1,0,0:0:0:0:
246,197,29705,1,8,0:0:0:0:
246,197,30005,5,0,0:0:0:0:
246,197,30155,1,8,0:0:0:0:
246,197,30305,1,0,0:0:0:0:
246,197,30455,1,8,0:0:0:0:
246,197,30530,1,8,0:0:0:0:
246,197,30605,1,0,0:0:0:0:
246,197,30755,1,8,0:0:0:0:
246,197,30830,1,8,0:0:0:0:
246,197,30905,1,0,0:0:0:0:
246,197,30980,1,0,0:0:0:0:
246,197,31055,1,8,0:0:0:0:
246,197,31205,1,0,0:0:0:0:
246,197,31505,1,0,0:0:0:0:
246,197,31655,1,8,0:0:0:0:
246,197,31730,1,8,0:0:0:0:
246,197,31805,1,0,0:0:0:0:
246,197,31955,1,0,0:0:0:0:
246,197,32105,1,8,0:0:0:0:
246,197,32255,1,0,0:0:0:0:
246,197,32330,1,8,0:0:0:0:
246,197,32405,1,0,0:0:0:0:
246,197,32555,1,8,0:0:0:0:
246,197,32705,1,0,0:0:0:0:
246,197,32780,1,0,0:0:0:0:
246,197,32855,1,8,0:0:0:0:
246,197,32930,1,8,0:0:0:0:
246,197,33005,1,0,0:0:0:0:
246,197,33155,1,8,0:0:0:0:
246,197,33305,1,0,0:0:0:0:
246,197,33455,1,8,0:0:0:0:
246,197,33530,1,8,0:0:0:0:
246,197,33605,1,0,0:0:0:0:
246,197,33905,1,8,0:0:0:0:
246,197,34055,1,8,0:0:0:0:
246,197,34205,1,0,0:0:0:0:
246,197,34355,1,0,0:0:0:0:
246,197,34505,1,8,0:0:0:0:
246,197,34655,5,0,0:0:0:0:
246,197,34730,1,0,0:0:0:0:
246,197,34805,1,8,0:0:0:0:
246,197,34955,1,0,0:0:0:0:
246,197,35105,1,8,0:0:0:0:
246,197,35330,1,0,0:0:0:0:
246,197,35405,1,8,0:0:0:0:
246,197,35555,1,0,0:0:0:0:
246,197,35705,1,8,0:0:0:0:
246,197,36005,1,4,0:0:0:0:
246,197,36155,1,0,0:0:0:0:
246,197,36305,1,8,0:0:0:0:
246,197,36455,1,0,0:0:0:0:
246,197,36530,1,0,0:0:0:0:
246,197,36605,1,8,0:0:0:0:
246,197,36755,1,0,0:0:0:0:
246,197,36905,1,8,0:0:0:0:
246,197,37055,1,8,0:0:0:0:
246,197,37205,1,0,0:0:0:0:
246,197,37505,1,8,0:0:0:0:
246,197,37655,1,0,0:0:0:0:
246,197,37805,1,8,0:0:0:0:
246,197,37880,1,8,0:0:0:0:
246,197,37955,1,8,0:0:0:0:
246,197,38030,1,8,0:0:0:0:
246,197,38105,1,0,0:0:0:0:
246,197,38255,1,8,0:0:0:0:
246,197,38405,1,4,0:0:0:0:
246,197,38705,1,0,0:0:0:0:
246,197,38855,1,8,0:0:0:0:
246,197,39005,1,0,0:0:0:0:
246,197,39155,1,8,0:0:0:0:
246,197,39230,1,8,0:0:0:0:
246,197,39305,1,0,0:0:0:0:
246,197,39455,1,8,0:0:0:0:
246,197,39605,1,0,0:0:0:0:
246,197,39905,1,0,0:0:0:0:
246,197,40055,1,8,0:0:0:0:
246,197,40205,1,0,0:0:0:0:
246,197,40355,1,8,0:0:0:0:
246,197,40430,1,0,0:0:0:0:
246,197,40505,1,0,0:0:0:0:
246,197,40655,1,8,0:0:0:0:
246,197,40805,1,0,0:0:0:0:
246,197,41105,1,0,0:0:0:0:
246,197,41255,1,0,0:0:0:0:
246,197,41405,1,8,0:0:0:0:
246,197,41555,1,0,0:0:0:0:
246,197,41630,1,8,0:0:0:0:
246,197,41705,1,0,0:0:0:0:
246,197,41855,1,8,0:0:0:0:
246,197,42005,1,0,0:0:0:0:
246,197,42305,1,0,0:0:0:0:
246,197,42455,1,8,0:0:0:0:
246,197,42530,1,8,0:0:0:0:
246,197,42605,1,8,0:0:0:0:
246,197,42755,1,0,0:0:0:0:
246,197,42905,1,0,0:0:0:0:
246,197,43055,1,8,0:0:0:0:
246,197,43205,1,0,0:0:0:0:
246,197,43505,1,0,0:0:0:0:
246,197,43655,1,8,0:0:0:0:
246,197,43805,1,0,0:0:0:0:
246,197,43955,1,8,0:0:0:0:
246,197,44030,1,8,0:0:0:0:
246,197,44105,1,0,0:0:0:0:
246,197,44255,1,8,0:0:0:0:
246,197,44405,1,0,0:0:0:0:
246,197,44555,1,0,0:0:0:0:
246,197,44630,1,0,0:0:0:0:
246,197,44705,1,8,0:0:0:0:
246,197,44855,1,8,0:0:0:0:
246,197,45005,1,0,0:0:0:0:
246,197,45155,1,8,0:0:0:0:
246,197,45230,1,0,0:0:0:0:
246,197,45305,1,0,0:0:0:0:
246,197,45455,1,8,0:0:0:0:
246,197,45605,1,0,0:0:0:0:
246,197,45905,1,0,0:0:0:0:
246,197,46055,1,8,0:0:0:0:
246,197,46205,1,0,0:0:0:0:
246,197,46355,1,8,0:0:0:0:
246,197,46430,1,8,0:0:0:0:
246,197,46505,1,0,0:0:0:0:
246,197,46655,1,8,0:0:0:0:
246,197,46805,1,0,0:0:0:0:
246,197,46955,1,0,0:0:0:0:
246,197,47030,1,8,0:0:0:0:
246,197,47105,1,0,0:0:0:0:
246,197,47255,1,8,0:0:0:0:
246,197,47330,1,8,0:0:0:0:
246,197,47405,1,8,0:0:0:0:
246,197,47555,1,0,0:0:0:0:
246,197,47705,1,8,0:0:0:0:
246,197,47855,1,8,0:0:0:0:
246,197,48005,1,0,0:0:0:0:
246,197,48305,1,0,0:0:0:0:
246,197,48455,1,8,0:0:0:0:
246,197,48605,1,0,0:0:0:0:
246,197,48755,1,8,0:0:0:0:
246,197,48830,1,8,0:0:0:0:
246,197,48905,1,0,0:0:0:0:
246,197,49055,1,8,0:0:0:0:
246,197,49205,1,0,0:0:0:0:
246,197,49505,1,8,0:0:0:0:
246,197,49655,1,8,0:0:0:0:
246,197,49805,1,0,0:0:0:0:
246,197,49955,1,8,0:0:0:0:
246,197,50030,1,0,0:0:0:0:
246,197,50105,1,0,0:0:0:0:
246,197,50255,1,8,0:0:0:0:
246,197,50405,1,0,0:0:0:0:
246,197,50705,1,0,0:0:0:0:
246,197,50855,1,8,0:0:0:0:
246,197,51005,1,0,0:0:0:0:
246,197,51155,1,8,0:0:0:0:
246,197,51230,1,8,0:0:0:0:
246,197,51305,1,0,0:0:0:0:
246,197,51455,1,8,0:0:0:0:
246,197,51605,1,0,0:0:0:0:
246,197,52055,1,8,0:0:0:0:
246,197,52505,1,0,0:0:0:0:
246,197,52805,1,4,0:0:0:0:
246,197,52955,1,0,0:0:0:0:
246,197,53105,1,8,0:0:0:0:
246,197,53255,1,0,0:0:0:0:
246,197,53555,1,0,0:0:0:0:
246,197,53705,1,8,0:0:0:0:
246,197,53855,1,0,0:0:0:0:
246,197,53930,1,8,0:0:0:0:
246,197,54005,1,8,0:0:0:0:
246,197,54155,1,0,0:0:0:0:
246,197,54305,1,8,0:0:0:0:
246,197,54455,1,0,0:0:0:0:
246,197,54530,1,8,0:0:0:0:
246,197,54605,1,0,0:0:0:0:
246,197,54755,1,8,0:0:0:0:
246,197,54830,1,8,0:0:0:0:
246,197,54905,1,0,0:0:0:0:
246,197,55055,1,8,0:0:0:0:
246,197,55205,1,0,0:0:0:0:
246,197,55355,1,0,0:0:0:0:
246,197,55505,1,8,0:0:0:0:
246,197,55655,1,8,0:0:0:0:
246,197,55955,1,0,0:0:0:0:
246,197,56105,1,8,0:0:0:0:
246,197,56255,1,0,0:0:0:0:
246,197,56405,1,8,0:0:0:0:
246,197,56480,1,0,0:0:0:0:
246,197,56555,1,0,0:0:0:0:
246,197,56705,1,8,0:0:0:0:
246,197,56780,1,8,0:0:0:0:
246,197,56855,1,0,0:0:0:0:
246,197,56930,1,0,0:0:0:0:
246,197,57005,1,8,0:0:0:0:
246,197,57155,1,0,0:0:0:0:
246,197,57230,1,0,0:0:0:0:
246,197,57305,1,8,0:0:0:0:
246,197,57455,1,8,0:0:0:0:
246,197,57605,1,0,0:0:0:0:
246,197,57755,1,0,0:0:0:0:
246,197,57905,1,8,0:0:0:0:
246,197,58055,1,0,0:0:0:0:
246,197,58355,1,0,0:0:0:0:
246,197,58505,1,8,0:0:0:0:
246,197,58580,1,0,0:0:0:0:
246,197,58655,1,8,0:0:0:0:
246,197,58805,1,0,0:0:0:0:
246,197,58955,1,0,0:0:0:0:
246,197,59105,1,8,0:0:0:0:
246,197,59255,1,0,0:0:0:0:
246,197,59330,5,0,0:0:0:0:
246,197,59405,1,8,0:0:0:0:
246,197,59555,1,0,0:0:0:0:
246,197,59630,1,8,0:0:0:0:
246,197,59705,1,0,0:0:0:0:
246,197,59780,1,0,0:0:0:0:
246,197,59855,1,8,0:0:0:0:
246,197,60005,1,0,0:0:0:0:
246,197,60155,1,0,0:0:0:0:
246,197,60305,1,8,0:0:0:0:
246,197,60455,1,8,0:0:0:0:
246,197,60755,1,0,0:0:0:0:
246,197,60905,1,8,0:0:0:0:
246,197,61055,1,0,0:0:0:0:
246,197,61130,1,8,0:0:0:0:
246,197,61205,1,8,0:0:0:0:
246,197,61355,1,0,0:0:0:0:
246,197,61505,1,8,0:0:0:0:
246,197,61655,1,8,0:0:0:0:
246,197,61805,1,0,0:0:0:0:
238,191,62105,1,0,0:0:0:0:
238,191,62180,1,8,0:0:0:0:
238,191,62255,1,0,0:0:0:0:
238,191,62330,1,8,0:0:0:0:
238,191,62405,1,0,0:0:0:0:
246,197,62555,1,0,0:0:0:0:
246,197,62705,1,8,0:0:0:0:
241,197,62855,1,0,0:0:0:0:
241,197,63155,1,0,0:0:0:0:
241,197,63305,1,8,0:0:0:0:
241,197,63455,1,0,0:0:0:0:
246,197,63530,1,0,0:0:0:0:
246,197,63605,1,8,0:0:0:0:
241,197,63755,1,0,0:0:0:0:
241,197,63905,1,8,0:0:0:0:
241,197,64055,1,0,0:0:0:0:
241,197,64205,1,8,0:0:0:0:
241,197,64280,1,8,0:0:0:0:
241,197,64355,1,0,0:0:0:0:
241,197,64430,1,8,0:0:0:0:
246,197,64505,1,0,0:0:0:0:
241,197,64655,1,8,0:0:0:0:
241,197,64805,1,0,0:0:0:0:
246,202,64955,1,0,0:0:0:0:
241,197,65105,1,8,0:0:0:0:
241,197,65255,1,0,0:0:0:0:
246,197,65555,1,0,0:0:0:0:
241,197,65705,1,8,0:0:0:0:
241,197,65855,1,8,0:0:0:0:
241,197,66005,1,0,0:0:0:0:
241,197,66155,1,8,0:0:0:0:
241,197,66230,1,8,0:0:0:0:
246,197,66305,1,0,0:0:0:0:
246,197,66455,1,0,0:0:0:0:
246,197,66530,1,8,0:0:0:0:
246,197,66605,1,0,0:0:0:0:
241,197,66755,1,0,0:0:0:0:
241,197,66905,1,8,0:0:0:0:
241,197,67055,1,0,0:0:0:0:
241,197,67130,1,0,0:0:0:0:
241,197,67205,1,8,0:0:0:0:
246,197,67355,1,0,0:0:0:0:
246,197,67505,1,0,0:0:0:0:
241,197,67655,1,8,0:0:0:0:
241,197,67955,1,0,0:0:0:0:
241,197,68105,1,8,0:0:0:0:
246,197,68255,1,8,0:0:0:0:
246,197,68405,1,0,0:0:0:0:
241,197,68555,1,0,0:0:0:0:
241,197,68630,1,0,0:0:0:0:
241,197,68705,1,8,0:0:0:0:
241,197,68780,1,0,0:0:0:0:
241,197,68855,1,8,0:0:0:0:
241,197,69005,1,0,0:0:0:0:
246,197,69155,1,8,0:0:0:0:
246,197,69230,1,8,0:0:0:0:
246,197,69305,1,0,0:0:0:0:
241,197,69455,1,8,0:0:0:0:
241,197,69605,1,0,0:0:0:0:
241,197,69755,1,0,0:0:0:0:
241,197,69905,1,8,0:0:0:0:
246,197,70055,1,0,0:0:0:0:
246,197,70355,1,0,0:0:0:0:
241,197,70505,1,8,0:0:0:0:
241,197,70655,1,8,0:0:0:0:
241,197,70805,1,0,0:0:0:0:
241,197,70880,1,0,0:0:0:0:
246,197,70955,1,0,0:0:0:0:
246,197,71105,1,8,0:0:0:0:
246,197,71255,1,8,0:0:0:0:
246,197,71330,1,8,0:0:0:0:
241,197,71405,1,0,0:0:0:0:
241,197,71555,1,0,0:0:0:0:
241,197,71705,1,8,0:0:0:0:
246,197,72005,1,4,0:0:0:0:
246,197,72155,1,0,0:0:0:0:
246,197,72230,1,0,0:0:0:0:
246,197,72305,1,8,0:0:0:0:
241,197,72455,1,0,0:0:0:0:
241,197,72605,1,8,0:0:0:0:
241,197,72755,1,0,0:0:0:0:
246,197,72830,1,0,0:0:0:0:
246,197,72905,1,8,0:0:0:0:
246,197,73055,1,8,0:0:0:0:
246,197,73205,1,0,0:0:0:0:
246,197,73355,1,8,0:0:0:0:
241,197,73505,1,0,0:0:0:0:
241,197,73655,1,8,0:0:0:0:
241,197,73730,1,8,0:0:0:0:
241,197,73805,1,0,0:0:0:0:
246,197,73955,1,8,0:0:0:0:
246,197,74105,1,0,0:0:0:0:
246,197,74180,1,8,0:0:0:0:
246,197,74255,1,8,0:0:0:0:
246,197,74330,1,8,0:0:0:0:
241,197,74405,1,0,0:0:0:0:
241,197,74555,1,0,0:0:0:0:
241,197,74705,1,8,0:0:0:0:
246,197,74855,1,0,0:0:0:0:
246,197,74930,1,0,0:0:0:0:
246,197,75005,1,8,0:0:0:0:
246,197,75155,1,0,0:0:0:0:
246,197,75305,1,8,0:0:0:0:
241,197,75455,1,8,0:0:0:0:
246,197,75755,1,0,0:0:0:0:
246,197,75905,1,8,0:0:0:0:
246,197,76055,1,0,0:0:0:0:
246,197,76130,1,0,0:0:0:0:
246,197,76205,1,0,0:0:0:0:
246,197,76355,1,8,0:0:0:0:
241,197,76505,1,0,0:0:0:0:
246,197,76655,1,8,0:0:0:0:
246,197,76730,1,8,0:0:0:0:
246,197,76805,1,0,0:0:0:0:
246,197,76955,1,0,0:0:0:0:
246,197,77105,1,0,0:0:0:0:
246,197,77255,1,8,0:0:0:0:
246,197,77555,1,0,0:0:0:0:
246,197,77705,1,8,0:0:0:0:
246,197,77855,1,0,0:0:0:0:
246,197,77930,1,8,0:0:0:0:
246,197,78005,1,0,0:0:0:0:
246,197,78155,1,8,0:0:0:0:
246,197,78305,1,0,0:0:0:0:
246,197,78455,5,8,0:0:0:0:
246,197,78530,1,0,0:0:0:0:
246,197,78605,1,0,0:0:0:0:
246,197,78755,1,0,0:0:0:0:
246,197,78905,1,8,0:0:0:0:
246,197,79055,1,8,0:0:0:0:
246,197,79205,1,0,0:0:0:0:
246,197,79505,1,0,0:0:0:0:
246,197,79655,1,8,0:0:0:0:
246,197,80105,1,0,0:0:0:0:
246,197,80255,1,8,0:0:0:0:
246,197,80405,1,0,0:0:0:0:
246,197,80705,1,8,0:0:0:0:
246,197,80855,1,8,0:0:0:0:
246,197,81005,1,0,0:0:0:0:
246,197,81155,1,0,0:0:0:0:
246,197,81305,1,8,0:0:0:0:
246,197,81605,5,4,0:0:0:0:
246,197,81905,1,8,0:0:0:0:
246,197,82055,1,8,0:0:0:0:
246,197,82205,1,0,0:0:0:0:
246,197,82505,1,8,0:0:0:0:
246,197,82655,1,8,0:0:0:0:
246,197,82805,1,0,0:0:0:0:
246,197,83105,1,0,0:0:0:0:
246,197,83255,1,8,0:0:0:0:
246,197,83555,1,0,0:0:0:0:
246,197,83705,1,0,0:0:0:0:
246,197,83855,1,8,0:0:0:0:
246,197,84005,1,0,0:0:0:0:
246,197,84305,1,8,0:0:0:0:
246,197,84455,1,0,0:0:0:0:
246,197,84755,1,8,0:0:0:0:
246,197,85055,1,0,0:0:0:0:
246,197,85355,1,8,0:0:0:0:
246,197,85505,1,0,0:0:0:0:
246,197,85805,1,8,0:0:0:0:
246,197,85955,1,8,0:0:0:0:
246,197,86105,1,0,0:0:0:0:
246,197,86255,1,0,0:0:0:0:
246,197,86405,1,8,0:0:0:0:
246,197,86855,1,0,0:0:0:0:
246,197,87305,1,8,0:0:0:0:
246,197,87755,1,0,0:0:0:0:
246,197,88205,1,8,0:0:0:0:
246,197,88505,1,0,0:0:0:0:
246,197,88805,1,8,0:0:0:0:
246,197,89255,1,0,0:0:0:0:
246,197,89705,1,8,0:0:0:0:
246,197,90005,5,0,0:0:0:0:
246,197,90455,1,8,0:0:0:0:
246,197,90755,1,0,0:0:0:0:
246,197,90905,1,8,0:0:0:0:
246,197,91055,1,8,0:0:0:0:
246,197,91205,1,0,0:0:0:0:
246,197,91505,1,8,0:0:0:0:
246,197,91655,1,0,0:0:0:0:
246,197,92105,1,8,0:0:0:0:
246,197,92405,1,0,0:0:0:0:
246,197,92705,1,8,0:0:0:0:
246,197,92855,1,0,0:0:0:0:
246,197,93305,1,8,0:0:0:0:
246,197,93605,1,0,0:0:0:0:
246,197,93905,1,0,0:0:0:0:
246,197,94055,1,8,0:0:0:0:
246,197,94505,1,8,0:0:0:0:
246,197,94805,1,0,0:0:0:0:
246,197,95105,1,8,0:0:0:0:
246,197,95255,1,0,0:0:0:0:
246,197,95555,1,8,0:0:0:0:
246,197,95705,1,0,0:0:0:0:
246,197,95855,1,8,0:0:0:0:
246,197,96005,1,0,0:0:0:0:
246,197,96305,1,8,0:0:0:0:
246,197,96455,1,0,0:0:0:0:
246,197,96905,1,8,0:0:0:0:
246,197,97205,1,0,0:0:0:0:
246,197,97505,1,8,0:0:0:0:
246,197,97655,1,0,0:0:0:0:
246,197,97955,1,0,0:0:0:0:
246,197,98105,1,8,0:0:0:0:
246,197,98405,1,0,0:0:0:0:
246,197,98705,1,8,0:0:0:0:
246,197,98855,1,0,0:0:0:0:
246,197,99155,1,0,0:0:0:0:
246,197,99305,1,8,0:0:0:0:
246,197,99455,1,0,0:0:0:0:
246,197,99605,1,0,0:0:0:0:
246,197,99905,1,8,0:0:0:0:
246,197,100055,1,0,0:0:0:0:
246,197,100355,1,8,0:0:0:0:
246,197,100505,1,8,0:0:0:0:
246,197,100655,1,0,0:0:0:0:
246,197,100805,1,0,0:0:0:0:
246,197,101255,5,0,0:0:0:0:
246,197,101555,1,0,0:0:0:0:
246,197,101705,1,8,0:0:0:0:
246,197,102305,1,0,0:0:0:0:
246,197,102605,1,8,0:0:0:0:
246,197,102905,1,0,0:0:0:0:
246,197,103055,1,8,0:0:0:0:
246,197,103205,1,0,0:0:0:0:
246,197,103505,1,8,0:0:0:0:
246,197,103655,1,0,0:0:0:0:
246,197,103955,1,0,0:0:0:0:
246,197,104105,1,8,0:0:0:0:
246,197,104555,1,8,0:0:0:0:
246,197,104705,1,8,0:0:0:0:
246,197,104855,1,0,0:0:0:0:
246,197,105005,1,8,0:0:0:0:
246,197,105155,1,8,0:0:0:0:
246,197,105305,1,0,0:0:0:0:
246,197,105455,1,8,0:0:0:0:
246,197,105605,1,0,0:0:0:0:
246,197,106055,1,8,0:0:0:0:
246,197,106505,1,0,0:0:0:0:
246,197,107105,5,0,0:0:0:0:
246,197,107405,1,8,0:0:0:0:
246,197,107705,1,0,0:0:0:0:
246,197,107855,1,8,0:0:0:0:
246,197,108005,1,0,0:0:0:0:
246,197,108455,1,0,0:0:0:0:
246,197,108905,1,8,0:0:0:0:
246,197,109355,1,0,0:0:0:0:
246,197,109505,1,0,0:0:0:0:
246,197,109655,1,8,0:0:0:0:
246,197,109805,1,8,0:0:0:0:
246,197,109955,1,0,0:0:0:0:
246,197,110030,1,0,0:0:0:0:
246,197,110105,1,0,0:0:0:0:
246,197,110405,5,4,0:0:0:0:
246,197,110555,1,0,0:0:0:0:
246,197,110705,1,8,0:0:0:0:
246,197,110855,1,0,0:0:0:0:
246,197,111155,1,0,0:0:0:0:
246,197,111305,1,8,0:0:0:0:
246,197,111455,1,8,0:0:0:0:
246,197,111530,1,8,0:0:0:0:
246,197,111605,1,0,0:0:0:0:
246,197,111755,1,0,0:0:0:0:
246,197,111905,1,8,0:0:0:0:
246,197,112055,1,0,0:0:0:0:
246,197,112130,1,8,0:0:0:0:
246,197,112205,1,0,0:0:0:0:
246,197,112355,1,0,0:0:0:0:
246,197,112430,1,0,0:0:0:0:
246,197,112505,1,8,0:0:0:0:
246,197,112580,1,8,0:0:0:0:
246,197,112655,1,0,0:0:0:0:
246,197,112805,1,0,0:0:0:0:
246,197,112955,1,0,0:0:0:0:
246,197,113030,1,0,0:0:0:0:
246,197,113105,1,8,0:0:0:0:
246,197,113255,1,8,0:0:0:0:
246,197,113555,1,0,0:0:0:0:
246,197,113705,1,8,0:0:0:0:
246,197,113855,1,0,0:0:0:0:
246,197,114005,1,8,0:0:0:0:
246,197,114080,1,0,0:0:0:0:
246,197,114155,1,8,0:0:0:0:
246,197,114230,1,8,0:0:0:0:
246,197,114305,1,0,0:0:0:0:
246,197,114455,1,0,0:0:0:0:
246,197,114530,1,0,0:0:0:0:
246,197,114605,1,8,0:0:0:0:
246,197,114755,1,0,0:0:0:0:
246,197,114905,1,8,0:0:0:0:
246,197,114980,1,0,0:0:0:0:
246,197,115055,1,8,0:0:0:0:
246,197,115205,1,0,0:0:0:0:
246,197,115355,1,0,0:0:0:0:
246,197,115505,1,8,0:0:0:0:
246,197,115655,1,8,0:0:0:0:
246,197,115955,1,0,0:0:0:0:
246,197,116105,1,8,0:0:0:0:
246,197,116255,1,0,0:0:0:0:
246,197,116330,5,0,0:0:0:0:
246,197,116405,1,8,0:0:0:0:
246,197,116480,1,0,0:0:0:0:
246,197,116555,1,8,0:0:0:0:
246,197,116705,1,0,0:0:0:0:
246,197,116855,1,8,0:0:0:0:
246,197,116930,1,8,0:0:0:0:
246,197,117005,1,0,0:0:0:0:
246,197,117155,1,0,0:0:0:0:
246,197,117305,1,8,0:0:0:0:
246,197,117455,1,0,0:0:0:0:
246,197,117530,1,8,0:0:0:0:
246,197,117605,1,0,0:0:0:0:
246,197,117755,1,0,0:0:0:0:
246,197,117905,1,8,0:0:0:0:
246,197,118055,1,0,0:0:0:0:
246,197,118355,1,0,0:0:0:0:
246,197,118505,1,8,0:0:0:0:
246,197,118655,1,0,0:0:0:0:
246,197,118730,1,8,0:0:0:0:
246,197,118805,1,0,0:0:0:0:
246,197,119105,5,8,0:0:0:0:
246,197,119405,1,8,0:0:0:0:
246,197,119705,1,0,0:0:0:0:
246,197,120005,1,4,0:0:0:0:
246,197,120155,1,0,0:0:0:0:
246,197,120305,1,8,0:0:0:0:
246,197,120455,1,0,0:0:0:0:
246,197,120530,1,0,0:0:0:0:
246,197,120605,1,0,0:0:0:0:
246,197,120755,1,0,0:0:0:0:
246,197,120905,1,8,0:0:0:0:
246,197,121055,1,0,0:0:0:0:
246,197,121205,5,8,0:0:0:0:
246,197,121355,1,0,0:0:0:0:
246,197,121505,1,0,0:0:0:0:
246,197,121655,1,8,0:0:0:0:
246,197,121730,1,8,0:0:0:0:
246,197,121805,1,0,0:0:0:0:
246,197,121955,1,8,0:0:0:0:
246,197,122030,1,8,0:0:0:0:
246,197,122105,1,0,0:0:0:0:
246,197,122180,1,0,0:0:0:0:
246,197,122255,1,8,0:0:0:0:
246,197,122405,1,0,0:0:0:0:
246,197,122705,1,0,0:0:0:0:
246,197,122855,1,0,0:0:0:0:
246,197,122930,1,0,0:0:0:0:
246,197,123005,1,8,0:0:0:0:
246,197,123155,1,0,0:0:0:0:
246,197,123305,1,8,0:0:0:0:
246,197,123455,1,0,0:0:0:0:
246,197,123530,1,8,0:0:0:0:
246,197,123605,1,0,0:0:0:0:
246,197,123755,1,8,0:0:0:0:
246,197,123905,1,0,0:0:0:0:
246,197,123980,1,0,0:0:0:0:
246,197,124055,1,8,0:0:0:0:
246,197,124130,1,8,0:0:0:0:
246,197,124205,1,0,0:0:0:0:
246,197,124355,1,0,0:0:0:0:
246,197,124505,1,8,0:0:0:0:
246,197,124655,1,0,0:0:0:0:
246,197,124730,1,8,0:0:0:0:
246,197,124805,1,0,0:0:0:0:
246,197,125105,1,8,0:0:0:0:
246,197,125255,1,0,0:0:0:0:
246,197,125405,1,0,0:0:0:0:
246,197,125555,1,8,0:0:0:0:
246,197,125705,1,0,0:0:0:0:
246,197,125855,5,8,0:0:0:0:
246,197,125930,1,8,0:0:0:0:
246,197,126005,1,0,0:0:0:0:
246,197,126080,1,0,0:0:0:0:
246,197,126155,1,8,0:0:0:0:
246,197,126305,1,0,0:0:0:0:
246,197,126455,1,0,0:0:0:0:
246,197,126530,1,8,0:0:0:0:
246,197,126605,1,0,0:0:0:0:
246,197,126755,1,8,0:0:0:0:
246,197,126905,1,0,0:0:0:0:
246,197,126980,1,0,0:0:0:0:
246,197,127055,1,8,0:0:0:0:
246,197,127205,1,0,0:0:0:0:
246,197,127355,1,0,0:0:0:0:
246,197,127505,1,8,0:0:0:0:
246,197,127655,1,0,0:0:0:0:
246,197,127805,1,8,0:0:0:0:
246,197,127880,1,8,0:0:0:0:
246,197,127955,1,8,0:0:0:0:
246,197,128105,1,0,0:0:0:0:
246,197,128255,5,8,0:0:0:0:
246,197,128405,1,0,0:0:0:0:
246,197,128555,1,8,0:0:0:0:
246,197,128855,1,8,0:0:0:0:
246,197,129005,1,0,0:0:0:0:
246,197,129080,1,8,0:0:0:0:
246,197,129155,1,0,0:0:0:0:
246,197,129230,1,0,0:0:0:0:
246,197,129305,1,8,0:0:0:0:
246,197,129380,1,0,0:0:0:0:
246,197,129455,1,8,0:0:0:0:
246,197,129605,1,4,0:0:0:0:
246,197,129905,1,8,0:0:0:0:
246,197,130055,1,0,0:0:0:0:
246,197,130505,1,8,0:0:0:0:
246,197,130805,1,0,0:0:0:0:
246,197,131105,1,8,0:0:0:0:
246,197,131255,1,0,0:0:0:0:
246,197,131705,1,8,0:0:0:0:
246,197,132005,1,0,0:0:0:0:
246,197,132305,1,0,0:0:0:0:
246,197,132455,1,8,0:0:0:0:
246,197,132905,1,8,0:0:0:0:
246,197,133205,1,0,0:0:0:0:
246,197,133505,1,8,0:0:0:0:
246,197,133655,1,0,0:0:0:0:
246,197,133955,1,8,0:0:0:0:
246,197,134105,1,0,0:0:0:0:
246,197,134255,1,8,0:0:0:0:
246,197,134405,1,0,0:0:0:0:
246,197,134705,1,8,0:0:0:0:
246,197,134855,1,0,0:0:0:0:
246,197,135305,1,8,0:0:0:0:
246,197,135605,1,0,0:0:0:0:
246,197,135905,1,8,0:0:0:0:
246,197,136055,1,0,0:0:0:0:
246,197,136355,1,0,0:0:0:0:
246,197,136505,1,8,0:0:0:0:
246,197,136805,1,0,0:0:0:0:
246,197,137105,1,8,0:0:0:0:
246,197,137255,1,0,0:0:0:0:
246,197,137555,1,0,0:0:0:0:
246,197,137705,1,8,0:0:0:0:
246,197,137855,1,0,0:0:0:0:
246,197,138005,1,0,0:0:0:0:
246,197,138305,1,8,0:0:0:0:
246,197,138455,1,0,0:0:0:0:
246,197,138755,1,8,0:0:0:0:
246,197,138905,1,8,0:0:0:0:
246,197,139055,1,0,0:0:0:0:
