osu file format v14

[General]
AudioFilename: audio.mp3
AudioLeadIn: 0
PreviewTime: 110367
Countdown: 1
SampleSet: Normal
StackLeniency: 0.7
Mode: 1
LetterboxInBreaks: 0
WidescreenStoryboard: 1

[Editor]
Bookmarks: 5,19205,28805,38405,52805,72005,81605,110405,129605
DistanceSpacing: 1.3
BeatDivisor: 8
GridSize: 32
TimelineZoom: 0.5999995

[Metadata]
Title:Celestial Horizon
TitleUnicode:Celestial Horizon
Artist:Fractal Dreamers
ArtistUnicode:Fractal Dreamers
Creator:ICECAKE
Version:Kantan
Source:
Tags:featured artist fa piano dnb drum and bass orchestral artcore instrumental electronic everything for a dream arcpotato KuroKuroKuro
BeatmapID:3394103
BeatmapSetID:1661187

[Difficulty]
HPDrainRate:8
CircleSize:2
OverallDifficulty:3
ApproachRate:5
SliderMultiplier:1.4
SliderTickRate:1

[Events]
//Background and Video events
0,0,"Emotional.jpg",0,0
//Break Periods
//Storyboard Layer 0 (Background)
//Storyboard Layer 1 (Fail)
//Storyboard Layer 2 (Pass)
//Storyboard Layer 3 (Foreground)
//Storyboard Layer 4 (Overlay)
//Storyboard Sound Samples

[TimingPoints]
5,300,4,1,0,30,1,0
5,-100,4,1,0,30,0,0
19205,-100,4,1,0,50,0,0
28805,-100,4,1,0,60,0,0
81605,-100,4,1,0,30,0,0
110405,-100,4,1,0,70,0,1
129605,-100,4,1,0,70,0,0
129680,-100,4,1,0,30,0,0

[HitObjects]
256,192,5,5,0,0:0:0:0:
256,192,1205,1,0,0:0:0:0:
256,192,2405,1,0,0:0:0:0:
256,192,3605,1,0,0:0:0:0:
256,192,4805,1,2,0:0:0:0:
256,192,6005,1,2,0:0:0:0:
256,192,7205,1,0,0:0:0:0:
256,192,8405,1,0,0:0:0:0:
256,192,9305,1,2,0:0:0:0:
256,192,9605,1,0,0:0:0:0:
256,192,10805,1,0,0:0:0:0:
256,192,12005,1,0,0:0:0:0:
256,192,13205,1,0,0:0:0:0:
256,192,14405,1,2,0:0:0:0:
256,192,15605,1,2,0:0:0:0:
256,192,16805,1,0,0:0:0:0:
256,192,18005,1,0,0:0:0:0:
256,192,18905,1,2,0:0:0:0:
256,192,19205,1,4,0:0:0:0:
256,192,19805,1,0,0:0:0:0:
256,192,20105,1,2,0:0:0:0:
256,192,20555,1,2,0:0:0:0:
256,192,21005,1,2,0:0:0:0:
256,192,21305,1,0,0:0:0:0:
256,192,21605,1,0,0:0:0:0:
256,192,22505,1,0,0:0:0:0:
256,192,22805,1,0,0:0:0:0:
256,192,23405,1,2,0:0:0:0:
256,192,24005,1,0,0:0:0:0:
256,192,24605,1,0,0:0:0:0:
256,192,24905,1,2,0:0:0:0:
256,192,25355,1,2,0:0:0:0:
256,192,25805,1,2,0:0:0:0:
256,192,26105,1,0,0:0:0:0:
256,192,26405,1,0,0:0:0:0:
256,192,27305,1,2,0:0:0:0:
256,192,27605,1,0,0:0:0:0:
256,192,28805,1,4,0:0:0:0:
256,192,29405,1,2,0:0:0:0:
256,192,30005,1,0,0:0:0:0:
256,192,30605,1,0,0:0:0:0:
256,192,30905,1,2,0:0:0:0:
256,192,31205,1,0,0:0:0:0:
256,192,31805,1,0,0:0:0:0:
256,192,32405,1,2,0:0:0:0:
256,192,33005,1,2,0:0:0:0:
256,192,33305,1,0,0:0:0:0:
256,192,33605,1,2,0:0:0:0:
246,193,34205,1,2,0:0:0:0:
246,193,34805,1,0,0:0:0:0:
256,192,35405,1,2,0:0:0:0:
256,192,35705,1,2,0:0:0:0:
256,192,36005,1,4,0:0:0:0:
256,192,37205,1,0,0:0:0:0:
256,192,37505,1,0,0:0:0:0:
256,192,37805,1,2,0:0:0:0:
256,192,38405,1,0,0:0:0:0:
256,192,39005,1,0,0:0:0:0:
256,192,39605,1,2,0:0:0:0:
256,192,39905,1,0,0:0:0:0:
256,192,40205,1,0,0:0:0:0:
256,192,40805,1,0,0:0:0:0:
250,185,41405,1,2,0:0:0:0:
256,192,42005,1,0,0:0:0:0:
256,192,42305,1,2,0:0:0:0:
256,192,42605,1,0,0:0:0:0:
256,192,43205,1,0,0:0:0:0:
256,192,44105,1,0,0:0:0:0:
256,192,44405,1,2,0:0:0:0:
256,192,45005,1,0,0:0:0:0:
256,192,45605,1,0,0:0:0:0:
256,192,46505,1,2,0:0:0:0:
256,192,46805,1,0,0:0:0:0:
256,192,47405,1,2,0:0:0:0:
256,192,48005,1,0,0:0:0:0:
256,192,48905,1,0,0:0:0:0:
256,192,49205,1,2,0:0:0:0:
256,192,49805,1,0,0:0:0:0:
256,192,50405,1,0,0:0:0:0:
256,192,51305,1,2,0:0:0:0:
256,192,51605,1,0,0:0:0:0:
256,192,52505,1,0,0:0:0:0:
256,192,52805,1,4,0:0:0:0:
256,192,53405,1,0,0:0:0:0:
256,192,54005,1,2,0:0:0:0:
256,192,54605,1,0,0:0:0:0:
256,192,54905,1,2,0:0:0:0:
256,192,55205,1,0,0:0:0:0:
256,192,55805,1,2,0:0:0:0:
256,192,56405,1,2,0:0:0:0:
256,192,57605,1,0,0:0:0:0:
256,192,58205,1,0,0:0:0:0:
256,192,58805,1,2,0:0:0:0:
256,192,59405,1,0,0:0:0:0:
256,192,59705,1,2,0:0:0:0:
256,192,60005,1,0,0:0:0:0:
256,192,60605,1,0,0:0:0:0:
256,192,61205,1,2,0:0:0:0:
256,192,62105,1,2,0:0:0:0:
256,192,62405,1,0,0:0:0:0:
256,192,63005,1,0,0:0:0:0:
256,192,63605,1,2,0:0:0:0:
256,192,64205,1,2,0:0:0:0:
256,192,64505,1,2,0:0:0:0:
256,192,64805,1,0,0:0:0:0:
256,192,65405,1,0,0:0:0:0:
256,192,66005,1,2,0:0:0:0:
256,192,67205,1,0,0:0:0:0:
256,192,67805,1,0,0:0:0:0:
256,192,68405,1,2,0:0:0:0:
256,192,69005,1,2,0:0:0:0:
256,192,69305,1,0,0:0:0:0:
256,192,69605,1,2,0:0:0:0:
256,192,70205,1,2,0:0:0:0:
256,192,70805,1,0,0:0:0:0:
256,192,71705,1,2,0:0:0:0:
256,192,72005,1,4,0:0:0:0:
256,192,72605,1,0,0:0:0:0:
256,192,73205,1,8,0:0:0:0:
256,192,73805,1,0,0:0:0:0:
256,192,74105,1,2,0:0:0:0:
256,192,74405,1,0,0:0:0:0:
256,192,75005,1,0,0:0:0:0:
256,192,75605,1,2,0:0:0:0:
256,192,76205,1,8,0:0:0:0:
256,192,76505,1,2,0:0:0:0:
256,192,76805,1,0,0:0:0:0:
256,192,77705,1,0,0:0:0:0:
256,192,78305,1,2,0:0:0:0:
256,192,78605,1,0,0:0:0:0:
256,192,78905,1,2,0:0:0:0:
256,192,79205,1,4,0:0:0:0:
256,192,80405,1,0,0:0:0:0:
256,192,81605,1,6,0:0:0:0:
256,192,82805,1,0,0:0:0:0:
256,192,83705,1,0,0:0:0:0:
256,192,84005,1,2,0:0:0:0:
256,192,85205,1,2,0:0:0:0:
256,192,85805,1,2,0:0:0:0:
256,192,86405,1,0,0:0:0:0:
256,192,87305,1,2,0:0:0:0:
256,192,88205,1,0,0:0:0:0:
256,192,88805,1,2,0:0:0:0:
256,192,89705,1,2,0:0:0:0:
256,192,90605,1,2,0:0:0:0:
256,192,91205,1,0,0:0:0:0:
256,192,92105,1,2,0:0:0:0:
256,192,92405,1,0,0:0:0:0:
256,192,93305,1,2,0:0:0:0:
256,192,93605,1,0,0:0:0:0:
256,192,94505,1,2,0:0:0:0:
256,192,94805,1,0,0:0:0:0:
256,192,95705,1,2,0:0:0:0:
256,192,96005,1,2,0:0:0:0:
256,192,96905,1,2,0:0:0:0:
256,192,97205,1,0,0:0:0:0:
256,192,98105,1,2,0:0:0:0:
256,192,98405,1,0,0:0:0:0:
256,192,99305,1,2,0:0:0:0:
256,192,99605,1,0,0:0:0:0:
256,192,100355,1,2,0:0:0:0:
256,192,100805,1,0,0:0:0:0:
256,192,101705,1,2,0:0:0:0:
256,192,103205,1,2,0:0:0:0:
256,192,104105,1,2,0:0:0:0:
256,192,105605,1,2,0:0:0:0:
256,192,106505,1,0,0:0:0:0:
256,192,107405,1,2,0:0:0:0:
256,192,107705,1,2,0:0:0:0:
256,192,108005,12,0,109805,0:0:0:0:
256,192,110405,5,4,0:0:0:0:
256,192,111005,1,0,0:0:0:0:
256,192,111605,1,2,0:0:0:0:
256,192,111905,1,2,0:0:0:0:
256,192,112205,1,0,0:0:0:0:
256,192,112805,1,0,0:0:0:0:
256,192,113405,1,0,0:0:0:0:
256,192,114005,1,0,0:0:0:0:
256,192,114305,1,0,0:0:0:0:
256,192,114605,1,0,0:0:0:0:
256,192,114905,1,0,0:0:0:0:
256,192,115205,1,2,0:0:0:0:
256,192,115805,1,2,0:0:0:0:
256,192,116405,1,0,0:0:0:0:
256,192,116705,1,2,0:0:0:0:
256,192,117005,1,0,0:0:0:0:
256,192,117605,1,0,0:0:0:0:
258,198,118205,1,0,0:0:0:0:
256,192,118505,1,2,0:0:0:0:
258,198,118805,1,2,0:0:0:0:
258,198,119705,1,0,0:0:0:0:
258,198,120005,1,2,0:0:0:0:
256,192,120605,1,2,0:0:0:0:
256,192,121205,1,2,0:0:0:0:
256,192,121505,1,2,0:0:0:0:
256,192,121805,1,0,0:0:0:0:
256,192,122405,1,2,0:0:0:0:
256,192,123005,1,2,0:0:0:0:
256,192,123605,1,0,0:0:0:0:
256,192,124205,1,0,0:0:0:0:
256,192,124505,1,2,0:0:0:0:
256,192,124805,1,0,0:0:0:0:
256,192,125405,1,0,0:0:0:0:
256,192,126005,1,0,0:0:0:0:
256,192,126905,1,0,0:0:0:0:
256,192,127205,1,2,0:0:0:0:
256,192,127805,1,0,0:0:0:0:
256,192,128405,1,2,0:0:0:0:
256,192,128705,1,2,0:0:0:0:
256,192,129005,1,0,0:0:0:0:
256,192,129605,1,4,0:0:0:0:
256,192,130505,1,2,0:0:0:0:
256,192,130805,1,0,0:0:0:0:
256,192,132005,1,0,0:0:0:0:
256,192,132905,1,2,0:0:0:0:
256,192,133205,1,2,0:0:0:0:
256,192,134405,1,0,0:0:0:0:
256,192,135305,1,2,0:0:0:0:
256,192,135605,1,0,0:0:0:0:
256,192,136805,1,0,0:0:0:0:
256,192,137705,1,2,0:0:0:0:
256,192,138005,1,2,0:0:0:0:
256,192,138455,1,2,0:0:0:0:
256,192,138905,1,0,0:0:0:0:
