osu file format v14

[General]
AudioFilename: audio.mp3
AudioLeadIn: 0
PreviewTime: -1
Countdown: 1
SampleSet: Normal
StackLeniency: 0.7
Mode: 0
LetterboxInBreaks: 0
WidescreenStoryboard: 0

[Editor]
DistanceSpacing: 0.8
BeatDivisor: 4
GridSize: 4
TimelineZoom: 1

[Metadata]
Title:Celestial Horizon
TitleUnicode:Celestial Horizon
Artist:Fractal Dreamers
ArtistUnicode:Fractal Dreamers
Creator:CataDesigns
Version:Attraction
Source:
Tags:
BeatmapID:1478512
BeatmapSetID:698067

[Difficulty]
HPDrainRate:5.6
CircleSize:5
OverallDifficulty:7.6
ApproachRate:9
SliderMultiplier:1.4
SliderTickRate:1

[Events]
//Background and Video events
0,0,"Wallpaper for Beatmap.jpg",0,0
//Break Periods
2,38373,69002
//Storyboard Layer 0 (Background)
//Storyboard Layer 1 (Fail)
//Storyboard Layer 2 (Pass)
//Storyboard Layer 3 (Foreground)
//Storyboard Sound Samples

[TimingPoints]
112.510204081633,612.244897959184,4,1,0,100,1,0
4407,-100,4,1,0,100,0,0
9602,-66.6666666666667,4,1,0,100,0,0
14347,-66.6666666666667,4,1,0,100,0,0
16949,-50,4,1,0,100,0,0

[HitObjects]
140,96,112,6,4,P|140:160|108:160,1,105
132,248,1337,6,2,P|132:312|100:312,1,105
192,96,2561,6,0,P|192:160|160:160,1,105
188,256,3785,6,4,P|188:320|156:320,1,105
216,96,5010,6,8,P|216:160|184:160,1,105,10|8,0:0|0:0,0:0:0:0:
224,256,6234,6,2,P|224:320|192:320,1,105
288,96,7459,6,0,P|288:160|256:160,1,105
288,256,8683,6,0,P|288:320|256:320,1,105
192,96,9602,6,0,B|224:128|192:128|160:128|128:160|192:224|288:224|320:128|384:320|416:320,1,350
128,96,12051,6,10,B|160:128|128:128|160:192|224:64|256:192|384:192|288:288,1,315
160,96,14347,6,10,B|256:128|160:160|128:128|96:192|160:320|352:288|320:128|480:192|96:352,1,577.500022029878
128,96,16949,6,12,B|192:160|96:192|96:224|160:224|224:320|352:224,1,350
128,96,19398,6,12,B|192:128|160:160|256:160,1,140
96,96,21847,6,6,B|128:128|160:128|160:96|192:128|224:160|192:160,1,140
160,96,24143,6,12,B|160:160|192:160|224:128|288:160,1,140
96,96,26439,6,6,B|160:128|128:160|32:128|128:224,1,175
232,92,28888,5,8,0:0:0:0:
332,192,29194,1,8,0:0:0:0:
436,284,29500,1,8,0:0:0:0:
332,192,29806,1,8,0:0:0:0:
248,108,30112,1,4,0:0:0:0:
160,80,30418,6,10,P|132:144|216:160,1,175
188,96,31490,5,8,0:0:0:0:
284,176,31796,1,8,0:0:0:0:
380,248,32102,1,8,0:0:0:0:
280,172,32408,1,8,0:0:0:0:
184,92,32714,1,4,0:0:0:0:
128,184,33020,5,0,0:0:0:0:
136,188,33058,1,0,0:0:0:0:
144,192,33097,1,0,0:0:0:0:
184,80,33632,6,6,B|204:112|240:88|236:180|340:136|344:264|248:244|416:264,1,315
120,76,36234,5,8,0:0:0:0:
272,88,36388,1,2,0:0:0:0:
280,196,36541,1,4,0:0:0:0:
176,196,37051,1,4,0:0:0:0:
340,188,37408,2,14,L|408:96,1,105
220,88,37918,5,0,0:0:0:0:
240,84,37969,1,0,0:0:0:0:
260,80,38020,1,0,0:0:0:0:
276,76,38071,1,0,0:0:0:0:
296,72,38122,1,0,0:0:0:0:
312,64,38173,1,0,0:0:0:0:
256,192,69602,12,0,71898,0:0:0:0:
296,104,72357,6,12,P|364:152|312:208,1,140
168,100,72816,6,12,P|224:144|180:184,1,140
320,96,73275,6,12,P|348:164|296:184,1,140
132,80,73734,2,6,P|152:160|100:168,1,140
172,264,74347,1,8,0:0:0:0:
284,116,74653,5,8,0:0:0:0:
136,112,74959,5,4,0:0:0:0:
328,216,75265,5,8,0:0:0:0:
168,212,75571,5,4,0:0:0:0:
236,80,75877,6,6,P|244:160|136:112,1,210
188,96,76949,6,6,P|232:168|84:312,1,280
124,88,79245,6,6,B|192:180|208:184|276:164|264:92|404:160|400:312|176:344|132:360,1,490
256,192,81081,12,4,85826,0:0:0:0:
