osu file format v14

[General]
AudioFilename: audio.mp3
AudioLeadIn: 0
PreviewTime: 28655
Countdown: 0
SampleSet: Soft
StackLeniency: 0.7
Mode: 3
LetterboxInBreaks: 0
SpecialStyle: 0
WidescreenStoryboard: 0

[Editor]
DistanceSpacing: 1.3
BeatDivisor: 4
GridSize: 8
TimelineZoom: 3.699998

[Metadata]
Title:Celestial Horizon
TitleUnicode:Celestial Horizon
Artist:Fractal Dreamers
ArtistUnicode:Fractal Dreamers
Creator:AchsanLovers
Version:Land of Dreams
Source:
Tags:everything for a dream artcore instrumental electronic drum and bass dnb orchestral piano helblinde skymuted featured artist fa osu! keysound Ly0572 Syadow- Tofu1222 Shima Rin [_A_v_a_l_o_n_] Avalon FAMoss 1164530434
BeatmapID:1872627
BeatmapSetID:896302

[Difficulty]
HPDrainRate:8
CircleSize:4
OverallDifficulty:8.4
ApproachRate:5
SliderMultiplier:1.4
SliderTickRate:1

[Events]
//Background and Video events
0,0,"BG1.jpg",0,0
//Break Periods
//Storyboard Layer 0 (Background)
//Storyboard Layer 1 (Fail)
//Storyboard Layer 2 (Pass)
//Storyboard Layer 3 (Foreground)
//Storyboard Layer 4 (Overlay)
//Storyboard Sound Samples
Sample,9605,0,"G#2S_Ab2S.wav",40
Sample,12005,0,"A#2S_Bb2S.wav",40
Sample,14405,0,"C3S.wav",40
Sample,16805,0,"A#2S_Bb2S.wav",40
Sample,19205,0,"D#6S_Eb6S.wav",40
Sample,19505,0,"G#4S_Ab4S.wav",40
Sample,19655,0,"D#5S_Eb5S.wav",40
Sample,22205,0,"F5S.wav",40
Sample,24305,0,"G4S.wav",40
Sample,24455,0,"A#4S_Bb4S.wav",40
Sample,28505,0,"Ehco2.wav",100
Sample,28805,0,"Windchimes.wav",30
Sample,33230,0,"Uprise.wav",70
Sample,36005,0,"C4S.wav",80
Sample,37055,0,"D#6S_Eb6S.wav",80
Sample,37355,0,"D#6S_Eb6S.wav",80
Sample,37655,0,"A#6S_Bb6S.wav",80
Sample,38705,0,"D#6S_Eb6S.wav",80
Sample,39005,0,"G6S.wav",80
Sample,39905,0,"D#6S_Eb6S.wav",80
Sample,40505,0,"A#5S_Bb5S.wav",80
Sample,40805,0,"C4S.wav",80
Sample,41105,0,"D#6S_Eb6S.wav",80
Sample,41405,0,"G6S.wav",80
Sample,42005,0,"D#6S_Eb6S.wav",80
Sample,42305,0,"D#6S_Eb6S.wav",80
Sample,42905,0,"F6S.wav",80
Sample,43205,0,"G#3S_Ab3S.wav",80
Sample,43505,0,"D#6S_Eb6S.wav",80
Sample,43655,0,"G#6S_Ab6S.wav",80
Sample,44105,0,"A#5S_Bb5S.wav",80
Sample,44105,0,"A#7S_Bb7S.wav",80
Sample,44405,0,"D#6S_Eb6S.wav",80
Sample,44705,0,"D#6S_Eb6S.wav",80
Sample,45305,0,"A#5S_Bb5S.wav",80
Sample,45605,0,"G5S.wav",80
Sample,45905,0,"D#6S_Eb6S.wav",80
Sample,46055,0,"G#7S_Ab7S.wav",80
Sample,46505,0,"A#7S_Bb7S.wav",80
Sample,46505,0,"A#5S_Bb5S.wav",80
Sample,47105,0,"D#6S_Eb6S.wav",80
Sample,47705,0,"F6S.wav",80
Sample,48005,0,"G#4S_Ab4S.wav",80
Sample,48305,0,"D#6S_Eb6S.wav",80
Sample,48455,0,"G#7S_Ab7S.wav",80
Sample,48905,0,"A#5S_Bb5S.wav",80
Sample,48905,0,"A#7S_Bb7S.wav",80
Sample,49205,0,"D#8S_Eb8S.wav",80
Sample,49505,0,"D#6S_Eb6S.wav",80
Sample,50105,0,"A#5S_Bb5S.wav",80
Sample,50405,0,"G5S.wav",80
Sample,50705,0,"D#6S_Eb6S.wav",80
Sample,50855,0,"G#7S_Ab7S.wav",80
Sample,51305,0,"A#7S_Bb7S.wav",80
Sample,51305,0,"A#5S_Bb5S.wav",80
Sample,51605,0,"D#6S_Eb6S.wav",80
Sample,52505,0,"F6S.wav",80
Sample,52805,0,"G#3S_Ab3S.wav",80
Sample,55205,0,"C4S.wav",80
Sample,57605,0,"G#3S_Ab3S.wav",80
Sample,60005,0,"A#3S_Bb3S.wav",80
Sample,61655,0,"LR4_WindScratchHB.wav",70
Sample,62405,0,"G#3S_Ab3S.wav",80
Sample,64805,0,"C4S.wav",80
Sample,67205,0,"G#3S_Ab3S.wav",80
Sample,69605,0,"C4S.wav",80
Sample,72005,0,"G#3S_Ab3S.wav",80
Sample,73355,0,"A#5S_Bb5S.wav",80
Sample,73955,0,"A#5S_Bb5S.wav",80
Sample,74405,0,"C4S.wav",80
Sample,75155,0,"A#5S_Bb5S.wav",80
Sample,75755,0,"A#5S_Bb5S.wav",80
Sample,76355,0,"G7S.wav",80
Sample,76805,0,"G#3S_Ab3S.wav",80
Sample,78155,0,"A#5S_Bb5S.wav",80
Sample,78755,0,"A#5S_Bb5S.wav",80
Sample,78905,0,"A#5S_Bb5S.wav",80
Sample,79205,0,"C4S.wav",80
Sample,79505,0,"LR4_WindScratchHB.wav",80
Sample,79655,0,"D#6S_Eb6S.wav",80
Sample,80705,0,"LR4_WindScratchHB.wav",80
Sample,81605,0,"G#4S_Ab4S.wav",80
Sample,81605,0,"Windchimes.wav",30
Sample,82055,0,"D#6S_Eb6S.wav",40
Sample,82805,0,"D#6S_Eb6S.wav",40
Sample,83255,0,"D#6S_Eb6S.wav",40
Sample,84005,0,"D#6S_Eb6S.wav",40
Sample,84455,0,"D#6S_Eb6S.wav",40
Sample,85205,0,"D#6S_Eb6S.wav",40
Sample,85655,0,"D#6S_Eb6S.wav",40
Sample,86405,0,"D#6S_Eb6S.wav",40
Sample,86855,0,"D#6S_Eb6S.wav",40
Sample,87605,0,"D#6S_Eb6S.wav",40
Sample,88055,0,"D#6S_Eb6S.wav",40
Sample,88805,0,"D#6S_Eb6S.wav",40
Sample,89255,0,"D#6S_Eb6S.wav",40
Sample,90005,0,"D#6S_Eb6S.wav",40
Sample,90005,0,"A#4S_Bb4S.wav",40
Sample,90455,0,"D#6S_Eb6S.wav",40
Sample,90905,0,"D6S.wav",40
Sample,91205,0,"G#4S_Ab4S.wav",40
Sample,103655,0,"F5S.wav",60
Sample,107105,0,"Uprise.wav",70
Sample,108455,0,"F5S.wav",60
Sample,109805,0,"whistle.wav",70
Sample,110405,0,"G#3S_Ab3S.wav",80
Sample,110405,0,"Windchimes.wav",30
Sample,112805,0,"F4S.wav",80
Sample,114305,0,"A#6S_Bb6S.wav",80
Sample,114605,0,"A#5S_Bb5S.wav",80
Sample,115205,0,"C4S.wav",80
Sample,117605,0,"A#3S_Bb3S.wav",80
Sample,119705,0,"water.wav",70
Sample,120005,0,"D#4S_Eb4S.wav",80
Sample,120005,0,"G#3S_Ab3S.wav",80
Sample,120155,0,"A#5S_Bb5S.wav",80
Sample,120455,0,"A#5S_Bb5S.wav",80
Sample,121355,0,"A#5S_Bb5S.wav",80
Sample,121655,0,"A#5S_Bb5S.wav",80
Sample,121955,0,"A#5S_Bb5S.wav",80
Sample,122405,0,"C4S.wav",80
Sample,122705,0,"A#5S_Bb5S.wav",80
Sample,123155,0,"A#5S_Bb5S.wav",80
Sample,123605,0,"A#3S_Bb3S.wav",80
Sample,124805,0,"G#3S_Ab3S.wav",80
Sample,125855,0,"A#5S_Bb5S.wav",80
Sample,126155,0,"A#5S_Bb5S.wav",80
Sample,126905,0,"Uprise.wav",70
Sample,127205,0,"C4S.wav",80
Sample,128405,0,"A#3S_Bb3S.wav",80
Sample,129605,0,"Windchimes.wav",30
Sample,129605,0,"G#4S_Ab4S.wav",40

[TimingPoints]
5,300,4,2,1,40,1,0

[HitObjects]
64,192,5,5,0,0:0:0:40:G#4S_Ab4S.wav
320,192,155,1,0,0:0:0:40:D#5S_Eb5S.wav
448,192,305,1,0,0:0:0:40:A#5S_Bb5S.wav
192,192,455,1,0,0:0:0:40:D6S.wav
448,192,755,1,0,0:0:0:40:D#6S_Eb6S.wav
320,192,905,1,0,0:0:0:40:A#5S_Bb5S.wav
192,192,1055,1,0,0:0:0:40:D#5S_Eb5S.wav
448,192,1205,1,0,0:0:0:40:G#4S_Ab4S.wav
64,192,1355,1,0,0:0:0:40:D#5S_Eb5S.wav
192,192,1505,1,0,0:0:0:40:A#5S_Bb5S.wav
320,192,1655,1,0,0:0:0:40:D6S.wav
448,192,1955,1,0,0:0:0:40:D#6S_Eb6S.wav
448,192,2105,1,0,0:0:0:40:D#6S_Eb6S.wav
192,192,2255,1,0,0:0:0:40:D#5S_Eb5S.wav
64,192,2405,1,0,0:0:0:40:A#4S_Bb4S.wav
320,192,2555,1,0,0:0:0:40:F5S.wav
192,192,2705,1,0,0:0:0:40:A#5S_Bb5S.wav
448,192,2855,1,0,0:0:0:40:D6S.wav
448,192,3155,1,0,0:0:0:40:D#6S_Eb6S.wav
320,192,3305,1,0,0:0:0:40:A#5S_Bb5S.wav
192,192,3455,1,0,0:0:0:40:F5S.wav
448,192,3605,1,0,0:0:0:40:A#4S_Bb4S.wav
64,192,3755,1,0,0:0:0:40:F5S.wav
192,192,3905,1,0,0:0:0:40:A#5S_Bb5S.wav
320,192,4055,1,0,0:0:0:40:D6S.wav
192,192,4355,1,0,0:0:0:40:D#6S_Eb6S.wav
448,192,4505,1,0,0:0:0:40:A#6S_Bb6S.wav
320,192,4655,1,0,0:0:0:40:F5S.wav
64,192,4805,1,0,0:0:0:40:C5S.wav
320,192,4955,1,0,0:0:0:40:G5S.wav
192,192,5105,1,0,0:0:0:40:A#5S_Bb5S.wav
448,192,5255,1,0,0:0:0:40:D6S.wav
320,192,5555,1,0,0:0:0:40:D#6S_Eb6S.wav
192,192,5705,1,0,0:0:0:40:A#5S_Bb5S.wav
64,192,5855,1,0,0:0:0:40:G5S.wav
448,192,6005,1,0,0:0:0:40:C5S.wav
64,192,6155,1,0,0:0:0:40:G5S.wav
192,192,6305,1,0,0:0:0:40:A#5S_Bb5S.wav
320,192,6455,1,0,0:0:0:40:D6S.wav
448,192,6755,1,0,0:0:0:40:D#6S_Eb6S.wav
320,192,6905,1,0,0:0:0:40:A#5S_Bb5S.wav
192,192,7017,1,0,0:0:0:40:G5S.wav
64,192,7205,1,0,0:0:0:40:A#4S_Bb4S.wav
320,192,7355,1,0,0:0:0:40:F5S.wav
192,192,7505,1,0,0:0:0:40:A#5S_Bb5S.wav
448,192,7655,1,0,0:0:0:40:D6S.wav
448,192,7955,1,0,0:0:0:40:D#6S_Eb6S.wav
320,192,8105,1,0,0:0:0:40:A#5S_Bb5S.wav
192,192,8255,1,0,0:0:0:40:F5S.wav
64,192,8405,1,0,0:0:0:40:A#4S_Bb4S.wav
320,192,8555,1,0,0:0:0:40:F5S.wav
192,192,8705,1,0,0:0:0:40:A#5S_Bb5S.wav
448,192,8855,1,0,0:0:0:40:D6S.wav
448,192,9155,1,0,0:0:0:40:D#6S_Eb6S.wav
192,192,9305,1,0,0:0:0:40:G6S.wav
320,192,9380,1,0,0:0:0:40:G#6S_Ab6S.wav
448,192,9455,1,0,0:0:0:40:G6S.wav
64,192,9530,1,0,0:0:0:40:D#6S_Eb6S.wav
192,192,9605,1,0,0:0:0:40:G#4S_Ab4S.wav
320,192,9605,1,0,0:0:0:40:D#4S_Eb4S.wav
448,192,9605,1,0,0:0:0:40:G#3S_Ab3S.wav
64,192,9755,1,0,0:0:0:40:D#5S_Eb5S.wav
192,192,9905,1,0,0:0:0:40:A#5S_Bb5S.wav
320,192,10055,1,0,0:0:0:40:D6S.wav
448,192,10355,1,0,0:0:0:40:D#6S_Eb6S.wav
320,192,10505,1,0,0:0:0:40:A#5S_Bb5S.wav
192,192,10655,1,0,0:0:0:40:D#5S_Eb5S.wav
64,192,10805,1,0,0:0:0:40:G#4S_Ab4S.wav
192,192,10955,1,0,0:0:0:40:D#5S_Eb5S.wav
320,192,11105,1,0,0:0:0:40:A#5S_Bb5S.wav
448,192,11255,1,0,0:0:0:40:D6S.wav
448,192,11555,1,0,0:0:0:40:D#6S_Eb6S.wav
448,192,11705,1,0,0:0:0:40:D#6S_Eb6S.wav
192,192,11855,1,0,0:0:0:40:D#5S_Eb5S.wav
64,192,12005,1,0,0:0:0:40:A#4S_Bb4S.wav
320,192,12005,1,0,0:0:0:40:F4S.wav
448,192,12005,1,0,0:0:0:40:A#3S_Bb3S.wav
192,192,12155,1,0,0:0:0:40:D#5S_Eb5S.wav
320,192,12305,1,0,0:0:0:40:A#5S_Bb5S.wav
448,192,12455,1,0,0:0:0:40:D6S.wav
448,192,12755,1,0,0:0:0:40:D#6S_Eb6S.wav
320,192,12905,1,0,0:0:0:40:A#5S_Bb5S.wav
192,192,13055,1,0,0:0:0:40:F5S.wav
64,192,13205,1,0,0:0:0:40:A#4S_Bb4S.wav
192,192,13355,1,0,0:0:0:40:F5S.wav
320,192,13505,1,0,0:0:0:40:A#5S_Bb5S.wav
448,192,13655,1,0,0:0:0:40:D6S.wav
320,192,13955,1,0,0:0:0:40:D#6S_Eb6S.wav
448,192,14105,1,0,0:0:0:40:A#6S_Bb6S.wav
64,192,14255,1,0,0:0:0:40:F5S.wav
192,192,14405,1,0,0:0:0:40:C5S.wav
320,192,14405,1,0,0:0:0:40:G4S.wav
448,192,14405,1,0,0:0:0:40:C4S.wav
64,192,14555,1,0,0:0:0:40:G5S.wav
320,192,14705,1,0,0:0:0:40:A#5S_Bb5S.wav
448,192,14855,1,0,0:0:0:40:D6S.wav
448,192,15155,1,0,0:0:0:40:D#6S_Eb6S.wav
320,192,15305,1,0,0:0:0:40:A#5S_Bb5S.wav
192,192,15455,1,0,0:0:0:40:G5S.wav
64,192,15605,1,0,0:0:0:40:C5S.wav
320,192,15755,1,0,0:0:0:40:G5S.wav
192,192,15905,1,0,0:0:0:40:A#5S_Bb5S.wav
448,192,16055,1,0,0:0:0:40:D6S.wav
448,192,16355,1,0,0:0:0:40:D#6S_Eb6S.wav
320,192,16505,1,0,0:0:0:40:A#5S_Bb5S.wav
192,192,16617,1,0,0:0:0:40:G5S.wav
64,192,16805,1,0,0:0:0:40:A#4S_Bb4S.wav
320,192,16805,1,0,0:0:0:40:F4S.wav
448,192,16805,1,0,0:0:0:40:A#3S_Bb3S.wav
192,192,16955,1,0,0:0:0:40:F5S.wav
320,192,17105,1,0,0:0:0:40:A#5S_Bb5S.wav
448,192,17255,1,0,0:0:0:40:D6S.wav
448,192,17555,1,0,0:0:0:40:D#6S_Eb6S.wav
320,192,17705,1,0,0:0:0:40:A#5S_Bb5S.wav
192,192,17855,1,0,0:0:0:40:F5S.wav
64,192,18005,1,0,0:0:0:40:A#4S_Bb4S.wav
320,192,18155,1,0,0:0:0:40:F5S.wav
192,192,18305,1,0,0:0:0:40:A#5S_Bb5S.wav
448,192,18455,1,0,0:0:0:40:D6S.wav
448,192,18755,1,0,0:0:0:40:D#6S_Eb6S.wav
192,192,18905,1,0,0:0:0:40:G6S.wav
320,192,18980,1,0,0:0:0:40:G#6S_Ab6S.wav
448,192,19055,1,0,0:0:0:40:G6S.wav
192,192,19130,1,0,0:0:0:40:D#6S_Eb6S.wav
64,192,19205,1,0,0:0:0:40:crash.wav
320,192,19205,1,0,0:0:0:40:K.wav
448,192,19205,128,0,19805:0:0:0:40:G#3S_Ab3S.wav
320,192,19505,1,0,0:0:0:40:K.wav
320,192,19655,1,0,0:0:0:40:K.wav
64,192,19805,1,0,0:0:0:40:C.wav
192,192,19805,1,0,0:0:0:40:G#4S_Ab4S.wav
448,192,19955,1,0,0:0:0:0:
320,192,19992,1,0,0:0:0:0:
192,192,20030,1,0,0:0:0:0:
64,192,20067,1,0,0:0:0:0:
320,192,20105,1,0,0:0:0:40:S.wav
448,192,20105,1,0,0:0:0:40:D6S.wav
320,192,20255,1,0,0:0:0:40:S.wav
448,192,20255,1,0,0:0:0:0:
64,192,20405,1,0,0:0:0:40:D#6S_Eb6S.wav
192,192,20405,1,0,0:0:0:0:
320,192,20555,1,0,0:0:0:40:S.wav
448,192,20555,1,0,0:0:0:0:
64,192,20705,1,0,0:0:0:40:S.wav
192,192,20780,1,0,0:0:0:40:S.wav
320,192,20855,1,0,0:0:0:40:A#6S_Bb6S.wav
448,192,20855,1,0,0:0:0:0:
64,192,21005,128,0,21305:0:0:0:40:C.wav
448,192,21005,1,0,0:0:0:0:
192,192,21305,1,0,0:0:0:40:F6S.wav
64,192,21605,128,0,22205:0:0:0:40:C.wav
320,192,21605,1,0,0:0:0:40:K.wav
448,192,21605,1,0,0:0:0:40:A#3S_Bb3S.wav
448,192,22205,1,0,0:0:0:40:K.wav
64,192,22505,1,0,0:0:0:40:D6S.wav
320,192,22805,1,0,0:0:0:40:K.wav
448,192,22805,1,0,0:0:0:40:D#6S_Eb6S.wav
192,192,22955,1,0,0:0:0:40:K.wav
448,192,23255,1,0,0:0:0:40:D7S.wav
64,192,23405,1,0,0:0:0:40:S.wav
320,192,23405,1,0,0:0:0:0:
192,192,23705,1,0,0:0:0:40:A#6S_Bb6S.wav
64,192,24005,1,0,0:0:0:40:C.wav
320,192,24005,1,0,0:0:0:40:K.wav
448,192,24005,128,0,24605:0:0:0:40:C4S.wav
320,192,24305,1,0,0:0:0:40:K.wav
320,192,24455,1,0,0:0:0:40:K.wav
64,192,24605,1,0,0:0:0:40:C.wav
192,192,24605,1,0,0:0:0:40:D#5S_Eb5S.wav
448,192,24755,1,0,0:0:0:0:
320,192,24792,1,0,0:0:0:0:
192,192,24830,1,0,0:0:0:0:
64,192,24867,1,0,0:0:0:0:
320,192,24905,1,0,0:0:0:40:S.wav
448,192,24905,1,0,0:0:0:40:D6S.wav
320,192,25055,1,0,0:0:0:40:S.wav
448,192,25055,1,0,0:0:0:0:
64,192,25205,1,0,0:0:0:40:D#6S_Eb6S.wav
192,192,25205,1,0,0:0:0:0:
320,192,25355,1,0,0:0:0:40:S.wav
448,192,25355,1,0,0:0:0:0:
64,192,25505,1,0,0:0:0:40:S.wav
192,192,25580,1,0,0:0:0:40:S.wav
320,192,25655,1,0,0:0:0:40:A#6S_Bb6S.wav
448,192,25655,1,0,0:0:0:70:Uprise.wav
64,192,25805,128,0,26105:0:0:0:40:C.wav
448,192,25805,1,0,0:0:0:0:
320,192,26105,1,0,0:0:0:40:F6S.wav
64,192,26405,128,0,27005:0:0:0:40:C.wav
192,192,26405,1,0,0:0:0:40:K.wav
448,192,26405,1,0,0:0:0:40:A#3S_Bb3S.wav
320,192,27005,1,0,0:0:0:40:K.wav
448,192,27005,128,0,28505:0:0:0:40:F5S.wav
192,192,27155,1,0,0:0:0:0:
64,192,27305,1,0,0:0:0:40:D6S.wav
320,192,27455,1,0,0:0:0:40:S.wav
192,192,27530,1,0,0:0:0:40:S.wav
64,192,27605,1,0,0:0:0:40:D#6S_Eb6S.wav
320,192,27605,1,0,0:0:0:0:
192,192,27755,128,0,27905:0:0:0:40:S.wav
64,192,27905,1,0,0:0:0:40:S.wav
320,192,28055,1,0,0:0:0:40:F6S.wav
64,192,28105,1,0,0:0:0:40:S.wav
192,192,28155,1,0,0:0:0:40:S.wav
320,192,28205,1,0,0:0:0:40:S.wav
64,192,28355,1,0,0:0:0:40:S.wav
192,192,28505,1,0,0:0:0:80:D#6S_Eb6S.wav
64,192,28805,1,0,0:0:0:40:kick.wav
192,192,28805,1,0,0:0:0:40:crash.wav
320,192,28805,1,0,0:0:0:80:G6S.wav
448,192,28805,1,0,0:0:0:80:G#3S_Ab3S.wav
192,192,28955,1,0,0:0:0:80:D#6S_Eb6S.wav
320,192,28955,1,0,0:0:0:0:
64,192,29105,1,0,0:0:0:40:snare.wav
448,192,29105,1,0,0:0:0:80:A#5S_Bb5S.wav
320,192,29255,1,0,0:0:0:80:F6S.wav
448,192,29255,1,0,0:0:0:0:
64,192,29405,1,0,0:0:0:80:D#6S_Eb6S.wav
192,192,29405,1,0,0:0:0:0:
64,192,29555,1,0,0:0:0:40:kick.wav
320,192,29555,1,0,0:0:0:80:A#5S_Bb5S.wav
192,192,29705,1,0,0:0:0:40:snare.wav
448,192,29705,1,0,0:0:0:80:A#6S_Bb6S.wav
320,192,29855,1,0,0:0:0:80:A#5S_Bb5S.wav
64,192,30005,1,0,0:0:0:80:D#6S_Eb6S.wav
448,192,30005,1,0,0:0:0:0:
192,192,30155,1,0,0:0:0:40:kick.wav
320,192,30155,1,0,0:0:0:80:D6S.wav
64,192,30305,1,0,0:0:0:40:snare.wav
448,192,30305,1,0,0:0:0:80:A#5S_Bb5S.wav
320,192,30455,1,0,0:0:0:80:F6S.wav
448,192,30455,1,0,0:0:0:0:
64,192,30530,1,0,0:0:0:40:kick.wav
192,192,30530,1,0,0:0:0:0:
448,192,30605,1,0,0:0:0:80:A#5S_Bb5S.wav
192,192,30755,1,0,0:0:0:40:kick.wav
320,192,30755,1,0,0:0:0:80:G6S.wav
448,192,30830,1,0,0:0:0:80:G#6S_Ab6S.wav
192,192,30905,1,0,0:0:0:40:snare.wav
64,192,30905,1,0,0:0:0:80:G6S.wav
320,192,30980,1,0,0:0:0:80:D#6S_Eb6S.wav
64,192,31055,1,0,0:0:0:80:A#5S_Bb5S.wav
448,192,31055,1,0,0:0:0:0:
192,192,31130,1,0,0:0:0:80:G#5S_Ab5S.wav
64,192,31205,1,0,0:0:0:40:kick.wav
448,192,31205,1,0,0:0:0:80:A#5S_Bb5S.wav
320,192,31205,1,0,0:0:0:80:C4S.wav
192,192,31355,1,0,0:0:0:80:D#6S_Eb6S.wav
320,192,31355,1,0,0:0:0:0:
64,192,31505,1,0,0:0:0:40:snare.wav
448,192,31505,1,0,0:0:0:80:A#5S_Bb5S.wav
448,192,31655,1,0,0:0:0:80:A#6S_Bb6S.wav
320,192,31655,1,0,0:0:0:0:
64,192,31805,1,0,0:0:0:80:G#6S_Ab6S.wav
192,192,31805,1,0,0:0:0:0:
320,192,31955,1,0,0:0:0:40:kick.wav
448,192,31955,1,0,0:0:0:80:G6S.wav
64,192,32105,1,0,0:0:0:40:snare.wav
448,192,32105,1,0,0:0:0:80:D#6S_Eb6S.wav
192,192,32255,1,0,0:0:0:80:F6S.wav
64,192,32255,1,0,0:0:0:0:
320,192,32330,1,0,0:0:0:80:D#6S_Eb6S.wav
64,192,32405,1,0,0:0:0:40:kick.wav
448,192,32405,1,0,0:0:0:80:D#6S_Eb6S.wav
192,192,32405,1,0,0:0:0:80:A#3S_Bb3S.wav
192,192,32555,1,0,0:0:0:80:A#6S_Bb6S.wav
320,192,32555,1,0,0:0:0:0:
320,192,32705,1,0,0:0:0:40:snare.wav
448,192,32705,1,0,0:0:0:80:A#6S_Bb6S.wav
192,192,32780,1,0,0:0:0:80:D7S.wav
64,192,32855,1,0,0:0:0:40:kick.wav
448,192,32855,1,0,0:0:0:80:A#6S_Bb6S.wav
192,192,32930,1,0,0:0:0:40:kick.wav
320,192,32930,1,0,0:0:0:80:D#6S_Eb6S.wav
64,192,33005,1,0,0:0:0:40:kick.wav
448,192,33005,1,0,0:0:0:80:D7S.wav
320,192,33080,1,0,0:0:0:80:D#7S_Eb7S.wav
64,192,33155,1,0,0:0:0:40:kick.wav
192,192,33155,1,0,0:0:0:80:D7S.wav
448,192,33230,1,0,0:0:0:80:A#6S_Bb6S.wav
64,192,33305,1,0,0:0:0:40:snare.wav
320,192,33305,1,0,0:0:0:80:G6S.wav
192,192,33380,1,0,0:0:0:80:F6S.wav
320,192,33455,1,0,0:0:0:40:kick.wav
448,192,33455,1,0,0:0:0:80:D#6S_Eb6S.wav
64,192,33530,1,0,0:0:0:80:D6S.wav
192,192,33605,1,0,0:0:0:40:kick.wav
320,192,33605,1,0,0:0:0:80:D#6S_Eb6S.wav
448,192,33605,1,0,0:0:0:80:G#3S_Ab3S.wav
64,192,33755,1,0,0:0:0:80:D6S.wav
192,192,33755,1,0,0:0:0:0:
64,192,33905,1,0,0:0:0:40:snare.wav
448,192,33905,1,0,0:0:0:80:A#5S_Bb5S.wav
192,192,34055,1,0,0:0:0:80:F6S.wav
320,192,34055,1,0,0:0:0:0:
320,192,34205,1,0,0:0:0:80:D#6S_Eb6S.wav
448,192,34205,1,0,0:0:0:0:
64,192,34355,1,0,0:0:0:40:kick.wav
192,192,34355,1,0,0:0:0:80:A#5S_Bb5S.wav
64,192,34505,1,0,0:0:0:40:snare.wav
448,192,34505,1,0,0:0:0:80:D#6S_Eb6S.wav
320,192,34655,1,0,0:0:0:80:F6S.wav
448,192,34655,1,0,0:0:0:0:
64,192,34730,1,0,0:0:0:80:G6S.wav
192,192,34730,1,0,0:0:0:0:
320,192,34805,1,0,0:0:0:80:G#6S_Ab6S.wav
448,192,34805,1,0,0:0:0:0:
192,192,34955,1,0,0:0:0:40:kick.wav
320,192,34955,1,0,0:0:0:80:G6S.wav
64,192,35105,1,0,0:0:0:40:snare.wav
448,192,35105,1,0,0:0:0:80:D#6S_Eb6S.wav
64,192,35255,1,0,0:0:0:80:A#5S_Bb5S.wav
192,192,35255,1,0,0:0:0:0:
320,192,35330,1,0,0:0:0:40:kick.wav
448,192,35330,1,0,0:0:0:0:
64,192,35405,1,0,0:0:0:80:G#5S_Ab5S.wav
192,192,35405,1,0,0:0:0:0:
64,192,35555,1,0,0:0:0:40:kick.wav
192,192,35555,1,0,0:0:0:80:G5S.wav
320,192,35705,1,0,0:0:0:40:snare.wav
448,192,35705,1,0,0:0:0:80:G#5S_Ab5S.wav
192,192,35780,1,0,0:0:0:0:
64,192,35855,1,0,0:0:0:80:A#5S_Bb5S.wav
448,192,35855,1,0,0:0:0:0:
320,192,35930,1,0,0:0:0:0:
64,192,36005,1,0,0:0:0:40:kick.wav
192,192,36005,1,0,0:0:0:40:crash.wav
448,192,36005,1,0,0:0:0:80:D#6S_Eb6S.wav
320,192,36155,1,0,0:0:0:80:D6S.wav
192,192,36305,1,0,0:0:0:80:D#6S_Eb6S.wav
64,192,36455,1,0,0:0:0:80:A#6S_Bb6S.wav
192,192,36505,1,0,0:0:0:80:G#6S_Ab6S.wav
320,192,36555,1,0,0:0:0:80:A#6S_Bb6S.wav
64,192,36605,1,0,0:0:0:80:G#6S_Ab6S.wav
192,192,36665,1,0,0:0:0:0:
448,192,36725,1,0,0:0:0:0:
320,192,36785,1,0,0:0:0:0:
192,192,36845,1,0,0:0:0:0:
64,192,36905,1,0,0:0:0:80:F6S.wav
448,192,36905,128,0,37055:0:0:0:0:
320,192,37055,1,0,0:0:0:40:kick.wav
192,192,37205,128,0,37355:0:0:0:80:D6S.wav
448,192,37205,128,0,37355:0:0:0:80:A#3S_Bb3S.wav
320,192,37355,1,0,0:0:0:40:kick.wav
64,192,37505,128,0,37655:0:0:0:80:F6S.wav
448,192,37505,128,0,37655:0:0:0:0:
192,192,37655,1,0,0:0:0:40:kick.wav
64,192,37805,1,0,0:0:0:80:D7S.wav
448,192,37805,1,0,0:0:0:0:
320,192,37880,1,0,0:0:0:80:D#7S_Eb7S.wav
64,192,37955,1,0,0:0:0:40:kick.wav
192,192,37955,1,0,0:0:0:80:D7S.wav
320,192,38030,1,0,0:0:0:80:A#6S_Bb6S.wav
64,192,38105,1,0,0:0:0:80:F6S.wav
448,192,38105,1,0,0:0:0:0:
192,192,38180,1,0,0:0:0:80:D#6S_Eb6S.wav
320,192,38255,1,0,0:0:0:80:D6S.wav
448,192,38255,1,0,0:0:0:0:
64,192,38330,1,0,0:0:0:80:A#5S_Bb5S.wav
192,192,38405,1,0,0:0:0:40:kick.wav
320,192,38405,1,0,0:0:0:80:D#6S_Eb6S.wav
448,192,38405,1,0,0:0:0:80:G#3S_Ab3S.wav
192,192,38705,1,0,0:0:0:40:kick.wav
448,192,38705,1,0,0:0:0:40:snare.wav
320,192,38855,1,0,0:0:0:80:G#6S_Ab6S.wav
448,192,38930,1,0,0:0:0:0:
64,192,39005,1,0,0:0:0:40:kick.wav
192,192,39155,1,0,0:0:0:80:D#6S_Eb6S.wav
320,192,39305,1,0,0:0:0:40:snare.wav
448,192,39305,1,0,0:0:0:80:A#5S_Bb5S.wav
192,192,39455,1,0,0:0:0:80:F6S.wav
64,192,39605,1,0,0:0:0:40:kick.wav
448,192,39605,1,0,0:0:0:80:D#6S_Eb6S.wav
320,192,39755,1,0,0:0:0:80:A#5S_Bb5S.wav
64,192,39905,1,0,0:0:0:40:kick.wav
448,192,39905,1,0,0:0:0:40:snare.wav
320,192,39980,1,0,0:0:0:0:
192,192,40055,1,0,0:0:0:80:G#6S_Ab6S.wav
64,192,40130,1,0,0:0:0:0:
320,192,40205,1,0,0:0:0:40:kick.wav
448,192,40205,1,0,0:0:0:80:G6S.wav
192,192,40265,1,0,0:0:0:0:
448,192,40325,1,0,0:0:0:0:
320,192,40385,1,0,0:0:0:0:
192,192,40445,1,0,0:0:0:0:
64,192,40505,1,0,0:0:0:40:kick.wav
448,192,40505,1,0,0:0:0:40:snare.wav
320,192,40655,1,0,0:0:0:80:F6S.wav
64,192,40805,1,0,0:0:0:40:kick.wav
192,192,40805,1,0,0:0:0:80:D#6S_Eb6S.wav
448,192,40955,1,0,0:0:0:80:A#5S_Bb5S.wav
64,192,41105,1,0,0:0:0:40:kick.wav
320,192,41105,1,0,0:0:0:40:snare.wav
192,192,41255,1,0,0:0:0:80:G#6S_Ab6S.wav
320,192,41330,1,0,0:0:0:0:
448,192,41405,1,0,0:0:0:40:kick.wav
64,192,41555,1,0,0:0:0:80:D#6S_Eb6S.wav
192,192,41705,1,0,0:0:0:40:snare.wav
448,192,41705,1,0,0:0:0:80:A#5S_Bb5S.wav
320,192,41855,1,0,0:0:0:80:F6S.wav
64,192,42005,1,0,0:0:0:40:kick.wav
192,192,42005,1,0,0:0:0:80:A#3S_Bb3S.wav
320,192,42155,1,0,0:0:0:80:A#5S_Bb5S.wav
64,192,42305,1,0,0:0:0:40:kick.wav
448,192,42305,1,0,0:0:0:40:snare.wav
192,192,42455,1,0,0:0:0:80:A#6S_Bb6S.wav
320,192,42505,1,0,0:0:0:80:G#6S_Ab6S.wav
448,192,42555,1,0,0:0:0:80:A#6S_Bb6S.wav
64,192,42605,1,0,0:0:0:40:kick.wav
192,192,42605,1,0,0:0:0:80:G#6S_Ab6S.wav
320,192,42665,1,0,0:0:0:0:
64,192,42725,1,0,0:0:0:0:
192,192,42785,1,0,0:0:0:0:
320,192,42845,1,0,0:0:0:0:
64,192,42905,1,0,0:0:0:40:kick.wav
448,192,42905,1,0,0:0:0:40:snare.wav
192,192,43055,1,0,0:0:0:80:D#6S_Eb6S.wav
64,192,43205,1,0,0:0:0:40:kick.wav
192,192,43205,1,0,0:0:0:80:G7S.wav
448,192,43205,1,0,0:0:0:80:D#6S_Eb6S.wav
320,192,43355,1,0,0:0:0:80:A#5S_Bb5S.wav
64,192,43505,1,0,0:0:0:40:kick.wav
448,192,43505,1,0,0:0:0:40:snare.wav
192,192,43655,1,0,0:0:0:80:G#7S_Ab7S.wav
64,192,43730,1,0,0:0:0:0:
320,192,43805,1,0,0:0:0:40:kick.wav
448,192,43805,1,0,0:0:0:80:G6S.wav
192,192,43955,1,0,0:0:0:80:D#6S_Eb6S.wav
64,192,44105,1,0,0:0:0:40:kick.wav
448,192,44105,1,0,0:0:0:40:snare.wav
320,192,44255,1,0,0:0:0:80:F6S.wav
448,192,44330,1,0,0:0:0:0:
64,192,44405,1,0,0:0:0:40:kick.wav
192,192,44405,1,0,0:0:0:80:D#8S_Eb8S.wav
192,192,44555,1,0,0:0:0:80:A#5S_Bb5S.wav
64,192,44630,1,0,0:0:0:0:
320,192,44705,1,0,0:0:0:40:kick.wav
448,192,44705,1,0,0:0:0:40:snare.wav
192,192,44780,1,0,0:0:0:0:
448,192,44855,1,0,0:0:0:80:G#6S_Ab6S.wav
320,192,44930,1,0,0:0:0:0:
64,192,45005,1,0,0:0:0:40:kick.wav
192,192,45005,1,0,0:0:0:80:G6S.wav
448,192,45065,1,0,0:0:0:0:
320,192,45125,1,0,0:0:0:0:
64,192,45185,1,0,0:0:0:0:
192,192,45245,1,0,0:0:0:0:
320,192,45305,1,0,0:0:0:40:kick.wav
448,192,45305,1,0,0:0:0:40:snare.wav
320,192,45455,1,0,0:0:0:80:F6S.wav
64,192,45605,1,0,0:0:0:40:kick.wav
192,192,45605,1,0,0:0:0:80:G7S.wav
448,192,45605,1,0,0:0:0:80:D#6S_Eb6S.wav
320,192,45755,1,0,0:0:0:80:A#5S_Bb5S.wav
64,192,45905,1,0,0:0:0:40:kick.wav
448,192,45905,1,0,0:0:0:40:snare.wav
192,192,46055,1,0,0:0:0:80:G#6S_Ab6S.wav
320,192,46130,1,0,0:0:0:0:
64,192,46205,1,0,0:0:0:40:kick.wav
192,192,46205,1,0,0:0:0:80:G6S.wav
448,192,46355,1,0,0:0:0:80:D#6S_Eb6S.wav
192,192,46505,1,0,0:0:0:40:kick.wav
320,192,46505,1,0,0:0:0:40:snare.wav
64,192,46655,1,0,0:0:0:80:F6S.wav
192,192,46730,1,0,0:0:0:0:
64,192,46805,1,0,0:0:0:40:kick.wav
320,192,46805,1,0,0:0:0:80:D#6S_Eb6S.wav
448,192,46805,1,0,0:0:0:80:F5S.wav
192,192,46955,1,0,0:0:0:80:A#5S_Bb5S.wav
64,192,47105,1,0,0:0:0:40:kick.wav
448,192,47105,1,0,0:0:0:40:snare.wav
448,192,47255,1,0,0:0:0:80:A#6S_Bb6S.wav
320,192,47305,1,0,0:0:0:80:G#6S_Ab6S.wav
192,192,47355,1,0,0:0:0:80:A#6S_Bb6S.wav
320,192,47405,1,0,0:0:0:40:kick.wav
448,192,47405,1,0,0:0:0:80:G#6S_Ab6S.wav
64,192,47465,1,0,0:0:0:0:
192,192,47525,1,0,0:0:0:0:
320,192,47585,1,0,0:0:0:0:
448,192,47645,1,0,0:0:0:0:
64,192,47705,1,0,0:0:0:40:kick.wav
192,192,47705,1,0,0:0:0:40:snare.wav
320,192,47855,1,0,0:0:0:80:D#6S_Eb6S.wav
64,192,48005,1,0,0:0:0:40:kick.wav
192,192,48005,1,0,0:0:0:80:G7S.wav
448,192,48005,1,0,0:0:0:80:D#6S_Eb6S.wav
320,192,48155,1,0,0:0:0:80:A#5S_Bb5S.wav
192,192,48305,1,0,0:0:0:40:kick.wav
448,192,48305,1,0,0:0:0:40:snare.wav
64,192,48455,1,0,0:0:0:80:G#6S_Ab6S.wav
320,192,48530,1,0,0:0:0:0:
64,192,48605,1,0,0:0:0:40:kick.wav
192,192,48605,1,0,0:0:0:80:G6S.wav
448,192,48755,1,0,0:0:0:80:D#6S_Eb6S.wav
64,192,48905,1,0,0:0:0:40:kick.wav
320,192,48905,1,0,0:0:0:40:snare.wav
192,192,49055,1,0,0:0:0:80:F6S.wav
320,192,49130,1,0,0:0:0:0:
64,192,49205,1,0,0:0:0:40:kick.wav
448,192,49205,1,0,0:0:0:80:D#6S_Eb6S.wav
448,192,49355,1,0,0:0:0:80:A#5S_Bb5S.wav
320,192,49430,1,0,0:0:0:0:
192,192,49505,1,0,0:0:0:40:kick.wav
448,192,49505,1,0,0:0:0:40:snare.wav
320,192,49580,1,0,0:0:0:0:
64,192,49655,1,0,0:0:0:80:G#6S_Ab6S.wav
448,192,49730,1,0,0:0:0:0:
64,192,49805,1,0,0:0:0:40:kick.wav
320,192,49805,1,0,0:0:0:80:G6S.wav
192,192,49865,1,0,0:0:0:0:
320,192,49925,1,0,0:0:0:0:
64,192,49985,1,0,0:0:0:0:
192,192,50045,1,0,0:0:0:0:
320,192,50105,1,0,0:0:0:40:kick.wav
448,192,50105,1,0,0:0:0:40:snare.wav
192,192,50255,1,0,0:0:0:80:F6S.wav
64,192,50405,1,0,0:0:0:40:kick.wav
192,192,50405,1,0,0:0:0:80:G7S.wav
448,192,50405,1,0,0:0:0:80:D#6S_Eb6S.wav
320,192,50555,1,0,0:0:0:80:A#5S_Bb5S.wav
64,192,50705,1,0,0:0:0:40:kick.wav
448,192,50705,1,0,0:0:0:40:snare.wav
192,192,50855,1,0,0:0:0:80:G#6S_Ab6S.wav
448,192,50930,1,0,0:0:0:0:
64,192,51005,1,0,0:0:0:40:kick.wav
192,192,51005,1,0,0:0:0:80:G6S.wav
448,192,51155,1,0,0:0:0:80:D#6S_Eb6S.wav
64,192,51305,1,0,0:0:0:40:kick.wav
320,192,51305,1,0,0:0:0:40:snare.wav
192,192,51455,1,0,0:0:0:80:F6S.wav
320,192,51605,1,0,0:0:0:40:kick.wav
448,192,51605,1,0,0:0:0:80:D#8S_Eb8S.wav
192,192,52055,1,0,0:0:0:80:D8S.wav
320,192,52055,1,0,0:0:0:80:A#6S_Bb6S.wav
64,192,52505,1,0,0:0:0:40:kick.wav
192,192,52505,1,0,0:0:0:80:A#7S_Bb7S.wav
64,192,52805,1,0,0:0:0:40:kick.wav
320,192,52805,1,0,0:0:0:80:G5S.wav
448,192,52805,1,0,0:0:0:80:D#4S_Eb4S.wav
192,192,52955,1,0,0:0:0:80:G#5S_Ab5S.wav
448,192,52955,1,0,0:0:0:0:
64,192,53105,1,0,0:0:0:40:snare.wav
320,192,53105,1,0,0:0:0:80:A#5S_Bb5S.wav
64,192,53255,1,0,0:0:0:80:D#5S_Eb5S.wav
192,192,53255,1,0,0:0:0:0:
448,192,53330,1,0,0:0:0:0:
320,192,53405,1,0,0:0:0:80:G#5S_Ab5S.wav
192,192,53480,1,0,0:0:0:0:
64,192,53555,1,0,0:0:0:40:kick.wav
448,192,53555,1,0,0:0:0:80:A#5S_Bb5S.wav
192,192,53705,1,0,0:0:0:40:snare.wav
320,192,53705,1,0,0:0:0:80:D#6S_Eb6S.wav
192,192,53855,1,0,0:0:0:80:F6S.wav
448,192,53855,1,0,0:0:0:0:
320,192,53930,1,0,0:0:0:80:G6S.wav
64,192,54005,1,0,0:0:0:80:G#6S_Ab6S.wav
448,192,54005,1,0,0:0:0:0:
192,192,54155,1,0,0:0:0:40:kick.wav
320,192,54155,1,0,0:0:0:80:G6S.wav
64,192,54305,1,0,0:0:0:40:snare.wav
448,192,54305,1,0,0:0:0:80:D#6S_Eb6S.wav
64,192,54455,1,0,0:0:0:80:A#5S_Bb5S.wav
192,192,54455,1,0,0:0:0:0:
320,192,54530,1,0,0:0:0:40:kick.wav
448,192,54530,1,0,0:0:0:0:
64,192,54605,1,0,0:0:0:80:G#5S_Ab5S.wav
192,192,54605,1,0,0:0:0:0:
320,192,54680,1,0,0:0:0:0:
192,192,54755,1,0,0:0:0:40:kick.wav
448,192,54755,1,0,0:0:0:80:G5S.wav
64,192,54905,1,0,0:0:0:40:snare.wav
320,192,54905,1,0,0:0:0:80:G#5S_Ab5S.wav
192,192,54980,1,0,0:0:0:0:
64,192,55055,1,0,0:0:0:80:A#5S_Bb5S.wav
448,192,55055,1,0,0:0:0:0:
320,192,55130,1,0,0:0:0:0:
64,192,55205,1,0,0:0:0:40:kick.wav
192,192,55205,1,0,0:0:0:80:G5S.wav
448,192,55205,1,0,0:0:0:80:G4S.wav
192,192,55355,1,0,0:0:0:80:A#5S_Bb5S.wav
320,192,55355,1,0,0:0:0:0:
64,192,55505,1,0,0:0:0:40:snare.wav
320,192,55505,1,0,0:0:0:80:D#6S_Eb6S.wav
192,192,55655,1,0,0:0:0:80:A#6S_Bb6S.wav
448,192,55655,1,0,0:0:0:0:
320,192,55730,1,0,0:0:0:0:
64,192,55805,1,0,0:0:0:80:G6S.wav
448,192,55805,1,0,0:0:0:0:
192,192,55880,1,0,0:0:0:0:
320,192,55955,1,0,0:0:0:40:kick.wav
448,192,55955,1,0,0:0:0:80:G#6S_Ab6S.wav
64,192,56105,1,0,0:0:0:40:snare.wav
192,192,56105,1,0,0:0:0:80:G6S.wav
320,192,56255,1,0,0:0:0:80:G#6S_Ab6S.wav
192,192,56330,1,0,0:0:0:80:A#6S_Bb6S.wav
64,192,56405,1,0,0:0:0:40:kick.wav
320,192,56405,1,0,0:0:0:80:C7S.wav
448,192,56480,1,0,0:0:0:80:F7S.wav
192,192,56555,1,0,0:0:0:80:D7S.wav
320,192,56630,1,0,0:0:0:80:D#7S_Eb7S.wav
64,192,56705,1,0,0:0:0:80:A#6S_Bb6S.wav
448,192,56780,1,0,0:0:0:80:D#7S_Eb7S.wav
64,192,56855,1,0,0:0:0:80:F7S.wav
192,192,56855,1,0,0:0:0:0:
320,192,56930,1,0,0:0:0:80:G7S.wav
448,192,56930,1,0,0:0:0:0:
64,192,57005,1,0,0:0:0:80:G#7S_Ab7S.wav
192,192,57005,1,0,0:0:0:0:
320,192,57080,1,0,0:0:0:80:G7S.wav
448,192,57080,1,0,0:0:0:0:
64,192,57155,1,0,0:0:0:80:F7S.wav
192,192,57155,1,0,0:0:0:0:
320,192,57230,1,0,0:0:0:80:D#7S_Eb7S.wav
448,192,57230,1,0,0:0:0:0:
64,192,57305,1,0,0:0:0:40:kick.wav
192,192,57305,1,0,0:0:0:80:A#6S_Bb6S.wav
448,192,57380,1,0,0:0:0:80:G#6S_Ab6S.wav
320,192,57455,1,0,0:0:0:80:G6S.wav
192,192,57530,1,0,0:0:0:80:G#6S_Ab6S.wav
64,192,57605,1,0,0:0:0:40:kick.wav
320,192,57605,1,0,0:0:0:80:A#6S_Bb6S.wav
448,192,57605,1,0,0:0:0:80:D#4S_Eb4S.wav
320,192,57755,1,0,0:0:0:80:G#6S_Ab6S.wav
64,192,57905,1,0,0:0:0:40:snare.wav
448,192,57905,1,0,0:0:0:80:G6S.wav
192,192,58055,1,0,0:0:0:80:D#6S_Eb6S.wav
320,192,58055,1,0,0:0:0:0:
64,192,58130,1,0,0:0:0:0:
448,192,58205,1,0,0:0:0:0:
320,192,58280,1,0,0:0:0:0:
64,192,58355,1,0,0:0:0:40:kick.wav
192,192,58355,1,0,0:0:0:80:A#5S_Bb5S.wav
64,192,58505,1,0,0:0:0:40:snare.wav
448,192,58505,1,0,0:0:0:80:D6S.wav
320,192,58655,1,0,0:0:0:80:D#6S_Eb6S.wav
448,192,58655,1,0,0:0:0:0:
192,192,58730,1,0,0:0:0:0:
64,192,58805,1,0,0:0:0:80:G#7S_Ab7S.wav
448,192,58805,1,0,0:0:0:0:
64,192,58955,1,0,0:0:0:40:kick.wav
320,192,58955,1,0,0:0:0:80:A#5S_Bb5S.wav
192,192,59105,1,0,0:0:0:40:snare.wav
448,192,59105,1,0,0:0:0:80:D#6S_Eb6S.wav
64,192,59255,1,0,0:0:0:80:F6S.wav
192,192,59255,1,0,0:0:0:0:
320,192,59330,1,0,0:0:0:40:kick.wav
448,192,59330,1,0,0:0:0:80:G6S.wav
64,192,59405,1,0,0:0:0:80:G#6S_Ab6S.wav
192,192,59405,1,0,0:0:0:0:
320,192,59480,1,0,0:0:0:80:G6S.wav
64,192,59555,1,0,0:0:0:40:kick.wav
448,192,59555,1,0,0:0:0:80:D#6S_Eb6S.wav
192,192,59630,1,0,0:0:0:80:A#5S_Bb5S.wav
320,192,59705,1,0,0:0:0:40:snare.wav
448,192,59705,1,0,0:0:0:80:D6S.wav
192,192,59780,1,0,0:0:0:80:D#6S_Eb6S.wav
64,192,59855,1,0,0:0:0:80:F6S.wav
448,192,59855,1,0,0:0:0:0:
320,192,59930,1,0,0:0:0:80:D#6S_Eb6S.wav
64,192,60005,1,0,0:0:0:40:kick.wav
192,192,60005,1,0,0:0:0:80:D6S.wav
448,192,60005,1,0,0:0:0:80:F4S.wav
192,192,60155,1,0,0:0:0:80:D#6S_Eb6S.wav
320,192,60155,1,0,0:0:0:0:
64,192,60305,1,0,0:0:0:40:snare.wav
320,192,60305,1,0,0:0:0:80:F6S.wav
192,192,60455,1,0,0:0:0:80:A#6S_Bb6S.wav
448,192,60455,1,0,0:0:0:0:
320,192,60530,1,0,0:0:0:0:
64,192,60605,1,0,0:0:0:0:
192,192,60680,1,0,0:0:0:0:
320,192,60755,1,0,0:0:0:40:kick.wav
448,192,60755,1,0,0:0:0:80:F6S.wav
192,192,60905,1,0,0:0:0:40:snare.wav
448,192,60905,1,0,0:0:0:80:A#6S_Bb6S.wav
64,192,61055,1,0,0:0:0:80:D7S.wav
320,192,61055,1,0,0:0:0:0:
192,192,61130,1,0,0:0:0:80:D#7S_Eb7S.wav
64,192,61205,1,0,0:0:0:40:kick.wav
448,192,61205,1,0,0:0:0:80:F7S.wav
320,192,61280,1,0,0:0:0:80:D#7S_Eb7S.wav
192,192,61355,1,0,0:0:0:80:D7S.wav
320,192,61430,1,0,0:0:0:80:A#6S_Bb6S.wav
448,192,61505,1,0,0:0:0:80:F6S.wav
320,192,61580,1,0,0:0:0:80:D#6S_Eb6S.wav
192,192,61655,1,0,0:0:0:80:D6S.wav
64,192,61730,1,0,0:0:0:80:A#5S_Bb5S.wav
448,192,61805,1,0,0:0:0:80:F5S.wav
320,192,61880,1,0,0:0:0:80:D#5S_Eb5S.wav
192,192,61955,1,0,0:0:0:80:D5S.wav
320,192,62030,1,0,0:0:0:80:A#4S_Bb4S.wav
64,192,62105,1,0,0:0:0:40:kick.wav
448,192,62105,1,0,0:0:0:80:F5S.wav
192,192,62180,1,0,0:0:0:80:A#5S_Bb5S.wav
64,192,62255,1,0,0:0:0:80:D6S.wav
448,192,62255,1,0,0:0:0:0:
320,192,62330,1,0,0:0:0:80:D#6S_Eb6S.wav
64,192,62405,1,0,0:0:0:40:kick.wav
192,192,62405,1,0,0:0:0:80:D#6S_Eb6S.wav
448,192,62405,1,0,0:0:0:80:D#4S_Eb4S.wav
64,192,62555,1,0,0:0:0:40:kick.wav
192,192,62555,1,0,0:0:0:80:A#5S_Bb5S.wav
320,192,62705,1,0,0:0:0:40:snare.wav
448,192,62705,1,0,0:0:0:80:D#6S_Eb6S.wav
64,192,62855,1,0,0:0:0:80:F6S.wav
320,192,62855,1,0,0:0:0:0:
448,192,62930,1,0,0:0:0:0:
192,192,63005,1,0,0:0:0:0:
320,192,63080,1,0,0:0:0:0:
64,192,63155,1,0,0:0:0:40:kick.wav
448,192,63155,1,0,0:0:0:80:A#5S_Bb5S.wav
64,192,63305,1,0,0:0:0:40:snare.wav
192,192,63305,1,0,0:0:0:80:F6S.wav
320,192,63455,1,0,0:0:0:40:kick.wav
448,192,63455,1,0,0:0:0:80:G6S.wav
64,192,63530,1,0,0:0:0:0:
448,192,63605,1,0,0:0:0:80:A#6S_Bb6S.wav
192,192,63755,1,0,0:0:0:40:kick.wav
320,192,63755,1,0,0:0:0:80:A#5S_Bb5S.wav
64,192,63905,1,0,0:0:0:40:snare.wav
320,192,63905,1,0,0:0:0:80:G6S.wav
192,192,64055,1,0,0:0:0:80:G#6S_Ab6S.wav
448,192,64055,1,0,0:0:0:0:
320,192,64130,1,0,0:0:0:0:
64,192,64205,1,0,0:0:0:80:G6S.wav
448,192,64205,1,0,0:0:0:0:
192,192,64280,1,0,0:0:0:0:
320,192,64355,1,0,0:0:0:40:kick.wav
448,192,64355,1,0,0:0:0:80:D#6S_Eb6S.wav
64,192,64505,1,0,0:0:0:40:snare.wav
320,192,64505,1,0,0:0:0:80:A#5S_Bb5S.wav
192,192,64580,1,0,0:0:0:0:
64,192,64655,1,0,0:0:0:80:F6S.wav
448,192,64655,1,0,0:0:0:0:
320,192,64730,1,0,0:0:0:0:
64,192,64805,1,0,0:0:0:40:kick.wav
192,192,64805,1,0,0:0:0:80:D#6S_Eb6S.wav
448,192,64805,1,0,0:0:0:80:G4S.wav
64,192,64955,1,0,0:0:0:40:kick.wav
192,192,64955,1,0,0:0:0:80:A#5S_Bb5S.wav
320,192,65105,1,0,0:0:0:40:snare.wav
448,192,65105,1,0,0:0:0:80:D#6S_Eb6S.wav
64,192,65255,1,0,0:0:0:80:F6S.wav
320,192,65255,1,0,0:0:0:0:
192,192,65330,1,0,0:0:0:0:
448,192,65405,1,0,0:0:0:0:
320,192,65480,1,0,0:0:0:0:
64,192,65555,1,0,0:0:0:40:kick.wav
192,192,65555,1,0,0:0:0:80:A#5S_Bb5S.wav
192,192,65705,1,0,0:0:0:40:snare.wav
320,192,65705,1,0,0:0:0:80:D#6S_Eb6S.wav
64,192,65855,1,0,0:0:0:80:F6S.wav
448,192,65855,1,0,0:0:0:0:
320,192,65930,1,0,0:0:0:0:
192,192,66005,1,0,0:0:0:80:A#3S_Bb3S.wav
448,192,66005,1,0,0:0:0:80:F4S.wav
64,192,66155,1,0,0:0:0:40:kick.wav
320,192,66155,1,0,0:0:0:80:A#5S_Bb5S.wav
192,192,66305,1,0,0:0:0:40:snare.wav
448,192,66305,1,0,0:0:0:80:D#6S_Eb6S.wav
320,192,66455,1,0,0:0:0:80:G#6S_Ab6S.wav
448,192,66455,1,0,0:0:0:0:
64,192,66530,1,0,0:0:0:40:kick.wav
192,192,66530,1,0,0:0:0:0:
320,192,66605,1,0,0:0:0:80:G6S.wav
448,192,66605,1,0,0:0:0:0:
192,192,66680,1,0,0:0:0:0:
448,192,66755,1,0,0:0:0:40:kick.wav
320,192,66755,1,0,0:0:0:80:D#6S_Eb6S.wav
192,192,66905,1,0,0:0:0:40:snare.wav
64,192,66905,1,0,0:0:0:80:A#5S_Bb5S.wav
320,192,66980,1,0,0:0:0:0:
64,192,67055,1,0,0:0:0:80:F6S.wav
448,192,67055,1,0,0:0:0:0:
192,192,67130,1,0,0:0:0:0:
64,192,67205,1,0,0:0:0:40:kick.wav
320,192,67205,1,0,0:0:0:80:D#6S_Eb6S.wav
448,192,67205,1,0,0:0:0:80:D#4S_Eb4S.wav
320,192,67355,1,0,0:0:0:40:kick.wav
448,192,67355,1,0,0:0:0:80:A#5S_Bb5S.wav
64,192,67505,1,0,0:0:0:40:snare.wav
192,192,67505,1,0,0:0:0:80:D#6S_Eb6S.wav
64,192,67655,1,0,0:0:0:80:F6S.wav
448,192,67655,1,0,0:0:0:0:
320,192,67730,1,0,0:0:0:0:
64,192,67805,1,0,0:0:0:0:
192,192,67880,1,0,0:0:0:0:
320,192,67955,1,0,0:0:0:40:kick.wav
448,192,67955,1,0,0:0:0:80:A#5S_Bb5S.wav
64,192,68105,1,0,0:0:0:40:snare.wav
448,192,68105,1,0,0:0:0:80:F6S.wav
192,192,68255,1,0,0:0:0:40:kick.wav
320,192,68255,1,0,0:0:0:80:G6S.wav
448,192,68330,1,0,0:0:0:0:
64,192,68405,1,0,0:0:0:80:D#7S_Eb7S.wav
192,192,68405,1,0,0:0:0:0:
64,192,68555,1,0,0:0:0:40:kick.wav
320,192,68555,1,0,0:0:0:80:A#5S_Bb5S.wav
192,192,68705,1,0,0:0:0:40:snare.wav
448,192,68705,1,0,0:0:0:80:G6S.wav
320,192,68855,1,0,0:0:0:80:G#6S_Ab6S.wav
448,192,68855,1,0,0:0:0:0:
192,192,68930,1,0,0:0:0:0:
64,192,69005,1,0,0:0:0:80:G6S.wav
448,192,69005,1,0,0:0:0:0:
320,192,69080,1,0,0:0:0:0:
64,192,69155,1,0,0:0:0:40:kick.wav
192,192,69155,1,0,0:0:0:80:D#6S_Eb6S.wav
320,192,69305,1,0,0:0:0:40:snare.wav
448,192,69305,1,0,0:0:0:80:A#5S_Bb5S.wav
192,192,69380,1,0,0:0:0:0:
448,192,69455,1,0,0:0:0:80:F6S.wav
320,192,69455,1,0,0:0:0:0:
192,192,69530,1,0,0:0:0:0:
64,192,69605,1,0,0:0:0:40:kick.wav
448,192,69605,1,0,0:0:0:80:D#6S_Eb6S.wav
320,192,69605,1,0,0:0:0:80:G4S.wav
192,192,69755,1,0,0:0:0:80:A#5S_Bb5S.wav
64,192,69905,1,0,0:0:0:40:snare.wav
448,192,69905,1,0,0:0:0:80:D#6S_Eb6S.wav
64,192,70055,1,0,0:0:0:40:kick.wav
192,192,70055,1,0,0:0:0:80:F6S.wav
448,192,70130,1,0,0:0:0:0:
320,192,70205,1,0,0:0:0:0:
192,192,70280,1,0,0:0:0:0:
320,192,70355,1,0,0:0:0:40:kick.wav
448,192,70355,1,0,0:0:0:80:A#5S_Bb5S.wav
64,192,70505,1,0,0:0:0:40:snare.wav
448,192,70505,1,0,0:0:0:80:D#6S_Eb6S.wav
192,192,70655,1,0,0:0:0:80:F6S.wav
320,192,70655,1,0,0:0:0:0:
64,192,70805,1,0,0:0:0:40:kick.wav
320,192,70805,1,0,0:0:0:80:A#3S_Bb3S.wav
448,192,70805,1,0,0:0:0:80:F4S.wav
192,192,70955,1,0,0:0:0:80:A#5S_Bb5S.wav
64,192,71105,1,0,0:0:0:80:D#6S_Eb6S.wav
448,192,71255,1,0,0:0:0:80:G#6S_Ab6S.wav
320,192,71405,1,0,0:0:0:80:G6S.wav
192,192,71555,1,0,0:0:0:80:D#6S_Eb6S.wav
64,192,71705,1,0,0:0:0:40:kick.wav
448,192,71705,1,0,0:0:0:80:A#5S_Bb5S.wav
320,192,71855,1,0,0:0:0:80:F6S.wav
64,192,72005,1,0,0:0:0:40:kick.wav
192,192,72005,1,0,0:0:0:80:A#6S_Bb6S.wav
448,192,72005,1,0,0:0:0:80:D#4S_Eb4S.wav
320,192,72155,1,0,0:0:0:80:A#5S_Bb5S.wav
64,192,72305,1,0,0:0:0:40:snare.wav
448,192,72305,1,0,0:0:0:80:G6S.wav
192,192,72455,1,0,0:0:0:80:G#6S_Ab6S.wav
320,192,72455,1,0,0:0:0:80:A#5S_Bb5S.wav
448,192,72530,1,0,0:0:0:0:
64,192,72605,1,0,0:0:0:80:A#6S_Bb6S.wav
192,192,72605,1,0,0:0:0:0:
320,192,72680,1,0,0:0:0:0:
64,192,72755,1,0,0:0:0:40:kick.wav
448,192,72755,1,0,0:0:0:80:A#5S_Bb5S.wav
192,192,72905,1,0,0:0:0:40:snare.wav
448,192,72905,1,0,0:0:0:80:G6S.wav
64,192,73055,1,0,0:0:0:80:G#6S_Ab6S.wav
320,192,73055,1,0,0:0:0:80:A#5S_Bb5S.wav
192,192,73130,1,0,0:0:0:0:
448,192,73205,1,0,0:0:0:80:A#6S_Bb6S.wav
320,192,73205,1,0,0:0:0:0:
64,192,73355,1,0,0:0:0:40:kick.wav
192,192,73355,1,0,0:0:0:80:D#7S_Eb7S.wav
64,192,73505,1,0,0:0:0:40:snare.wav
320,192,73505,1,0,0:0:0:80:D7S.wav
320,192,73655,1,0,0:0:0:80:D#7S_Eb7S.wav
448,192,73655,1,0,0:0:0:80:A#5S_Bb5S.wav
64,192,73730,1,0,0:0:0:40:kick.wav
192,192,73730,1,0,0:0:0:0:
320,192,73805,1,0,0:0:0:80:G6S.wav
448,192,73805,1,0,0:0:0:0:
192,192,73880,1,0,0:0:0:0:
64,192,73955,1,0,0:0:0:40:kick.wav
448,192,73955,1,0,0:0:0:80:A#6S_Bb6S.wav
320,192,74105,1,0,0:0:0:40:snare.wav
192,192,74105,1,0,0:0:0:80:D#7S_Eb7S.wav
64,192,74180,1,0,0:0:0:0:
320,192,74255,1,0,0:0:0:80:F7S.wav
448,192,74255,1,0,0:0:0:80:A#5S_Bb5S.wav
192,192,74330,1,0,0:0:0:0:
64,192,74405,1,0,0:0:0:40:kick.wav
320,192,74405,1,0,0:0:0:80:G7S.wav
448,192,74405,1,0,0:0:0:80:G4S.wav
192,192,74555,1,0,0:0:0:80:A#5S_Bb5S.wav
64,192,74705,1,0,0:0:0:40:snare.wav
448,192,74705,1,0,0:0:0:80:G#7S_Ab7S.wav
192,192,74855,1,0,0:0:0:80:A#7S_Bb7S.wav
320,192,74855,1,0,0:0:0:80:A#5S_Bb5S.wav
64,192,74930,1,0,0:0:0:0:
448,192,75005,1,0,0:0:0:0:
320,192,75080,1,0,0:0:0:0:
192,192,75155,1,0,0:0:0:40:kick.wav
64,192,75155,1,0,0:0:0:80:D#7S_Eb7S.wav
64,192,75305,1,0,0:0:0:40:snare.wav
448,192,75305,1,0,0:0:0:80:D#6S_Eb6S.wav
320,192,75455,1,0,0:0:0:80:F7S.wav
192,192,75455,1,0,0:0:0:80:A#5S_Bb5S.wav
448,192,75530,1,0,0:0:0:0:
192,192,75605,1,0,0:0:0:80:A#3S_Bb3S.wav
64,192,75605,1,0,0:0:0:80:F4S.wav
64,192,75755,1,0,0:0:0:40:kick.wav
448,192,75755,1,0,0:0:0:80:D#7S_Eb7S.wav
192,192,75905,1,0,0:0:0:40:snare.wav
320,192,75905,1,0,0:0:0:80:D7S.wav
64,192,76055,1,0,0:0:0:80:D#7S_Eb7S.wav
192,192,76055,1,0,0:0:0:80:A#5S_Bb5S.wav
320,192,76130,1,0,0:0:0:40:kick.wav
448,192,76130,1,0,0:0:0:0:
64,192,76205,1,0,0:0:0:80:G6S.wav
192,192,76205,1,0,0:0:0:0:
448,192,76280,1,0,0:0:0:0:
64,192,76355,1,0,0:0:0:40:kick.wav
192,192,76355,1,0,0:0:0:80:A#5S_Bb5S.wav
320,192,76505,1,0,0:0:0:40:snare.wav
448,192,76505,1,0,0:0:0:80:A#5S_Bb5S.wav
192,192,76580,1,0,0:0:0:0:
64,192,76655,1,0,0:0:0:80:D#7S_Eb7S.wav
448,192,76655,1,0,0:0:0:80:A#5S_Bb5S.wav
320,192,76730,1,0,0:0:0:0:
64,192,76805,1,0,0:0:0:40:kick.wav
192,192,76805,1,0,0:0:0:80:D#5S_Eb5S.wav
448,192,76805,1,0,0:0:0:80:D#4S_Eb4S.wav
320,192,76955,1,0,0:0:0:80:A#5S_Bb5S.wav
64,192,77105,1,0,0:0:0:40:snare.wav
448,192,77105,1,0,0:0:0:80:D#6S_Eb6S.wav
320,192,77255,1,0,0:0:0:80:A#6S_Bb6S.wav
192,192,77255,1,0,0:0:0:80:A#5S_Bb5S.wav
64,192,77330,1,0,0:0:0:0:
448,192,77405,1,0,0:0:0:0:
320,192,77480,1,0,0:0:0:0:
64,192,77555,1,0,0:0:0:40:kick.wav
192,192,77555,1,0,0:0:0:80:A#5S_Bb5S.wav
64,192,77705,1,0,0:0:0:40:snare.wav
320,192,77705,1,0,0:0:0:80:G#6S_Ab6S.wav
192,192,77855,1,0,0:0:0:80:G6S.wav
448,192,77855,1,0,0:0:0:80:A#5S_Bb5S.wav
64,192,77930,1,0,0:0:0:0:
320,192,78005,1,0,0:0:0:80:D#7S_Eb7S.wav
448,192,78005,1,0,0:0:0:0:
64,192,78155,1,0,0:0:0:40:kick.wav
192,192,78155,1,0,0:0:0:80:G6S.wav
64,192,78305,1,0,0:0:0:40:snare.wav
448,192,78305,1,0,0:0:0:0:
320,192,78455,1,0,0:0:0:80:G#6S_Ab6S.wav
448,192,78455,1,0,0:0:0:80:A#5S_Bb5S.wav
64,192,78530,1,0,0:0:0:40:kick.wav
192,192,78530,1,0,0:0:0:0:
320,192,78605,1,0,0:0:0:80:G6S.wav
448,192,78605,1,0,0:0:0:0:
192,192,78680,1,0,0:0:0:0:
64,192,78755,1,0,0:0:0:40:kick.wav
448,192,78755,1,0,0:0:0:80:D#6S_Eb6S.wav
64,192,78905,1,0,0:0:0:40:snare.wav
192,192,78905,1,0,0:0:0:80:A#6S_Bb6S.wav
320,192,78980,1,0,0:0:0:0:
64,192,79055,1,0,0:0:0:80:F6S.wav
448,192,79055,1,0,0:0:0:80:A#5S_Bb5S.wav
192,192,79130,1,0,0:0:0:0:
64,192,79205,1,0,0:0:0:40:kick.wav
320,192,79205,1,0,0:0:0:80:D#6S_Eb6S.wav
448,192,79205,1,0,0:0:0:80:G4S.wav
192,192,79355,1,0,0:0:0:80:A#5S_Bb5S.wav
64,192,79505,1,0,0:0:0:80:D#6S_Eb6S.wav
320,192,79655,1,0,0:0:0:80:G6S.wav
448,192,79955,1,0,0:0:0:80:A#5S_Bb5S.wav
64,192,80105,1,0,0:0:0:80:D#6S_Eb6S.wav
192,192,80255,1,0,0:0:0:80:F6S.wav
64,192,80405,1,0,0:0:0:80:F4S.wav
448,192,80405,1,0,0:0:0:80:A#3S_Bb3S.wav
192,192,80705,1,0,0:0:0:80:D#6S_Eb6S.wav
448,192,80855,1,0,0:0:0:80:G#6S_Ab6S.wav
320,192,81005,1,0,0:0:0:80:G6S.wav
192,192,81155,1,0,0:0:0:80:D#6S_Eb6S.wav
64,192,81305,1,0,0:0:0:80:A#5S_Bb5S.wav
448,192,81455,1,0,0:0:0:80:F6S.wav
64,192,81605,1,0,0:0:0:100:1-1.wav
192,192,81605,1,0,0:0:0:40:kick.wav
320,192,81605,128,0,81905:0:0:0:40:drum-cymbal.wav
448,192,81605,1,0,0:0:0:80:D#6S_Eb6S.wav
64,192,81905,128,0,82055:0:0:0:100:1-2.wav
192,192,82055,128,0,82205:0:0:0:100:1-3.wav
448,192,82055,1,0,0:0:0:40:D#5S_Eb5S.wav
320,192,82205,128,0,82505:0:0:0:100:1-1.wav
64,192,82505,128,0,82655:0:0:0:100:1-2.wav
192,192,82655,128,0,82805:0:0:0:100:1-3.wav
64,192,82805,1,0,0:0:0:100:1-4.wav
320,192,82805,128,0,82955:0:0:0:40:G#4S_Ab4S.wav
448,192,82955,128,0,83105:0:0:0:100:1-5.wav
192,192,83105,128,0,83255:0:0:0:100:1-4.wav
320,192,83255,1,0,0:0:0:100:1-5.wav
448,192,83255,128,0,83555:0:0:0:40:D#5S_Eb5S.wav
64,192,83555,128,0,83705:0:0:0:100:1-4.wav
192,192,83705,128,0,83855:0:0:0:100:1-5.wav
320,192,83855,128,0,84005:0:0:0:100:1-8.wav
64,192,84005,1,0,0:0:0:100:1-9.wav
448,192,84005,128,0,84305:0:0:0:40:C5S.wav
192,192,84305,128,0,84455:0:0:0:100:1-10.wav
64,192,84455,1,0,0:0:0:100:1-11.wav
448,192,84455,128,0,84755:0:0:0:40:G5S.wav
320,192,84755,128,0,85055:0:0:0:100:1-7.wav
192,192,85055,128,0,85355:0:0:0:100:1-12.wav
448,192,85205,1,0,0:0:0:40:A#4S_Bb4S.wav
320,192,85355,128,0,85505:0:0:0:100:1-5.wav
64,192,85505,128,0,85655:0:0:0:100:1-6.wav
192,192,85655,128,0,85805:0:0:0:100:1-5.wav
448,192,85655,1,0,0:0:0:40:F5S.wav
320,192,85805,128,0,85955:0:0:0:100:1-8.wav
448,192,85955,128,0,86105:0:0:0:100:1-13.wav
320,192,86105,128,0,86255:0:0:0:100:1-8.wav
192,192,86255,1,0,0:0:0:100:1-5.wav
192,192,86405,1,0,0:0:0:100:01.wav
448,192,86405,128,0,86855:0:0:0:40:G#4S_Ab4S.wav
64,192,86855,1,0,0:0:0:100:02.wav
320,192,86855,128,0,87305:0:0:0:40:D#5S_Eb5S.wav
192,192,87305,128,0,87755:0:0:0:100:03.wav
448,192,87605,1,0,0:0:0:40:G#4S_Ab4S.wav
64,192,87755,128,0,88205:0:0:0:100:04.wav
448,192,88055,1,0,0:0:0:40:D#5S_Eb5S.wav
192,192,88205,128,0,88505:0:0:0:100:05.wav
320,192,88505,128,0,88805:0:0:0:100:06.wav
64,192,88805,1,0,0:0:0:100:07.wav
448,192,88805,128,0,89255:0:0:0:40:C5S.wav
192,192,89255,128,0,89705:0:0:0:100:08.wav
320,192,89255,1,0,0:0:0:40:G5S.wav
64,192,89705,128,0,90605:0:0:0:100:09.wav
320,192,90005,128,0,90305:0:0:0:100:10.wav
448,192,90305,128,0,90605:0:0:0:100:11.wav
192,192,90455,1,0,0:0:0:40:F5S.wav
320,192,90605,1,0,0:0:0:100:12.wav
64,192,90755,1,0,0:0:0:40:F6S.wav
192,192,90905,1,0,0:0:0:100:13.wav
320,192,91055,1,0,0:0:0:40:D#6S_Eb6S.wav
64,192,91205,1,0,0:0:0:100:D#6W.wav
448,192,91205,1,0,0:0:0:40:D#6S_Eb6S.wav
320,192,91355,1,0,0:0:0:40:A#5S_Bb5S.wav
320,192,91505,1,0,0:0:0:40:A#5S_Bb5S.wav
192,192,91655,1,0,0:0:0:40:D#6S_Eb6S.wav
448,192,91655,1,0,0:0:0:40:D#5S_Eb5S.wav
320,192,91805,1,0,0:0:0:40:A#5S_Bb5S.wav
320,192,91955,1,0,0:0:0:40:A#5S_Bb5S.wav
64,192,92105,1,0,0:0:0:40:A#6S_Bb6S.wav
192,192,92255,1,0,0:0:0:40:A#5S_Bb5S.wav
64,192,92405,1,0,0:0:0:40:D#6S_Eb6S.wav
320,192,92405,1,0,0:0:0:40:G#4S_Ab4S.wav
448,192,92555,1,0,0:0:0:40:A#5S_Bb5S.wav
448,192,92705,1,0,0:0:0:40:A#5S_Bb5S.wav
64,192,92855,1,0,0:0:0:40:D#6S_Eb6S.wav
192,192,92855,1,0,0:0:0:40:D#5S_Eb5S.wav
448,192,93005,1,0,0:0:0:40:A#5S_Bb5S.wav
448,192,93155,1,0,0:0:0:40:A#5S_Bb5S.wav
64,192,93305,1,0,0:0:0:40:A#6S_Bb6S.wav
192,192,93455,1,0,0:0:0:40:A#5S_Bb5S.wav
320,192,93605,1,0,0:0:0:40:D#6S_Eb6S.wav
448,192,93605,1,0,0:0:0:40:C5S.wav
64,192,93755,1,0,0:0:0:40:A#5S_Bb5S.wav
64,192,93905,1,0,0:0:0:40:A#5S_Bb5S.wav
192,192,94055,1,0,0:0:0:40:D#6S_Eb6S.wav
448,192,94055,1,0,0:0:0:40:G5S.wav
64,192,94205,1,0,0:0:0:40:A#5S_Bb5S.wav
64,192,94355,1,0,0:0:0:40:A#5S_Bb5S.wav
448,192,94505,1,0,0:0:0:40:A#6S_Bb6S.wav
192,192,94655,1,0,0:0:0:40:A#5S_Bb5S.wav
64,192,94805,1,0,0:0:0:40:D#6S_Eb6S.wav
448,192,94805,1,0,0:0:0:40:A#4S_Bb4S.wav
320,192,94955,1,0,0:0:0:40:A#5S_Bb5S.wav
320,192,95105,1,0,0:0:0:40:A#5S_Bb5S.wav
64,192,95255,1,0,0:0:0:40:D#6S_Eb6S.wav
192,192,95255,1,0,0:0:0:40:F5S.wav
320,192,95405,1,0,0:0:0:40:A#5S_Bb5S.wav
320,192,95555,1,0,0:0:0:40:A#5S_Bb5S.wav
448,192,95705,1,0,0:0:0:40:D6S.wav
320,192,95855,1,0,0:0:0:40:D#6S_Eb6S.wav
64,192,96005,1,0,0:0:0:40:D#6S_Eb6S.wav
192,192,96005,1,0,0:0:0:40:G#4S_Ab4S.wav
448,192,96155,1,0,0:0:0:40:A#5S_Bb5S.wav
448,192,96305,1,0,0:0:0:40:A#5S_Bb5S.wav
64,192,96455,1,0,0:0:0:40:D#6S_Eb6S.wav
320,192,96455,1,0,0:0:0:40:D#5S_Eb5S.wav
448,192,96605,1,0,0:0:0:40:A#5S_Bb5S.wav
448,192,96755,1,0,0:0:0:40:A#5S_Bb5S.wav
64,192,96905,1,0,0:0:0:40:A#6S_Bb6S.wav
320,192,97055,1,0,0:0:0:40:A#5S_Bb5S.wav
64,192,97205,1,0,0:0:0:40:D#6S_Eb6S.wav
448,192,97205,1,0,0:0:0:40:G#4S_Ab4S.wav
192,192,97355,1,0,0:0:0:40:A#5S_Bb5S.wav
192,192,97505,1,0,0:0:0:40:A#5S_Bb5S.wav
320,192,97655,1,0,0:0:0:40:D#6S_Eb6S.wav
448,192,97655,1,0,0:0:0:40:D#5S_Eb5S.wav
192,192,97805,1,0,0:0:0:40:A#5S_Bb5S.wav
192,192,97955,1,0,0:0:0:40:A#5S_Bb5S.wav
448,192,98105,1,0,0:0:0:40:A#6S_Bb6S.wav
320,192,98255,1,0,0:0:0:40:A#5S_Bb5S.wav
64,192,98405,1,0,0:0:0:40:D#6S_Eb6S.wav
448,192,98405,1,0,0:0:0:40:C5S.wav
320,192,98555,1,0,0:0:0:40:A#5S_Bb5S.wav
320,192,98705,1,0,0:0:0:40:A#5S_Bb5S.wav
64,192,98855,1,0,0:0:0:40:D#6S_Eb6S.wav
192,192,98855,1,0,0:0:0:40:G5S.wav
320,192,99005,1,0,0:0:0:40:A#5S_Bb5S.wav
320,192,99155,1,0,0:0:0:40:A#5S_Bb5S.wav
64,192,99305,1,0,0:0:0:40:A#6S_Bb6S.wav
192,192,99455,1,0,0:0:0:40:A#5S_Bb5S.wav
320,192,99605,1,0,0:0:0:40:D#6S_Eb6S.wav
448,192,99605,1,0,0:0:0:40:A#4S_Bb4S.wav
64,192,99755,1,0,0:0:0:40:A#5S_Bb5S.wav
64,192,99905,1,0,0:0:0:40:A#5S_Bb5S.wav
192,192,100055,1,0,0:0:0:40:D#6S_Eb6S.wav
448,192,100055,1,0,0:0:0:40:F5S.wav
64,192,100205,1,0,0:0:0:40:A#5S_Bb5S.wav
64,192,100355,1,0,0:0:0:40:F6S.wav
192,192,100505,1,0,0:0:0:40:D6S.wav
448,192,100655,1,0,0:0:0:40:D#6S_Eb6S.wav
64,192,100805,1,0,0:0:0:40:G#4S_Ab4S.wav
320,192,100805,1,0,0:0:0:60:D6S.wav
192,192,101255,1,0,0:0:0:60:D#5S_Eb5S.wav
64,192,101705,1,0,0:0:0:60:A#6S_Bb6S.wav
448,192,101705,1,0,0:0:0:60:G#5S_Ab5S.wav
320,192,102305,1,0,0:0:0:60:G6S.wav
192,192,102605,1,0,0:0:0:60:F6S.wav
64,192,102905,1,0,0:0:0:60:D#6S_Eb6S.wav
320,192,103055,1,0,0:0:0:60:F6S.wav
192,192,103130,1,0,0:0:0:60:D#6S_Eb6S.wav
64,192,103205,1,0,0:0:0:60:D6S.wav
448,192,103205,1,0,0:0:0:60:A#4S_Bb4S.wav
320,192,103655,1,0,0:0:0:60:D#6S_Eb6S.wav
192,192,104105,1,0,0:0:0:60:D7S.wav
448,192,104105,1,0,0:0:0:60:A#5S_Bb5S.wav
448,192,104555,1,0,0:0:0:60:D#7S_Eb7S.wav
320,192,104705,1,0,0:0:0:60:D7S.wav
192,192,104855,1,0,0:0:0:60:A#6S_Bb6S.wav
64,192,105005,1,0,0:0:0:60:G6S.wav
320,192,105155,1,0,0:0:0:60:F6S.wav
192,192,105305,1,0,0:0:0:60:D#6S_Eb6S.wav
64,192,105455,1,0,0:0:0:60:D6S.wav
320,192,105605,1,0,0:0:0:60:D#6S_Eb6S.wav
448,192,105605,1,0,0:0:0:60:C5S.wav
192,192,106055,1,0,0:0:0:60:D6S.wav
320,192,106055,1,0,0:0:0:60:G5S.wav
64,192,106505,128,0,109655:0:0:0:60:C6S.wav
192,192,106505,1,0,0:0:0:60:A#6S_Bb6S.wav
448,192,107105,1,0,0:0:0:60:G6S.wav
320,192,107405,1,0,0:0:0:60:F6S.wav
192,192,107705,1,0,0:0:0:60:D#6S_Eb6S.wav
448,192,107855,1,0,0:0:0:60:F6S.wav
320,192,107930,1,0,0:0:0:60:D#6S_Eb6S.wav
192,192,108005,1,0,0:0:0:60:D6S.wav
448,192,108005,1,0,0:0:0:60:A#4S_Bb4S.wav
448,192,108455,1,0,0:0:0:60:D#6S_Eb6S.wav
192,192,108905,1,0,0:0:0:60:A#5S_Bb5S.wav
320,192,108905,1,0,0:0:0:60:F5S.wav
192,192,109355,128,0,109655:0:0:0:60:D#6S_Eb6S.wav
448,192,109505,128,0,109805:0:0:0:60:D6S.wav
320,192,109655,128,0,109805:0:0:0:60:D#6S_Eb6S.wav
64,192,109805,1,0,0:0:0:40:kick.wav
192,192,109805,1,0,0:0:0:60:A#6S_Bb6S.wav
320,192,109880,1,0,0:0:0:0:
64,192,109955,1,0,0:0:0:60:G#6S_Ab6S.wav
448,192,109955,1,0,0:0:0:0:
192,192,110030,1,0,0:0:0:0:
320,192,110105,1,0,0:0:0:60:G6S.wav
448,192,110105,1,0,0:0:0:0:
64,192,110255,1,0,0:0:0:60:G#6S_Ab6S.wav
192,192,110255,1,0,0:0:0:0:
64,192,110405,1,0,0:0:0:40:kick.wav
192,192,110405,1,0,0:0:0:40:drum-cymbal.wav
320,192,110405,1,0,0:0:0:80:G6S.wav
448,192,110405,1,0,0:0:0:80:D#4S_Eb4S.wav
320,192,110555,1,0,0:0:0:40:kick.wav
448,192,110555,1,0,0:0:0:80:G#6S_Ab6S.wav
64,192,110705,1,0,0:0:0:40:S.wav
192,192,110705,1,0,0:0:0:80:A#6S_Bb6S.wav
448,192,110780,1,0,0:0:0:0:
192,192,110855,1,0,0:0:0:40:kick.wav
320,192,110855,1,0,0:0:0:80:D#6S_Eb6S.wav
64,192,110930,1,0,0:0:0:0:
320,192,111005,1,0,0:0:0:40:clap.wav
448,192,111005,1,0,0:0:0:0:
192,192,111155,1,0,0:0:0:40:kick.wav
320,192,111155,1,0,0:0:0:80:A#6S_Bb6S.wav
64,192,111305,1,0,0:0:0:40:S.wav
192,192,111305,1,0,0:0:0:80:D#7S_Eb7S.wav
448,192,111305,1,0,0:0:0:0:
320,192,111455,1,0,0:0:0:40:kick.wav
448,192,111455,1,0,0:0:0:80:F7S.wav
64,192,111530,1,0,0:0:0:80:G7S.wav
192,192,111605,1,0,0:0:0:80:G#7S_Ab7S.wav
320,192,111605,1,0,0:0:0:0:
448,192,111680,1,0,0:0:0:80:G7S.wav
64,192,111755,1,0,0:0:0:40:kick.wav
192,192,111755,1,0,0:0:0:80:D#7S_Eb7S.wav
320,192,111830,1,0,0:0:0:80:A#6S_Bb6S.wav
64,192,111905,1,0,0:0:0:40:S.wav
192,192,111905,1,0,0:0:0:80:G#6S_Ab6S.wav
448,192,111905,1,0,0:0:0:0:
320,192,111980,1,0,0:0:0:80:G6S.wav
64,192,112055,1,0,0:0:0:80:D#6S_Eb6S.wav
448,192,112055,1,0,0:0:0:0:
192,192,112130,1,0,0:0:0:40:kick.wav
320,192,112130,1,0,0:0:0:80:A#5S_Bb5S.wav
64,192,112205,1,0,0:0:0:40:clap.wav
448,192,112205,1,0,0:0:0:80:G#5S_Ab5S.wav
192,192,112280,1,0,0:0:0:80:G5S.wav
320,192,112355,1,0,0:0:0:40:kick.wav
448,192,112355,1,0,0:0:0:80:G#5S_Ab5S.wav
64,192,112430,1,0,0:0:0:80:A#5S_Bb5S.wav
192,192,112505,1,0,0:0:0:40:kick.wav
320,192,112505,1,0,0:0:0:80:D#6S_Eb6S.wav
64,192,112580,1,0,0:0:0:80:G6S.wav
448,192,112580,1,0,0:0:0:0:
192,192,112655,1,0,0:0:0:40:kick.wav
320,192,112655,1,0,0:0:0:80:G#6S_Ab6S.wav
448,192,112730,1,0,0:0:0:80:A#6S_Bb6S.wav
64,192,112805,1,0,0:0:0:40:kick.wav
192,192,112805,1,0,0:0:0:80:D5S.wav
320,192,112805,1,0,0:0:0:80:A#4S_Bb4S.wav
64,192,112955,1,0,0:0:0:40:kick.wav
192,192,112955,1,0,0:0:0:80:D#5S_Eb5S.wav
320,192,113105,1,0,0:0:0:40:S.wav
448,192,113105,1,0,0:0:0:80:F5S.wav
192,192,113180,1,0,0:0:0:0:
64,192,113255,1,0,0:0:0:40:kick.wav
448,192,113255,1,0,0:0:0:80:A#5S_Bb5S.wav
320,192,113305,1,0,0:0:0:0:
192,192,113355,1,0,0:0:0:0:
64,192,113405,128,0,113555:0:0:0:0:
448,192,113405,128,0,113555:0:0:0:0:
192,192,113555,1,0,0:0:0:40:kick.wav
320,192,113555,1,0,0:0:0:80:D6S.wav
64,192,113705,1,0,0:0:0:40:S.wav
320,192,113705,1,0,0:0:0:80:D#6S_Eb6S.wav
448,192,113705,1,0,0:0:0:0:
192,192,113855,1,0,0:0:0:40:kick.wav
320,192,113855,1,0,0:0:0:80:F6S.wav
448,192,113930,1,0,0:0:0:80:A#6S_Bb6S.wav
64,192,114005,1,0,0:0:0:40:kick.wav
192,192,114005,1,0,0:0:0:80:A#7S_Bb7S.wav
320,192,114080,1,0,0:0:0:40:kick.wav
448,192,114080,1,0,0:0:0:80:F7S.wav
64,192,114155,1,0,0:0:0:40:kick.wav
192,192,114155,1,0,0:0:0:80:D#7S_Eb7S.wav
320,192,114230,1,0,0:0:0:80:D7S.wav
64,192,114305,1,0,0:0:0:40:kick.wav
448,192,114305,1,0,0:0:0:40:clap.wav
192,192,114380,1,0,0:0:0:40:kick.wav
320,192,114380,1,0,0:0:0:80:F6S.wav
64,192,114455,1,0,0:0:0:40:kick.wav
448,192,114455,1,0,0:0:0:80:D#6S_Eb6S.wav
192,192,114530,1,0,0:0:0:80:D6S.wav
320,192,114605,1,0,0:0:0:40:kick.wav
448,192,114605,1,0,0:0:0:40:clap.wav
64,192,114680,1,0,0:0:0:40:kick.wav
192,192,114680,1,0,0:0:0:80:F5S.wav
320,192,114755,1,0,0:0:0:40:kick.wav
448,192,114755,1,0,0:0:0:80:D#5S_Eb5S.wav
192,192,114830,1,0,0:0:0:80:D5S.wav
64,192,114905,1,0,0:0:0:40:kick.wav
448,192,114905,1,0,0:0:0:80:A#4S_Bb4S.wav
192,192,114980,1,0,0:0:0:40:kick.wav
320,192,114980,1,0,0:0:0:80:D5S.wav
64,192,115055,1,0,0:0:0:40:kick.wav
448,192,115055,1,0,0:0:0:80:D#5S_Eb5S.wav
320,192,115130,1,0,0:0:0:80:F5S.wav
64,192,115205,1,0,0:0:0:40:kick.wav
192,192,115205,1,0,0:0:0:80:G5S.wav
448,192,115205,1,0,0:0:0:80:G4S.wav
64,192,115355,1,0,0:0:0:40:kick.wav
192,192,115355,1,0,0:0:0:80:G#5S_Ab5S.wav
320,192,115505,1,0,0:0:0:40:S.wav
448,192,115505,1,0,0:0:0:80:A#5S_Bb5S.wav
192,192,115580,1,0,0:0:0:0:
64,192,115655,1,0,0:0:0:40:kick.wav
448,192,115655,1,0,0:0:0:80:D#6S_Eb6S.wav
320,192,115705,1,0,0:0:0:0:
192,192,115755,1,0,0:0:0:0:
64,192,115805,1,0,0:0:0:40:clap.wav
448,192,115805,1,0,0:0:0:0:
192,192,115955,1,0,0:0:0:40:kick.wav
320,192,115955,1,0,0:0:0:80:G6S.wav
64,192,116105,1,0,0:0:0:40:S.wav
320,192,116105,1,0,0:0:0:80:G#6S_Ab6S.wav
448,192,116105,1,0,0:0:0:0:
192,192,116255,1,0,0:0:0:40:kick.wav
320,192,116255,1,0,0:0:0:80:A#6S_Bb6S.wav
64,192,116330,1,0,0:0:0:80:D#7S_Eb7S.wav
320,192,116405,1,0,0:0:0:80:G#7S_Ab7S.wav
448,192,116405,1,0,0:0:0:0:
192,192,116480,1,0,0:0:0:80:G7S.wav
64,192,116555,1,0,0:0:0:40:kick.wav
448,192,116555,1,0,0:0:0:80:D#7S_Eb7S.wav
320,192,116630,1,0,0:0:0:80:A#6S_Bb6S.wav
64,192,116705,1,0,0:0:0:40:S.wav
192,192,116705,1,0,0:0:0:80:G#6S_Ab6S.wav
448,192,116705,1,0,0:0:0:0:
320,192,116780,1,0,0:0:0:80:G6S.wav
64,192,116855,1,0,0:0:0:80:D#6S_Eb6S.wav
448,192,116855,1,0,0:0:0:0:
192,192,116930,1,0,0:0:0:40:kick.wav
320,192,116930,1,0,0:0:0:80:A#5S_Bb5S.wav
64,192,117005,1,0,0:0:0:40:clap.wav
448,192,117005,1,0,0:0:0:80:G#5S_Ab5S.wav
192,192,117080,1,0,0:0:0:80:G5S.wav
320,192,117155,1,0,0:0:0:40:kick.wav
448,192,117155,1,0,0:0:0:80:G#5S_Ab5S.wav
320,192,117305,1,0,0:0:0:80:D#6S_Eb6S.wav
448,192,117305,1,0,0:0:0:0:
64,192,117380,1,0,0:0:0:80:G6S.wav
192,192,117380,1,0,0:0:0:0:
320,192,117455,1,0,0:0:0:40:kick.wav
448,192,117455,1,0,0:0:0:80:G#6S_Ab6S.wav
192,192,117530,1,0,0:0:0:80:A#6S_Bb6S.wav
64,192,117605,1,0,0:0:0:40:kick.wav
320,192,117605,1,0,0:0:0:80:D5S.wav
448,192,117605,1,0,0:0:0:80:F4S.wav
320,192,117755,1,0,0:0:0:40:kick.wav
448,192,117755,1,0,0:0:0:80:D#5S_Eb5S.wav
64,192,117905,1,0,0:0:0:40:S.wav
192,192,117905,1,0,0:0:0:80:F5S.wav
320,192,117980,1,0,0:0:0:0:
64,192,118055,1,0,0:0:0:40:kick.wav
448,192,118055,1,0,0:0:0:80:A#5S_Bb5S.wav
192,192,118105,1,0,0:0:0:0:
320,192,118155,1,0,0:0:0:0:
64,192,118205,128,0,118355:0:0:0:40:S.wav
448,192,118205,128,0,118355:0:0:0:0:
192,192,118355,1,0,0:0:0:40:kick.wav
320,192,118355,1,0,0:0:0:80:D6S.wav
64,192,118505,1,0,0:0:0:40:S.wav
192,192,118505,1,0,0:0:0:80:D#6S_Eb6S.wav
448,192,118505,1,0,0:0:0:0:
320,192,118655,1,0,0:0:0:80:F6S.wav
448,192,118655,1,0,0:0:0:0:
64,192,118805,1,0,0:0:0:40:kick.wav
448,192,118805,1,0,0:0:0:80:A#7S_Bb7S.wav
320,192,118880,1,0,0:0:0:80:F7S.wav
192,192,118955,1,0,0:0:0:80:D#7S_Eb7S.wav
64,192,119030,1,0,0:0:0:80:D7S.wav
320,192,119105,1,0,0:0:0:40:clap.wav
448,192,119105,1,0,0:0:0:80:A#6S_Bb6S.wav
192,192,119180,1,0,0:0:0:80:F6S.wav
64,192,119255,1,0,0:0:0:80:D#6S_Eb6S.wav
320,192,119330,1,0,0:0:0:80:D6S.wav
64,192,119405,1,0,0:0:0:40:clap.wav
192,192,119405,1,0,0:0:0:80:A#5S_Bb5S.wav
448,192,119480,1,0,0:0:0:80:D6S.wav
320,192,119555,1,0,0:0:0:80:D#6S_Eb6S.wav
192,192,119630,1,0,0:0:0:80:F6S.wav
64,192,119705,1,0,0:0:0:40:kick.wav
448,192,119705,1,0,0:0:0:80:A#6S_Bb6S.wav
192,192,119780,1,0,0:0:0:80:D7S.wav
320,192,119855,1,0,0:0:0:80:D#7S_Eb7S.wav
448,192,119930,1,0,0:0:0:80:F7S.wav
64,192,120005,1,0,0:0:0:40:kick.wav
192,192,120005,1,0,0:0:0:40:clap 2.wav
320,192,120005,1,0,0:0:0:80:G6S.wav
64,192,120155,1,0,0:0:0:40:kick.wav
192,192,120155,1,0,0:0:0:80:D#6S_Eb6S.wav
320,192,120305,1,0,0:0:0:40:S.wav
448,192,120305,1,0,0:0:0:80:A#5S_Bb5S.wav
192,192,120380,1,0,0:0:0:0:
64,192,120455,1,0,0:0:0:40:kick.wav
448,192,120455,1,0,0:0:0:80:F6S.wav
320,192,120505,1,0,0:0:0:0:
192,192,120555,1,0,0:0:0:0:
64,192,120605,1,0,0:0:0:80:D#6S_Eb6S.wav
448,192,120605,1,0,0:0:0:0:
192,192,120755,1,0,0:0:0:40:kick.wav
320,192,120755,1,0,0:0:0:80:A#5S_Bb5S.wav
64,192,120905,1,0,0:0:0:40:S.wav
192,192,120905,1,0,0:0:0:80:A#6S_Bb6S.wav
448,192,120905,1,0,0:0:0:0:
320,192,121055,1,0,0:0:0:40:kick.wav
448,192,121055,1,0,0:0:0:80:A#5S_Bb5S.wav
64,192,121205,1,0,0:0:0:80:D#6S_Eb6S.wav
320,192,121205,1,0,0:0:0:0:
192,192,121355,1,0,0:0:0:40:kick.wav
448,192,121355,1,0,0:0:0:80:D6S.wav
64,192,121505,1,0,0:0:0:40:S.wav
192,192,121505,1,0,0:0:0:80:A#5S_Bb5S.wav
320,192,121505,1,0,0:0:0:0:
64,192,121655,1,0,0:0:0:40:kick.wav
448,192,121655,1,0,0:0:0:80:F6S.wav
192,192,121805,1,0,0:0:0:40:clap.wav
320,192,121805,1,0,0:0:0:80:A#5S_Bb5S.wav
64,192,121955,1,0,0:0:0:40:kick.wav
448,192,121955,1,0,0:0:0:80:G6S.wav
320,192,122030,1,0,0:0:0:80:G#6S_Ab6S.wav
64,192,122105,1,0,0:0:0:40:kick.wav
192,192,122105,1,0,0:0:0:80:G6S.wav
448,192,122180,1,0,0:0:0:80:D#6S_Eb6S.wav
320,192,122255,1,0,0:0:0:80:A#5S_Bb5S.wav
192,192,122330,1,0,0:0:0:80:G#5S_Ab5S.wav
64,192,122405,1,0,0:0:0:40:kick.wav
320,192,122405,1,0,0:0:0:80:A#5S_Bb5S.wav
448,192,122405,1,0,0:0:0:80:G4S.wav
64,192,122555,1,0,0:0:0:80:D#6S_Eb6S.wav
192,192,122555,1,0,0:0:0:80:A#5S_Bb5S.wav
192,192,122705,1,0,0:0:0:40:kick.wav
448,192,122705,1,0,0:0:0:40:S.wav
320,192,122780,1,0,0:0:0:0:
64,192,122855,1,0,0:0:0:80:A#6S_Bb6S.wav
448,192,122855,1,0,0:0:0:80:A#5S_Bb5S.wav
192,192,122905,1,0,0:0:0:0:
320,192,122955,1,0,0:0:0:0:
64,192,123005,128,0,123155:0:0:0:80:G#6S_Ab6S.wav
448,192,123005,128,0,123155:0:0:0:0:
192,192,123155,1,0,0:0:0:40:kick.wav
320,192,123155,1,0,0:0:0:80:G6S.wav
64,192,123305,1,0,0:0:0:40:S.wav
320,192,123305,1,0,0:0:0:80:D#6S_Eb6S.wav
448,192,123305,1,0,0:0:0:0:
64,192,123455,1,0,0:0:0:50:F6S.wav
192,192,123455,1,0,0:0:0:80:A#5S_Bb5S.wav
320,192,123530,1,0,0:0:0:80:D#6S_Eb6S.wav
192,192,123605,1,0,0:0:0:80:D#6S_Eb6S.wav
448,192,123605,1,0,0:0:0:80:F4S.wav
320,192,123755,1,0,0:0:0:40:kick.wav
448,192,123755,1,0,0:0:0:80:A#6S_Bb6S.wav
64,192,123905,1,0,0:0:0:40:clap.wav
192,192,123905,1,0,0:0:0:80:A#6S_Bb6S.wav
320,192,123980,1,0,0:0:0:80:D7S.wav
64,192,124055,1,0,0:0:0:80:A#6S_Bb6S.wav
448,192,124055,1,0,0:0:0:0:
192,192,124130,1,0,0:0:0:40:kick.wav
320,192,124130,1,0,0:0:0:80:D#6S_Eb6S.wav
64,192,124205,1,0,0:0:0:40:clap.wav
448,192,124205,1,0,0:0:0:80:D7S.wav
320,192,124280,1,0,0:0:0:80:D#7S_Eb7S.wav
64,192,124355,1,0,0:0:0:40:kick.wav
192,192,124355,1,0,0:0:0:80:D7S.wav
448,192,124430,1,0,0:0:0:80:A#6S_Bb6S.wav
64,192,124505,1,0,0:0:0:40:kick.wav
320,192,124505,1,0,0:0:0:80:G6S.wav
192,192,124580,1,0,0:0:0:80:F6S.wav
320,192,124655,1,0,0:0:0:80:D#6S_Eb6S.wav
448,192,124655,1,0,0:0:0:0:
64,192,124730,1,0,0:0:0:80:D6S.wav
192,192,124805,1,0,0:0:0:40:kick.wav
320,192,124805,1,0,0:0:0:80:D#6S_Eb6S.wav
448,192,124805,1,0,0:0:0:80:D#4S_Eb4S.wav
64,192,124955,1,0,0:0:0:80:D6S.wav
192,192,124955,1,0,0:0:0:0:
64,192,125105,1,0,0:0:0:40:S.wav
448,192,125105,1,0,0:0:0:80:A#5S_Bb5S.wav
192,192,125180,1,0,0:0:0:0:
320,192,125255,1,0,0:0:0:80:F6S.wav
448,192,125255,1,0,0:0:0:80:A#5S_Bb5S.wav
64,192,125305,1,0,0:0:0:0:
192,192,125355,1,0,0:0:0:0:
320,192,125405,1,0,0:0:0:80:D#6S_Eb6S.wav
448,192,125405,1,0,0:0:0:0:
64,192,125555,1,0,0:0:0:40:kick.wav
192,192,125555,1,0,0:0:0:80:A#5S_Bb5S.wav
64,192,125705,1,0,0:0:0:40:S.wav
320,192,125705,1,0,0:0:0:80:D#6S_Eb6S.wav
448,192,125705,1,0,0:0:0:0:
192,192,125855,1,0,0:0:0:40:kick.wav
320,192,125855,1,0,0:0:0:80:F6S.wav
64,192,125930,1,0,0:0:0:80:G6S.wav
448,192,125930,1,0,0:0:0:0:
192,192,126005,1,0,0:0:0:80:G#6S_Ab6S.wav
320,192,126005,1,0,0:0:0:0:
64,192,126155,1,0,0:0:0:40:kick.wav
192,192,126155,1,0,0:0:0:80:G6S.wav
320,192,126305,1,0,0:0:0:40:kick.wav
448,192,126305,1,0,0:0:0:80:D#6S_Eb6S.wav
192,192,126455,1,0,0:0:0:80:A#5S_Bb5S.wav
64,192,126605,1,0,0:0:0:40:clap.wav
448,192,126605,1,0,0:0:0:80:G#5S_Ab5S.wav
320,192,126755,1,0,0:0:0:80:G5S.wav
192,192,126905,1,0,0:0:0:80:G#5S_Ab5S.wav
448,192,127055,1,0,0:0:0:80:A#5S_Bb5S.wav
64,192,127205,1,0,0:0:0:40:kick.wav
192,192,127205,1,0,0:0:0:80:D#6S_Eb6S.wav
320,192,127205,1,0,0:0:0:80:G4S.wav
64,192,127355,1,0,0:0:0:80:D6S.wav
448,192,127355,1,0,0:0:0:0:
192,192,127505,1,0,0:0:0:40:S.wav
448,192,127505,1,0,0:0:0:80:D#6S_Eb6S.wav
320,192,127580,1,0,0:0:0:0:
64,192,127655,1,0,0:0:0:80:A#6S_Bb6S.wav
192,192,127655,1,0,0:0:0:0:
448,192,127705,1,0,0:0:0:80:G#6S_Ab6S.wav
320,192,127755,1,0,0:0:0:80:A#6S_Bb6S.wav
64,192,127805,128,0,127955:0:0:0:80:G#6S_Ab6S.wav
192,192,127805,128,0,127955:0:0:0:0:
320,192,127955,1,0,0:0:0:40:kick.wav
448,192,127955,1,0,0:0:0:80:G6S.wav
64,192,128105,1,0,0:0:0:40:S.wav
192,192,128105,1,0,0:0:0:80:F6S.wav
448,192,128105,1,0,0:0:0:0:
192,192,128255,1,0,0:0:0:80:D#6S_Eb6S.wav
320,192,128255,1,0,0:0:0:0:
64,192,128405,1,0,0:0:0:80:D6S.wav
448,192,128405,1,0,0:0:0:80:F4S.wav
64,192,128555,1,0,0:0:0:40:kick.wav
192,192,128555,1,0,0:0:0:80:D#6S_Eb6S.wav
192,192,128705,1,0,0:0:0:40:clap.wav
448,192,128705,1,0,0:0:0:80:F6S.wav
320,192,128855,1,0,0:0:0:40:kick.wav
448,192,128855,1,0,0:0:0:80:A#6S_Bb6S.wav
64,192,129005,1,0,0:0:0:40:clap.wav
320,192,129005,1,0,0:0:0:80:D7S.wav
192,192,129080,1,0,0:0:0:80:D#7S_Eb7S.wav
64,192,129155,1,0,0:0:0:40:kick.wav
448,192,129155,1,0,0:0:0:80:D7S.wav
320,192,129230,1,0,0:0:0:80:A#6S_Bb6S.wav
192,192,129305,1,0,0:0:0:80:F6S.wav
64,192,129380,1,0,0:0:0:80:D#6S_Eb6S.wav
448,192,129455,1,0,0:0:0:80:D6S.wav
320,192,129530,1,0,0:0:0:80:A#5S_Bb5S.wav
64,192,129605,1,0,0:0:0:40:kick.wav
192,192,129605,1,0,0:0:0:40:drum-cymbal.wav
448,192,129605,1,0,0:0:0:40:D#6S_Eb6S.wav
320,192,129755,1,0,0:0:0:40:A#5S_Bb5S.wav
320,192,129905,1,0,0:0:0:40:A#5S_Bb5S.wav
192,192,130055,1,0,0:0:0:40:D#6S_Eb6S.wav
448,192,130055,1,0,0:0:0:40:D#5S_Eb5S.wav
320,192,130205,1,0,0:0:0:40:A#5S_Bb5S.wav
320,192,130355,1,0,0:0:0:40:A#5S_Bb5S.wav
64,192,130505,1,0,0:0:0:40:A#6S_Bb6S.wav
192,192,130655,1,0,0:0:0:40:A#5S_Bb5S.wav
64,192,130805,1,0,0:0:0:40:D#6S_Eb6S.wav
320,192,130805,1,0,0:0:0:40:G#4S_Ab4S.wav
448,192,130955,1,0,0:0:0:40:A#5S_Bb5S.wav
448,192,131105,1,0,0:0:0:40:A#5S_Bb5S.wav
64,192,131255,1,0,0:0:0:40:D#6S_Eb6S.wav
192,192,131255,1,0,0:0:0:40:D#5S_Eb5S.wav
448,192,131405,1,0,0:0:0:40:A#5S_Bb5S.wav
448,192,131555,1,0,0:0:0:40:A#5S_Bb5S.wav
64,192,131705,1,0,0:0:0:40:A#6S_Bb6S.wav
192,192,131855,1,0,0:0:0:40:A#5S_Bb5S.wav
320,192,132005,1,0,0:0:0:40:D#6S_Eb6S.wav
448,192,132005,1,0,0:0:0:40:C5S.wav
64,192,132155,1,0,0:0:0:40:A#5S_Bb5S.wav
64,192,132305,1,0,0:0:0:40:A#5S_Bb5S.wav
192,192,132455,1,0,0:0:0:40:D#6S_Eb6S.wav
448,192,132455,1,0,0:0:0:40:G5S.wav
64,192,132605,1,0,0:0:0:40:A#5S_Bb5S.wav
64,192,132755,1,0,0:0:0:40:A#5S_Bb5S.wav
448,192,132905,1,0,0:0:0:40:A#6S_Bb6S.wav
192,192,133055,1,0,0:0:0:40:A#5S_Bb5S.wav
64,192,133205,1,0,0:0:0:40:D#6S_Eb6S.wav
448,192,133205,1,0,0:0:0:40:A#4S_Bb4S.wav
320,192,133355,1,0,0:0:0:40:A#5S_Bb5S.wav
320,192,133505,1,0,0:0:0:40:A#5S_Bb5S.wav
64,192,133655,1,0,0:0:0:40:D#6S_Eb6S.wav
192,192,133655,1,0,0:0:0:40:F5S.wav
320,192,133805,1,0,0:0:0:40:A#5S_Bb5S.wav
320,192,133955,1,0,0:0:0:40:A#5S_Bb5S.wav
448,192,134105,1,0,0:0:0:40:D6S.wav
320,192,134255,1,0,0:0:0:40:D#6S_Eb6S.wav
64,192,134405,1,0,0:0:0:40:D#6S_Eb6S.wav
192,192,134405,1,0,0:0:0:40:G#4S_Ab4S.wav
448,192,134555,1,0,0:0:0:40:A#5S_Bb5S.wav
448,192,134705,1,0,0:0:0:40:A#5S_Bb5S.wav
64,192,134855,1,0,0:0:0:40:D#6S_Eb6S.wav
320,192,134855,1,0,0:0:0:40:D#5S_Eb5S.wav
448,192,135005,1,0,0:0:0:40:A#5S_Bb5S.wav
448,192,135155,1,0,0:0:0:40:A#5S_Bb5S.wav
64,192,135305,1,0,0:0:0:40:A#6S_Bb6S.wav
320,192,135455,1,0,0:0:0:40:A#5S_Bb5S.wav
64,192,135605,1,0,0:0:0:40:D#6S_Eb6S.wav
448,192,135605,1,0,0:0:0:40:G#4S_Ab4S.wav
192,192,135755,1,0,0:0:0:40:A#5S_Bb5S.wav
192,192,135905,1,0,0:0:0:40:A#5S_Bb5S.wav
320,192,136055,1,0,0:0:0:40:D#6S_Eb6S.wav
448,192,136055,1,0,0:0:0:40:D#5S_Eb5S.wav
192,192,136205,1,0,0:0:0:40:A#5S_Bb5S.wav
192,192,136355,1,0,0:0:0:40:A#5S_Bb5S.wav
448,192,136505,1,0,0:0:0:40:A#6S_Bb6S.wav
320,192,136655,1,0,0:0:0:40:A#5S_Bb5S.wav
64,192,136805,1,0,0:0:0:40:D#6S_Eb6S.wav
448,192,136805,1,0,0:0:0:40:C5S.wav
320,192,136955,1,0,0:0:0:40:A#5S_Bb5S.wav
320,192,137105,1,0,0:0:0:40:A#5S_Bb5S.wav
64,192,137255,1,0,0:0:0:40:D#6S_Eb6S.wav
192,192,137255,1,0,0:0:0:40:G5S.wav
320,192,137405,1,0,0:0:0:40:A#5S_Bb5S.wav
320,192,137555,1,0,0:0:0:40:A#5S_Bb5S.wav
64,192,137705,1,0,0:0:0:40:A#6S_Bb6S.wav
192,192,137855,1,0,0:0:0:40:A#5S_Bb5S.wav
320,192,138005,1,0,0:0:0:40:D#6S_Eb6S.wav
448,192,138005,1,0,0:0:0:40:A#4S_Bb4S.wav
64,192,138155,1,0,0:0:0:40:A#5S_Bb5S.wav
64,192,138305,1,0,0:0:0:40:A#5S_Bb5S.wav
192,192,138455,1,0,0:0:0:40:D#6S_Eb6S.wav
448,192,138455,1,0,0:0:0:40:F5S.wav
64,192,138605,1,0,0:0:0:40:A#5S_Bb5S.wav
320,192,138755,1,0,0:0:0:40:F6S.wav
192,192,138905,1,0,0:0:0:40:D6S.wav
448,192,139055,1,0,0:0:0:40:D#6S_Eb6S.wav
