osu file format v14

[General]
AudioFilename: audio.mp3
AudioLeadIn: 0
PreviewTime: 131650
Countdown: 0
SampleSet: Soft
StackLeniency: 0.7
Mode: 3
LetterboxInBreaks: 0
SpecialStyle: 0
WidescreenStoryboard: 0

[Editor]
Bookmarks: 74507
DistanceSpacing: 0.8
BeatDivisor: 4
GridSize: 4
TimelineZoom: 1.6

[Metadata]
Title:Ad Astra
TitleUnicode:Ad Astra
Artist:Fractal Dreamers
ArtistUnicode:Fractal Dreamers
Creator:Rhezie
Version:Sya's Normal
Source:osu!
Tags:monolithia helblinde skymuted featured artist fa electronic dnb d&b drum & and bass instrumental artcore epic orchestral piano soundtrack Syadow- Draftnell FAMoss _Asha
BeatmapID:2294265
BeatmapSetID:1086164

[Difficulty]
HPDrainRate:7
CircleSize:4
OverallDifficulty:7
ApproachRate:5
SliderMultiplier:1.4
SliderTickRate:1

[Events]
//Background and Video events
0,0,"BG.jpg",0,0
//Break Periods
//Storyboard Layer 0 (Background)
//Storyboard Layer 1 (Fail)
//Storyboard Layer 2 (Pass)
//Storyboard Layer 3 (Foreground)
//Storyboard Layer 4 (Overlay)
//Storyboard Sound Samples

[TimingPoints]
222,285.714285714286,4,2,1,40,1,0
42507,-100,4,2,1,40,0,1
53936,-100,4,2,1,40,0,0
92793,-100,4,2,1,40,0,1
111079,-100,4,2,1,40,0,0
131650,-100,4,2,1,40,0,1
148793,-100,4,2,1,40,0,0

[HitObjects]
448,192,222,5,0,0:0:0:0:
448,192,793,1,0,0:0:0:0:
192,192,1364,1,0,0:0:0:0:
192,192,1936,1,0,0:0:0:0:
320,192,2507,1,0,0:0:0:0:
320,192,3079,1,0,0:0:0:0:
64,192,3650,1,0,0:0:0:0:
448,192,4222,1,0,0:0:0:0:
320,192,4507,1,0,0:0:0:0:
64,192,4793,1,0,0:0:0:0:
64,192,5364,1,0,0:0:0:0:
320,192,5936,1,0,0:0:0:0:
320,192,6507,1,0,0:0:0:0:
192,192,7079,1,0,0:0:0:0:
192,192,7650,1,0,0:0:0:0:
448,192,8222,1,0,0:0:0:0:
64,192,8793,1,0,0:0:0:0:
192,192,9079,1,0,0:0:0:0:
320,192,9364,1,4,0:0:0:0:
448,192,9364,128,0,11650:0:0:0:0:
320,192,9936,1,0,0:0:0:0:
192,192,10507,1,0,0:0:0:0:
192,192,11079,1,0,0:0:0:0:
320,192,11650,1,0,0:0:0:0:
64,192,11936,1,0,0:0:0:0:
192,192,12079,1,0,0:0:0:0:
320,192,12222,1,0,0:0:0:0:
448,192,12507,1,0,0:0:0:0:
320,192,12650,1,0,0:0:0:0:
192,192,12793,1,0,0:0:0:0:
64,192,13079,1,0,0:0:0:0:
192,192,13222,1,0,0:0:0:0:
320,192,13364,1,0,0:0:0:0:
320,192,13650,1,0,0:0:0:0:
64,192,13936,128,0,16222:0:0:0:0:
192,192,13936,1,0,0:0:0:0:
192,192,14507,1,0,0:0:0:0:
320,192,15079,1,0,0:0:0:0:
320,192,15650,1,0,0:0:0:0:
192,192,16222,1,0,0:0:0:0:
448,192,16222,128,0,17364:0:0:0:0:
320,192,16793,1,0,0:0:0:0:
64,192,17364,1,0,0:0:0:0:
192,192,17364,128,0,18507:0:0:0:0:
320,192,17936,1,0,0:0:0:0:
320,192,18222,1,0,0:0:0:0:
64,192,18507,1,4,0:0:0:0:
448,192,18507,1,0,0:0:0:0:
448,192,21364,1,0,0:0:0:0:
64,192,21936,1,0,0:0:0:0:
320,192,22222,1,0,0:0:0:0:
192,192,22507,1,0,0:0:0:0:
448,192,22793,1,0,0:0:0:0:
64,192,23079,1,0,0:0:0:0:
320,192,23364,1,0,0:0:0:0:
192,192,23650,1,0,0:0:0:0:
448,192,24222,1,2,0:0:0:0:
448,192,24507,1,2,0:0:0:0:
192,192,24793,1,2,0:0:0:0:
192,192,25079,1,0,0:0:0:0:
64,192,25364,1,2,0:0:0:0:
64,192,25650,1,2,0:0:0:0:
192,192,25936,1,2,0:0:0:0:
320,192,26222,1,0,0:0:0:0:
448,192,26507,1,2,0:0:0:0:
448,192,26793,1,2,0:0:0:0:
320,192,27079,1,2,0:0:0:0:
320,192,27364,1,2,0:0:0:0:
64,192,27650,1,2,0:0:0:0:
64,192,27936,1,2,0:0:0:0:
192,192,28222,1,2,0:0:0:0:
320,192,28364,128,0,28650:0:0:0:0:
192,192,28650,1,0,0:0:0:0:
64,192,28793,1,2,0:0:0:0:
448,192,28793,1,4,0:0:0:0:
320,192,28936,1,2,0:0:0:0:
192,192,29079,1,2,0:0:0:0:
448,192,29222,1,2,0:0:0:0:
320,192,29364,1,2,0:0:0:0:
64,192,29507,1,2,0:0:0:0:
448,192,29650,1,2,0:0:0:0:
192,192,29793,1,2,0:0:0:0:
320,192,29936,1,2,0:0:0:0:
64,192,30079,1,2,0:0:0:0:
192,192,30222,1,2,0:0:0:0:
448,192,30364,1,2,0:0:0:0:
320,192,30507,1,2,0:0:0:0:
64,192,30650,1,2,0:0:0:0:
448,192,30793,1,2,0:0:0:0:
192,192,30936,1,2,0:0:0:0:
320,192,31079,128,2,31222:0:0:0:0:
64,192,31222,128,2,31364:0:0:0:0:
448,192,31364,128,2,31507:0:0:0:0:
192,192,31507,128,2,31650:0:0:0:0:
320,192,31650,128,2,31793:0:0:0:0:
448,192,31793,128,2,31936:0:0:0:0:
64,192,31936,128,2,32222:0:0:0:0:
192,192,32079,128,2,32222:0:0:0:0:
320,192,32222,1,2,0:0:0:0:
64,192,33364,1,2,0:0:0:0:
448,192,33364,1,4,0:0:0:0:
320,192,33936,1,0,0:0:0:0:
192,192,34507,1,0,0:0:0:0:
320,192,35079,1,0,0:0:0:0:
64,192,35650,1,2,0:0:0:0:
448,192,35650,1,4,0:0:0:0:
64,192,35936,1,4,0:0:0:0:
448,192,35936,1,2,0:0:0:0:
192,192,36222,1,0,0:0:0:0:
320,192,36793,1,0,0:0:0:0:
192,192,37364,1,0,0:0:0:0:
64,192,37936,1,2,0:0:0:0:
448,192,37936,1,4,0:0:0:0:
320,192,38507,1,0,0:0:0:0:
192,192,39079,1,0,0:0:0:0:
320,192,39650,1,0,0:0:0:0:
64,192,40222,1,2,0:0:0:0:
448,192,40222,1,4,0:0:0:0:
64,192,40507,1,4,0:0:0:0:
448,192,40507,1,2,0:0:0:0:
192,192,40793,1,0,0:0:0:0:
320,192,41364,1,6,0:0:0:0:
64,192,41507,1,0,0:0:0:50:LR4_SnareKKF_LW.wav
320,192,41650,1,0,0:0:0:50:LR4_SnareKKF_LW.wav
64,192,41793,1,0,0:0:0:50:LR4_SnareKKF_LW.wav
448,192,41936,128,0,42507:0:0:0:50:LR4_SnareKKF_LW.wav
320,192,42222,128,2,42507:0:0:0:0:
64,192,42507,1,2,0:0:0:0:
192,192,42507,1,4,0:0:0:0:
320,192,42793,1,8,0:0:0:0:
448,192,42793,1,2,0:0:0:0:
192,192,43079,1,2,0:0:0:0:
64,192,43364,1,8,0:0:0:0:
448,192,43364,1,2,0:0:0:0:
320,192,43650,1,2,0:0:0:0:
64,192,43936,1,8,0:0:0:0:
192,192,43936,1,2,0:0:0:0:
320,192,44222,1,2,0:0:0:0:
64,192,44507,1,8,0:0:0:0:
448,192,44507,1,2,0:0:0:0:
192,192,44650,1,2,0:0:0:0:
320,192,44793,1,2,0:0:0:0:
64,192,45079,1,8,0:0:0:0:
192,192,45079,1,2,0:0:0:0:
448,192,45364,1,2,0:0:0:0:
192,192,45650,1,8,0:0:0:0:
320,192,45650,1,2,0:0:0:0:
64,192,45936,1,2,0:0:0:0:
320,192,46222,1,8,0:0:0:0:
448,192,46222,1,2,0:0:0:0:
192,192,46507,1,2,0:0:0:0:
320,192,46650,1,2,0:0:0:0:
64,192,46793,1,8,0:0:0:0:
448,192,46793,1,2,0:0:0:0:
192,192,46936,1,2,0:0:0:0:
320,192,47079,1,2,0:0:0:0:
64,192,47364,1,8,0:0:0:0:
448,192,47364,1,2,0:0:0:0:
192,192,47650,1,2,0:0:0:0:
64,192,47936,1,8,0:0:0:0:
320,192,47936,1,2,0:0:0:0:
448,192,48222,1,2,0:0:0:0:
192,192,48507,1,8,0:0:0:0:
320,192,48507,1,2,0:0:0:0:
64,192,48793,1,2,0:0:0:0:
320,192,49079,1,8,0:0:0:0:
448,192,49079,1,2,0:0:0:0:
192,192,49222,1,2,0:0:0:0:
320,192,49364,1,2,0:0:0:0:
64,192,49650,1,8,0:0:0:0:
448,192,49650,1,2,0:0:0:0:
192,192,49936,1,2,0:0:0:0:
320,192,50222,1,8,0:0:0:0:
448,192,50222,1,2,0:0:0:0:
192,192,50507,1,2,0:0:0:0:
64,192,50793,1,8,0:0:0:0:
448,192,50793,1,2,0:0:0:0:
320,192,51079,1,2,0:0:0:0:
64,192,51364,1,8,0:0:0:0:
192,192,51364,1,2,0:0:0:0:
320,192,51507,1,2,0:0:0:0:
448,192,51650,1,2,0:0:0:0:
192,192,51936,1,8,0:0:0:0:
320,192,51936,1,2,0:0:0:0:
64,192,52222,1,2,0:0:0:0:
320,192,52507,1,8,0:0:0:0:
448,192,52507,1,2,0:0:0:0:
192,192,52793,1,2,0:0:0:0:
64,192,53079,1,8,0:0:0:0:
448,192,53079,1,2,0:0:0:0:
320,192,53364,1,2,0:0:0:0:
192,192,53507,1,2,0:0:0:0:
64,192,53650,1,8,0:0:0:0:
448,192,53650,1,2,0:0:0:0:
320,192,53793,1,2,0:0:0:0:
64,192,53936,1,6,0:0:0:0:
192,192,53936,128,0,54507:0:0:0:50:LR3_BassDropSSG.wav
320,192,54507,128,0,55079:0:0:0:0:
448,192,55079,128,0,55650:0:0:0:0:
64,192,55650,128,0,56222:0:0:0:0:
320,192,56222,1,2,0:0:0:0:
448,192,56222,1,4,0:0:0:0:
192,192,56793,1,0,0:0:0:0:
64,192,57364,1,0,0:0:0:0:
320,192,57936,1,0,0:0:0:0:
192,192,58507,1,0,0:0:0:0:
448,192,59079,1,0,0:0:0:0:
320,192,59650,1,0,0:0:0:0:
64,192,60222,1,0,0:0:0:0:
448,192,60793,1,0,0:0:0:0:
320,192,61364,1,0,0:0:0:0:
192,192,61936,1,0,0:0:0:0:
64,192,62507,1,0,0:0:0:0:
320,192,63079,1,0,0:0:0:0:
448,192,63650,1,0,0:0:0:0:
64,192,64222,1,0,0:0:0:0:
192,192,64793,1,0,0:0:0:0:
320,192,65364,1,2,0:0:0:0:
448,192,65364,128,4,66222:0:0:0:0:
192,192,66222,128,0,66507:0:0:0:0:
320,192,66507,128,0,67364:0:0:0:0:
64,192,67364,128,0,67650:0:0:0:0:
448,192,67650,128,0,68079:0:0:0:0:
320,192,68079,128,0,68507:0:0:0:0:
192,192,68507,128,0,68793:0:0:0:0:
64,192,68793,128,0,69650:0:0:0:0:
320,192,69650,128,0,69936:0:0:0:0:
448,192,69936,128,0,70364:0:0:0:0:
192,192,70364,128,0,70793:0:0:0:0:
320,192,70793,128,0,71079:0:0:0:0:
64,192,71079,128,0,71507:0:0:0:0:
448,192,71507,128,0,71936:0:0:0:0:
192,192,71936,128,0,72222:0:0:0:0:
64,192,72222,128,0,74507:0:0:0:0:
192,192,73936,128,0,74507:0:0:0:0:
320,192,74507,1,4,0:0:0:0:
448,192,74507,1,2,0:0:0:0:
64,192,74793,1,8,0:0:0:0:
192,192,74793,1,0,0:0:0:0:
448,192,75222,1,2,0:0:0:0:
64,192,75364,1,8,0:0:0:0:
320,192,75364,1,0,0:0:0:0:
448,192,75793,1,2,0:0:0:0:
64,192,75936,1,8,0:0:0:0:
320,192,75936,1,0,0:0:0:0:
448,192,76364,1,2,0:0:0:0:
64,192,76507,1,8,0:0:0:0:
320,192,76507,1,0,0:0:0:0:
192,192,76793,1,2,0:0:0:0:
320,192,77079,1,8,0:0:0:0:
448,192,77079,1,0,0:0:0:0:
64,192,77507,1,2,0:0:0:0:
192,192,77650,1,8,0:0:0:0:
448,192,77650,1,0,0:0:0:0:
64,192,78079,1,2,0:0:0:0:
192,192,78222,1,8,0:0:0:0:
448,192,78222,1,0,0:0:0:0:
64,192,78650,1,2,0:0:0:0:
192,192,78793,1,8,0:0:0:0:
448,192,78793,1,0,0:0:0:0:
320,192,79079,1,2,0:0:0:0:
64,192,79364,1,8,0:0:0:0:
192,192,79364,1,0,0:0:0:0:
320,192,79793,1,2,0:0:0:0:
64,192,79936,1,8,0:0:0:0:
448,192,79936,1,0,0:0:0:0:
320,192,80364,1,2,0:0:0:0:
64,192,80507,1,8,0:0:0:0:
448,192,80507,1,0,0:0:0:0:
320,192,80936,1,2,0:0:0:0:
64,192,81079,1,8,0:0:0:0:
448,192,81079,1,0,0:0:0:0:
192,192,81364,1,2,0:0:0:0:
320,192,81650,1,8,0:0:0:0:
448,192,81650,1,0,0:0:0:0:
192,192,82079,1,2,0:0:0:0:
64,192,82222,1,8,0:0:0:0:
448,192,82222,1,0,0:0:0:0:
192,192,82650,1,2,0:0:0:0:
64,192,82793,1,8,0:0:0:0:
448,192,82793,1,0,0:0:0:0:
192,192,83222,1,2,0:0:0:0:
64,192,83364,1,8,0:0:0:0:
448,192,83364,1,0,0:0:0:0:
320,192,83650,1,2,0:0:0:0:
64,192,83936,1,8,0:0:0:0:
192,192,83936,1,0,0:0:0:0:
448,192,84364,1,2,0:0:0:0:
64,192,84507,1,8,0:0:0:0:
320,192,84507,1,0,0:0:0:0:
448,192,84936,1,2,0:0:0:0:
64,192,85079,1,8,0:0:0:0:
320,192,85079,1,0,0:0:0:0:
448,192,85507,1,2,0:0:0:0:
64,192,85650,1,8,0:0:0:0:
320,192,85650,1,0,0:0:0:0:
192,192,85936,1,2,0:0:0:0:
320,192,86222,1,8,0:0:0:0:
448,192,86222,1,0,0:0:0:0:
64,192,86650,1,2,0:0:0:0:
192,192,86793,1,8,0:0:0:0:
448,192,86793,1,0,0:0:0:0:
64,192,87222,1,2,0:0:0:0:
192,192,87364,1,8,0:0:0:0:
448,192,87364,1,0,0:0:0:0:
64,192,87793,1,2,0:0:0:0:
192,192,87936,1,8,0:0:0:0:
448,192,87936,1,0,0:0:0:0:
320,192,88222,1,2,0:0:0:0:
64,192,88507,1,8,0:0:0:0:
192,192,88507,1,0,0:0:0:0:
320,192,88936,1,2,0:0:0:0:
64,192,89079,1,8,0:0:0:0:
448,192,89079,1,0,0:0:0:0:
320,192,89507,1,2,0:0:0:0:
64,192,89650,1,8,0:0:0:0:
448,192,89650,1,0,0:0:0:0:
320,192,90079,1,2,0:0:0:0:
64,192,90222,1,8,0:0:0:0:
448,192,90222,1,0,0:0:0:0:
192,192,90507,128,2,90793:0:0:0:0:
64,192,90793,1,8,0:0:0:0:
320,192,90793,128,0,91079:0:0:0:0:
448,192,91079,128,0,91364:0:0:0:0:
64,192,91364,1,8,0:0:0:0:
192,192,91364,128,0,91650:0:0:0:0:
448,192,91650,1,2,0:0:0:0:
320,192,91793,1,0,0:0:0:0:
64,192,91936,128,0,92507:0:0:0:0:
192,192,92222,128,0,92507:0:0:0:0:
448,192,92507,1,10,0:0:0:0:
320,192,92650,1,2,0:0:0:0:
64,192,92793,1,2,0:0:0:0:
192,192,92793,1,4,0:0:0:0:
320,192,93079,1,8,0:0:0:0:
448,192,93079,1,2,0:0:0:0:
64,192,93364,1,2,0:0:0:0:
192,192,93650,1,8,0:0:0:0:
320,192,93650,1,2,0:0:0:0:
448,192,93936,1,2,0:0:0:0:
192,192,94222,1,8,0:0:0:0:
320,192,94222,1,2,0:0:0:0:
64,192,94507,1,2,0:0:0:0:
320,192,94793,1,8,0:0:0:0:
448,192,94793,1,2,0:0:0:0:
192,192,94936,1,2,0:0:0:0:
64,192,95079,1,2,0:0:0:0:
192,192,95364,1,8,0:0:0:0:
448,192,95364,1,2,0:0:0:0:
320,192,95650,1,2,0:0:0:0:
64,192,95936,1,8,0:0:0:0:
192,192,95936,1,2,0:0:0:0:
448,192,96222,1,2,0:0:0:0:
64,192,96507,1,8,0:0:0:0:
320,192,96507,1,2,0:0:0:0:
192,192,96793,1,2,0:0:0:0:
320,192,97079,1,2,0:0:0:0:
448,192,97079,1,0,0:0:0:0:
192,192,97364,128,2,97650:0:0:0:0:
320,192,97650,128,8,97936:0:0:0:0:
448,192,97650,1,2,0:0:0:0:
192,192,97936,128,2,98222:0:0:0:0:
320,192,98222,128,8,98507:0:0:0:0:
448,192,98222,1,2,0:0:0:0:
192,192,98507,128,2,98793:0:0:0:0:
320,192,98793,128,8,99079:0:0:0:0:
448,192,98793,1,2,0:0:0:0:
64,192,99079,1,2,0:0:0:0:
192,192,99222,1,2,0:0:0:0:
320,192,99364,1,8,0:0:0:0:
448,192,99364,1,2,0:0:0:0:
64,192,99650,128,2,99936:0:0:0:0:
320,192,99936,1,8,0:0:0:0:
448,192,99936,128,2,100222:0:0:0:0:
64,192,100222,128,2,100507:0:0:0:0:
320,192,100507,1,8,0:0:0:0:
448,192,100507,128,2,100793:0:0:0:0:
64,192,100793,128,2,101079:0:0:0:0:
320,192,101079,1,8,0:0:0:0:
448,192,101079,128,2,101364:0:0:0:0:
64,192,101364,128,2,101936:0:0:0:0:
192,192,101650,128,2,101936:0:0:0:0:
320,192,101936,1,2,0:0:0:0:
448,192,101936,1,0,0:0:0:0:
64,192,102222,1,8,0:0:0:0:
192,192,102222,1,2,0:0:0:0:
320,192,102507,1,2,0:0:0:0:
64,192,102793,1,8,0:0:0:0:
448,192,102793,1,2,0:0:0:0:
192,192,103079,1,2,0:0:0:0:
320,192,103364,1,8,0:0:0:0:
448,192,103364,1,2,0:0:0:0:
192,192,103650,1,2,0:0:0:0:
64,192,103936,1,8,0:0:0:0:
448,192,103936,1,2,0:0:0:0:
320,192,104222,1,2,0:0:0:0:
64,192,104507,1,8,0:0:0:0:
192,192,104507,1,2,0:0:0:0:
320,192,104793,1,2,0:0:0:0:
64,192,105079,1,8,0:0:0:0:
448,192,105079,1,2,0:0:0:0:
192,192,105364,1,2,0:0:0:0:
320,192,105650,1,8,0:0:0:0:
448,192,105650,1,2,0:0:0:0:
192,192,105936,1,2,0:0:0:0:
64,192,106222,1,8,0:0:0:0:
448,192,106222,1,2,0:0:0:0:
320,192,106364,1,2,0:0:0:0:
64,192,106507,1,8,0:0:0:0:
192,192,106507,128,2,106793:0:0:0:0:
320,192,106793,1,8,0:0:0:0:
448,192,106793,128,2,107079:0:0:0:0:
64,192,107079,128,8,107364:0:0:0:0:
192,192,107079,1,2,0:0:0:0:
320,192,107364,128,8,107650:0:0:0:0:
448,192,107364,1,2,0:0:0:0:
64,192,107650,1,8,0:0:0:0:
192,192,107650,1,2,0:0:0:0:
448,192,107936,1,10,0:0:0:0:
64,192,108079,1,10,0:0:0:0:
320,192,108364,1,10,0:0:0:0:
192,192,108507,1,10,0:0:0:0:
320,192,108650,1,10,0:0:0:0:
64,192,108793,1,10,0:0:0:0:
448,192,108936,1,10,0:0:0:0:
64,192,109079,1,10,0:0:0:0:
448,192,109222,1,10,0:0:0:0:
192,192,109364,1,10,0:0:0:0:
320,192,109507,1,10,0:0:0:0:
192,192,109650,1,10,0:0:0:0:
320,192,109793,1,10,0:0:0:0:
64,192,109936,128,2,110222:0:0:0:0:
448,192,109936,1,4,0:0:0:0:
320,192,110222,1,0,0:0:0:0:
192,192,110364,1,0,0:0:0:0:
448,192,110507,128,0,111079:0:0:0:0:
320,192,110793,128,0,111079:0:0:0:0:
64,192,111079,1,0,0:0:0:50:LR3_BassDropSSG.wav
192,192,113364,1,2,0:0:0:0:
320,192,113650,1,0,0:0:0:0:
448,192,113936,1,0,0:0:0:70:LR_Snare Drum 3.wav
64,192,114507,1,0,0:0:0:0:
192,192,114793,1,0,0:0:0:0:
448,192,115079,1,0,0:0:0:70:LR_Snare Drum 3.wav
320,192,115650,1,0,0:0:0:0:
192,192,115936,1,0,0:0:0:0:
64,192,116222,1,0,0:0:0:70:LR_Snare Drum 3.wav
448,192,116793,128,0,117364:0:0:0:70:LR_Snare Drum 3.wav
320,192,117079,128,0,117364:0:0:0:70:LR_Snare Drum 3.wav
64,192,117364,128,0,117936:0:0:0:0:
192,192,117650,128,0,117936:0:0:0:0:
448,192,117936,1,0,0:0:0:0:
320,192,118222,1,0,0:0:0:0:
64,192,118507,1,0,0:0:0:70:LR_Snare Drum 3.wav
448,192,119079,1,0,0:0:0:0:
320,192,119364,1,0,0:0:0:0:
192,192,119650,1,0,0:0:0:70:LR_Snare Drum 3.wav
64,192,120222,1,0,0:0:0:0:
192,192,120507,1,0,0:0:0:0:
448,192,120793,1,0,0:0:0:70:LR_Snare Drum 3.wav
320,192,121079,1,0,0:0:0:0:
64,192,121364,128,0,121936:0:0:0:70:LR_Snare Drum 3.wav
192,192,121650,128,0,121936:0:0:0:70:LR_Snare Drum 3.wav
448,192,121936,128,0,122507:0:0:0:0:
320,192,122222,128,0,122507:0:0:0:0:
192,192,122507,1,14,0:0:0:0:
192,192,122793,1,10,0:0:0:0:
320,192,123079,1,10,0:0:0:0:
320,192,123364,1,10,0:0:0:0:
64,192,123650,1,10,0:0:0:0:
64,192,123936,1,10,0:0:0:0:
448,192,124222,1,10,0:0:0:0:
448,192,124507,1,10,0:0:0:0:
192,192,124793,1,10,0:0:0:0:
192,192,125079,1,10,0:0:0:0:
320,192,125364,1,10,0:0:0:0:
320,192,125650,1,10,0:0:0:0:
64,192,125936,1,10,0:0:0:0:
64,192,126222,1,10,0:0:0:0:
448,192,126507,1,10,0:0:0:0:
448,192,126793,1,10,0:0:0:0:
192,192,127079,1,10,0:0:0:0:
320,192,127222,1,10,0:0:0:0:
64,192,127364,1,10,0:0:0:0:
192,192,127507,1,10,0:0:0:0:
448,192,127650,1,10,0:0:0:0:
64,192,127793,1,10,0:0:0:0:
320,192,127936,1,10,0:0:0:0:
192,192,128079,1,10,0:0:0:0:
448,192,128222,1,10,0:0:0:0:
320,192,128364,1,10,0:0:0:0:
64,192,128507,1,10,0:0:0:0:
448,192,128650,1,10,0:0:0:0:
192,192,128793,1,10,0:0:0:0:
320,192,128936,1,10,0:0:0:0:
64,192,129079,1,10,0:0:0:0:
192,192,129222,1,10,0:0:0:0:
320,192,129364,1,2,0:0:0:0:
448,192,129364,1,4,0:0:0:0:
64,192,130507,128,2,131364:0:0:0:0:
192,192,131079,128,0,131364:0:0:0:0:
320,192,131364,1,2,0:0:0:0:
64,192,131650,1,2,0:0:0:0:
448,192,131650,128,4,132507:0:0:0:0:
192,192,131936,1,8,0:0:0:0:
64,192,131936,1,2,0:0:0:0:
320,192,132222,1,2,0:0:0:0:
64,192,132507,1,8,0:0:0:0:
192,192,132507,1,2,0:0:0:0:
320,192,132650,1,0,0:0:0:0:
192,192,132793,128,2,133364:0:0:0:0:
448,192,133079,1,10,0:0:0:0:
320,192,133079,1,0,0:0:0:0:
320,192,133364,128,2,133936:0:0:0:0:
64,192,133650,1,2,0:0:0:0:
192,192,133650,1,8,0:0:0:0:
64,192,133936,128,2,134793:0:0:0:0:
448,192,134222,1,2,0:0:0:0:
320,192,134222,1,8,0:0:0:0:
192,192,134507,1,2,0:0:0:0:
448,192,134793,1,8,0:0:0:0:
320,192,134793,1,2,0:0:0:0:
64,192,134936,1,0,0:0:0:0:
192,192,135079,128,2,135650:0:0:0:0:
320,192,135364,1,2,0:0:0:0:
448,192,135364,1,8,0:0:0:0:
320,192,135650,128,2,136222:0:0:0:0:
192,192,135936,1,8,0:0:0:0:
64,192,135936,1,2,0:0:0:0:
448,192,136222,128,2,137079:0:0:0:0:
192,192,136507,1,2,0:0:0:0:
64,192,136507,1,8,0:0:0:0:
320,192,136793,1,2,0:0:0:0:
64,192,137079,1,8,0:0:0:0:
192,192,137079,1,2,0:0:0:0:
320,192,137222,1,0,0:0:0:0:
64,192,137364,128,2,137936:0:0:0:0:
320,192,137650,1,8,0:0:0:0:
448,192,137650,1,2,0:0:0:0:
192,192,137936,128,2,138507:0:0:0:0:
448,192,138222,1,2,0:0:0:0:
320,192,138222,1,8,0:0:0:0:
320,192,138507,128,2,139650:0:0:0:0:
64,192,138793,1,8,0:0:0:0:
192,192,138793,1,2,0:0:0:0:
448,192,139079,1,2,0:0:0:0:
192,192,139364,1,2,0:0:0:0:
64,192,139364,1,8,0:0:0:0:
192,192,139650,128,2,140507:0:0:0:0:
448,192,139936,1,8,0:0:0:0:
320,192,139936,1,2,0:0:0:0:
64,192,140222,1,2,0:0:0:0:
320,192,140507,1,8,0:0:0:0:
448,192,140507,1,2,0:0:0:0:
64,192,140650,1,2,0:0:0:0:
192,192,140793,1,2,0:0:0:0:
448,192,140793,128,0,141650:0:0:0:0:
192,192,141079,1,2,0:0:0:0:
64,192,141079,1,8,0:0:0:0:
320,192,141364,1,2,0:0:0:0:
64,192,141650,1,8,0:0:0:0:
192,192,141650,1,2,0:0:0:0:
320,192,141793,1,0,0:0:0:0:
192,192,141936,128,2,142507:0:0:0:0:
320,192,142222,1,8,0:0:0:0:
448,192,142222,1,2,0:0:0:0:
320,192,142507,128,2,142793:0:0:0:0:
192,192,142793,1,8,0:0:0:0:
64,192,142793,128,2,143079:0:0:0:0:
448,192,143079,128,2,143650:0:0:0:0:
192,192,143364,1,8,0:0:0:0:
64,192,143364,1,2,0:0:0:0:
320,192,143650,1,2,0:0:0:0:
192,192,143793,1,0,0:0:0:0:
448,192,143936,1,8,0:0:0:0:
64,192,143936,1,2,0:0:0:0:
320,192,144079,1,0,0:0:0:0:
192,192,144222,128,2,145079:0:0:0:0:
448,192,144507,1,8,0:0:0:0:
320,192,144507,1,2,0:0:0:0:
64,192,144793,1,2,0:0:0:0:
448,192,145079,1,8,0:0:0:0:
320,192,145079,1,2,0:0:0:0:
192,192,145222,1,2,0:0:0:0:
448,192,145364,1,4,0:0:0:0:
64,192,145364,1,2,0:0:0:0:
320,192,145650,1,0,0:0:0:0:
192,192,145936,1,2,0:0:0:0:
192,192,146150,1,2,0:0:0:0:
320,192,146364,1,2,0:0:0:0:
448,192,146507,1,2,0:0:0:0:
64,192,146507,128,4,147079:0:0:0:0:
320,192,146793,1,0,0:0:0:0:
448,192,147079,128,2,147650:0:0:0:0:
192,192,147079,1,4,0:0:0:0:
64,192,147364,1,0,0:0:0:0:
192,192,147650,128,4,148793:0:0:0:0:
64,192,147650,128,2,148793:0:0:0:0:
320,192,148793,1,6,0:0:0:0:
320,192,149079,1,2,0:0:0:0:
320,192,149364,1,2,0:0:0:0:
192,192,149650,1,2,0:0:0:0:
320,192,149793,1,2,0:0:0:0:
448,192,149936,1,2,0:0:0:0:
64,192,149936,1,4,0:0:0:0:
320,192,150222,1,8,0:0:0:0:
192,192,150222,1,2,0:0:0:0:
448,192,150507,1,2,0:0:0:0:
192,192,150793,1,8,0:0:0:0:
64,192,150793,1,2,0:0:0:0:
320,192,151079,1,2,0:0:0:0:
448,192,151364,1,2,0:0:0:0:
64,192,151364,1,8,0:0:0:0:
192,192,151650,1,2,0:0:0:0:
448,192,151936,1,2,0:0:0:0:
320,192,151936,128,8,152222:0:0:0:0:
64,192,152222,1,2,0:0:0:0:
320,192,152507,1,8,0:0:0:0:
64,192,152507,1,2,0:0:0:0:
64,192,152793,1,2,0:0:0:0:
320,192,153079,1,8,0:0:0:0:
192,192,153079,128,2,153364:0:0:0:0:
448,192,153364,1,2,0:0:0:0:
448,192,153650,1,8,0:0:0:0:
192,192,153650,1,2,0:0:0:0:
448,192,153936,1,2,0:0:0:0:
320,192,154222,128,8,154507:0:0:0:0:
192,192,154222,1,2,0:0:0:0:
64,192,154507,1,2,0:0:0:0:
320,192,154793,1,8,0:0:0:0:
64,192,154793,1,2,0:0:0:0:
64,192,155079,1,2,0:0:0:0:
320,192,155364,1,8,0:0:0:0:
192,192,155364,128,2,155650:0:0:0:0:
448,192,155650,1,2,0:0:0:0:
448,192,155936,1,8,0:0:0:0:
192,192,155936,1,2,0:0:0:0:
448,192,156222,1,2,0:0:0:0:
320,192,156507,128,8,156793:0:0:0:0:
192,192,156507,1,2,0:0:0:0:
64,192,156793,1,2,0:0:0:0:
320,192,157079,1,8,0:0:0:0:
64,192,157079,1,2,0:0:0:0:
64,192,157364,1,2,0:0:0:0:
320,192,157650,1,8,0:0:0:0:
192,192,157650,128,2,157936:0:0:0:0:
448,192,157936,1,2,0:0:0:0:
448,192,158222,1,8,0:0:0:0:
192,192,158222,1,2,0:0:0:0:
448,192,158507,1,2,0:0:0:0:
192,192,158793,1,8,0:0:0:0:
64,192,158793,1,2,0:0:0:0:
320,192,158936,1,2,0:0:0:0:
192,192,159079,1,2,0:0:0:0:
448,192,159364,1,8,0:0:0:0:
64,192,159364,1,2,0:0:0:0:
192,192,159650,1,2,0:0:0:0:
448,192,159936,1,8,0:0:0:0:
320,192,159936,1,2,0:0:0:0:
192,192,160079,1,2,0:0:0:0:
320,192,160222,1,2,0:0:0:0:
192,192,160507,1,8,0:0:0:0:
64,192,160507,1,2,0:0:0:0:
320,192,160793,1,2,0:0:0:0:
448,192,161079,1,8,0:0:0:0:
64,192,161079,1,2,0:0:0:0:
320,192,161222,1,2,0:0:0:0:
192,192,161364,1,2,0:0:0:0:
448,192,161650,1,8,0:0:0:0:
320,192,161650,1,2,0:0:0:0:
192,192,161936,1,2,0:0:0:0:
448,192,162222,1,8,0:0:0:0:
64,192,162222,1,2,0:0:0:0:
192,192,162364,1,2,0:0:0:0:
320,192,162507,1,2,0:0:0:0:
448,192,162793,1,8,0:0:0:0:
192,192,162793,1,2,0:0:0:0:
64,192,163079,1,2,0:0:0:0:
448,192,163364,1,8,0:0:0:0:
320,192,163364,1,2,0:0:0:0:
192,192,163650,1,2,0:0:0:0:
320,192,163936,1,8,0:0:0:0:
64,192,163936,1,2,0:0:0:0:
448,192,164222,1,2,0:0:0:0:
192,192,164507,1,8,0:0:0:0:
64,192,164507,1,2,0:0:0:0:
320,192,164793,1,2,0:0:0:0:
448,192,165079,1,8,0:0:0:0:
64,192,165079,1,2,0:0:0:0:
192,192,165364,1,2,0:0:0:0:
448,192,165650,1,8,0:0:0:0:
320,192,165650,1,2,0:0:0:0:
64,192,165936,1,2,0:0:0:0:
448,192,166222,1,8,0:0:0:0:
192,192,166222,1,2,0:0:0:0:
320,192,166364,1,2,0:0:0:0:
192,192,166507,1,2,0:0:0:0:
320,192,166793,1,8,0:0:0:0:
64,192,166793,1,2,0:0:0:0:
192,192,166936,1,2,0:0:0:0:
448,192,167079,1,2,0:0:0:0:
320,192,167079,1,4,0:0:0:0:
192,192,167364,1,0,0:0:0:0:
320,192,167507,1,0,0:0:0:0:
192,192,167650,128,0,168222:0:0:0:0:
64,192,167650,128,0,168222:0:0:0:0:
448,192,168222,1,4,0:0:0:0:
320,192,168222,1,2,0:0:0:0:
