osu file format v14

[General]
AudioFilename: audio.mp3
AudioLeadIn: 0
PreviewTime: 24079
Countdown: 0
SampleSet: Soft
StackLeniency: 0.4
Mode: 0
LetterboxInBreaks: 0
WidescreenStoryboard: 1

[Editor]
Bookmarks: 9364,20079,33364,42507,56222,65364,74507,83650,92793,97364,108793,111079,113364,122507,131650,149936,168222
DistanceSpacing: 1.3
BeatDivisor: 4
GridSize: 4
TimelineZoom: 2

[Metadata]
Title:Ad Astra
TitleUnicode:Ad Astra
Artist:Fractal Dreamers
ArtistUnicode:Fractal Dreamers
Creator:Nuvolina
Version:Hard
Source:osu!
Tags:Namki Myxomatosis Anto Featured Artist FA Mappers' Guild electronic Monolithia skymuted Helblinde
BeatmapID:2054727
BeatmapSetID:965651

[Difficulty]
HPDrainRate:4.5
CircleSize:3.5
OverallDifficulty:5.5
ApproachRate:8
SliderMultiplier:1.2
SliderTickRate:1

[Events]
//Background and Video events
0,0,"blue-259458_1920.jpg",0,0
//Break Periods
2,20422,23329
2,56422,64614
2,113564,121364
//Storyboard Layer 0 (Background)
//Storyboard Layer 1 (Fail)
//Storyboard Layer 2 (Pass)
//Storyboard Layer 3 (Foreground)
//Storyboard Sound Samples

[TimingPoints]
222,285.714285714286,4,2,1,100,1,0
9293,-100,4,2,1,100,0,0
9364,-100,4,2,1,60,0,0
12793,-83.3333333333333,4,2,1,60,0,0
13936,-100,4,2,1,60,0,0
17364,-83.3333333333333,4,2,1,60,0,0
18507,-83.3333333333333,4,2,1,80,0,0
19650,-83.3333333333333,4,2,1,30,0,0
20007,-100,4,2,1,30,0,0
20079,-100,4,2,1,30,0,0
20222,-100,4,2,1,30,0,0
20793,-100,4,2,1,40,0,0
21936,-100,4,2,1,60,0,0
22507,-100,4,2,1,60,0,0
23079,-100,4,2,1,70,0,0
24222,-83.3333333333333,4,2,1,85,0,0
33364,-100,4,2,1,70,0,0
35650,-100,4,2,1,70,0,0
36222,-100,4,2,1,70,0,0
37936,-100,4,2,1,70,0,0
40222,-100,4,2,1,70,0,0
40793,-100,4,2,1,70,0,0
41364,-83.3333333333333,4,2,1,70,0,0
42507,-83.3333333333333,4,2,1,100,0,1
53936,-100,4,2,1,100,0,0
55079,-100,4,2,1,100,0,0
55650,-100,4,2,1,100,0,0
56222,-100,4,2,1,70,0,0
65364,-100,4,2,1,60,0,0
66293,-100,4,2,1,60,0,0
73364,-100,4,2,1,70,0,0
74507,-100,4,2,1,85,0,0
83936,-100,4,2,1,85,0,0
90507,-100,4,2,1,85,0,0
91079,-100,4,2,1,70,0,0
92793,-83.3333333333333,4,2,1,100,0,0
101936,-83.3333333333333,4,2,1,100,0,0
109936,-100,4,2,1,100,0,0
110793,-100,4,2,1,100,0,0
113364,-100,4,2,1,60,0,0
122507,-83.3333333333333,4,2,1,70,0,0
130507,-100,4,2,1,70,0,0
130793,-100,4,2,1,70,0,0
131079,-100,4,2,1,70,0,0
131650,-83.3333333333333,4,2,1,100,0,1
145364,-100,4,2,1,100,0,0
145936,-100,4,2,1,70,0,0
148793,-100,4,2,1,70,0,0
149936,-83.3333333333333,4,2,1,100,0,1
167079,-83.3333333333333,4,2,1,70,0,0

[Colours]
Combo1 : 0,128,255
Combo2 : 128,255,255

[HitObjects]
256,192,7079,12,0,9079,0:0:0:0:
33,309,9364,5,4,1:2:0:0:
144,199,9650,2,0,L|147:125,2,60,0|0|2,0:0|0:0|0:0,0:0:0:0:
234,326,10222,1,0,0:0:0:0:
295,278,10364,1,0,0:0:0:0:
352,331,10507,5,2,0:0:0:0:
434,198,10793,2,0,P|463:191|500:210,2,60,0|0|2,0:0|0:0|0:0,0:0:0:0:
337,75,11364,1,0,0:0:0:0:
270,115,11507,1,0,0:0:0:0:
208,66,11650,5,2,0:0:0:0:
95,174,11936,2,0,B|64:182|64:182|30:169,2,60,0|0|2,0:0|0:0|0:0,0:0:0:0:
193,294,12507,1,0,0:0:0:0:
261,256,12650,1,0,0:0:0:0:
343,301,12793,6,0,P|356:265|334:217,1,71.9999978027344,2|0,0:0|0:0,0:0:0:0:
297,153,13079,1,0,0:0:0:0:
385,122,13222,1,0,0:0:0:0:
370,30,13364,2,0,L|273:22,1,71.9999978027344,2|0,0:0|0:0,0:0:0:0:
209,57,13650,2,0,L|138:42,1,71.9999978027344,2|0,0:0|0:0,0:0:0:0:
60,53,13936,5,2,0:0:0:0:
105,202,14222,2,0,L|73:269,2,60,0|0|2,0:0|0:0|0:0,0:0:0:0:
245,132,14794,1,0,0:0:0:0:
281,200,14936,1,0,0:0:0:0:
340,149,15079,5,2,0:0:0:0:
479,79,15365,2,0,L|477:11,2,60,0|0|2,0:0|0:0|0:0,0:0:0:0:
479,235,15936,1,0,0:0:0:0:
417,282,16079,1,0,0:0:0:0:
463,344,16222,5,2,0:0:0:0:
306,349,16508,2,0,B|275:357|275:357|241:344,2,60,0|0|2,0:0|0:0|0:0,0:0:0:0:
245,204,17079,1,0,0:0:0:0:
180,247,17222,1,0,0:0:0:0:
96,205,17364,6,0,L|89:118,1,71.9999978027344,2|0,0:0|0:0,0:0:0:0:
88,39,17650,1,0,0:0:0:0:
169,84,17793,1,0,0:0:0:0:
249,36,17936,2,0,P|288:49|333:33,1,71.9999978027344,2|0,0:0|0:0,0:0:0:0:
409,24,18222,2,0,P|420:64|403:115,1,71.9999978027344,2|0,0:0|0:0,0:0:0:0:
256,192,18507,12,0,20222,0:0:0:0:
414,93,24079,5,2,0:0:0:0:
335,42,24222,2,0,P|319:93|376:178,1,143.999995605469,4|0,1:2|1:2,0:0:0:0:
449,195,24650,1,2,0:0:0:0:
479,283,24793,2,0,P|445:292|402:274,1,71.9999978027344,0|2,1:2|0:0,0:0:0:0:
324,319,25079,2,0,P|284:313|237:331,1,71.9999978027344,0|2,1:2|0:0,0:0:0:0:
165,350,25364,2,0,B|101:362|101:362|35:308,1,143.999995605469,0|0,1:2|1:2,0:0:0:0:
18,220,25793,1,2,0:0:0:0:
96,168,25936,2,0,L|77:75,2,71.9999978027344,0|2|6,1:2|0:0|0:0,0:0:0:0:
96,168,26507,6,0,P|162:192|231:130,1,143.999995605469,4|0,1:2|1:2,0:0:0:0:
270,75,26936,1,2,0:0:0:0:
348,125,27079,2,0,P|354:172|356:214,1,71.9999978027344,0|2,1:2|0:0,0:0:0:0:
440,236,27364,2,0,P|446:189|448:147,1,71.9999978027344,0|2,1:2|0:0,0:0:0:0:
494,82,27650,2,0,L|338:39,1,143.999995605469,0|0,1:2|1:2,0:0:0:0:
262,24,28079,1,2,0:0:0:0:
190,84,28222,2,0,P|176:129|212:219,1,143.999995605469,0|0,1:2|0:0,0:0:0:0:
289,264,28650,1,2,0:0:0:0:
240,344,28793,5,4,1:2:0:0:
158,297,28936,2,0,L|78:310,2,71.9999978027344,0|0|0,1:2|1:2|1:2,0:0:0:0:
209,216,29364,1,0,1:2:0:0:
289,264,29507,2,0,L|353:307,2,71.9999978027344,0|0|0,1:2|1:2|1:2,0:0:0:0:
303,170,29936,1,0,1:2:0:0:
226,116,30079,2,0,L|229:34,2,71.9999978027344,0|0|0,1:2|1:2|1:2,0:0:0:0:
140,154,30507,1,0,1:2:0:0:
55,112,30650,2,0,L|54:34,2,71.9999978027344,0|0|0,1:2|1:2|1:2,0:0:0:0:
256,192,31079,12,0,32222,1:2:0:0:
55,112,33364,5,4,1:2:0:0:
55,112,35650,5,4,1:2:0:0:
211,112,35936,1,4,1:2:0:0:
211,112,37936,5,4,1:2:0:0:
211,112,40222,5,4,1:2:0:0:
55,112,40507,1,4,1:2:0:0:
55,112,41364,6,0,L|54:195,2,71.9999978027344,0|8|8,1:2|0:0|0:0,0:0:0:0:
115,39,41793,1,8,0:0:0:0:
197,83,41936,2,0,P|234:96|279:78,1,71.9999978027344,8|0,0:0|0:0,0:0:0:0:
346,41,42222,2,0,P|380:33|413:46,1,71.9999978027344,8|0,0:0|0:0,0:0:0:0:
476,125,42507,6,0,P|448:177|497:253,1,143.999995605469,4|8,1:2|0:0,0:0:0:0:
497,340,42936,1,0,0:0:0:0:
404,323,43079,2,0,P|333:296|266:325,1,143.999995605469,0|8,1:2|0:0,0:0:0:0:
183,349,43507,1,0,0:0:0:0:
91,328,43650,2,0,P|88:253|44:183,1,143.999995605469,0|8,1:2|0:0,0:0:0:0:
20,106,44079,1,0,0:0:0:0:
92,46,44222,2,0,L|169:24,2,71.9999978027344,0|0|8,1:2|0:0|0:0,0:0:0:0:
20,106,44650,1,0,1:2:0:0:
110,129,44793,6,0,L|200:135,1,71.9999978027344,4|0,1:2|0:0,0:0:0:0:
266,92,45079,2,0,L|360:119,1,71.9999978027344,8|0,0:0|0:0,0:0:0:0:
426,93,45364,2,0,P|429:131|353:203,1,143.999995605469,0|8,1:2|0:0,0:0:0:0:
266,214,45793,1,0,0:0:0:0:
173,199,45936,2,0,P|170:268|231:327,1,143.999995605469,0|8,1:2|0:0,0:0:0:0:
307,346,46364,1,0,0:0:0:0:
389,302,46507,2,0,L|486:279,2,71.9999978027344,0|0|8,1:2|1:2|1:2,0:0:0:0:
307,346,46936,1,0,1:2:0:0:
286,254,47079,6,0,P|258:202|307:126,1,143.999995605469,4|8,1:2|0:0,0:0:0:0:
385,106,47508,1,0,0:0:0:0:
455,44,47651,2,0,P|384:17|317:46,1,143.999995605469,0|8,1:2|0:0,0:0:0:0:
233,66,48079,1,0,0:0:0:0:
146,28,48222,2,0,P|143:102|203:156,1,143.999995605469,0|8,1:2|0:0,0:0:0:0:
246,224,48651,1,0,0:0:0:0:
332,187,48794,2,0,L|409:165,2,71.9999978027344,0|0|8,1:2|0:0|0:0,0:0:0:0:
246,224,49222,1,0,1:2:0:0:
153,239,49365,6,0,L|161:312,1,71.9999978027344,4|0,1:2|0:0,0:0:0:0:
71,338,49650,2,0,L|63:265,1,71.9999978027344,8|0,0:0|0:0,0:0:0:0:
93,177,49936,2,0,P|106:148|72:32,1,143.999995605469,0|8,1:2|0:0,0:0:0:0:
173,18,50365,1,0,0:0:0:0:
234,88,50508,2,0,L|388:93,1,143.999995605469,0|8,1:2|0:0,0:0:0:0:
471,86,50936,1,0,0:0:0:0:
432,171,51079,2,0,P|425:205|447:265,2,71.9999978027344,0|0|8,1:2|0:0|0:0,0:0:0:0:
471,86,51508,1,0,1:2:0:0:
377,92,51650,6,0,L|220:87,1,143.999995605469,4|8,1:2|0:0,0:0:0:0:
138,88,52079,1,0,0:0:0:0:
74,19,52222,2,0,P|47:90|76:157,1,143.999995605469,0|8,1:2|0:0,0:0:0:0:
148,201,52650,1,0,0:0:0:0:
236,169,52793,2,0,P|233:243|181:291,1,143.999995605469,0|8,1:2|0:0,0:0:0:0:
98,327,53222,1,0,0:0:0:0:
15,282,53365,2,0,P|6:250|15:210,2,71.9999978027344,0|0|8,1:2|1:2|1:2,0:0:0:0:
98,327,53793,1,0,1:2:0:0:
256,192,53936,12,0,56222,1:0:0:0:
356,243,65364,6,0,P|270:342|263:230,1,300,4|0,1:2|0:0,0:0:0:0:
307,185,66222,2,0,P|300:153|265:125,1,60,2|0,0:0|0:0,0:0:0:0:
215,93,66507,2,0,P|245:51|455:92,1,300,2|0,0:0|0:0,0:0:0:0:
409,154,67364,2,0,L|448:218,1,60,2|0,0:0|0:0,0:0:0:0:
488,270,67650,6,0,P|447:304|365:290,1,120,2|0,0:0|0:0,0:0:0:0:
329,243,68079,2,0,P|263:235|221:279,1,120,2|0,0:0|0:0,0:0:0:0:
193,340,68507,2,0,P|163:350|128:340,1,60,2|0,0:0|0:0,0:0:0:0:
57,348,68793,2,0,P|31:261|196:181,1,300,2|0,0:0|0:0,0:0:0:0:
262,195,69650,2,0,P|270:164|258:120,1,60,2|0,0:0|0:0,0:0:0:0:
241,62,69936,6,0,P|197:40|102:54,1,120,2|0,0:0|0:0,0:0:0:0:
79,103,70364,2,0,P|101:159|67:234,1,120,2|0,0:0|0:0,0:0:0:0:
29,269,70793,2,0,P|25:299|43:336,1,60,2|0,0:0|0:0,0:0:0:0:
108,354,71079,2,0,P|159:369|229:339,1,120,2|0,0:0|0:0,0:0:0:0:
224,269,71507,2,8,P|277:259|336:294,1,120,2|0,0:0|0:0,0:0:0:0:
402,326,71936,2,0,P|417:305|417:261,1,60,2|0,0:0|0:0,0:0:0:0:
375,207,72222,6,0,P|391:168|507:83,1,180,2|0,0:0|0:0,0:0:0:0:
445,26,72793,2,0,L|399:24,3,30,0|0|0|0,0:0|0:0|0:0|0:0,0:0:0:0:
375,23,73079,1,0,0:0:0:0:
375,23,73364,5,0,1:0:0:0:
375,23,74507,5,4,1:2:0:0:
375,23,74793,2,0,B|320:52|320:52|253:43,1,120,8|2,0:2|0:0,0:0:0:0:
185,27,75222,1,0,1:2:0:0:
114,60,75364,2,0,P|106:85|128:127,1,60,10|0,0:2|0:0,0:0:0:0:
192,133,75650,2,0,P|217:154|143:267,1,180,2|0,0:0|0:0,0:0:0:0:
98,298,76222,2,0,P|126:338|214:338,1,120,2|8,0:0|0:2,0:0:0:0:
349,348,76793,5,4,1:2:0:0:
349,348,77079,2,0,B|354:288|354:288|293:236,1,120,10|2,0:2|0:0,0:0:0:0:
237,216,77507,2,0,L|288:160,1,60,0|10,1:2|0:2,0:0:0:0:
360,151,77793,1,2,0:0:0:0:
360,151,77936,2,0,P|420:168|490:139,1,120,2|10,0:0|0:2,0:0:0:0:
500,78,78364,1,0,0:0:0:0:
433,37,78507,2,0,P|369:47|313:16,1,120,2|10,0:0|0:2,0:0:0:0:
178,104,79079,5,4,1:2:0:0:
178,104,79364,2,0,P|118:113|92:45,1,120,10|2,0:2|0:0,0:0:0:0:
27,18,79793,1,0,1:2:0:0:
4,92,79936,2,0,L|22:170,1,60,10|0,0:2|0:0,0:0:0:0:
89,182,80222,2,0,P|110:239|69:306,1,120,2|10,0:0|0:2,0:0:0:0:
25,338,80650,1,0,0:0:0:0:
95,371,80793,2,0,P|155:375|210:328,1,120,2|10,0:0|0:2,0:0:0:0:
339,266,81364,5,6,1:2:0:0:
339,266,81650,1,10,0:2:0:0:
233,150,81936,1,2,0:0:0:0:
233,150,82222,1,10,0:2:0:0:
356,55,82507,1,2,0:0:0:0:
356,55,82793,1,10,0:2:0:0:
462,169,83079,1,2,0:0:0:0:
462,169,83364,1,10,0:2:0:0:
339,266,83650,5,4,1:2:0:0:
339,266,83936,2,0,P|277:284|213:245,1,120,8|2,0:2|0:0,0:0:0:0:
225,184,84365,1,0,1:2:0:0:
217,106,84507,2,0,P|185:100|145:120,1,60,10|0,0:2|0:0,0:0:0:0:
81,121,84793,2,0,P|43:161|95:277,1,180,2|0,0:0|0:0,0:0:0:0:
154,258,85364,2,0,B|166:300|166:300|116:374,1,120,2|8,0:0|0:2,0:0:0:0:
279,352,85936,5,4,1:2:0:0:
279,352,86222,2,0,P|334:336|403:368,1,120,10|2,0:2|0:0,0:0:0:0:
468,363,86650,2,0,L|488:288,1,60,0|10,1:2|0:2,0:0:0:0:
437,247,86936,1,2,0:0:0:0:
437,247,87079,2,0,P|414:189|446:132,1,120,2|10,0:0|0:2,0:0:0:0:
487,80,87507,1,0,0:0:0:0:
411,60,87650,2,0,B|350:75|350:75|280:56,1,120,2|10,0:0|0:2,0:0:0:0:
144,15,88222,5,4,1:2:0:0:
144,15,88507,2,0,B|118:58|118:58|120:141,1,120,10|2,0:2|0:0,0:0:0:0:
120,206,88936,1,0,1:2:0:0:
197,202,89079,2,0,P|228:197|268:209,1,60,10|0,0:2|0:0,0:0:0:0:
329,229,89365,2,0,P|350:172|309:105,1,120,2|10,0:0|0:2,0:0:0:0:
288,52,89793,1,0,0:0:0:0:
366,49,89936,2,0,P|426:53|481:6,1,120,2|8,0:0|0:2,0:0:0:0:
481,175,90507,5,6,1:2:0:0:
481,175,90793,1,10,0:2:0:0:
327,144,91079,1,2,0:0:0:0:
327,144,91364,1,2,0:0:0:0:
222,260,91650,1,2,1:2:0:0:
222,260,91936,1,2,0:0:0:0:
89,177,92222,1,2,0:0:0:0:
89,177,92508,1,2,0:0:0:0:
185,179,92650,1,0,0:0:0:0:
177,85,92793,6,0,L|249:86,1,71.9999978027344,4|2,1:2|0:0,0:0:0:0:
336,49,93079,1,8,0:0:0:0:
422,85,93222,2,0,P|442:148|422:234,1,143.999995605469,2|2,0:0|0:0,0:0:0:0:
349,274,93650,1,8,0:0:0:0:
288,202,93793,2,0,L|196:199,1,71.9999978027344,2|0,0:0|1:2,0:0:0:0:
65,147,94222,1,8,0:0:0:0:
65,147,94365,2,0,P|45:210|65:296,1,143.999995605469,2|2,0:0|0:0,0:0:0:0:
116,358,94793,1,8,0:0:0:0:
203,320,94936,1,0,1:2:0:0:
291,350,95079,6,0,P|327:363|363:351,1,71.9999978027344,4|2,1:2|0:0,0:0:0:0:
443,313,95365,1,8,0:0:0:0:
397,234,95508,2,0,L|427:90,1,143.999995605469,2|2,0:0|0:0,0:0:0:0:
467,8,95936,1,8,0:0:0:0:
376,32,96079,2,0,P|336:39|284:29,1,71.9999978027344,2|0,0:0|1:2,0:0:0:0:
148,27,96508,1,8,0:0:0:0:
148,27,96651,2,0,P|124:95|164:174,1,143.999995605469,2|2,0:0|0:0,0:0:0:0:
223,215,97079,1,8,0:0:0:0:
55,278,97364,6,0,L|53:362,1,71.9999978027344,4|2,1:2|0:0,0:0:0:0:
146,367,97650,2,0,L|148:283,1,71.9999978027344,8|2,0:0|0:0,0:0:0:0:
206,221,97936,2,0,P|242:214|286:232,1,71.9999978027344,0|2,1:2|0:0,0:0:0:0:
317,308,98222,2,0,P|353:315|397:297,1,71.9999978027344,8|2,0:0|0:0,0:0:0:0:
468,260,98507,2,0,L|469:185,1,71.9999978027344,0|2,1:2|0:0,0:0:0:0:
379,156,98793,2,0,L|404:74,1,71.9999978027344,8|2,0:0|0:0,0:0:0:0:
470,24,99079,1,0,1:2:0:0:
399,87,99222,2,0,L|312:79,2,71.9999978027344,0|8|0,1:2|0:0|0:0,0:0:0:0:
487,118,99650,6,0,L|466:195,1,71.9999978027344,4|2,1:2|0:0,0:0:0:0:
466,281,99936,2,0,L|500:365,1,71.9999978027344,8|2,0:0|0:0,0:0:0:0:
402,372,100222,2,0,P|361:376|300:359,1,71.9999978027344,0|2,1:2|0:0,0:0:0:0:
333,277,100507,2,0,P|297:272|261:276,1,71.9999978027344,8|2,0:0|0:0,0:0:0:0:
171,344,100793,2,0,L|167:273,1,71.9999978027344,0|2,1:2|0:0,0:0:0:0:
85,321,101079,2,0,L|89:249,1,71.9999978027344,8|2,0:0|0:0,0:0:0:0:
153,180,101364,1,0,1:2:0:0:
153,180,101650,1,0,1:2:0:0:
287,310,101936,6,0,L|359:311,1,71.9999978027344,4|2,1:2|0:0,0:0:0:0:
453,311,102222,1,8,0:0:0:0:
398,234,102365,2,0,P|407:168|447:94,1,143.999995605469,2|2,0:0|0:0,0:0:0:0:
498,25,102793,1,8,0:0:0:0:
404,27,102936,2,0,L|313:27,1,71.9999978027344,2|0,0:0|1:2,0:0:0:0:
279,171,103365,1,8,0:0:0:0:
279,171,103508,2,0,P|196:176|128:128,1,143.999995605469,2|2,0:0|0:0,0:0:0:0:
70,90,103936,1,8,0:0:0:0:
157,57,104079,1,2,0:0:0:0:
144,147,104222,6,0,L|145:219,1,71.9999978027344,4|2,1:2|0:0,0:0:0:0:
74,281,104508,1,8,0:0:0:0:
132,354,104651,2,0,P|201:372|272:330,1,143.999995605469,2|2,0:0|0:0,0:0:0:0:
301,255,105079,1,8,0:0:0:0:
365,323,105222,2,0,L|440:325,1,71.9999978027344,2|0,0:0|1:2,0:0:0:0:
489,184,105651,1,8,0:0:0:0:
489,184,105794,2,0,P|465:116|505:37,1,143.999995605469,2|2,0:0|0:0,0:0:0:0:
400,21,106222,1,8,0:0:0:0:
274,131,106507,6,0,L|190:122,1,71.9999978027344,12|0,0:0|1:2,0:0:0:0:
189,24,106793,2,0,L|115:32,1,71.9999978027344,8|0,0:0|1:2,0:0:0:0:
36,79,107079,2,0,P|29:115|47:159,1,71.9999978027344,8|0,0:0|1:2,0:0:0:0:
131,168,107365,2,0,P|138:204|120:248,1,71.9999978027344,8|0,0:0|1:2,0:0:0:0:
63,305,107650,2,0,L|137:334,1,71.9999978027344,8|0,0:0|1:2,0:0:0:0:
206,276,107936,2,0,L|276:299,1,71.9999978027344,8|8,0:0|0:0,0:0:0:0:
364,325,108222,1,0,0:0:0:0:
452,294,108365,2,0,L|470:201,2,71.9999978027344,8|8|8,0:0|0:0|0:0,0:0:0:0:
364,325,108793,5,12,0:0:0:0:
349,232,108936,2,0,L|372:156,2,71.9999978027344,8|8|8,0:0|0:0|0:0,0:0:0:0:
255,226,109364,1,8,0:0:0:0:
183,164,109507,2,0,L|202:83,2,71.9999978027344,8|8|8,0:0|0:0|0:0,0:0:0:0:
115,203,109936,2,0,L|115:270,1,60,4|0,1:2|0:0,0:0:0:0:
36,262,110222,2,0,L|26:202,1,60,0|0,0:0|0:0,0:0:0:0:
63,134,110507,2,0,P|53:93|77:32,1,90,2|0,0:0|0:0,0:0:0:0:
104,53,110793,2,0,P|146:65|190:55,1,90,2|0,0:0|0:0,0:0:0:0:
227,41,111079,1,2,0:0:0:0:
256,192,111150,12,0,113364,1:0:0:0:
227,41,122507,5,12,0:0:0:0:
227,41,122793,2,0,P|261:53|318:31,1,71.9999978027344,8|0,0:0|0:0,0:0:0:0:
389,39,123079,2,0,P|397:79|371:125,1,71.9999978027344,8|0,0:0|0:0,0:0:0:0:
303,150,123364,1,8,0:0:0:0:
380,201,123507,2,0,P|424:258|324:328,1,215.999993408203,2|8,0:0|0:0,0:0:0:0:
238,319,124079,1,0,0:0:0:0:
201,232,124222,2,0,P|151:286|154:359,1,143.999995605469,8|8,0:0|0:0,0:0:0:0:
151,353,124793,6,0,P|91:334|49:193,1,215.999993408203,8|0,0:0|0:0,0:0:0:0:
132,163,125364,1,8,0:0:0:0:
83,82,125507,2,0,P|148:57|216:110,1,143.999995605469,2|2,0:0|0:0,0:0:0:0:
227,185,125936,2,0,P|306:211|337:92,1,215.999993408203,8|0,0:0|0:0,0:0:0:0:
345,14,126507,2,0,P|425:27|468:94,1,143.999995605469,8|8,0:0|0:0,0:0:0:0:
440,165,126936,1,0,0:0:0:0:
487,246,127079,5,12,0:0:0:0:
388,284,127222,2,0,L|404:363,2,71.9999978027344,8|8|8,0:0|0:0|0:0,0:0:0:0:
323,215,127650,1,8,0:0:0:0:
232,239,127793,2,0,L|226:150,2,71.9999978027344,8|8|8,0:0|0:0|0:0,0:0:0:0:
171,311,128222,1,8,0:0:0:0:
83,278,128364,2,0,L|82:358,2,71.9999978027344,8|8|8,0:0|0:0|0:0,0:0:0:0:
129,196,128793,1,8,0:0:0:0:
90,110,128936,2,0,L|10:109,2,71.9999978027344,8|8|8,0:0|0:0|0:0,0:0:0:0:
170,61,129364,1,12,0:0:0:0:
170,61,131650,5,4,1:2:0:0:
170,61,131936,2,0,P|198:75|252:62,1,71.9999978027344,8|0,0:0|0:0,0:0:0:0:
322,29,132222,2,0,P|374:16|435:47,2,107.999996704102,0|2|2,1:2|0:0|0:0,0:0:0:0:
366,111,132793,2,0,P|338:163|397:250,1,143.999995605469,0|8,1:2|0:0,0:0:0:0:
441,314,133222,1,0,0:0:0:0:
359,358,133364,2,0,P|307:330|220:389,1,143.999995605469,0|8,1:2|0:0,0:0:0:0:
236,364,133936,5,4,1:2:0:0:
236,364,134222,2,0,P|196:372|146:357,1,71.9999978027344,8|0,0:0|0:0,0:0:0:0:
109,291,134507,2,0,L|0:289,2,107.999996704102,0|2|2,1:2|0:0|0:0,0:0:0:0:
199,264,135079,2,0,P|227:212|168:125,1,143.999995605469,0|8,1:2|0:0,0:0:0:0:
100,83,135508,1,0,0:0:0:0:
195,138,135650,2,0,P|247:166|334:107,1,143.999995605469,0|8,1:2|0:0,0:0:0:0:
324,139,136222,5,4,1:2:0:0:
324,139,136507,2,0,P|361:130|409:143,1,71.9999978027344,8|0,0:0|0:0,0:0:0:0:
447,213,136793,2,0,L|444:328,2,107.999996704102,0|2|2,1:2|0:0|0:0,0:0:0:0:
492,131,137364,2,0,P|480:60|410:13,1,143.999995605469,0|8,1:2|0:0,0:0:0:0:
338,50,137793,1,0,0:0:0:0:
253,20,137936,2,0,L|107:35,1,143.999995605469,0|8,1:2|0:0,0:0:0:0:
110,35,138507,6,0,L|104:125,1,71.9999978027344,4|0,1:2|0:0,0:0:0:0:
25,156,138793,2,0,P|21:196|39:238,1,71.9999978027344,8|0,0:0|0:0,0:0:0:0:
124,234,139079,2,0,P|134:270|110:318,1,71.9999978027344,0|0,1:2|0:0,0:0:0:0:
194,363,139364,2,0,L|277:368,1,71.9999978027344,8|0,0:0|0:0,0:0:0:0:
358,347,139650,2,0,P|362:316|341:260,1,71.9999978027344,0|0,1:2|0:0,0:0:0:0:
259,257,139936,2,0,P|249:222|252:186,1,71.9999978027344,8|0,0:0|0:0,0:0:0:0:
336,143,140222,2,0,P|340:112|319:56,1,71.9999978027344,0|0,1:2|0:0,0:0:0:0:
409,23,140507,1,8,0:0:0:0:
494,61,140650,1,0,1:2:0:0:
427,127,140793,5,4,1:2:0:0:
427,127,141079,2,0,P|442:172|426:221,1,71.9999978027344,8|0,0:0|0:0,0:0:0:0:
377,266,141364,2,0,P|372:292|390:384,2,107.999996704102,0|2|2,1:2|0:0|0:0,0:0:0:0:
315,194,141936,2,0,P|263:166|176:225,1,143.999995605469,0|8,1:2|0:0,0:0:0:0:
145,280,142365,1,0,0:0:0:0:
51,278,142507,2,0,P|27:218|59:137,1,143.999995605469,0|8,1:2|0:0,0:0:0:0:
55,149,143079,5,4,1:2:0:0:
55,149,143365,2,0,P|65:107|56:57,1,71.9999978027344,8|0,0:0|0:0,0:0:0:0:
136,21,143650,1,0,1:2:0:0:
183,101,143793,2,0,P|214:115|259:101,1,71.9999978027344,2|8,0:0|0:0,0:0:0:0:
296,25,144079,1,2,0:0:0:0:
355,97,144222,2,0,P|407:125|494:66,1,143.999995605469,0|8,1:2|0:0,0:0:0:0:
419,21,144651,1,0,0:0:0:0:
480,93,144793,2,0,L|473:256,1,143.999995605469,0|8,1:2|1:2,0:0:0:0:
483,330,145222,1,0,1:2:0:0:
391,305,145364,5,4,1:2:0:0:
391,305,145936,6,0,P|357:313|311:294,1,60,0|0,1:2|0:0,0:0:0:0:
311,264,146150,2,0,P|278:255|235:270,1,60,0|0,1:2|0:0,0:0:0:0:
222,297,146364,1,0,1:2:0:0:
125,293,146507,5,4,1:2:0:0:
125,293,147079,5,4,1:2:0:0:
125,293,147650,5,4,1:2:0:0:
125,293,149936,5,4,1:2:0:0:
125,293,150222,2,0,P|161:302|198:292,1,71.9999978027344,8|0,0:0|0:0,0:0:0:0:
227,206,150507,2,0,P|261:198|296:207,1,71.9999978027344,0|0,1:2|0:0,0:0:0:0:
338,291,150793,2,0,P|374:300|411:290,1,71.9999978027344,8|0,0:0|0:0,0:0:0:0:
474,225,151079,1,0,1:2:0:0:
474,225,151364,1,8,0:0:0:0:
474,225,151650,1,0,1:2:0:0:
357,77,151936,1,8,0:0:0:0:
281,132,152079,1,2,0:0:0:0:
210,70,152222,5,4,1:2:0:0:
210,70,152507,2,0,L|120:73,1,71.9999978027344,8|0,0:0|0:0,0:0:0:0:
49,40,152793,2,0,P|43:69|55:119,1,71.9999978027344,0|0,1:2|0:0,0:0:0:0:
115,179,153079,1,8,0:0:0:0:
53,249,153222,1,2,0:0:0:0:
111,321,153364,1,0,1:2:0:0:
111,321,153650,2,0,L|194:300,1,71.9999978027344,8|0,0:0|0:0,0:0:0:0:
210,213,153936,2,0,L|287:238,1,71.9999978027344,0|2,1:2|0:0,0:0:0:0:
339,307,154222,1,8,0:0:0:0:
426,275,154364,1,2,0:0:0:0:
376,195,154507,5,4,1:2:0:0:
376,195,154793,2,0,P|368:165|378:110,1,71.9999978027344,8|0,0:0|0:0,0:0:0:0:
451,73,155079,2,0,P|459:103|449:158,1,71.9999978027344,0|0,1:2|0:0,0:0:0:0:
376,195,155364,1,8,0:0:0:0:
442,260,155507,1,2,0:0:0:0:
386,335,155650,1,0,1:2:0:0:
386,335,155936,2,0,L|297:332,1,71.9999978027344,8|0,0:0|0:0,0:0:0:0:
262,253,156222,2,0,L|174:264,1,71.9999978027344,0|0,1:2|0:0,0:0:0:0:
131,334,156507,1,8,0:0:0:0:
43,293,156650,1,2,0:0:0:0:
93,214,156793,5,4,1:2:0:0:
93,214,157079,2,0,L|89:121,1,71.9999978027344,8|0,0:0|0:0,0:0:0:0:
179,168,157364,2,0,L|176:78,1,71.9999978027344,0|0,1:2|0:0,0:0:0:0:
133,11,157650,1,8,0:0:0:0:
226,17,157793,1,2,0:0:0:0:
263,103,157936,1,0,1:2:0:0:
263,103,158222,2,0,L|343:82,1,71.9999978027344,8|0,0:0|0:0,0:0:0:0:
411,34,158507,2,0,L|490:60,1,71.9999978027344,0|0,1:2|0:0,0:0:0:0:
491,150,158793,1,8,0:0:0:0:
399,172,158936,1,0,1:2:0:0:
444,261,159079,5,4,1:2:0:0:
444,261,159364,2,0,P|452:295|444:349,2,71.9999978027344,8|2|0,0:0|0:0|1:2,0:0:0:0:
270,187,159936,2,0,L|189:192,1,71.9999978027344,8|0,0:0|1:2,0:0:0:0:
104,196,160222,1,0,1:2:0:0:
104,196,160507,2,0,L|21:194,2,71.9999978027344,8|2|0,0:0|0:0|1:2,0:0:0:0:
251,79,161079,1,8,0:0:0:0:
311,150,161222,1,0,1:2:0:0:
374,82,161364,5,4,1:2:0:0:
374,82,161650,1,8,0:0:0:0:
438,149,161793,2,0,P|448:189|438:235,1,71.9999978027344,2|0,0:0|1:2,0:0:0:0:
360,262,162079,1,2,0:0:0:0:
273,224,162222,2,0,P|237:215|190:228,1,71.9999978027344,8|0,0:0|1:2,0:0:0:0:
130,280,162507,1,0,1:2:0:0:
130,280,162793,1,8,0:0:0:0:
130,280,163079,1,0,1:2:0:0:
70,207,163222,2,0,B|63:123,2,71.9999978027344,0|8|2,0:0|0:0|0:0,0:0:0:0:
130,280,163650,5,4,1:2:0:0:
130,280,163936,1,8,0:0:0:0:
173,362,164079,2,0,L|247:350,1,71.9999978027344,0|0,0:0|1:2,0:0:0:0:
264,259,164364,2,0,L|425:283,1,143.999995605469,0|2,0:0|0:0,0:0:0:0:
499,295,164793,1,0,1:2:0:0:
499,295,165079,1,8,0:0:0:0:
459,209,165222,2,0,L|460:124,1,71.9999978027344,0|0,0:0|1:2,0:0:0:0:
470,43,165507,2,0,L|322:42,1,143.999995605469,0|2,0:0|0:0,0:0:0:0:
231,46,165936,5,4,1:2:0:0:
231,46,166222,1,8,0:0:0:0:
140,24,166364,1,0,1:2:0:0:
142,117,166507,2,0,P|153:155|141:198,1,71.9999978027344,0|2,1:2|0:0,0:0:0:0:
63,230,166793,2,0,P|57:265|68:299,1,71.9999978027344,8|2,0:0|0:0,0:0:0:0:
149,346,167079,1,4,1:2:0:0:
256,192,167150,12,4,168222,1:2:0:0:
