osu file format v14

[General]
AudioFilename: audio.mp3
AudioLeadIn: 0
PreviewTime: 24079
Countdown: 0
SampleSet: Soft
StackLeniency: 0.2
Mode: 0
LetterboxInBreaks: 0
WidescreenStoryboard: 0

[Editor]
Bookmarks: 9364,20079,33364,42507,56222,65364,74507,83650,92793,97364,108793,111079,113364,122507,131650,149936,168222
DistanceSpacing: 1.8
BeatDivisor: 4
GridSize: 4
TimelineZoom: 2

[Metadata]
Title:Ad Astra
TitleUnicode:Ad Astra
Artist:Fractal Dreamers
ArtistUnicode:Fractal Dreamers
Creator:Nuvolina
Version:Extra
Source:osu!
Tags:Namki Myxomatosis Anto Featured Artist FA Mappers' Guild electronic Monolithia skymuted Helblinde
BeatmapID:2021335
BeatmapSetID:965651

[Difficulty]
HPDrainRate:6
CircleSize:4.5
OverallDifficulty:9.3
ApproachRate:9.7
SliderMultiplier:1.8
SliderTickRate:1

[Events]
//Background and Video events
0,0,"blue-259458_1920.jpg",0,0
//Break Periods
2,56422,64869
2,113564,121364
//Storyboard Layer 0 (Background)
//Storyboard Layer 1 (Fail)
//Storyboard Layer 2 (Pass)
//Storyboard Layer 3 (Foreground)
//Storyboard Sound Samples

[TimingPoints]
222,285.714285714286,4,2,1,100,1,0
9293,-100,4,2,1,100,0,0
9364,-133.333333333333,4,2,1,60,0,0
12793,-100,4,2,1,60,0,0
13936,-133.333333333333,4,2,1,60,0,0
17364,-100,4,2,1,60,0,0
18507,-100,4,2,1,80,0,0
19650,-100,4,2,1,30,0,0
20007,-100,4,2,1,30,0,0
20079,-200,4,2,1,30,0,0
20222,-250,4,2,1,30,0,0
20793,-250,4,2,1,40,0,0
21936,-200,4,2,1,60,0,0
22507,-133.333333333333,4,2,1,60,0,0
23079,-100,4,2,1,70,0,0
24222,-83.3333333333333,4,2,1,85,0,0
31079,-100,4,2,1,85,0,0
33364,-333.333333333333,4,2,1,70,0,0
35650,-100,4,2,1,70,0,0
36222,-200,4,2,1,70,0,0
37936,-133.333333333333,4,2,1,70,0,0
40222,-83.3333333333333,4,2,1,70,0,0
40793,-100,4,2,1,70,0,0
42507,-83.3333333333333,4,2,1,100,0,1
53936,-100,4,2,1,100,0,0
55079,-133.333333333333,4,2,1,100,0,0
55650,-181.818181818182,4,2,1,100,0,0
56222,-181.818181818182,4,2,1,70,0,0
65364,-200,4,2,1,60,0,0
73364,-200,4,2,1,70,0,0
74507,-100,4,2,1,85,0,0
83936,-100,4,2,1,85,0,0
90507,-83.3333333333333,4,2,1,85,0,0
91079,-83.3333333333333,4,2,1,70,0,0
92793,-71.4285714285714,4,2,1,100,0,0
101364,-100,4,2,1,100,0,0
101936,-71.4285714285714,4,2,1,100,0,0
109936,-133.333333333333,4,2,1,100,0,0
110793,-181.818181818182,4,2,1,100,0,0
113364,-181.818181818182,4,2,1,60,0,0
122507,-83.3333333333333,4,2,1,70,0,0
130507,-100,4,2,1,70,0,0
130793,-76.9230769230769,4,2,1,70,0,0
131079,-66.6666666666667,4,2,1,70,0,0
131650,-66.6666666666667,4,2,1,100,0,1
145364,-83.3333333333333,4,2,1,100,0,0
145936,-83.3333333333333,4,2,1,70,0,0
148793,-100,4,2,1,70,0,0
149936,-83.3333333333333,4,2,1,100,0,1
167079,-83.3333333333333,4,2,1,70,0,0

[Colours]
Combo1 : 0,128,255
Combo2 : 128,255,255

[HitObjects]
256,192,7079,12,0,9293,0:0:0:0:
200,248,9364,6,0,P|146:266|83:233,1,101.250003862381,4|0,1:2|0:0,0:0:0:0:
70,220,9650,1,0,0:0:0:0:
126,342,9793,1,0,0:0:0:0:
200,248,9936,2,0,P|248:244|301:294,1,101.250003862381,2|0,0:0|0:0,0:0:0:0:
315,312,10222,1,0,0:0:0:0:
459,249,10364,1,0,0:0:0:0:
344,180,10507,6,0,L|334:58,1,101.250003862381,2|0,0:0|0:0,0:0:0:0:
330,31,10793,1,0,0:0:0:0:
420,96,10936,1,0,0:0:0:0:
251,84,11079,2,0,B|200:104|200:104|132:86,1,101.250003862381,2|0,0:0|0:0,0:0:0:0:
114,68,11364,1,0,0:0:0:0:
175,191,11507,1,0,0:0:0:0:
251,84,11650,6,0,P|300:101|353:65,1,101.250003862381,2|0,0:0|0:0,0:0:0:0:
360,36,11936,1,0,0:0:0:0:
331,184,12079,1,0,0:0:0:0:
493,183,12222,2,0,L|484:303,1,101.250003862381,2|0,0:0|0:0,0:0:0:0:
478,330,12507,1,0,0:0:0:0:
371,223,12650,1,0,0:0:0:0:
239,353,12793,5,2,0:0:0:0:
239,353,13079,1,0,0:0:0:0:
198,172,13222,1,0,0:0:0:0:
83,301,13364,2,0,P|60:234|95:171,1,135,2|0,0:0|0:0,0:0:0:0:
130,128,13650,2,0,P|141:75|91:18,1,135,2|0,0:0|0:0,0:0:0:0:
195,30,13936,6,0,L|316:51,1,101.250003862381,2|0,0:0|0:0,0:0:0:0:
340,58,14222,1,0,0:0:0:0:
266,152,14365,1,0,0:0:0:0:
392,202,14508,2,0,P|398:256|368:321,1,101.250003862381,2|0,0:0|0:0,0:0:0:0:
339,318,14794,1,0,0:0:0:0:
480,299,14936,1,0,0:0:0:0:
392,202,15079,6,0,L|271:189,1,101.250003862381,2|0,0:0|0:0,0:0:0:0:
244,184,15365,1,0,0:0:0:0:
229,70,15508,1,0,0:0:0:0:
338,106,15651,2,0,P|327:57|362:4,1,101.250003862381,2|0,0:0|0:0,0:0:0:0:
403,27,15936,1,0,0:0:0:0:
229,70,16079,1,0,0:0:0:0:
338,106,16222,6,0,P|351:163|331:214,1,101.250003862381,2|0,0:0|0:0,0:0:0:0:
292,238,16508,1,0,0:0:0:0:
377,342,16651,1,0,0:0:0:0:
459,245,16794,2,0,P|452:191|476:132,1,101.250003862381,2|0,0:0|0:0,0:0:0:0:
499,100,17079,1,0,0:0:0:0:
349,27,17222,1,0,0:0:0:0:
339,173,17365,5,2,0:0:0:0:
339,173,17651,1,0,0:0:0:0:
227,113,17794,1,0,0:0:0:0:
260,235,17936,2,0,P|284:297|263:361,1,135,2|0,0:0|0:0,0:0:0:0:
171,357,18222,2,0,P|148:292|186:224,1,135,2|0,0:0|0:0,0:0:0:0:
215,168,18507,5,4,1:2:0:0:
256,192,18579,12,0,20079,0:0:0:0:
215,168,20222,6,0,L|252:196,1,36,2|0,0:0|0:0,0:0:0:0:
289,82,20507,2,0,L|298:117,1,36,2|0,0:0|0:0,0:0:0:0:
402,86,20793,2,0,L|388:131,1,36,2|0,0:0|0:0,0:0:0:0:
487,172,21079,2,0,L|445:201,1,36,2|0,0:0|0:0,0:0:0:0:
323,236,21364,5,2,0:0:0:0:
323,236,21793,1,2,0:0:0:0:
242,329,21936,2,0,L|302:328,1,45,2|0,0:0|0:0,0:0:0:0:
367,236,22222,2,0,L|301:235,1,45,2|0,0:0|0:0,0:0:0:0:
199,236,22507,6,0,L|111:236,1,67.5000025749208,2|0,0:0|0:0,0:0:0:0:
35,125,22793,2,0,L|127:124,1,67.5000025749208,2|0,0:0|0:0,0:0:0:0:
238,31,23079,2,0,L|332:30,1,90,2|0,0:0|0:0,0:0:0:0:
477,181,23365,2,0,L|378:180,1,90,2|0,0:0|0:0,0:0:0:0:
199,236,23650,2,0,L|137:236,2,45,2|0|0,0:0|0:0|0:0,0:0:0:0:
199,236,24079,6,0,L|265:236,1,45,2|0,0:0|0:0,0:0:0:0:
342,266,24222,6,0,P|361:219|311:156,1,107.999996704102,4|2,1:2|0:0,0:0:0:0:
224,151,24507,2,0,B|216:125|216:125|232:86,1,53.9999983520508,0|0,1:2|0:0,0:0:0:0:
280,43,24650,1,2,0:0:0:0:
49,19,24793,2,0,P|99:54|106:114,1,107.999996704102,0|2,1:2|0:0,0:0:0:0:
26,235,25079,2,0,P|16:260|31:302,1,53.9999983520508,0|0,1:2|0:0,0:0:0:0:
85,339,25222,1,2,0:0:0:0:
191,261,25364,1,0,1:2:0:0:
318,362,25507,2,0,P|330:312|301:247,1,107.999996704102,2|0,0:0|1:2,0:0:0:0:
281,201,25722,1,0,0:0:0:0:
281,201,25793,1,2,0:0:0:0:
182,139,25936,1,0,1:2:0:0:
332,16,26079,1,2,0:0:0:0:
281,201,26222,2,0,P|219:244|134:192,1,161.999995056153,6|0,0:0|0:0,0:0:0:0:
116,130,26507,6,0,P|62:137|45:207,1,107.999996704102,4|2,1:2|0:0,0:0:0:0:
85,322,26793,2,0,L|76:383,2,53.9999983520508,0|0|2,1:2|0:0|0:0,0:0:0:0:
116,130,27079,1,0,1:2:0:0:
178,238,27221,1,2,0:0:0:0:
272,84,27364,2,0,L|326:85,1,53.9999983520508,0|0,1:2|0:0,0:0:0:0:
398,86,27507,1,2,0:0:0:0:
281,221,27649,1,0,1:2:0:0:
365,168,27793,2,0,P|379:215|357:284,1,107.999996704102,2|0,0:0|1:2,0:0:0:0:
298,329,28007,1,0,0:0:0:0:
298,329,28078,1,2,0:0:0:0:
463,264,28222,1,0,1:2:0:0:
262,141,28364,2,0,P|185:121|119:164,1,161.999995056153,2|0,0:0|0:0,0:0:0:0:
169,230,28650,1,2,0:0:0:0:
283,89,28793,5,4,1:2:0:0:
169,230,28936,1,0,1:2:0:0:
310,344,29079,1,0,1:2:0:0:
425,203,29222,1,0,1:2:0:0:
278,70,29364,5,0,1:2:0:0:
358,242,29507,1,0,1:2:0:0:
185,323,29650,1,0,1:2:0:0:
105,150,29793,1,0,1:2:0:0:
275,65,29936,5,0,1:2:0:0:
150,220,30079,1,0,1:2:0:0:
305,346,30222,1,0,1:2:0:0:
430,191,30364,1,0,1:2:0:0:
352,125,30507,5,0,1:2:0:0:
253,305,30650,1,0,1:2:0:0:
73,206,30793,1,0,1:2:0:0:
173,26,30936,1,0,1:2:0:0:
117,231,31079,5,4,1:2:0:0:
84,259,31150,1,0,1:2:0:0:
79,302,31221,1,0,1:2:0:0:
104,339,31293,1,0,1:2:0:0:
145,347,31364,1,0,1:2:0:0:
186,333,31436,1,0,1:2:0:0:
203,293,31507,1,0,1:2:0:0:
190,250,31579,1,0,1:2:0:0:
169,207,31650,1,0,1:2:0:0:
146,168,31721,1,0,1:2:0:0:
151,124,31792,1,0,1:2:0:0:
183,90,31864,1,0,1:2:0:0:
223,64,31936,1,0,1:2:0:0:
178,66,32007,1,0,1:2:0:0:
133,68,32078,1,0,1:2:0:0:
88,70,32150,1,0,1:2:0:0:
20,75,32222,5,0,1:2:0:0:
20,75,33364,5,4,1:2:0:0:
59,165,33507,2,0,L|49:194,2,26.9999991760254,2|0|0,0:0|0:0|0:0,0:0:0:0:
151,136,33936,2,0,L|181:153,1,26.9999991760254,2|0,0:0|0:0,0:0:0:0:
211,227,34222,2,0,L|239:231,1,26.9999991760254,2|0,0:0|0:0,0:0:0:0:
330,231,34507,1,2,0:0:0:0:
400,288,34650,2,0,L|398:318,2,26.9999991760254,2|0|0,0:0|0:0|0:0,0:0:0:0:
487,243,35079,2,0,L|482:208,1,26.9999991760254,2|0,0:0|0:0,0:0:0:0:
394,110,35364,2,0,L|400:63,1,40.4999987640381,2|0,0:0|0:0,0:0:0:0:
344,260,35650,6,0,P|312:268|254:237,1,90,4|0,1:2|0:0,0:0:0:0:
221,47,35936,2,0,P|192:33|125:69,1,90,4|0,1:2|0:0,0:0:0:0:
109,204,36222,2,0,P|133:208|168:198,1,45,2|0,0:0|0:0,0:0:0:0:
148,90,36507,2,0,P|151:69|129:42,1,45,2|0,0:0|0:0,0:0:0:0:
40,24,36793,1,2,0:0:0:0:
9,142,36936,2,0,L|13:190,2,45,2|0|0,0:0|0:0|0:0,0:0:0:0:
122,225,37365,2,0,L|182:241,1,45,2|0,0:0|0:0,0:0:0:0:
241,331,37650,2,0,L|292:319,1,45,2|0,0:0|0:0,0:0:0:0:
288,132,37936,5,6,1:2:0:0:
412,68,38079,2,0,L|414:-6,2,67.5000025749208,2|0|0,0:0|0:0|0:0,0:0:0:0:
493,188,38508,2,0,P|504:210|482:271,1,67.5000025749208,2|0,0:0|0:0,0:0:0:0:
317,319,38793,2,0,P|311:286|325:255,1,67.5000025749208,2|0,0:0|0:0,0:0:0:0:
469,368,39079,1,2,0:0:0:0:
317,319,39222,2,0,L|225:322,2,67.5000025749208,2|0|0,0:0|0:0|0:0,0:0:0:0:
478,259,39651,2,0,L|499:185,1,67.5000025749208,2|0,0:0|0:0,0:0:0:0:
273,227,39936,2,0,L|298:155,1,67.5000025749208,2|0,0:0|0:0,0:0:0:0:
494,34,40222,6,0,L|382:10,1,107.999996704102,4|0,1:2|0:0,0:0:0:0:
296,164,40507,2,0,L|185:140,1,107.999996704102,4|0,1:2|0:0,0:0:0:0:
28,46,40793,2,0,L|115:25,1,90,2|0,0:0|0:0,0:0:0:0:
21,214,41079,2,0,L|57:307,1,90,2|0,0:0|0:0,0:0:0:0:
214,126,41364,5,0,1:2:0:0:
345,283,41507,1,8,0:0:0:0:
312,94,41650,1,8,0:0:0:0:
426,233,41793,1,8,0:0:0:0:
204,202,41936,1,8,0:0:0:0:
256,295,42079,1,2,0:0:0:0:
160,341,42222,1,8,0:0:0:0:
109,248,42364,1,2,0:0:0:0:
256,69,42507,6,0,L|369:78,1,107.999996704102,4|0,1:2|0:0,0:0:0:0:
392,80,42722,1,0,0:0:0:0:
420,82,42793,1,8,0:0:0:0:
435,275,42936,1,0,0:0:0:0:
280,157,43079,1,0,1:2:0:0:
350,338,43222,1,0,0:0:0:0:
467,184,43364,1,8,0:0:0:0:
286,257,43507,1,0,0:0:0:0:
217,74,43650,2,0,P|268:56|328:68,1,107.999996704102,0|0,1:2|0:0,0:0:0:0:
102,238,43936,2,0,P|51:220|-9:232,1,107.999996704102,8|0,0:0|0:0,0:0:0:0:
144,359,44222,1,0,1:2:0:0:
282,224,44364,1,0,0:0:0:0:
70,139,44507,1,8,0:0:0:0:
253,334,44650,1,0,1:2:0:0:
477,142,44793,6,0,L|356:129,1,107.999996704102,4|0,1:2|0:0,0:0:0:0:
342,126,45007,1,0,0:0:0:0:
310,122,45079,1,8,0:0:0:0:
151,234,45222,1,0,0:0:0:0:
109,45,45364,1,0,1:2:0:0:
254,173,45507,1,0,0:0:0:0:
60,190,45650,1,8,0:0:0:0:
200,55,45793,1,0,0:0:0:0:
227,247,45936,2,0,L|240:354,1,107.999996704102,0|0,1:2|0:0,0:0:0:0:
384,131,46222,2,0,L|368:6,1,107.999996704102,8|0,0:0|0:0,0:0:0:0:
164,143,46507,1,0,1:2:0:0:
365,270,46650,1,0,1:2:0:0:
142,354,46793,1,8,1:2:0:0:
98,120,46936,1,0,1:2:0:0:
371,162,47079,6,0,L|363:294,1,107.999996704102,4|0,1:2|0:0,0:0:0:0:
362,301,47293,1,0,0:0:0:0:
359,335,47364,1,8,0:0:0:0:
228,256,47507,1,0,0:0:0:0:
256,64,47649,1,0,1:2:0:0:
120,201,47792,1,0,0:0:0:0:
314,204,47935,1,8,0:0:0:0:
165,80,48078,1,0,0:0:0:0:
228,256,48221,2,0,P|216:312|245:363,1,107.999996704102,0|0,1:2|0:0,0:0:0:0:
225,150,48507,1,8,1:2:0:0:
417,129,48650,2,0,P|442:176|439:230,1,107.999996704102
349,237,48935,1,0,0:0:0:0:
225,150,49078,1,8,0:0:0:0:
128,319,49221,1,0,1:2:0:0:
225,150,49364,6,0,P|273:142|327:175,1,107.999996704102,4|0,1:2|0:0,0:0:0:0:
333,196,49579,1,0,0:0:0:0:
333,224,49650,1,8,0:0:0:0:
447,111,49793,1,0,0:0:0:0:
210,83,49936,1,0,1:2:0:0:
411,26,50079,1,0,0:0:0:0:
309,237,50221,1,8,0:0:0:0:
298,48,50364,1,0,0:0:0:0:
162,240,50507,2,0,L|51:246,1,107.999996704102,0|0,1:2|0:0,0:0:0:0:
111,73,50793,2,0,L|216:104,1,107.999996704102,8|0,0:0|0:0,0:0:0:0:
349,237,51079,1,0,1:2:0:0:
298,48,51221,1,0,0:0:0:0:
138,206,51364,1,8,0:0:0:0:
371,126,51507,1,0,1:2:0:0:
138,206,51650,6,0,L|81:297,1,107.999996704102,4|0,1:2|0:0,0:0:0:0:
69,320,51864,1,0,0:0:0:0:
57,344,51936,1,8,0:0:0:0:
227,281,52079,1,0,0:0:0:0:
372,369,52221,1,0,1:2:0:0:
461,208,52364,1,0,0:0:0:0:
254,183,52507,1,8,0:0:0:0:
411,298,52650,1,0,0:0:0:0:
254,183,52793,2,0,L|130:180,1,107.999996704102,0|0,1:2|0:0,0:0:0:0:
317,52,53079,2,0,L|431:61,1,107.999996704102,8|0,0:0|0:0,0:0:0:0:
254,183,53364,1,0,1:2:0:0:
411,298,53507,1,0,1:2:0:0:
502,176,53650,1,8,1:2:0:0:
317,52,53793,1,0,1:2:0:0:
502,176,53936,6,0,L|496:270,1,90,4|0,1:2|0:0,0:0:0:0:
390,335,54222,2,0,L|406:220,1,90,2|0,0:0|0:0,0:0:0:0:
350,130,54507,2,0,P|307:126|243:158,1,90,2|0,0:0|0:0,0:0:0:0:
215,258,54793,2,0,P|167:260|124:211,1,90,2|0,0:0|0:0,0:0:0:0:
47,144,55079,2,0,L|73:58,1,67.5000025749208,2|0,0:0|0:0,0:0:0:0:
186,117,55364,2,0,L|150:39,1,67.5000025749208,2|0,0:0|0:0,0:0:0:0:
261,93,55650,2,0,L|286:39,1,49.5000015106202,2|0,0:0|0:0,0:0:0:0:
350,130,55936,2,0,L|400:96,1,49.5000015106202,2|0,0:0|0:0,0:0:0:0:
246,183,56222,5,0,1:0:0:0:
246,183,65364,6,0,P|182:227|170:143,1,180,4|0,1:2|0:0,0:0:0:0:
316,68,66222,2,0,P|305:102|320:143,1,67.5,2|0,0:0|0:0,0:0:0:0:
360,155,66507,2,0,P|424:185|350:230,1,180,2|0,0:0|0:0,0:0:0:0:
160,153,67364,2,0,L|90:152,1,67.5,2|0,0:0|0:0,0:0:0:0:
43,150,67650,2,0,P|27:189|53:246,1,90,2|0,0:0|0:0,0:0:0:0:
131,255,68079,2,0,P|131:281|123:311,1,45,2|0,0:0|0:0,0:0:0:0:
287,345,68507,2,0,P|321:356|356:336,1,67.5,2|0,0:0|0:0,0:0:0:0:
340,299,68793,6,0,P|312:241|369:150,1,180,2|0,0:0|0:0,0:0:0:0:
196,166,69650,2,0,L|124:165,1,67.5,2|0,0:0|0:0,0:0:0:0:
79,163,69936,2,0,P|69:123|89:72,1,90,2|0,0:0|0:0,0:0:0:0:
170,21,70364,1,2,0:0:0:0:
232,101,70507,2,0,L|290:102,1,45
320,28,70793,2,0,L|398:39,1,67.5,2|0,0:0|0:0,0:0:0:0:
422,55,71079,6,0,B|436:83|436:83|419:148,1,90,2|0,0:0|0:0,0:0:0:0:
332,145,71507,2,0,B|314:174|314:174|334:241,1,90,2|0,0:0|0:0,0:0:0:0:
421,252,71936,2,0,P|425:277|419:307,1,45,2|0,0:0|0:0,0:0:0:0:
340,320,72222,2,0,L|280:314,1,45,2|0,0:0|0:0,0:0:0:0:
266,313,72436,1,0,3:0:0:0:
234,306,72507,1,0,3:0:0:0:
93,275,72650,1,0,3:0:0:0:
93,275,72722,1,0,3:0:0:0:
93,275,72793,1,0,3:0:0:0:
188,110,72936,1,0,3:0:0:0:
188,110,73007,1,0,3:0:0:0:
188,110,73079,1,0,3:0:0:0:
429,180,73364,5,0,1:0:0:0:
429,180,74507,6,0,P|438:233|408:283,1,90,4|0,1:2|0:0,0:0:0:0:
315,330,74793,2,0,P|293:294|317:243,1,90,8|0,0:2|0:0,0:0:0:0:
429,180,75079,1,2,0:0:0:0:
328,103,75222,1,0,1:2:0:0:
216,160,75364,2,0,P|205:107|218:54,1,90,10|0,0:2|0:0,0:0:0:0:
101,7,75650,1,2,0:0:0:0:
22,105,75793,1,0,1:2:0:0:
78,217,75936,2,0,B|86:260|86:260|51:321,1,90,8|0,0:2|0:0,0:0:0:0:
170,368,76222,1,2,0:0:0:0:
211,249,76364,1,0,1:2:0:0:
337,244,76507,2,0,L|376:347,1,90,8|0,0:2|0:0,0:0:0:0:
435,220,76793,6,0,L|468:304,1,90,4|0,1:2|0:0,0:0:0:0:
417,94,77079,2,0,L|328:129,1,90,10|0,0:2|0:0,0:0:0:0:
202,69,77364,1,2,0:0:0:0:
339,43,77507,1,0,1:2:0:0:
249,152,77650,1,10,0:2:0:0:
254,10,77793,1,2,0:0:0:0:
254,10,77864,1,2,0:0:0:0:
254,10,77936,1,2,0:0:0:0:
333,127,78079,1,0,1:2:0:0:
404,225,78222,2,0,P|360:244|314:230,1,90,10|0,0:2|0:0,0:0:0:0:
217,161,78507,1,2,0:0:0:0:
114,234,78650,1,0,1:2:0:0:
237,259,78793,2,0,L|260:357,1,90,10|0,0:2|0:0,0:0:0:0:
320,234,79079,6,0,L|342:331,1,90,4|0,1:2|0:0,0:0:0:0:
454,268,79364,2,0,B|467:230|467:230|433:162,1,90,10|0,0:2|0:0,0:0:0:0:
328,134,79650,1,2,0:0:0:0:
409,38,79793,1,0,1:2:0:0:
282,35,79936,2,0,P|230:49|178:19,1,90,10|0,0:2|0:0,0:0:0:0:
72,12,80222,1,2,0:0:0:0:
133,121,80364,1,0,1:2:0:0:
7,133,80507,2,0,P|-4:172|10:227,1,90,10|0,0:2|0:0,0:0:0:0:
132,217,80793,1,2,0:0:0:0:
74,329,80936,1,0,1:2:0:0:
200,333,81079,2,0,P|244:325|295:354,1,90,10|0,0:2|0:0,0:0:0:0:
406,311,81364,6,0,L|397:207,1,90,6|0,1:2|0:0,0:0:0:0:
272,236,81650,2,0,L|281:126,1,90,10|0,0:2|0:0,0:0:0:0:
350,40,81936,1,2,0:0:0:0:
462,97,82079,1,0,1:2:0:0:
488,226,82222,2,0,L|373:220,1,90,10|0,0:2|0:0,0:0:0:0:
301,192,82507,1,2,0:0:0:0:
229,295,82650,1,0,1:2:0:0:
156,191,82793,2,0,P|108:174|65:197,1,90,10|0,0:2|0:0,0:0:0:0:
29,307,83079,1,2,0:0:0:0:
134,375,83222,1,0,1:2:0:0:
229,295,83364,2,0,P|277:304|322:275,1,90,10|0,0:2|0:0,0:0:0:0:
436,258,83650,6,0,L|452:163,1,90,4|0,1:2|0:0,0:0:0:0:
303,208,83936,2,0,L|325:120,1,90,8|0,0:2|0:0,0:0:0:0:
404,21,84222,1,2,0:0:0:0:
279,4,84365,1,0,1:2:0:0:
324,120,84507,2,0,B|300:219,1,90,10|0,0:2|0:0,0:0:0:0:
244,320,84793,1,2,0:0:0:0:
118,330,84936,1,0,1:2:0:0:
29,240,85079,2,0,B|55:220|55:220|42:141,1,90,8|0,0:2|0:0,0:0:0:0:
29,37,85365,1,2,0:0:0:0:
127,114,85507,1,0,1:2:0:0:
234,48,85650,2,0,P|278:63|326:32,1,90,8|0,0:2|0:0,0:0:0:0:
423,112,85936,6,0,P|371:110|342:133,1,90,4|0,1:2|0:0,0:0:0:0:
344,258,86222,2,0,P|300:274|249:236,1,90,10|0,0:2|0:0,0:0:0:0:
128,218,86507,1,2,0:0:0:0:
256,160,86650,1,0,1:2:0:0:
177,282,86793,1,10,0:2:0:0:
180,148,86936,1,2,0:0:0:0:
180,148,87007,1,2,0:0:0:0:
180,148,87079,1,2,0:0:0:0:
263,258,87222,1,0,1:2:0:0:
128,218,87365,2,0,P|80:203|33:227,1,90,10|0,0:2|0:0,0:0:0:0:
19,339,87650,1,2,0:0:0:0:
139,375,87793,1,0,1:2:0:0:
238,297,87936,2,0,P|281:296|329:325,1,90,10|0,0:2|0:0,0:0:0:0:
302,191,88222,6,0,P|356:192|395:231,1,90,4|0,1:2|0:0,0:0:0:0:
496,156,88507,2,0,L|485:52,1,90,10|0,0:2|0:0,0:0:0:0:
367,21,88793,1,2,0:0:0:0:
281,113,88936,1,0,1:2:0:0:
182,33,89079,2,0,P|128:34|96:66,1,90,10|0,0:2|0:0,0:0:0:0:
59,175,89365,1,2,0:0:0:0:
181,147,89507,1,0,1:2:0:0:
290,209,89650,2,0,B|274:253|274:253|313:296,1,90,10|0,0:2|0:0,0:0:0:0:
412,350,89936,1,2,0:0:0:0:
498,258,90079,1,0,1:2:0:0:
388,195,90222,2,0,B|369:146|369:146|401:110,1,90,8|0,0:2|0:0,0:0:0:0:
270,57,90507,6,0,P|214:41|169:64,1,107.999996704102,6|0,1:2|0:0,0:0:0:0:
31,203,90793,2,0,P|91:221|139:188,1,107.999996704102,10|0,0:2|0:0,0:0:0:0:
270,57,91079,2,0,L|304:175,1,107.999996704102,2|0,0:0|0:0,0:0:0:0:
214,374,91364,2,0,L|184:263,1,107.999996704102,2|0,0:0|0:0,0:0:0:0:
31,203,91650,1,2,1:2:0:0:
33,219,91722,1,0,3:0:0:0:
35,234,91793,1,0,3:0:0:0:
37,249,91864,1,0,3:0:0:0:
41,263,91936,2,0,P|115:297|201:254,1,161.999995056153,2|0,0:0|0:0,0:0:0:0:
263,224,92222,2,0,P|275:253|269:277,3,53.9999983520508,2|0|0|0,0:0|0:0|0:0|0:0,0:0:0:0:
352,250,92507,1,2,0:0:0:0:
186,270,92650,1,0,0:0:0:0:
439,233,92793,6,0,P|449:169|399:105,1,125.999996154785,4|2,1:2|0:0,0:0:0:0:
274,32,93079,2,0,P|334:9|407:42,1,125.999996154785,8|2,0:0|0:0,0:0:0:0:
285,144,93364,2,0,P|214:165|159:122,1,125.999996154785,0|2,1:2|0:0,0:0:0:0:
70,35,93650,1,8,0:0:0:0:
172,141,93793,2,0,P|139:196|155:278,2,125.999996154785,2|0|2,0:0|1:2|0:0,0:0:0:0:
318,37,94222,2,0,L|459:19,1,125.999996154785,8|2,0:0|0:0,0:0:0:0:
264,169,94507,2,0,P|292:224|267:303,1,125.999996154785,0|2,1:2|0:0,0:0:0:0:
154,233,94793,1,8,0:0:0:0:
386,196,94936,1,0,1:2:0:0:
249,30,95079,5,4,1:2:0:0:
264,169,95222,1,2,0:0:0:0:
59,136,95364,2,0,P|39:194|64:250,1,125.999996154785,8|2,0:0|0:0,0:0:0:0:
209,363,95650,2,0,P|228:304|203:248,1,125.999996154785,0|2,1:2|0:0,0:0:0:0:
59,136,95936,1,8,0:0:0:0:
199,39,96079,2,0,L|346:64,1,125.999996154785,2|0,0:0|1:2,0:0:0:0:
494,102,96364,1,2,0:0:0:0:
320,222,96507,2,0,L|455:210,1,125.999996154785,8|2,0:0|0:0,0:0:0:0:
269,175,96793,1,0,1:2:0:0:
359,316,96936,1,2,0:0:0:0:
151,190,97079,1,8,0:0:0:0:
112,323,97222,1,2,0:0:0:0:
54,137,97364,6,0,P|86:84|157:57,1,125.999996154785,4|2,1:2|0:0,0:0:0:0:
299,154,97650,2,0,P|266:207|210:233,1,125.999996154785,8|2,0:0|0:0,0:0:0:0:
96,56,97936,2,0,P|147:22|223:27,1,125.999996154785,0|2,1:2|0:0,0:0:0:0:
323,198,98222,2,0,P|271:233|209:232,1,125.999996154785,8|2,0:0|0:0,0:0:0:0:
168,12,98507,2,0,P|229:4|295:40,1,125.999996154785,0|2,1:2|0:0,0:0:0:0:
289,225,98793,2,0,P|228:235|172:208,1,125.999996154785,8|2,0:0|0:0,0:0:0:0:
359,63,99079,1,0,1:2:0:0:
331,277,99222,1,0,1:2:0:0:
433,47,99364,1,8,0:0:0:0:
441,271,99507,1,0,0:0:0:0:
285,19,99650,6,0,P|255:60|276:144,1,125.999996154785,4|2,1:2|0:0,0:0:0:0:
396,232,99936,2,0,P|426:191|405:107,1,125.999996154785,8|2,0:0|0:0,0:0:0:0:
200,29,100222,2,0,P|190:79|244:147,1,125.999996154785,0|2,1:2|0:0,0:0:0:0:
399,169,100508,2,0,P|409:119|355:51,1,125.999996154785,8|2,0:0|0:0,0:0:0:0:
120,95,100793,2,0,P|132:144|210:182,1,125.999996154785,0|2,1:2|0:0,0:0:0:0:
376,110,101079,2,0,P|364:61|286:23,1,125.999996154785,8|2,0:0|0:0,0:0:0:0:
239,250,101364,2,0,P|182:300|99:287,1,135,0|0,1:2|0:0,0:0:0:0:
67,349,101650,2,0,P|35:286|77:212,1,135,0|0,1:2|0:0,0:0:0:0:
125,181,101936,6,0,P|135:117|85:53,1,125.999996154785,4|2,1:2|0:0,0:0:0:0:
255,32,102222,2,0,L|409:16,1,125.999996154785,8|2,0:0|0:0,0:0:0:0:
335,191,102507,2,0,P|356:262|313:317,1,125.999996154785,0|2,1:2|0:0,0:0:0:0:
206,229,102793,1,8,0:0:0:0:
434,165,102936,1,2,0:0:0:0:
206,229,103079,1,0,1:2:0:0:
240,87,103222,1,2,0:0:0:0:
88,24,103365,2,0,P|55:68|80:157,1,125.999996154785,8|2,0:0|0:0,0:0:0:0:
12,321,103650,2,0,P|40:266|15:187,1,125.999996154785,0|2,1:2|0:0,0:0:0:0:
161,78,103936,1,8,0:0:0:0:
181,206,104079,1,2,0:0:0:0:
357,53,104222,5,4,1:2:0:0:
284,154,104365,1,2,0:0:0:0:
479,120,104507,2,0,P|499:178|474:234,1,125.999996154785,8|2,0:0|0:0,0:0:0:0:
286,353,104793,2,0,P|267:294|292:238,1,125.999996154785,0|2,1:2|0:0,0:0:0:0:
479,120,105079,1,8,0:0:0:0:
292,52,105222,2,0,P|233:75|167:30,1,125.999996154785,2|0,0:0|1:2,0:0:0:0:
35,21,105507,1,2,0:0:0:0:
83,206,105650,2,0,L|36:344,1,125.999996154785,8|2,0:0|0:0,0:0:0:0:
204,153,105936,1,0,1:2:0:0:
216,279,106079,1,2,0:0:0:0:
31,143,106222,1,8,0:0:0:0:
179,49,106365,1,0,1:2:0:0:
370,160,106507,5,12,0:0:0:0:
294,310,106650,1,0,1:2:0:0:
358,146,106793,5,8,0:0:0:0:
305,323,106936,1,0,1:2:0:0:
344,133,107079,5,8,0:0:0:0:
319,336,107222,1,0,1:2:0:0:
325,123,107364,5,8,0:0:0:0:
338,346,107507,1,0,1:2:0:0:
304,115,107650,5,8,0:0:0:0:
359,354,107793,1,0,1:2:0:0:
217,108,107936,5,8,0:0:0:0:
453,231,108079,2,0,B|407:239|407:239|381:261|381:261|313:271,1,125.999996154785,8|0,0:0|0:0,0:0:0:0:
422,72,108364,5,8,0:0:0:0:
220,211,108507,1,8,0:0:0:0:
397,43,108650,1,8,0:0:0:0:
161,31,108793,6,0,P|159:59|178:102,1,62.9999980773926,12|0,0:0|0:0,0:0:0:0:
80,123,108936,2,0,P|93:147|132:173,1,62.9999980773926,8|0,0:0|0:0,0:0:0:0:
48,236,109079,2,0,P|70:253|116:261,1,62.9999980773926,8|0,0:0|0:0,0:0:0:0:
89,357,109222,2,0,P|120:363|156:344,1,62.9999980773926,8|0,0:0|0:0,0:0:0:0:
238,367,109364,2,0,P|253:339|246:299,1,62.9999980773926,8|0,0:0|0:0,0:0:0:0:
342,286,109507,2,0,P|334:255|301:230,1,62.9999980773926,8|0,0:0|0:0,0:0:0:0:
336,146,109650,2,0,P|305:138|268:155,1,62.9999980773926,8|0,0:0|0:0,0:0:0:0:
197,119,109793,2,0,P|187:149|202:186,1,62.9999980773926,8|0,0:0|0:0,0:0:0:0:
236,240,109936,6,0,P|203:256|164:243,1,67.5000025749208,4|0,1:2|0:0,0:0:0:0:
105,186,110222,1,2,0:0:0:0:
105,186,110364,1,0,0:0:0:0:
21,260,110507,2,0,P|8:211|29:166,1,101.250003862381,2|0,0:0|0:0,0:0:0:0:
55,133,110793,2,0,P|60:96|47:60,1,74.2500022659302,2|0,0:0|0:0,0:0:0:0:
39,30,111079,5,2,0:0:0:0:
256,192,111150,12,0,113364,1:0:0:0:
39,30,122507,6,0,P|64:80|28:127,1,107.999996704102,12|0,0:0|0:0,0:0:0:0:
32,260,122793,2,0,P|7:310|43:357,1,107.999996704102,8|0,0:0|0:0,0:0:0:0:
215,209,123079,2,0,P|166:185|117:210,1,107.999996704102,8|0,0:0|0:0,0:0:0:0:
189,350,123364,1,8,0:0:0:0:
337,251,123507,1,2,0:0:0:0:
337,251,123579,1,0,0:0:0:0:
337,251,123650,2,0,L|311:138,1,107.999996704102,8|0,0:0|0:0,0:0:0:0:
249,18,123936,2,0,P|301:12|368:37,1,107.999996704102,8|0,0:0|0:0,0:0:0:0:
467,111,124222,2,0,B|449:136|449:136|457:220,1,107.999996704102,8|0,0:0|0:0,0:0:0:0:
385,352,124507,1,8,0:0:0:0:
220,320,124650,1,0,0:0:0:0:
220,320,124722,1,2,0:0:0:0:
220,320,124793,6,0,P|164:311|119:342,1,107.999996704102,8|0,0:0|0:0,0:0:0:0:
21,208,125079,2,0,P|12:158|44:105,1,107.999996704102,8|0,0:0|0:0,0:0:0:0:
208,15,125364,2,0,P|218:68|175:131,1,107.999996704102,8|2,0:0|0:0,0:0:0:0:
77,283,125650,1,8,0:0:0:0:
251,216,125793,1,2,0:0:0:0:
251,216,125864,1,0,0:0:0:0:
251,216,125936,2,0,L|273:92,1,107.999996704102,8|0,0:0|0:0,0:0:0:0:
411,45,126222,2,0,L|407:162,1,107.999996704102,8|0,0:0|0:0,0:0:0:0:
251,216,126507,2,0,L|273:92,1,107.999996704102,8|0,0:0|0:0,0:0:0:0:
411,45,126793,2,0,L|407:162,1,107.999996704102,8|0,0:0|0:0,0:0:0:0:
401,316,127079,5,12,0:0:0:0:
270,109,127222,1,8,0:0:0:0:
155,315,127364,1,8,0:0:0:0:
24,108,127507,1,8,0:0:0:0:
34,89,127650,5,8,0:0:0:0:
165,296,127793,1,8,0:0:0:0:
280,90,127935,1,8,0:0:0:0:
411,297,128078,1,8,0:0:0:0:
420,282,128222,5,8,0:0:0:0:
179,206,128364,1,8,0:0:0:0:
417,125,128507,1,8,0:0:0:0:
176,49,128650,1,8,0:0:0:0:
163,33,128793,5,8,0:0:0:0:
404,109,128936,1,8,0:0:0:0:
166,190,129079,1,8,0:0:0:0:
407,266,129221,1,8,0:0:0:0:
85,102,129364,5,12,0:0:0:0:
85,102,130507,6,0,L|144:102,3,45,0|0|0|0,1:0|0:0|0:0|0:0,0:0:0:0:
184,36,130793,2,0,P|218:98|164:179,1,175.499991966248,2|0,0:0|0:0,0:0:0:0:
78,188,131079,2,0,P|104:243|234:235,1,202.500007724762,2|0,0:0|0:0,0:0:0:0:
282,160,131364,1,0,1:0:0:0:
282,160,131650,6,0,P|325:216|308:291,1,135.000005149842,4|0,1:2|0:0,0:0:0:0:
113,304,131936,2,0,P|70:248|87:173,1,135.000005149842,8|0,0:0|0:0,0:0:0:0:
179,42,132222,2,0,P|247:65|324:31,1,135.000005149842,0|0,1:2|0:0,0:0:0:0:
427,8,132436,2,0,P|465:3|501:25,1,67.5000025749208,2|8,0:0|0:0,0:0:0:0:
453,126,132650,2,0,P|418:129|382:110,1,67.5000025749208,2|2,0:0|0:0,0:0:0:0:
305,46,132793,1,0,1:2:0:0:
241,196,132936,1,0,0:0:0:0:
438,251,133079,2,0,P|465:191|453:126,1,135.000005149842,8|0,0:0|0:0,0:0:0:0:
305,46,133364,2,0,P|241:75|184:29,1,135.000005149842,0|0,1:2|0:0,0:0:0:0:
49,74,133650,1,8,0:0:0:0:
143,201,133793,1,0,0:0:0:0:
305,46,133936,6,0,P|351:112|317:176,1,135.000005149842,4|0,1:2|0:0,0:0:0:0:
262,315,134222,2,0,P|219:259|236:184,1,135.000005149842,8|0,0:0|0:0,0:0:0:0:
305,46,134508,2,0,P|373:23|450:57,1,135.000005149842,0|0,1:2|0:0,0:0:0:0:
485,139,134722,2,0,L|490:218,1,67.5000025749208,2|8,0:0|0:0,0:0:0:0:
394,308,134936,2,0,L|359:246,1,67.5000025749208,2|2,0:0|0:0,0:0:0:0:
256,152,135079,2,0,L|403:156,1,135.000005149842,0|0,1:2|0:0,0:0:0:0:
191,69,135364,2,0,L|40:89,1,135.000005149842,8|0,0:0|0:0,0:0:0:0:
33,298,135650,2,0,L|166:280,1,135.000005149842,0|0,1:2|0:0,0:0:0:0:
345,166,135936,1,8,0:0:0:0:
267,289,136079,1,0,0:0:0:0:
33,298,136222,6,0,P|53:236|12:170,1,135.000005149842,4|0,1:2|0:0,0:0:0:0:
165,25,136507,2,0,P|138:79|178:145,1,135.000005149842,8|0,0:0|0:0,0:0:0:0:
331,67,136793,2,0,P|397:54|465:101,1,135.000005149842,0|0,1:2|0:0,0:0:0:0:
410,175,137007,2,0,P|403:206|422:249,1,67.5000025749208,2|8,0:0|0:0,0:0:0:0:
478,340,137222,2,0,P|446:353|391:343,1,67.5000025749208,2|2,0:0|0:0,0:0:0:0:
285,297,137364,2,0,L|131:313,1,135.000005149842,0|0,1:2|0:0,0:0:0:0:
17,159,137650,2,0,L|165:178,1,135.000005149842,8|0,0:0|0:0,0:0:0:0:
337,203,137936,2,0,L|197:237,1,135.000005149842,0|0,1:2|0:0,0:0:0:0:
28,235,138222,1,8,0:0:0:0:
213,241,138364,1,0,0:0:0:0:
213,241,138436,1,0,0:0:0:0:
213,241,138507,6,0,P|239:182|210:109,1,135.000005149842,4|0,1:2|0:0,0:0:0:0:
47,23,138793,2,0,P|20:81|59:134,1,135.000005149842,8|0,0:0|0:0,0:0:0:0:
271,246,139079,2,0,P|259:183|200:157,1,135.000005149842,0|0,1:2|0:0,0:0:0:0:
0,192,139365,2,0,P|12:256|72:282,1,135.000005149842,8|0,0:0|0:0,0:0:0:0:
338,233,139650,2,0,P|292:187|228:201,1,135.000005149842,0|0,1:2|0:0,0:0:0:0:
48,329,139936,2,0,P|94:375|158:361,1,135.000005149842,8|0,0:0|0:0,0:0:0:0:
380,176,140222,2,0,P|316:165|272:212,1,135.000005149842,0|0,1:2|0:0,0:0:0:0:
395,360,140507,1,8,0:0:0:0:
471,160,140650,1,0,1:2:0:0:
261,137,140793,6,0,L|130:88,1,135.000005149842,4|0,1:2|0:0,0:0:0:0:
320,38,141079,2,0,L|459:88,1,135.000005149842,8|0,0:0|0:0,0:0:0:0:
301,214,141365,2,0,P|324:282|290:359,1,135.000005149842,0|0,1:2|0:0,0:0:0:0:
205,295,141579,2,0,P|175:290|125:308,1,67.5000025749208,2|8,0:0|0:0,0:0:0:0:
39,308,141793,2,0,P|41:272|70:233,1,67.5000025749208,2|2,0:0|0:0,0:0:0:0:
148,172,141936,1,0,1:2:0:0:
46,70,142079,1,0,0:0:0:0:
148,172,142222,2,0,P|216:185|282:137,1,135.000005149842,8|0,0:0|0:0,0:0:0:0:
394,7,142507,2,0,L|451:155,1,135.000005149842,0|0,1:2|0:0,0:0:0:0:
418,308,142793,1,8,0:0:0:0:
328,191,142936,1,0,0:0:0:0:
153,304,143079,6,0,P|80:325|42:269,1,135.000005149842,4|0,1:2|0:0,0:0:0:0:
82,107,143365,2,0,L|103:240,1,135.000005149842,8|0,0:0|0:0,0:0:0:0:
285,356,143650,2,0,P|319:365|353:353,1,67.5000025749208,0|0,1:2|0:0,0:0:0:0:
452,303,143793,2,0,P|467:261|418:171,1,135.000005149842,2|8,0:0|0:0,0:0:0:0:
290,237,144079,1,2,0:0:0:0:
442,53,144222,2,0,P|395:7|332:20,1,135.000005149842,0|0,1:2|0:0,0:0:0:0:
203,104,144508,2,0,P|256:154|319:141,1,135.000005149842,8|0,0:0|0:0,0:0:0:0:
442,53,144793,2,0,P|456:126|416:200,1,135.000005149842,0|0,1:2|0:0,0:0:0:0:
315,296,145079,1,8,1:2:0:0:
464,360,145222,1,0,1:2:0:0:
500,186,145364,6,0,P|451:166|381:174,1,107.999996704102,4|0,1:2|0:0,0:0:0:0:
315,296,145650,2,0,L|146:231,1,161.999995056153,0|0,0:0|0:0,0:0:0:0:
88,201,145936,2,0,P|69:241|98:311,1,107.999996704102,0|0,1:2|0:0,0:0:0:0:
147,342,146150,1,0,1:2:0:0:
252,106,146364,1,0,1:2:0:0:
396,220,146507,5,4,1:2:0:0:
115,25,147079,5,4,1:2:0:0:
147,342,147650,5,4,1:2:0:0:
147,342,148793,6,0,L|271:341,1,90,0|0,1:2|0:0,0:0:0:0:
149,319,149079,2,0,L|239:319,1,90,0|0,1:2|0:0,0:0:0:0:
415,265,149364,2,0,L|459:265,3,45,0|0|0|0,1:2|0:0|0:0|0:0,0:0:0:0:
451,341,149650,1,0,1:2:0:0:
344,118,149793,1,0,0:0:0:0:
51,151,149936,6,0,B|151:143|151:143|189:70,1,161.999995056153,4|0,1:2|0:0,0:0:0:0:
128,25,150222,1,8,0:0:0:0:
51,151,150364,1,0,0:0:0:0:
172,240,150507,2,0,B|227:233|227:233|274:256|274:256|334:246,1,161.999995056153,0|0,1:2|0:0,0:0:0:0:
412,227,150793,1,8,0:0:0:0:
443,54,150936,1,2,0:0:0:0:
430,52,151007,1,0,0:0:0:0:
418,49,151079,2,0,B|367:40|367:40|323:78,1,107.999996704102,0|0,1:2|0:0,0:0:0:0:
439,320,151364,2,0,B|448:269|448:269|410:225,1,107.999996704102,8|0,0:0|0:0,0:0:0:0:
190,171,151650,2,0,B|229:204|229:204|286:193,1,107.999996704102,0|0,1:2|0:0,0:0:0:0:
147,37,151936,1,8,0:0:0:0:
34,265,152079,1,2,0:0:0:0:
276,337,152222,6,0,L|383:324,1,107.999996704102,4|0,1:2|0:0,0:0:0:0:
462,192,152507,1,8,0:0:0:0:
462,192,152650,1,0,0:0:0:0:
276,47,152793,2,0,L|383:60,1,107.999996704102,0|0,1:2|0:0,0:0:0:0:
261,207,153079,1,8,0:0:0:0:
156,73,153222,1,2,0:0:0:0:
139,81,153293,1,0,0:0:0:0:
121,86,153364,2,0,P|67:97|7:69,1,107.999996704102,0|0,1:2|0:0,0:0:0:0:
18,305,153650,2,0,P|68:286|121:298,1,107.999996704102,8|0,0:0|0:0,0:0:0:0:
260,366,153936,1,0,1:2:0:0:
427,170,154079,1,2,0:0:0:0:
200,154,154222,1,8,0:0:0:0:
379,283,154364,1,2,0:0:0:0:
322,61,154507,6,0,B|264:69|264:69|225:35|163:53,1,161.999995056153,4|0,1:2|0:0,0:0:0:0:
75,113,154793,1,8,0:0:0:0:
209,226,154936,1,0,0:0:0:0:
354,131,155079,2,0,B|447:78|447:78|476:127,1,161.999995056153,0|0,1:2|0:0,0:0:0:0:
510,211,155364,1,8,0:0:0:0:
356,347,155507,1,2,0:0:0:0:
150,265,155650,2,0,P|98:284|61:331,1,107.999996704102,0|0,1:2|0:0,0:0:0:0:
234,126,155936,2,0,P|191:90|132:81,1,107.999996704102,8|0,0:0|0:0,0:0:0:0:
397,129,156222,2,0,P|406:74|384:18,1,107.999996704102,0|0,1:2|0:0,0:0:0:0:
472,284,156507,1,8,0:0:0:0:
208,214,156650,1,2,0:0:0:0:
481,71,156793,6,0,P|446:113|391:129,1,107.999996704102,4|0,1:2|0:0,0:0:0:0:
123,156,157079,2,0,P|158:198|213:214,1,107.999996704102,8|0,0:0|0:0,0:0:0:0:
477,246,157364,2,0,P|442:288|387:304,1,107.999996704102,0|0,1:2|0:0,0:0:0:0:
146,285,157650,1,8,0:0:0:0:
243,57,157793,1,2,0:0:0:0:
297,349,157936,2,0,L|271:231,1,107.999996704102,0|0,1:2|0:0,0:0:0:0:
180,24,158222,2,0,L|156:129,1,107.999996704102,8|0,0:0|0:0,0:0:0:0:
64,348,158507,2,0,L|38:230,1,107.999996704102,0|0,1:2|0:0,0:0:0:0:
246,103,158793,2,0,L|256:157,1,53.9999983520508,8|0,0:0|0:0,0:0:0:0:
376,300,158936,2,0,L|392:236,1,53.9999983520508,0|0,1:2|0:0,0:0:0:0:
261,281,159079,6,0,P|207:302|153:276,1,107.999996704102,4|0,1:2|0:0,0:0:0:0:
246,103,159364,1,8,0:0:0:0:
378,299,159507,1,2,0:0:0:0:
497,97,159650,2,0,P|443:76|389:102,1,107.999996704102,0|0,1:2|0:0,0:0:0:0:
261,280,159936,1,8,0:0:0:0:
166,83,160079,1,0,1:2:0:0:
80,310,160222,2,0,P|38:285|39:211,1,107.999996704102,0|0,1:2|0:0,0:0:0:0:
209,218,160507,1,8,0:0:0:0:
67,40,160650,1,2,0:0:0:0:
272,19,160793,2,0,P|304:61|283:123,1,107.999996704102,0|0,1:2|0:0,0:0:0:0:
139,116,161079,1,8,0:0:0:0:
382,44,161222,1,0,1:2:0:0:
209,218,161364,6,0,L|227:339,1,107.999996704102,4|0,1:2|0:0,0:0:0:0:
403,369,161650,1,8,0:0:0:0:
493,257,161793,2,0,L|461:145,1,107.999996704102,2|0,0:0|1:2,0:0:0:0:
326,8,162079,1,2,0:0:0:0:
361,232,162222,1,8,0:0:0:0:
480,54,162364,1,0,1:2:0:0:
256,221,162507,2,0,P|206:241|133:230,1,107.999996704102,0|0,1:2|0:0,0:0:0:0:
41,76,162793,2,0,P|87:53|163:67,1,107.999996704102,8|0,0:0|0:0,0:0:0:0:
256,221,163079,1,0,1:2:0:0:
302,46,163222,1,0,0:0:0:0:
385,208,163364,1,8,0:0:0:0:
396,95,163507,1,2,0:0:0:0:
234,318,163650,6,0,B|176:310|176:310|137:344|75:326,1,161.999995056153,4|0,1:2|0:0,0:0:0:0:
12,256,163936,1,8,0:0:0:0:
150,55,164079,1,0,0:0:0:0:
196,243,164222,1,0,1:2:0:0:
302,46,164364,2,0,P|372:49|353:186,1,215.999993408203,2|2,0:0|0:0,0:0:0:0:
196,243,164793,2,0,P|246:267|300:239,1,107.999996704102,0|0,1:2|0:0,0:0:0:0:
247,131,165079,1,8,0:0:0:0:
117,310,165222,1,0,0:0:0:0:
364,286,165364,1,0,1:2:0:0:
429,123,165507,2,0,P|434:37|488:129,1,269.999991760254,2|0,0:0|0:0,0:0:0:0:
448,219,165936,6,0,P|436:267|482:319,1,107.999996704102,4|2,1:2|0:0,0:0:0:0:
314,210,166222,1,8,0:0:0:0:
381,375,166364,1,0,1:2:0:0:
183,307,166507,2,0,P|130:286|80:320,1,107.999996704102,0|2,1:2|0:0,0:0:0:0:
146,159,166793,1,8,0:0:0:0:
233,374,166936,1,2,0:0:0:0:
319,236,167079,2,0,L|396:241,1,53.9999983520508,4|0,1:2|3:0,0:0:0:0:
474,155,167222,2,0,L|397:137,1,53.9999983520508,0|0,3:0|3:0,0:0:0:0:
372,39,167364,1,0,3:0:0:0:
343,36,167436,1,0,3:0:0:0:
314,33,167507,1,0,3:0:0:0:
285,30,167579,1,0,3:0:0:0:
256,29,167650,2,0,P|241:60|245:101,1,53.9999983520508,0|0,3:0|3:0,0:0:0:0:
282,167,167793,2,0,P|297:136|293:95,1,53.9999983520508,0|0,3:0|3:0,0:0:0:0:
240,79,167936,2,0,L|70:81,1,161.999995056153,0|0,0:0|0:0,0:0:0:0:
8,81,168222,5,4,1:2:0:0:
