osu file format v14

[General]
AudioFilename: audio.mp3
AudioLeadIn: 0
PreviewTime: 41936
Countdown: 0
SampleSet: Soft
StackLeniency: 0.7
Mode: 3
LetterboxInBreaks: 0
SpecialStyle: 0
WidescreenStoryboard: 0

[Editor]
Bookmarks: 222,9364,18507,24222,33364,42507,56222,65364,74507,92793,111079,113364,122507,131650,149936,168222
DistanceSpacing: 1.4
BeatDivisor: 4
GridSize: 4
TimelineZoom: 2.1

[Metadata]
Title:Ad Astra
TitleUnicode:Ad Astra
Artist:Fractal Dreamers
ArtistUnicode:Fractal Dreamers
Creator:Keiga
Version:ZIEL VS DRAGO: TO THE STARS
Source:osu!
Tags:-ziel- kamuy dragolord helblinde skymuted monolithia featured artist fa mappers' guild mg drum and & n bass dnb d&b electronic instrumental
BeatmapID:2321901
BeatmapSetID:1096683

[Difficulty]
HPDrainRate:8.5
CircleSize:4
OverallDifficulty:8
ApproachRate:5
SliderMultiplier:1.4
SliderTickRate:1

[Events]
//Background and Video events
0,0,"oops i crashed the spaceship.jpg",0,0
//Break Periods
//Storyboard Layer 0 (Background)
//Storyboard Layer 1 (Fail)
//Storyboard Layer 2 (Pass)
//Storyboard Layer 3 (Foreground)
//Storyboard Layer 4 (Overlay)
//Storyboard Sound Samples

[TimingPoints]
222,285.714285714286,4,2,1,50,1,0
9364,-100.0,4,2,1,60,0,0
24222,-100.0,4,2,1,70,0,0
33364,-100.0,4,2,1,60,0,0
37936,-100.0,4,2,1,70,0,0
41364,-100.0,4,2,1,60,0,0
42507,-100.0,4,2,1,80,0,1
53936,-100.0,4,2,1,60,0,0
56222,-100.0,4,2,1,50,0,0
65364,-100.0,4,2,1,60,0,0
74507,-100.0,4,2,1,70,0,0
91650,-100.0,4,2,1,60,0,0
92793,-100.0,4,2,1,80,0,1
101364,-100.0,4,2,1,80,0,0
101936,-100.0,4,2,1,80,0,1
109936,-100.0,4,2,1,70,0,0
113364,-100.0,4,2,1,60,0,0
122507,-100.0,4,2,1,70,0,0
130507,-100.0,4,2,1,60,0,0
131650,-100.0,4,2,1,80,0,1
145364,-100.0,4,2,1,80,0,0
147650,-100.0,4,2,1,70,0,0
149936,-100.0,4,2,1,80,0,1
167079,-100.0,4,2,1,70,0,0

[HitObjects]
192,192,222,128,0,364:0:0:0:0:
320,192,507,128,0,650:0:0:0:0:
448,192,650,128,0,793:0:0:0:0:
192,192,793,128,0,936:0:0:0:0:
320,192,1079,128,0,1222:0:0:0:0:
448,192,1222,128,0,1364:0:0:0:0:
192,192,1364,128,0,1507:0:0:0:0:
320,192,1650,128,0,1793:0:0:0:0:
448,192,1793,128,0,1936:0:0:0:0:
192,192,1936,128,0,2079:0:0:0:0:
320,192,2222,128,0,2364:0:0:0:0:
448,192,2364,128,0,2507:0:0:0:0:
192,192,2507,128,0,2650:0:0:0:0:
320,192,2793,128,0,2936:0:0:0:0:
448,192,2936,128,0,3079:0:0:0:0:
192,192,3079,128,0,3222:0:0:0:0:
320,192,3364,128,0,3507:0:0:0:0:
448,192,3507,128,0,3650:0:0:0:0:
64,192,3650,128,0,3793:0:0:0:0:
448,192,3936,128,0,4079:0:0:0:0:
320,192,4079,128,0,4222:0:0:0:0:
192,192,4222,128,0,4364:0:0:0:0:
64,192,4507,128,0,4650:0:0:0:0:
192,192,4793,128,0,4936:0:0:0:0:
320,192,5079,128,0,5222:0:0:0:0:
448,192,5222,128,0,5364:0:0:0:0:
192,192,5364,128,0,5507:0:0:0:0:
320,192,5650,128,0,5793:0:0:0:0:
448,192,5793,128,0,5936:0:0:0:0:
192,192,5936,128,0,6079:0:0:0:0:
320,192,6222,128,0,6364:0:0:0:0:
448,192,6364,128,0,6507:0:0:0:0:
192,192,6507,128,0,6650:0:0:0:0:
320,192,6793,128,0,6936:0:0:0:0:
448,192,6936,128,0,7079:0:0:0:0:
192,192,7079,128,0,7364:0:0:0:0:
320,192,7364,128,0,7507:0:0:0:0:
448,192,7507,128,0,7650:0:0:0:0:
192,192,7650,128,0,7936:0:0:0:0:
320,192,7936,128,0,8079:0:0:0:0:
448,192,8079,128,0,8222:0:0:0:0:
64,192,8222,128,0,8507:0:0:0:0:
192,192,8507,128,0,8650:0:0:0:0:
320,192,8650,128,0,8793:0:0:0:0:
192,192,8793,128,0,9079:0:0:0:0:
64,192,9079,128,0,9293:0:0:0:0:
64,192,9364,1,4,0:0:0:0:
192,192,9364,128,0,9507:0:0:0:0:
448,192,9364,1,0,0:0:0:0:
64,192,9650,1,0,0:0:0:0:
320,192,9650,128,0,9793:0:0:0:0:
64,192,9793,1,0,0:0:0:0:
448,192,9793,128,0,9936:0:0:0:0:
64,192,9936,1,0,0:0:0:0:
192,192,9936,128,0,10079:0:0:0:0:
64,192,10222,1,0,0:0:0:0:
320,192,10222,128,0,10364:0:0:0:0:
64,192,10364,1,0,0:0:0:0:
448,192,10364,128,0,10507:0:0:0:0:
64,192,10507,1,0,0:0:0:0:
192,192,10507,128,0,10650:0:0:0:0:
64,192,10793,1,0,0:0:0:0:
320,192,10793,128,0,10936:0:0:0:0:
64,192,10936,1,0,0:0:0:0:
448,192,10936,128,0,11079:0:0:0:0:
64,192,11079,1,0,0:0:0:0:
192,192,11079,128,0,11222:0:0:0:0:
64,192,11364,1,0,0:0:0:0:
320,192,11364,128,0,11507:0:0:0:0:
64,192,11507,1,0,0:0:0:0:
448,192,11507,128,0,11650:0:0:0:0:
64,192,11650,1,0,0:0:0:0:
192,192,11650,128,0,11793:0:0:0:0:
64,192,11936,1,0,0:0:0:0:
320,192,11936,128,0,12079:0:0:0:0:
64,192,12079,1,0,0:0:0:0:
448,192,12079,128,0,12222:0:0:0:0:
64,192,12222,1,0,0:0:0:0:
192,192,12222,128,0,12364:0:0:0:0:
192,192,12507,1,0,0:0:0:0:
320,192,12507,128,0,12650:0:0:0:0:
192,192,12650,1,0,0:0:0:0:
448,192,12650,128,0,12793:0:0:0:0:
64,192,12793,128,0,12936:0:0:0:0:
192,192,12793,1,0,0:0:0:0:
64,192,13079,1,0,0:0:0:0:
448,192,13079,128,0,13222:0:0:0:0:
64,192,13222,1,0,0:0:0:0:
320,192,13222,128,0,13364:0:0:0:0:
64,192,13364,1,0,0:0:0:0:
192,192,13364,128,0,13507:0:0:0:0:
64,192,13650,128,0,13793:0:0:0:0:
448,192,13650,1,0,0:0:0:0:
64,192,13936,1,0,0:0:0:0:
192,192,13936,128,0,14079:0:0:0:0:
64,192,14222,1,0,0:0:0:0:
320,192,14222,128,0,14364:0:0:0:0:
64,192,14364,1,0,0:0:0:0:
448,192,14364,128,0,14507:0:0:0:0:
64,192,14507,1,0,0:0:0:0:
192,192,14507,128,0,14650:0:0:0:0:
64,192,14793,1,0,0:0:0:0:
320,192,14793,128,0,14936:0:0:0:0:
64,192,14936,1,0,0:0:0:0:
448,192,14936,128,0,15079:0:0:0:0:
64,192,15079,1,0,0:0:0:0:
192,192,15079,128,0,15222:0:0:0:0:
64,192,15364,1,0,0:0:0:0:
320,192,15364,128,0,15507:0:0:0:0:
64,192,15507,1,0,0:0:0:0:
448,192,15507,128,0,15650:0:0:0:0:
64,192,15650,1,0,0:0:0:0:
192,192,15650,128,0,15793:0:0:0:0:
64,192,15936,1,0,0:0:0:0:
320,192,15936,128,0,16079:0:0:0:0:
64,192,16079,1,0,0:0:0:0:
448,192,16079,128,0,16222:0:0:0:0:
64,192,16222,1,0,0:0:0:0:
192,192,16222,128,0,16364:0:0:0:0:
64,192,16507,1,0,0:0:0:0:
320,192,16507,128,0,16650:0:0:0:0:
64,192,16650,1,0,0:0:0:0:
448,192,16650,128,0,16793:0:0:0:0:
64,192,16793,1,0,0:0:0:0:
192,192,16793,128,0,16936:0:0:0:0:
192,192,17079,1,0,0:0:0:0:
320,192,17079,128,0,17222:0:0:0:0:
192,192,17222,1,0,0:0:0:0:
448,192,17222,128,0,17364:0:0:0:0:
64,192,17364,128,0,17650:0:0:0:0:
192,192,17364,1,0,0:0:0:0:
192,192,17650,128,0,17793:0:0:0:0:
448,192,17650,1,0,0:0:0:0:
320,192,17793,128,0,17936:0:0:0:0:
448,192,17793,1,0,0:0:0:0:
192,192,17936,128,0,18222:0:0:0:0:
448,192,17936,1,0,0:0:0:0:
64,192,18222,128,0,18436:0:0:0:0:
320,192,18222,1,0,0:0:0:0:
64,192,18507,1,4,0:0:0:0:
192,192,18507,1,0,0:0:0:0:
320,192,18507,1,0,0:0:0:0:
448,192,18507,128,0,23650:0:0:0:0:
64,192,18793,1,0,0:0:0:0:
64,192,19222,1,0,0:0:0:0:
64,192,19507,1,0,0:0:0:0:
64,192,19793,1,0,0:0:0:0:
64,192,20222,128,2,20293:0:0:0:0:
320,192,20222,1,0,0:0:0:0:
192,192,20507,128,0,20579:0:0:0:0:
320,192,20793,128,0,20864:0:0:0:0:
192,192,21079,128,0,21150:0:0:0:0:
64,192,21364,128,2,21436:0:0:0:0:
320,192,21364,1,0,0:0:0:0:
192,192,21793,128,0,21864:0:0:0:0:
320,192,21936,128,0,22007:0:0:0:0:
192,192,22222,128,0,22293:0:0:0:0:
64,192,22507,128,2,22579:0:0:0:0:
320,192,22507,1,0,0:0:0:0:
192,192,22793,128,0,22864:0:0:0:0:
320,192,23079,128,0,23150:0:0:0:0:
192,192,23364,128,0,23436:0:0:0:0:
64,192,23650,128,2,23722:0:0:0:0:
320,192,23650,1,0,0:0:0:0:
448,192,23722,1,0,0:0:0:0:
64,192,23793,1,0,0:0:0:0:
448,192,24079,1,0,0:0:0:0:
64,192,24222,1,2,0:0:0:0:
320,192,24222,128,0,24293:0:0:0:0:
192,192,24364,128,0,24436:0:0:0:0:
64,192,24507,128,2,24579:0:0:0:0:
320,192,24507,1,0,0:0:0:0:
448,192,24579,1,0,0:0:0:0:
192,192,24650,128,0,24722:0:0:0:0:
64,192,24793,1,2,0:0:0:0:
320,192,24793,128,0,24864:0:0:0:0:
192,192,24936,128,0,25007:0:0:0:0:
64,192,25079,128,0,25150:0:0:0:0:
320,192,25150,1,0,0:0:0:0:
192,192,25222,128,0,25293:0:0:0:0:
64,192,25364,1,2,0:0:0:0:
320,192,25364,128,0,25436:0:0:0:0:
192,192,25507,128,0,25579:0:0:0:0:
64,192,25650,128,2,25722:0:0:0:0:
320,192,25650,1,0,0:0:0:0:
448,192,25722,1,0,0:0:0:0:
192,192,25793,128,0,25864:0:0:0:0:
64,192,25936,1,2,0:0:0:0:
320,192,25936,128,0,26007:0:0:0:0:
448,192,26079,128,0,26150:0:0:0:0:
192,192,26222,128,0,26507:0:0:0:0:
64,192,26507,1,2,0:0:0:0:
320,192,26507,128,0,26579:0:0:0:0:
192,192,26650,128,0,26722:0:0:0:0:
64,192,26793,128,2,26864:0:0:0:0:
320,192,26793,1,0,0:0:0:0:
448,192,26864,1,0,0:0:0:0:
192,192,26936,128,0,27007:0:0:0:0:
64,192,27079,1,2,0:0:0:0:
320,192,27079,128,0,27150:0:0:0:0:
192,192,27222,128,0,27293:0:0:0:0:
64,192,27364,128,2,27436:0:0:0:0:
320,192,27364,1,0,0:0:0:0:
448,192,27436,1,0,0:0:0:0:
192,192,27507,128,0,27579:0:0:0:0:
64,192,27650,1,2,0:0:0:0:
320,192,27650,128,0,27722:0:0:0:0:
192,192,27793,128,0,27864:0:0:0:0:
64,192,27936,128,2,28007:0:0:0:0:
320,192,27936,1,0,0:0:0:0:
448,192,28007,1,0,0:0:0:0:
192,192,28079,128,0,28150:0:0:0:0:
64,192,28222,1,2,0:0:0:0:
320,192,28222,128,0,28364:0:0:0:0:
448,192,28364,128,0,28650:0:0:0:0:
320,192,28650,128,0,28793:0:0:0:0:
64,192,28793,1,4,0:0:0:0:
192,192,28793,1,2,0:0:0:0:
448,192,28793,1,0,0:0:0:0:
64,192,28936,1,2,0:0:0:0:
192,192,28936,1,0,0:0:0:0:
64,192,29079,1,2,0:0:0:0:
192,192,29079,1,0,0:0:0:0:
448,192,29150,1,0,0:0:0:0:
64,192,29222,1,2,0:0:0:0:
192,192,29222,1,0,0:0:0:0:
64,192,29364,1,2,0:0:0:0:
192,192,29364,1,0,0:0:0:0:
64,192,29507,1,2,0:0:0:0:
192,192,29507,1,0,0:0:0:0:
64,192,29650,1,2,0:0:0:0:
192,192,29650,1,0,0:0:0:0:
448,192,29722,1,0,0:0:0:0:
64,192,29793,1,2,0:0:0:0:
192,192,29793,1,0,0:0:0:0:
320,192,29936,1,2,0:0:0:0:
448,192,29936,1,0,0:0:0:0:
320,192,30079,1,2,0:0:0:0:
448,192,30079,1,0,0:0:0:0:
320,192,30222,1,2,0:0:0:0:
448,192,30222,1,0,0:0:0:0:
64,192,30293,1,0,0:0:0:0:
320,192,30364,1,2,0:0:0:0:
448,192,30364,1,0,0:0:0:0:
320,192,30507,1,2,0:0:0:0:
448,192,30507,1,0,0:0:0:0:
320,192,30650,1,2,0:0:0:0:
448,192,30650,1,0,0:0:0:0:
320,192,30793,1,2,0:0:0:0:
448,192,30793,1,0,0:0:0:0:
64,192,30864,1,0,0:0:0:0:
320,192,30936,1,2,0:0:0:0:
448,192,30936,1,0,0:0:0:0:
64,192,31079,1,2,0:0:0:0:
192,192,31079,1,0,0:0:0:0:
320,192,31150,1,2,0:0:0:0:
64,192,31222,1,2,0:0:0:0:
448,192,31222,1,0,0:0:0:0:
192,192,31293,1,2,0:0:0:0:
320,192,31364,1,2,0:0:0:0:
448,192,31364,1,0,0:0:0:0:
192,192,31436,1,2,0:0:0:0:
64,192,31507,1,2,0:0:0:0:
448,192,31507,1,0,0:0:0:0:
320,192,31579,1,2,0:0:0:0:
64,192,31650,1,2,0:0:0:0:
192,192,31650,1,0,0:0:0:0:
320,192,31722,1,2,0:0:0:0:
64,192,31793,1,2,0:0:0:0:
448,192,31793,1,0,0:0:0:0:
192,192,31864,1,2,0:0:0:0:
320,192,31936,1,2,0:0:0:0:
448,192,31936,1,0,0:0:0:0:
192,192,32007,1,2,0:0:0:0:
64,192,32079,1,2,0:0:0:0:
448,192,32079,1,0,0:0:0:0:
320,192,32150,1,2,0:0:0:0:
64,192,32222,128,2,33079:0:0:0:0:
192,192,32222,128,0,32507:0:0:0:0:
448,192,32364,128,0,33222:0:0:0:0:
320,192,32507,128,0,32793:0:0:0:0:
192,192,32650,128,0,32936:0:0:0:0:
320,192,32936,128,0,33222:0:0:0:0:
192,192,33079,128,0,33364:0:0:0:0:
64,192,33222,128,0,33364:0:0:0:0:
320,192,33364,128,4,33507:0:0:0:0:
448,192,33364,128,2,35650:0:0:0:0:
192,192,33507,128,0,33650:0:0:0:0:
320,192,33650,128,0,33793:0:0:0:0:
64,192,33793,128,0,33936:0:0:0:0:
320,192,33936,128,0,34079:0:0:0:0:
192,192,34079,128,0,34222:0:0:0:0:
64,192,34222,128,0,34364:0:0:0:0:
192,192,34364,128,0,34507:0:0:0:0:
64,192,34507,128,0,34650:0:0:0:0:
320,192,34650,128,0,34793:0:0:0:0:
192,192,34793,128,0,34936:0:0:0:0:
64,192,34936,128,0,35079:0:0:0:0:
320,192,35079,128,0,35222:0:0:0:0:
64,192,35222,128,0,35364:0:0:0:0:
320,192,35364,128,0,35507:0:0:0:0:
192,192,35507,128,0,35650:0:0:0:0:
64,192,35650,128,2,35793:0:0:0:0:
320,192,35650,128,4,35793:0:0:0:0:
448,192,35793,128,0,35936:0:0:0:0:
64,192,35936,128,2,37936:0:0:0:0:
320,192,35936,128,0,36079:0:0:0:0:
192,192,36079,128,0,36222:0:0:0:0:
448,192,36222,128,0,36364:0:0:0:0:
320,192,36364,128,0,36507:0:0:0:0:
192,192,36507,128,0,36650:0:0:0:0:
320,192,36650,128,0,36793:0:0:0:0:
192,192,36793,128,0,36936:0:0:0:0:
448,192,36936,128,0,37079:0:0:0:0:
320,192,37079,128,0,37222:0:0:0:0:
192,192,37222,128,0,37364:0:0:0:0:
448,192,37364,128,0,37507:0:0:0:0:
192,192,37507,128,0,37650:0:0:0:0:
320,192,37650,128,0,37793:0:0:0:0:
192,192,37793,128,0,37936:0:0:0:0:
320,192,37936,128,2,38364:0:0:0:0:
448,192,37936,128,4,40222:0:0:0:0:
64,192,38079,128,0,38222:0:0:0:0:
192,192,38222,128,0,38507:0:0:0:0:
64,192,38364,128,0,38650:0:0:0:0:
320,192,38507,128,0,39079:0:0:0:0:
192,192,38650,128,0,38793:0:0:0:0:
64,192,38793,128,0,38936:0:0:0:0:
192,192,38936,128,0,39222:0:0:0:0:
64,192,39079,128,0,39364:0:0:0:0:
320,192,39222,128,0,39507:0:0:0:0:
192,192,39364,128,0,39650:0:0:0:0:
64,192,39507,128,0,39793:0:0:0:0:
320,192,39650,128,0,40079:0:0:0:0:
192,192,39793,128,0,39936:0:0:0:0:
64,192,39936,128,0,40079:0:0:0:0:
192,192,40079,128,0,40222:0:0:0:0:
64,192,40222,128,4,40364:0:0:0:0:
320,192,40222,128,2,40364:0:0:0:0:
448,192,40364,128,0,40650:0:0:0:0:
64,192,40507,128,2,41222:0:0:0:0:
320,192,40507,128,0,40793:0:0:0:0:
192,192,40650,128,0,40936:0:0:0:0:
448,192,40793,128,0,41222:0:0:0:0:
320,192,40936,128,0,41079:0:0:0:0:
192,192,41079,128,0,41364:0:0:0:0:
320,192,41222,128,0,41364:0:0:0:0:
64,192,41364,1,2,0:0:0:0:
448,192,41364,1,0,0:0:0:0:
320,192,41507,1,0,0:0:0:0:
448,192,41507,1,0,0:0:0:0:
192,192,41650,1,0,0:0:0:0:
448,192,41650,1,0,0:0:0:0:
64,192,41793,1,0,0:0:0:0:
448,192,41793,1,0,0:0:0:0:
320,192,41936,1,0,0:0:0:0:
448,192,41936,1,0,0:0:0:0:
192,192,42079,1,0,0:0:0:0:
192,192,42222,1,2,0:0:0:0:
320,192,42222,1,0,0:0:0:0:
64,192,42364,1,0,0:0:0:0:
64,192,42507,128,2,42650:0:0:0:0:
192,192,42507,1,4,0:0:0:0:
448,192,42507,128,0,42793:0:0:0:0:
192,192,42650,128,0,42936:0:0:0:0:
64,192,42793,128,2,42936:0:0:0:0:
320,192,42793,1,8,0:0:0:0:
320,192,42936,128,0,43222:0:0:0:0:
64,192,43079,1,2,0:0:0:0:
192,192,43079,128,0,43222:0:0:0:0:
64,192,43222,128,0,43507:0:0:0:0:
192,192,43364,1,2,0:0:0:0:
448,192,43364,128,8,43507:0:0:0:0:
192,192,43507,128,0,43793:0:0:0:0:
320,192,43650,1,2,0:0:0:0:
448,192,43650,128,0,43793:0:0:0:0:
320,192,43793,128,0,44079:0:0:0:0:
192,192,43936,1,2,0:0:0:0:
448,192,43936,128,8,44079:0:0:0:0:
192,192,44079,128,0,44364:0:0:0:0:
320,192,44222,128,2,44364:0:0:0:0:
448,192,44222,1,0,0:0:0:0:
448,192,44364,128,0,44650:0:0:0:0:
64,192,44507,128,2,44650:0:0:0:0:
320,192,44507,1,8,0:0:0:0:
192,192,44650,1,2,0:0:0:0:
320,192,44650,1,0,0:0:0:0:
64,192,44793,1,2,0:0:0:0:
192,192,44793,128,0,44936:0:0:0:0:
64,192,44936,128,0,45222:0:0:0:0:
192,192,45079,1,2,0:0:0:0:
448,192,45079,128,8,45222:0:0:0:0:
192,192,45222,128,0,45507:0:0:0:0:
320,192,45364,1,2,0:0:0:0:
448,192,45364,128,0,45507:0:0:0:0:
320,192,45507,128,0,45793:0:0:0:0:
192,192,45650,128,2,45793:0:0:0:0:
448,192,45650,1,8,0:0:0:0:
448,192,45793,128,0,46079:0:0:0:0:
64,192,45936,1,2,0:0:0:0:
192,192,45936,128,0,46079:0:0:0:0:
64,192,46079,128,0,46364:0:0:0:0:
192,192,46222,128,2,46364:0:0:0:0:
448,192,46222,1,8,0:0:0:0:
448,192,46364,128,0,46507:0:0:0:0:
64,192,46507,1,2,0:0:0:0:
192,192,46507,128,0,46793:0:0:0:0:
320,192,46650,128,2,46793:0:0:0:0:
448,192,46650,1,0,0:0:0:0:
64,192,46793,128,2,46936:0:0:0:0:
448,192,46793,128,8,46936:0:0:0:0:
192,192,46936,1,2,0:0:0:0:
320,192,46936,1,0,0:0:0:0:
64,192,47079,128,2,47222:0:0:0:0:
192,192,47079,1,0,0:0:0:0:
192,192,47222,128,0,47507:0:0:0:0:
64,192,47364,128,2,47507:0:0:0:0:
320,192,47364,1,8,0:0:0:0:
320,192,47507,128,0,47793:0:0:0:0:
64,192,47650,1,2,0:0:0:0:
192,192,47650,128,0,47793:0:0:0:0:
64,192,47793,128,0,48079:0:0:0:0:
192,192,47936,1,2,0:0:0:0:
448,192,47936,128,8,48079:0:0:0:0:
320,192,48079,128,0,48364:0:0:0:0:
64,192,48222,128,2,48364:0:0:0:0:
192,192,48222,1,0,0:0:0:0:
192,192,48364,128,0,48650:0:0:0:0:
64,192,48507,128,2,48650:0:0:0:0:
320,192,48507,1,8,0:0:0:0:
448,192,48650,128,0,48936:0:0:0:0:
64,192,48793,1,2,0:0:0:0:
192,192,48793,128,0,48936:0:0:0:0:
64,192,48936,128,0,49222:0:0:0:0:
192,192,49079,1,2,0:0:0:0:
448,192,49079,128,8,49222:0:0:0:0:
192,192,49222,1,2,0:0:0:0:
320,192,49222,1,0,0:0:0:0:
320,192,49364,128,2,49436:0:0:0:0:
448,192,49364,128,0,49507:0:0:0:0:
192,192,49507,128,0,49793:0:0:0:0:
64,192,49650,128,2,49793:0:0:0:0:
320,192,49650,128,8,49722:0:0:0:0:
320,192,49793,128,0,50079:0:0:0:0:
64,192,49936,128,2,50007:0:0:0:0:
192,192,49936,128,0,50079:0:0:0:0:
64,192,50079,128,0,50364:0:0:0:0:
192,192,50222,128,2,50293:0:0:0:0:
448,192,50222,128,8,50364:0:0:0:0:
192,192,50364,128,0,50650:0:0:0:0:
320,192,50507,128,2,50579:0:0:0:0:
448,192,50507,128,0,50650:0:0:0:0:
320,192,50650,128,0,50936:0:0:0:0:
192,192,50793,128,2,50864:0:0:0:0:
448,192,50793,128,8,50936:0:0:0:0:
192,192,50936,128,0,51222:0:0:0:0:
320,192,51079,128,2,51222:0:0:0:0:
448,192,51079,128,0,51150:0:0:0:0:
448,192,51222,128,0,51507:0:0:0:0:
64,192,51364,128,2,51507:0:0:0:0:
320,192,51364,128,8,51436:0:0:0:0:
192,192,51507,128,2,51579:0:0:0:0:
320,192,51507,128,0,51650:0:0:0:0:
64,192,51650,128,2,51722:0:0:0:0:
192,192,51650,128,0,51793:0:0:0:0:
64,192,51793,128,0,52079:0:0:0:0:
192,192,51936,128,2,52007:0:0:0:0:
448,192,51936,128,8,52079:0:0:0:0:
192,192,52079,128,0,52364:0:0:0:0:
320,192,52222,128,2,52293:0:0:0:0:
448,192,52222,128,0,52364:0:0:0:0:
320,192,52364,128,0,52650:0:0:0:0:
192,192,52507,128,2,52650:0:0:0:0:
448,192,52507,128,8,52579:0:0:0:0:
448,192,52650,128,0,52936:0:0:0:0:
64,192,52793,128,2,52864:0:0:0:0:
192,192,52793,128,0,52936:0:0:0:0:
64,192,52936,128,0,53222:0:0:0:0:
192,192,53079,128,2,53222:0:0:0:0:
448,192,53079,128,8,53150:0:0:0:0:
448,192,53222,128,0,53364:0:0:0:0:
64,192,53364,128,2,53436:0:0:0:0:
192,192,53364,128,0,53650:0:0:0:0:
320,192,53507,128,2,53650:0:0:0:0:
448,192,53507,128,0,53579:0:0:0:0:
64,192,53650,128,2,53793:0:0:0:0:
448,192,53650,128,8,53793:0:0:0:0:
192,192,53793,128,2,53864:0:0:0:0:
320,192,53793,128,0,53936:0:0:0:0:
64,192,53936,128,2,54079:0:0:0:0:
192,192,53936,1,4,0:0:0:0:
448,192,53936,1,0,0:0:0:0:
320,192,54079,128,0,54222:0:0:0:0:
192,192,54222,128,0,54364:0:0:0:0:
448,192,54364,128,0,54507:0:0:0:0:
320,192,54507,128,0,54650:0:0:0:0:
448,192,54650,128,0,54793:0:0:0:0:
320,192,54793,128,0,54936:0:0:0:0:
192,192,54936,128,0,55079:0:0:0:0:
64,192,55079,128,0,55222:0:0:0:0:
320,192,55222,128,0,55364:0:0:0:0:
192,192,55364,128,0,55507:0:0:0:0:
448,192,55507,128,0,55650:0:0:0:0:
192,192,55650,128,0,55793:0:0:0:0:
320,192,55793,128,0,55936:0:0:0:0:
192,192,55936,128,0,56079:0:0:0:0:
64,192,56079,128,0,56222:0:0:0:0:
192,192,56222,1,2,0:0:0:0:
448,192,56222,1,0,0:0:0:0:
320,192,56364,1,0,0:0:0:0:
192,192,56507,1,0,0:0:0:0:
64,192,56650,1,0,0:0:0:0:
320,192,56793,1,0,0:0:0:0:
448,192,56936,1,0,0:0:0:0:
192,192,57079,1,0,0:0:0:0:
64,192,57222,1,0,0:0:0:0:
192,192,57364,1,0,0:0:0:0:
448,192,57507,1,0,0:0:0:0:
320,192,57650,1,0,0:0:0:0:
192,192,57793,1,0,0:0:0:0:
64,192,57936,1,0,0:0:0:0:
320,192,58079,1,0,0:0:0:0:
192,192,58222,1,0,0:0:0:0:
64,192,58364,1,0,0:0:0:0:
448,192,58507,1,0,0:0:0:0:
320,192,58650,1,0,0:0:0:0:
192,192,58793,1,0,0:0:0:0:
64,192,58936,1,0,0:0:0:0:
320,192,59079,1,0,0:0:0:0:
448,192,59222,1,0,0:0:0:0:
192,192,59364,1,0,0:0:0:0:
64,192,59507,1,0,0:0:0:0:
192,192,59650,1,0,0:0:0:0:
448,192,59793,1,0,0:0:0:0:
320,192,59936,1,0,0:0:0:0:
192,192,60079,1,0,0:0:0:0:
64,192,60222,1,0,0:0:0:0:
320,192,60364,1,0,0:0:0:0:
192,192,60507,1,0,0:0:0:0:
64,192,60650,1,0,0:0:0:0:
448,192,60793,1,0,0:0:0:0:
320,192,60936,1,0,0:0:0:0:
192,192,61079,1,0,0:0:0:0:
64,192,61222,1,0,0:0:0:0:
320,192,61364,1,0,0:0:0:0:
448,192,61507,1,0,0:0:0:0:
192,192,61650,1,0,0:0:0:0:
64,192,61793,1,0,0:0:0:0:
192,192,61936,1,0,0:0:0:0:
448,192,62079,1,0,0:0:0:0:
320,192,62222,1,0,0:0:0:0:
192,192,62364,1,0,0:0:0:0:
64,192,62507,1,0,0:0:0:0:
320,192,62650,1,0,0:0:0:0:
192,192,62793,1,0,0:0:0:0:
64,192,62936,1,0,0:0:0:0:
448,192,63079,1,0,0:0:0:0:
320,192,63222,1,0,0:0:0:0:
192,192,63364,1,0,0:0:0:0:
64,192,63507,1,0,0:0:0:0:
320,192,63650,1,0,0:0:0:0:
448,192,63793,1,0,0:0:0:0:
192,192,63936,1,0,0:0:0:0:
64,192,64079,1,0,0:0:0:0:
192,192,64222,1,0,0:0:0:0:
448,192,64364,1,0,0:0:0:0:
320,192,64507,1,0,0:0:0:0:
192,192,64650,1,0,0:0:0:0:
64,192,64793,1,0,0:0:0:0:
320,192,64936,1,0,0:0:0:0:
192,192,65079,1,0,0:0:0:0:
64,192,65222,1,0,0:0:0:0:
192,192,65364,1,4,0:0:0:0:
448,192,65364,128,0,65507:0:0:0:0:
320,192,65507,1,0,0:0:0:0:
192,192,65650,1,0,0:0:0:0:
64,192,65793,1,0,0:0:0:0:
192,192,65936,1,0,0:0:0:0:
320,192,65936,1,0,0:0:0:0:
448,192,66079,1,0,0:0:0:0:
192,192,66222,128,0,66364:0:0:0:0:
64,192,66364,1,0,0:0:0:0:
192,192,66507,1,0,0:0:0:0:
320,192,66507,128,0,66650:0:0:0:0:
448,192,66650,1,0,0:0:0:0:
320,192,66793,1,0,0:0:0:0:
192,192,66936,1,0,0:0:0:0:
64,192,67079,1,0,0:0:0:0:
448,192,67079,1,0,0:0:0:0:
320,192,67222,1,0,0:0:0:0:
192,192,67364,128,0,67507:0:0:0:0:
64,192,67507,1,0,0:0:0:0:
192,192,67650,1,0,0:0:0:0:
448,192,67650,128,0,67793:0:0:0:0:
320,192,67793,1,0,0:0:0:0:
192,192,67936,1,0,0:0:0:0:
64,192,68079,128,0,68222:0:0:0:0:
192,192,68222,1,0,0:0:0:0:
320,192,68222,1,0,0:0:0:0:
448,192,68364,1,0,0:0:0:0:
192,192,68507,128,0,68650:0:0:0:0:
64,192,68650,1,0,0:0:0:0:
192,192,68793,1,0,0:0:0:0:
320,192,68793,128,0,68936:0:0:0:0:
448,192,68936,1,0,0:0:0:0:
320,192,69079,1,0,0:0:0:0:
192,192,69222,1,0,0:0:0:0:
64,192,69364,1,0,0:0:0:0:
448,192,69364,1,0,0:0:0:0:
320,192,69507,1,0,0:0:0:0:
192,192,69650,128,0,69793:0:0:0:0:
64,192,69793,1,0,0:0:0:0:
192,192,69936,1,0,0:0:0:0:
448,192,69936,128,0,70079:0:0:0:0:
320,192,70079,1,0,0:0:0:0:
192,192,70222,1,0,0:0:0:0:
448,192,70222,1,0,0:0:0:0:
64,192,70364,128,0,70507:0:0:0:0:
192,192,70507,1,0,0:0:0:0:
320,192,70507,1,0,0:0:0:0:
448,192,70650,1,0,0:0:0:0:
192,192,70793,128,0,70936:0:0:0:0:
320,192,70793,1,0,0:0:0:0:
64,192,70936,1,0,0:0:0:0:
192,192,71079,1,0,0:0:0:0:
320,192,71079,128,0,71222:0:0:0:0:
448,192,71222,1,0,0:0:0:0:
64,192,71364,1,0,0:0:0:0:
320,192,71364,1,0,0:0:0:0:
192,192,71507,128,0,71650:0:0:0:0:
64,192,71650,1,0,0:0:0:0:
448,192,71650,1,0,0:0:0:0:
320,192,71793,1,0,0:0:0:0:
192,192,71936,128,0,72079:0:0:0:0:
448,192,71936,1,0,0:0:0:0:
64,192,72079,1,0,0:0:0:0:
320,192,72222,1,0,0:0:0:0:
448,192,72222,128,0,72507:0:0:0:0:
192,192,72436,1,0,0:0:0:0:
64,192,72507,1,0,0:0:0:0:
320,192,72507,1,0,0:0:0:0:
192,192,72722,1,0,0:0:0:0:
320,192,72793,1,0,0:0:0:0:
448,192,72793,1,0,0:0:0:0:
64,192,72864,1,0,0:0:0:0:
448,192,72936,1,0,0:0:0:0:
192,192,73007,1,0,0:0:0:0:
64,192,73079,1,0,0:0:0:0:
448,192,73079,1,0,0:0:0:0:
64,192,73364,1,0,0:0:0:0:
192,192,73364,1,0,0:0:0:0:
320,192,73936,128,0,74507:0:0:0:0:
64,192,74507,1,4,0:0:0:0:
192,192,74507,1,2,0:0:0:0:
448,192,74507,1,0,0:0:0:0:
320,192,74650,1,0,0:0:0:0:
192,192,74793,128,0,74841:0:0:0:70:LR_Drum Rpd Fast .wav
448,192,74793,1,0,0:0:0:0:
64,192,74936,1,0,0:0:0:0:
320,192,75079,128,0,75126:0:0:0:0:
192,192,75222,1,2,0:0:0:0:
320,192,75222,1,0,0:0:0:0:
64,192,75364,1,0,0:0:0:70:LR_Drum Rpd Fast .wav
448,192,75364,128,0,75412:0:0:0:0:
192,192,75507,1,0,0:0:0:0:
320,192,75650,128,0,75698:0:0:0:0:
192,192,75793,1,2,0:0:0:0:
320,192,75793,1,0,0:0:0:0:
64,192,75936,1,0,0:0:0:70:LR_Drum Rpd Fast .wav
448,192,75936,1,0,0:0:0:0:
320,192,76079,1,0,0:0:0:0:
192,192,76222,128,0,76269:0:0:0:0:
192,192,76364,1,2,0:0:0:0:
320,192,76364,1,0,0:0:0:0:
64,192,76507,1,0,0:0:0:70:LR_Drum Rpd Fast .wav
448,192,76507,1,0,0:0:0:0:
192,192,76650,1,0,0:0:0:0:
320,192,76793,1,2,0:0:0:0:
448,192,76793,1,0,0:0:0:0:
192,192,76936,1,0,0:0:0:0:
64,192,77079,128,0,77126:0:0:0:70:LR_Drum Rpd Fast .wav
320,192,77079,1,0,0:0:0:0:
448,192,77222,1,0,0:0:0:0:
192,192,77364,128,0,77412:0:0:0:0:
192,192,77507,1,2,0:0:0:0:
320,192,77507,1,0,0:0:0:0:
64,192,77650,1,0,0:0:0:70:LR_Drum Rpd Fast .wav
448,192,77650,128,0,77698:0:0:0:0:
192,192,77793,128,0,77841:0:0:0:0:
448,192,77864,128,0,77912:0:0:0:0:
192,192,77936,128,0,77983:0:0:0:0:
192,192,78079,1,2,0:0:0:0:
320,192,78079,1,0,0:0:0:0:
64,192,78222,1,0,0:0:0:70:LR_Drum Rpd Fast .wav
448,192,78222,128,0,78269:0:0:0:0:
192,192,78364,1,0,0:0:0:0:
320,192,78507,128,0,78555:0:0:0:0:
192,192,78650,1,2,0:0:0:0:
320,192,78650,1,0,0:0:0:0:
64,192,78793,128,0,78841:0:0:0:70:LR_Drum Rpd Fast .wav
448,192,78793,1,0,0:0:0:0:
320,192,78936,1,0,0:0:0:0:
64,192,79079,1,2,0:0:0:0:
192,192,79079,1,0,0:0:0:0:
320,192,79222,1,0,0:0:0:0:
192,192,79364,128,0,79412:0:0:0:70:LR_Drum Rpd Fast .wav
448,192,79364,1,0,0:0:0:0:
64,192,79507,1,0,0:0:0:0:
320,192,79650,128,0,79698:0:0:0:0:
192,192,79793,1,2,0:0:0:0:
320,192,79793,1,0,0:0:0:0:
64,192,79936,1,0,0:0:0:70:LR_Drum Rpd Fast .wav
448,192,79936,128,0,79983:0:0:0:0:
192,192,80079,1,0,0:0:0:0:
320,192,80222,128,0,80269:0:0:0:0:
192,192,80364,1,2,0:0:0:0:
320,192,80364,1,0,0:0:0:0:
64,192,80507,1,0,0:0:0:70:LR_Drum Rpd Fast .wav
448,192,80507,128,0,80555:0:0:0:0:
320,192,80650,1,0,0:0:0:0:
192,192,80793,128,0,80841:0:0:0:0:
192,192,80936,1,2,0:0:0:0:
320,192,80936,1,0,0:0:0:0:
64,192,81079,128,0,81126:0:0:0:70:LR_Drum Rpd Fast .wav
448,192,81079,1,0,0:0:0:0:
192,192,81222,1,0,0:0:0:0:
320,192,81364,128,2,81412:0:0:0:0:
448,192,81364,1,0,0:0:0:0:
192,192,81507,1,0,0:0:0:0:
64,192,81650,128,0,81698:0:0:0:70:LR_Drum Rpd Fast .wav
320,192,81650,1,0,0:0:0:0:
448,192,81793,1,0,0:0:0:0:
192,192,81936,128,0,81983:0:0:0:0:
192,192,82079,1,2,0:0:0:0:
320,192,82079,1,0,0:0:0:0:
64,192,82222,1,0,0:0:0:70:LR_Drum Rpd Fast .wav
448,192,82222,128,0,82269:0:0:0:0:
192,192,82364,1,0,0:0:0:0:
320,192,82507,128,0,82555:0:0:0:0:
192,192,82650,1,2,0:0:0:0:
320,192,82650,1,0,0:0:0:0:
64,192,82793,128,0,82841:0:0:0:70:LR_Drum Rpd Fast .wav
448,192,82793,1,0,0:0:0:0:
320,192,82936,1,0,0:0:0:0:
192,192,83079,128,0,83126:0:0:0:0:
192,192,83222,1,2,0:0:0:0:
320,192,83222,1,0,0:0:0:0:
64,192,83364,128,0,83412:0:0:0:70:LR_Drum Rpd Fast .wav
448,192,83364,1,0,0:0:0:0:
192,192,83507,1,0,0:0:0:0:
320,192,83650,1,2,0:0:0:0:
448,192,83650,1,0,0:0:0:0:
192,192,83793,1,0,0:0:0:0:
64,192,83936,128,0,84007:0:0:0:70:LR_Drum Rpd Fast .wav
320,192,83936,1,0,0:0:0:0:
448,192,84079,1,0,0:0:0:0:
192,192,84222,128,0,84293:0:0:0:0:
192,192,84364,1,2,0:0:0:0:
320,192,84364,1,0,0:0:0:0:
64,192,84507,1,0,0:0:0:70:LR_Drum Rpd Fast .wav
448,192,84507,128,0,84579:0:0:0:0:
320,192,84650,1,0,0:0:0:0:
192,192,84793,128,0,84864:0:0:0:0:
192,192,84936,1,2,0:0:0:0:
320,192,84936,1,0,0:0:0:0:
64,192,85079,1,0,0:0:0:70:LR_Drum Rpd Fast .wav
448,192,85079,1,0,0:0:0:0:
192,192,85222,1,0,0:0:0:0:
320,192,85364,128,0,85436:0:0:0:0:
192,192,85507,1,2,0:0:0:0:
320,192,85507,1,0,0:0:0:0:
64,192,85650,1,0,0:0:0:70:LR_Drum Rpd Fast .wav
448,192,85650,1,0,0:0:0:0:
320,192,85793,1,0,0:0:0:0:
64,192,85936,1,2,0:0:0:0:
192,192,85936,1,0,0:0:0:0:
320,192,86079,1,0,0:0:0:0:
192,192,86222,128,0,86293:0:0:0:70:LR_Drum Rpd Fast .wav
448,192,86222,1,0,0:0:0:0:
64,192,86364,1,0,0:0:0:0:
320,192,86507,128,0,86579:0:0:0:0:
192,192,86650,1,2,0:0:0:0:
320,192,86650,1,0,0:0:0:0:
64,192,86793,1,0,0:0:0:70:LR_Drum Rpd Fast .wav
448,192,86793,128,0,86864:0:0:0:0:
320,192,86936,128,0,87007:0:0:0:0:
64,192,87007,128,0,87079:0:0:0:0:
320,192,87079,128,0,87150:0:0:0:0:
192,192,87222,1,2,0:0:0:0:
320,192,87222,1,0,0:0:0:0:
64,192,87364,1,0,0:0:0:70:LR_Drum Rpd Fast .wav
448,192,87364,128,0,87436:0:0:0:0:
320,192,87507,1,0,0:0:0:0:
192,192,87650,128,0,87722:0:0:0:0:
192,192,87793,1,2,0:0:0:0:
320,192,87793,1,0,0:0:0:0:
64,192,87936,128,0,88007:0:0:0:70:LR_Drum Rpd Fast .wav
448,192,87936,1,0,0:0:0:0:
192,192,88079,1,0,0:0:0:0:
320,192,88222,1,2,0:0:0:0:
448,192,88222,1,0,0:0:0:0:
192,192,88364,1,0,0:0:0:0:
64,192,88507,128,0,88579:0:0:0:70:LR_Drum Rpd Fast .wav
320,192,88507,1,0,0:0:0:0:
448,192,88650,1,0,0:0:0:0:
192,192,88793,128,0,88864:0:0:0:0:
192,192,88936,1,2,0:0:0:0:
320,192,88936,1,0,0:0:0:0:
64,192,89079,1,0,0:0:0:70:LR_Drum Rpd Fast .wav
448,192,89079,128,0,89150:0:0:0:0:
320,192,89222,1,0,0:0:0:0:
192,192,89364,128,0,89436:0:0:0:0:
192,192,89507,1,2,0:0:0:0:
320,192,89507,1,0,0:0:0:0:
64,192,89650,1,0,0:0:0:70:LR_Drum Rpd Fast .wav
448,192,89650,128,0,89722:0:0:0:0:
192,192,89793,1,0,0:0:0:0:
320,192,89936,128,0,90007:0:0:0:0:
192,192,90079,1,2,0:0:0:0:
320,192,90079,1,0,0:0:0:0:
64,192,90222,128,0,90293:0:0:0:70:LR_Drum Rpd Fast .wav
448,192,90222,1,0,0:0:0:0:
320,192,90364,1,0,0:0:0:0:
64,192,90507,1,2,0:0:0:0:
192,192,90507,128,0,90579:0:0:0:0:
448,192,90579,1,0,0:0:0:0:
320,192,90650,1,0,0:0:0:0:
64,192,90722,1,0,0:0:0:0:
192,192,90793,1,0,0:0:0:70:LR_Drum Rpd Fast .wav
448,192,90793,128,0,90864:0:0:0:0:
320,192,90864,1,0,0:0:0:0:
64,192,90936,1,0,0:0:0:0:
320,192,91079,128,0,91150:0:0:0:0:
192,192,91222,1,0,0:0:0:0:
320,192,91222,1,0,0:0:0:0:
64,192,91364,1,0,0:0:0:70:LR_Drum Rpd Fast .wav
448,192,91364,128,0,91436:0:0:0:0:
320,192,91507,1,0,0:0:0:0:
64,192,91650,1,2,0:0:0:0:
192,192,91650,128,0,91698:0:0:0:0:
448,192,91722,1,0,0:0:0:0:
192,192,91793,1,0,0:0:0:0:
320,192,91936,128,0,91983:0:0:0:0:
192,192,92079,128,0,92507:0:0:0:0:
320,192,92222,128,0,92507:0:0:0:0:
64,192,92507,128,0,92555:0:0:0:0:
448,192,92507,1,0,0:0:0:0:
320,192,92650,1,0,0:0:0:0:
448,192,92650,1,0,0:0:0:0:
64,192,92793,128,4,92936:0:0:0:0:
192,192,92793,1,2,0:0:0:0:
448,192,92793,128,0,93079:0:0:0:0:
192,192,92936,128,0,93222:0:0:0:0:
64,192,93079,128,2,93222:0:0:0:0:
320,192,93079,1,8,0:0:0:0:
320,192,93222,128,0,93507:0:0:0:0:
64,192,93364,1,2,0:0:0:0:
192,192,93364,128,0,93507:0:0:0:0:
64,192,93507,128,0,93793:0:0:0:0:
192,192,93650,128,2,93793:0:0:0:0:
448,192,93650,1,8,0:0:0:0:
448,192,93793,128,0,94007:0:0:0:0:
64,192,93936,1,2,0:0:0:0:
192,192,93936,128,0,94079:0:0:0:0:
448,192,94079,128,0,94364:0:0:0:0:
64,192,94222,128,2,94364:0:0:0:0:
320,192,94222,1,8,0:0:0:0:
320,192,94364,128,0,94650:0:0:0:0:
64,192,94507,128,2,94650:0:0:0:0:
192,192,94507,1,0,0:0:0:0:
192,192,94650,128,0,94936:0:0:0:0:
64,192,94793,128,2,94936:0:0:0:0:
320,192,94793,1,8,0:0:0:0:
320,192,94936,128,2,95079:0:0:0:0:
448,192,94936,128,0,95079:0:0:0:0:
64,192,95079,128,2,95222:0:0:0:0:
192,192,95079,1,0,0:0:0:0:
192,192,95222,128,0,95507:0:0:0:0:
64,192,95364,128,2,95507:0:0:0:0:
320,192,95364,1,8,0:0:0:0:
320,192,95507,128,0,95793:0:0:0:0:
64,192,95650,1,2,0:0:0:0:
192,192,95650,128,0,95793:0:0:0:0:
64,192,95793,128,0,96079:0:0:0:0:
192,192,95936,128,2,96079:0:0:0:0:
448,192,95936,1,8,0:0:0:0:
448,192,96079,128,0,96364:0:0:0:0:
64,192,96222,128,2,96364:0:0:0:0:
192,192,96222,1,0,0:0:0:0:
320,192,96364,128,0,96650:0:0:0:0:
192,192,96507,128,2,96650:0:0:0:0:
448,192,96507,1,8,0:0:0:0:
448,192,96650,128,0,96936:0:0:0:0:
64,192,96793,128,2,96936:0:0:0:0:
192,192,96793,1,0,0:0:0:0:
192,192,96936,128,0,97222:0:0:0:0:
64,192,97079,128,2,97222:0:0:0:0:
320,192,97079,1,0,0:0:0:0:
320,192,97222,128,0,97364:0:0:0:0:
64,192,97364,128,2,97507:0:0:0:0:
192,192,97364,128,0,97436:0:0:0:0:
192,192,97507,128,0,97650:0:0:0:0:
64,192,97650,128,2,97793:0:0:0:0:
320,192,97650,128,8,97793:0:0:0:0:
448,192,97793,128,0,97936:0:0:0:0:
64,192,97936,128,2,98079:0:0:0:0:
192,192,97936,128,0,98007:0:0:0:0:
192,192,98079,128,0,98222:0:0:0:0:
64,192,98222,128,2,98364:0:0:0:0:
320,192,98222,128,8,98364:0:0:0:0:
448,192,98364,128,0,98507:0:0:0:0:
64,192,98507,128,2,98650:0:0:0:0:
192,192,98507,128,0,98579:0:0:0:0:
192,192,98650,128,0,98793:0:0:0:0:
64,192,98793,128,2,98936:0:0:0:0:
320,192,98793,128,8,98936:0:0:0:0:
448,192,98936,128,0,99079:0:0:0:0:
64,192,99079,128,2,99222:0:0:0:0:
192,192,99079,128,0,99222:0:0:0:0:
320,192,99222,128,2,99293:0:0:0:0:
448,192,99222,128,0,99364:0:0:0:0:
64,192,99364,128,2,99436:0:0:0:0:
320,192,99364,128,8,99507:0:0:0:0:
64,192,99507,128,0,99650:0:0:0:0:
192,192,99650,128,2,99722:0:0:0:0:
320,192,99650,128,0,99793:0:0:0:0:
192,192,99793,128,0,99936:0:0:0:0:
64,192,99936,128,2,100079:0:0:0:0:
320,192,99936,128,8,100079:0:0:0:0:
448,192,100079,128,0,100222:0:0:0:0:
64,192,100222,128,2,100364:0:0:0:0:
192,192,100222,128,0,100293:0:0:0:0:
192,192,100364,128,0,100507:0:0:0:0:
64,192,100507,128,2,100650:0:0:0:0:
320,192,100507,128,8,100650:0:0:0:0:
448,192,100650,128,0,100793:0:0:0:0:
64,192,100793,128,2,100936:0:0:0:0:
192,192,100793,128,0,100864:0:0:0:0:
192,192,100936,128,0,101079:0:0:0:0:
64,192,101079,128,2,101222:0:0:0:0:
320,192,101079,128,8,101222:0:0:0:0:
448,192,101222,128,0,101293:0:0:0:0:
320,192,101364,128,2,101507:0:0:0:0:
448,192,101364,128,0,101650:0:0:0:0:
192,192,101507,1,0,0:0:0:0:
192,192,101650,128,2,101793:0:0:0:0:
320,192,101650,128,0,101936:0:0:0:0:
64,192,101936,128,2,102079:0:0:0:0:
192,192,101936,128,0,102007:0:0:0:0:
192,192,102079,128,0,102364:0:0:0:0:
64,192,102222,128,2,102364:0:0:0:0:
320,192,102222,128,8,102293:0:0:0:0:
320,192,102364,128,0,102650:0:0:0:0:
64,192,102507,128,2,102579:0:0:0:0:
192,192,102507,128,0,102650:0:0:0:0:
64,192,102650,128,0,102936:0:0:0:0:
192,192,102793,128,2,102936:0:0:0:0:
448,192,102793,128,8,102864:0:0:0:0:
448,192,102936,128,0,103150:0:0:0:0:
64,192,103079,128,2,103150:0:0:0:0:
192,192,103079,128,0,103222:0:0:0:0:
448,192,103222,128,0,103507:0:0:0:0:
64,192,103364,128,2,103507:0:0:0:0:
320,192,103364,128,8,103436:0:0:0:0:
320,192,103507,128,0,103793:0:0:0:0:
64,192,103650,128,2,103793:0:0:0:0:
192,192,103650,128,0,103722:0:0:0:0:
192,192,103793,128,0,104079:0:0:0:0:
64,192,103936,128,2,104079:0:0:0:0:
320,192,103936,128,8,104007:0:0:0:0:
320,192,104079,128,0,104222:0:0:0:0:
448,192,104079,128,0,104222:0:0:0:0:
64,192,104222,128,2,104364:0:0:0:0:
192,192,104222,128,0,104293:0:0:0:0:
192,192,104364,128,0,104650:0:0:0:0:
64,192,104507,128,2,104650:0:0:0:0:
320,192,104507,128,8,104579:0:0:0:0:
320,192,104650,128,0,104936:0:0:0:0:
64,192,104793,128,2,104864:0:0:0:0:
192,192,104793,128,0,104936:0:0:0:0:
64,192,104936,128,0,105222:0:0:0:0:
192,192,105079,128,2,105222:0:0:0:0:
448,192,105079,128,8,105150:0:0:0:0:
448,192,105222,128,0,105507:0:0:0:0:
64,192,105364,128,2,105507:0:0:0:0:
192,192,105364,128,0,105436:0:0:0:0:
320,192,105507,128,0,105793:0:0:0:0:
192,192,105650,128,2,105793:0:0:0:0:
448,192,105650,128,8,105722:0:0:0:0:
448,192,105793,128,0,106079:0:0:0:0:
64,192,105936,128,2,106079:0:0:0:0:
192,192,105936,128,0,106007:0:0:0:0:
192,192,106079,128,0,106364:0:0:0:0:
64,192,106222,128,2,106364:0:0:0:0:
320,192,106222,128,8,106293:0:0:0:0:
320,192,106364,128,2,106507:0:0:0:0:
64,192,106507,128,2,106650:0:0:0:0:
448,192,106507,1,8,0:0:0:0:
192,192,106650,128,2,106793:0:0:0:0:
320,192,106650,1,0,0:0:0:0:
64,192,106793,128,2,106936:0:0:0:0:
448,192,106793,1,8,0:0:0:0:
192,192,106936,1,2,0:0:0:0:
320,192,106936,128,0,107079:0:0:0:0:
64,192,107079,128,2,107222:0:0:0:0:
448,192,107079,1,8,0:0:0:0:
192,192,107222,128,2,107364:0:0:0:0:
320,192,107222,1,0,0:0:0:0:
64,192,107364,128,2,107507:0:0:0:0:
448,192,107364,1,8,0:0:0:0:
192,192,107507,1,2,0:0:0:0:
320,192,107507,128,0,107650:0:0:0:0:
64,192,107650,128,2,107793:0:0:0:0:
448,192,107650,1,8,0:0:0:0:
192,192,107793,128,2,107936:0:0:0:0:
320,192,107793,1,0,0:0:0:0:
64,192,107936,128,2,108007:0:0:0:0:
448,192,107936,1,8,0:0:0:0:
64,192,108079,1,2,0:0:0:0:
448,192,108079,128,8,108222:0:0:0:0:
192,192,108222,128,2,108364:0:0:0:0:
320,192,108222,1,0,0:0:0:0:
64,192,108364,1,2,0:0:0:0:
448,192,108364,128,8,108436:0:0:0:0:
64,192,108507,128,2,108579:0:0:0:0:
448,192,108507,1,8,0:0:0:0:
64,192,108650,1,2,0:0:0:0:
448,192,108650,128,8,108722:0:0:0:0:
64,192,108793,1,2,0:0:0:0:
320,192,108793,128,8,108864:0:0:0:0:
64,192,108936,1,2,0:0:0:0:
320,192,108936,128,8,109079:0:0:0:0:
64,192,109079,128,2,109222:0:0:0:0:
448,192,109079,1,8,0:0:0:0:
192,192,109222,1,2,0:0:0:0:
448,192,109222,128,8,109364:0:0:0:0:
64,192,109364,1,2,0:0:0:0:
320,192,109364,128,8,109436:0:0:0:0:
64,192,109507,1,2,0:0:0:0:
320,192,109507,128,8,109650:0:0:0:0:
64,192,109650,128,2,109793:0:0:0:0:
448,192,109650,1,8,0:0:0:0:
192,192,109793,1,2,0:0:0:0:
448,192,109793,128,8,109936:0:0:0:0:
64,192,109936,1,2,0:0:0:0:
192,192,109936,128,4,110007:0:0:0:0:
192,192,110079,128,0,110222:0:0:0:0:
320,192,110222,128,0,110364:0:0:0:0:
64,192,110293,1,0,0:0:0:0:
448,192,110364,128,0,110436:0:0:0:0:
64,192,110436,1,0,0:0:0:0:
448,192,110507,128,0,110793:0:0:0:0:
192,192,110793,128,0,111079:0:0:0:0:
320,192,111079,128,0,113364:0:0:0:0:
448,192,111079,128,0,112222:0:0:0:0:
64,192,113364,128,2,113436:0:0:0:0:
192,192,113364,1,0,0:0:0:0:
320,192,113650,1,0,0:0:0:0:
64,192,113936,1,0,0:0:0:0:
448,192,113936,1,0,0:0:0:0:
192,192,114222,128,0,114293:0:0:0:0:
320,192,114364,128,0,114436:0:0:0:0:
192,192,114507,128,0,114579:0:0:0:0:
448,192,114793,1,0,0:0:0:0:
64,192,115079,128,0,115150:0:0:0:0:
320,192,115079,1,0,0:0:0:0:
448,192,115650,128,0,115722:0:0:0:0:
192,192,115936,1,0,0:0:0:0:
64,192,116222,1,0,0:0:0:0:
448,192,116222,1,0,0:0:0:0:
320,192,116507,128,0,116579:0:0:0:0:
448,192,116650,128,0,116722:0:0:0:0:
64,192,116793,1,0,0:0:0:0:
192,192,116793,1,0,0:0:0:0:
320,192,116864,1,0,0:0:0:0:
64,192,116936,1,0,0:0:0:0:
320,192,117007,1,0,0:0:0:0:
64,192,117079,128,0,117364:0:0:0:0:
192,192,117222,128,0,117364:0:0:0:0:
448,192,117364,1,0,0:0:0:0:
320,192,117436,1,0,0:0:0:0:
192,192,117507,1,0,0:0:0:0:
64,192,117579,1,0,0:0:0:0:
448,192,117650,128,0,117936:0:0:0:0:
320,192,117793,128,0,117936:0:0:0:0:
64,192,117936,128,0,118007:0:0:0:0:
192,192,118222,1,0,0:0:0:0:
64,192,118507,1,0,0:0:0:0:
448,192,118507,1,0,0:0:0:0:
192,192,118793,128,0,118864:0:0:0:0:
320,192,118936,128,0,119007:0:0:0:0:
192,192,119079,128,0,119150:0:0:0:0:
320,192,119364,1,0,0:0:0:0:
192,192,119650,1,0,0:0:0:0:
448,192,119650,128,0,119722:0:0:0:0:
64,192,120222,128,0,120293:0:0:0:0:
320,192,120507,1,0,0:0:0:0:
64,192,120793,1,0,0:0:0:0:
448,192,120793,1,0,0:0:0:0:
192,192,121079,1,0,0:0:0:0:
320,192,121364,1,0,0:0:0:0:
448,192,121364,1,0,0:0:0:0:
192,192,121436,1,0,0:0:0:0:
448,192,121507,1,0,0:0:0:0:
192,192,121579,1,0,0:0:0:0:
448,192,121650,128,0,121936:0:0:0:0:
320,192,121793,128,0,121936:0:0:0:0:
64,192,121936,1,0,0:0:0:0:
192,192,122007,1,0,0:0:0:0:
320,192,122079,1,0,0:0:0:0:
448,192,122150,1,0,0:0:0:0:
64,192,122222,128,0,122507:0:0:0:0:
192,192,122364,128,0,122507:0:0:0:0:
320,192,122507,1,2,0:0:0:0:
448,192,122507,1,8,0:0:0:0:
320,192,122793,1,2,0:0:0:0:
448,192,122793,1,8,0:0:0:0:
320,192,123079,1,2,0:0:0:0:
448,192,123079,1,8,0:0:0:0:
192,192,123364,1,2,0:0:0:0:
320,192,123364,1,8,0:0:0:0:
448,192,123507,1,0,0:0:0:0:
64,192,123650,1,2,0:0:0:0:
192,192,123650,1,8,0:0:0:0:
64,192,123936,1,2,0:0:0:0:
192,192,123936,1,8,0:0:0:0:
64,192,124222,1,2,0:0:0:0:
192,192,124222,1,8,0:0:0:0:
192,192,124507,1,2,0:0:0:0:
320,192,124507,1,8,0:0:0:0:
320,192,124793,1,2,0:0:0:0:
448,192,124793,1,8,0:0:0:0:
320,192,125079,1,2,0:0:0:0:
448,192,125079,1,8,0:0:0:0:
192,192,125364,1,2,0:0:0:0:
320,192,125364,1,8,0:0:0:0:
64,192,125507,1,0,0:0:0:0:
320,192,125650,1,2,0:0:0:0:
448,192,125650,1,8,0:0:0:0:
64,192,125793,1,0,0:0:0:0:
192,192,125936,1,2,0:0:0:0:
320,192,125936,1,8,0:0:0:0:
192,192,126222,1,2,0:0:0:0:
320,192,126222,1,8,0:0:0:0:
192,192,126507,1,2,0:0:0:0:
320,192,126507,1,8,0:0:0:0:
64,192,126793,1,2,0:0:0:0:
192,192,126793,1,8,0:0:0:0:
320,192,127079,1,2,0:0:0:0:
448,192,127079,1,8,0:0:0:0:
320,192,127222,1,2,0:0:0:0:
448,192,127222,1,8,0:0:0:0:
320,192,127364,1,2,0:0:0:0:
448,192,127364,1,8,0:0:0:0:
320,192,127507,1,2,0:0:0:0:
448,192,127507,1,8,0:0:0:0:
320,192,127650,1,2,0:0:0:0:
448,192,127650,1,8,0:0:0:0:
320,192,127793,1,2,0:0:0:0:
448,192,127793,1,8,0:0:0:0:
320,192,127936,1,2,0:0:0:0:
448,192,127936,1,8,0:0:0:0:
320,192,128079,1,2,0:0:0:0:
448,192,128079,1,8,0:0:0:0:
64,192,128222,1,2,0:0:0:0:
192,192,128222,1,8,0:0:0:0:
64,192,128364,1,2,0:0:0:0:
192,192,128364,1,8,0:0:0:0:
64,192,128507,1,2,0:0:0:0:
192,192,128507,1,8,0:0:0:0:
64,192,128650,1,2,0:0:0:0:
192,192,128650,1,8,0:0:0:0:
64,192,128793,1,2,0:0:0:0:
192,192,128793,1,8,0:0:0:0:
64,192,128936,1,2,0:0:0:0:
192,192,128936,1,8,0:0:0:0:
64,192,129079,1,2,0:0:0:0:
192,192,129079,1,8,0:0:0:0:
64,192,129222,1,2,0:0:0:0:
192,192,129222,1,8,0:0:0:0:
64,192,129364,128,4,130436:0:0:0:0:
192,192,129364,1,2,0:0:0:0:
320,192,129364,1,0,0:0:0:0:
448,192,129364,128,0,130436:0:0:0:0:
64,192,130507,1,2,0:0:0:0:
320,192,130507,1,0,0:0:0:0:
448,192,130507,1,0,0:0:0:0:
192,192,130579,1,0,0:0:0:0:
320,192,130650,1,0,0:0:0:0:
448,192,130722,1,0,0:0:0:0:
64,192,130793,128,0,130936:0:0:0:0:
192,192,130864,128,0,131007:0:0:0:0:
320,192,130936,128,0,131079:0:0:0:0:
448,192,131007,128,0,131150:0:0:0:0:
64,192,131079,128,0,131364:0:0:0:0:
320,192,131364,1,2,0:0:0:0:
448,192,131364,1,0,0:0:0:0:
64,192,131650,128,2,132007:0:0:0:0:
320,192,131650,1,4,0:0:0:0:
448,192,131650,1,0,0:0:0:0:
192,192,131793,128,0,131864:0:0:0:0:
192,192,131936,128,2,132007:0:0:0:0:
320,192,131936,128,8,132007:0:0:0:0:
448,192,131936,128,0,132007:0:0:0:0:
64,192,132079,128,0,132150:0:0:0:0:
64,192,132222,1,2,0:0:0:0:
320,192,132222,1,0,0:0:0:0:
448,192,132364,128,0,132436:0:0:0:0:
64,192,132507,128,2,132579:0:0:0:0:
192,192,132507,128,8,132650:0:0:0:0:
448,192,132507,128,0,132579:0:0:0:0:
320,192,132650,128,0,132793:0:0:0:0:
192,192,132793,128,2,133150:0:0:0:0:
448,192,132793,1,0,0:0:0:0:
320,192,132936,128,0,133007:0:0:0:0:
64,192,133079,128,2,133150:0:0:0:0:
320,192,133079,128,8,133150:0:0:0:0:
448,192,133079,128,0,133150:0:0:0:0:
192,192,133222,128,0,133293:0:0:0:0:
64,192,133364,128,2,133722:0:0:0:0:
192,192,133364,1,0,0:0:0:0:
448,192,133507,128,0,133579:0:0:0:0:
192,192,133650,128,2,133722:0:0:0:0:
320,192,133650,128,8,133722:0:0:0:0:
448,192,133650,128,0,133722:0:0:0:0:
64,192,133793,128,0,133864:0:0:0:0:
64,192,133936,1,2,0:0:0:0:
320,192,133936,128,0,134293:0:0:0:0:
192,192,134079,128,0,134150:0:0:0:0:
64,192,134222,128,2,134293:0:0:0:0:
192,192,134222,128,8,134293:0:0:0:0:
448,192,134222,128,0,134293:0:0:0:0:
320,192,134364,128,0,134436:0:0:0:0:
64,192,134507,1,2,0:0:0:0:
320,192,134507,1,0,0:0:0:0:
192,192,134650,128,0,134722:0:0:0:0:
64,192,134793,128,2,134864:0:0:0:0:
192,192,134793,128,8,134864:0:0:0:0:
320,192,134793,128,0,134936:0:0:0:0:
448,192,134936,128,0,135079:0:0:0:0:
64,192,135079,1,2,0:0:0:0:
192,192,135079,128,0,135436:0:0:0:0:
320,192,135222,128,0,135293:0:0:0:0:
64,192,135364,128,2,135436:0:0:0:0:
320,192,135364,128,8,135436:0:0:0:0:
448,192,135364,128,0,135436:0:0:0:0:
192,192,135507,128,0,135579:0:0:0:0:
64,192,135650,128,2,136007:0:0:0:0:
192,192,135650,1,0,0:0:0:0:
448,192,135793,128,0,135864:0:0:0:0:
192,192,135936,128,2,136007:0:0:0:0:
320,192,135936,128,8,136007:0:0:0:0:
448,192,135936,128,0,136007:0:0:0:0:
64,192,136079,128,0,136150:0:0:0:0:
64,192,136222,1,2,0:0:0:0:
192,192,136222,128,0,136579:0:0:0:0:
448,192,136364,128,0,136436:0:0:0:0:
64,192,136507,128,2,136579:0:0:0:0:
320,192,136507,128,8,136579:0:0:0:0:
448,192,136507,128,0,136579:0:0:0:0:
192,192,136650,128,0,136722:0:0:0:0:
192,192,136793,1,2,0:0:0:0:
448,192,136793,1,0,0:0:0:0:
64,192,136936,128,0,137007:0:0:0:0:
64,192,137079,128,2,137150:0:0:0:0:
192,192,137079,128,8,137150:0:0:0:0:
320,192,137079,128,0,137222:0:0:0:0:
448,192,137222,128,0,137364:0:0:0:0:
64,192,137364,1,2,0:0:0:0:
320,192,137364,128,0,137722:0:0:0:0:
192,192,137507,128,0,137579:0:0:0:0:
64,192,137650,128,2,137722:0:0:0:0:
192,192,137650,128,8,137722:0:0:0:0:
448,192,137650,128,0,137722:0:0:0:0:
320,192,137793,128,0,137864:0:0:0:0:
192,192,137936,128,2,138293:0:0:0:0:
320,192,137936,1,0,0:0:0:0:
448,192,138079,128,0,138150:0:0:0:0:
64,192,138222,128,2,138293:0:0:0:0:
320,192,138222,128,8,138293:0:0:0:0:
448,192,138222,128,0,138293:0:0:0:0:
192,192,138364,128,0,138436:0:0:0:0:
64,192,138507,128,2,140007:0:0:0:0:
192,192,138507,1,0,0:0:0:0:
448,192,138650,128,0,138722:0:0:0:0:
192,192,138793,128,2,138864:0:0:0:0:
320,192,138793,128,8,138864:0:0:0:0:
448,192,138793,128,0,138864:0:0:0:0:
320,192,138936,128,0,139007:0:0:0:0:
320,192,139079,1,2,0:0:0:0:
448,192,139079,1,0,0:0:0:0:
192,192,139222,128,0,139293:0:0:0:0:
192,192,139364,128,2,139436:0:0:0:0:
320,192,139364,128,8,139436:0:0:0:0:
448,192,139364,128,0,139436:0:0:0:0:
320,192,139507,128,0,139579:0:0:0:0:
192,192,139650,1,2,0:0:0:0:
320,192,139650,1,0,0:0:0:0:
448,192,139793,128,0,139864:0:0:0:0:
192,192,139936,128,2,140007:0:0:0:0:
320,192,139936,128,8,140007:0:0:0:0:
448,192,139936,128,0,140007:0:0:0:0:
64,192,140079,128,0,140150:0:0:0:0:
64,192,140222,1,2,0:0:0:0:
320,192,140222,1,0,0:0:0:0:
448,192,140364,128,0,140436:0:0:0:0:
64,192,140507,128,2,140579:0:0:0:0:
192,192,140507,128,8,140793:0:0:0:0:
448,192,140507,128,0,140579:0:0:0:0:
64,192,140650,1,2,0:0:0:0:
320,192,140650,128,0,140722:0:0:0:0:
320,192,140793,128,2,141150:0:0:0:0:
448,192,140793,1,0,0:0:0:0:
64,192,140936,128,0,141007:0:0:0:0:
64,192,141079,128,2,141150:0:0:0:0:
192,192,141079,128,8,141150:0:0:0:0:
448,192,141079,128,0,141150:0:0:0:0:
320,192,141222,128,0,141293:0:0:0:0:
192,192,141364,1,2,0:0:0:0:
320,192,141364,1,0,0:0:0:0:
448,192,141507,128,0,141579:0:0:0:0:
64,192,141650,128,2,141793:0:0:0:0:
320,192,141650,128,8,141722:0:0:0:0:
448,192,141650,128,0,141722:0:0:0:0:
192,192,141793,128,0,141936:0:0:0:0:
64,192,141936,128,2,142293:0:0:0:0:
448,192,141936,1,0,0:0:0:0:
320,192,142079,128,0,142150:0:0:0:0:
192,192,142222,128,8,142293:0:0:0:0:
320,192,142222,128,2,142293:0:0:0:0:
448,192,142222,128,0,142293:0:0:0:0:
64,192,142364,128,0,142436:0:0:0:0:
64,192,142507,1,2,0:0:0:0:
192,192,142507,128,0,142793:0:0:0:0:
448,192,142650,128,0,142722:0:0:0:0:
64,192,142793,128,8,142864:0:0:0:0:
320,192,142793,128,2,143079:0:0:0:0:
448,192,142793,128,0,142864:0:0:0:0:
192,192,142936,128,0,143007:0:0:0:0:
192,192,143079,1,2,0:0:0:0:
448,192,143079,128,0,143436:0:0:0:0:
320,192,143222,128,0,143293:0:0:0:0:
64,192,143364,128,8,143436:0:0:0:0:
192,192,143364,128,2,143436:0:0:0:0:
320,192,143364,128,0,143436:0:0:0:0:
448,192,143507,128,0,143579:0:0:0:0:
320,192,143650,128,2,143793:0:0:0:0:
448,192,143650,1,0,0:0:0:0:
192,192,143793,128,0,144007:0:0:0:0:
64,192,143936,128,8,144007:0:0:0:0:
320,192,143936,128,2,144007:0:0:0:0:
448,192,143936,128,0,144007:0:0:0:0:
64,192,144079,128,0,144222:0:0:0:0:
192,192,144222,128,2,144579:0:0:0:0:
448,192,144222,1,0,0:0:0:0:
320,192,144364,128,0,144436:0:0:0:0:
64,192,144507,128,8,144579:0:0:0:0:
320,192,144507,128,2,144579:0:0:0:0:
448,192,144507,128,0,144579:0:0:0:0:
192,192,144650,128,0,144722:0:0:0:0:
192,192,144793,1,2,0:0:0:0:
320,192,144793,1,0,0:0:0:0:
64,192,144936,128,0,145007:0:0:0:0:
64,192,145079,128,8,145150:0:0:0:0:
192,192,145079,128,2,145150:0:0:0:0:
448,192,145079,128,0,145150:0:0:0:0:
192,192,145222,1,2,0:0:0:0:
320,192,145222,128,0,145293:0:0:0:0:
64,192,145364,128,2,145936:0:0:0:0:
320,192,145364,1,4,0:0:0:0:
448,192,145364,1,0,0:0:0:0:
192,192,145507,128,0,145579:0:0:0:0:
320,192,145793,128,0,145864:0:0:0:0:
192,192,145936,1,2,0:0:0:0:
448,192,145936,1,0,0:0:0:0:
320,192,146079,128,0,146150:0:0:0:0:
64,192,146150,1,2,0:0:0:0:
192,192,146150,128,0,146364:0:0:0:0:
64,192,146364,128,2,146436:0:0:0:0:
448,192,146364,128,0,146507:0:0:0:0:
64,192,146507,1,2,0:0:0:0:
192,192,146507,1,4,0:0:0:0:
320,192,146507,128,0,147079:0:0:0:0:
448,192,146650,128,0,146722:0:0:0:0:
64,192,146936,128,0,147007:0:0:0:0:
64,192,147079,1,2,0:0:0:0:
192,192,147079,128,4,147650:0:0:0:0:
448,192,147079,1,0,0:0:0:0:
320,192,147222,128,0,147293:0:0:0:0:
448,192,147507,128,0,147579:0:0:0:0:
64,192,147650,128,2,148793:0:0:0:0:
320,192,147650,1,4,0:0:0:0:
448,192,147650,1,0,0:0:0:0:
192,192,147793,1,0,0:0:0:0:
320,192,148079,1,0,0:0:0:0:
192,192,148364,1,0,0:0:0:0:
320,192,148650,1,0,0:0:0:0:
192,192,148793,128,4,148864:0:0:0:0:
320,192,148793,128,2,148936:0:0:0:0:
448,192,148793,128,0,149007:0:0:0:0:
64,192,148864,1,0,0:0:0:0:
192,192,148936,1,0,0:0:0:0:
320,192,149007,1,0,0:0:0:0:
64,192,149079,1,2,0:0:0:0:
448,192,149079,1,0,0:0:0:0:
192,192,149222,1,0,0:0:0:0:
320,192,149364,128,2,149507:0:0:0:0:
448,192,149364,128,0,149793:0:0:0:0:
64,192,149507,128,0,149650:0:0:0:0:
192,192,149650,128,2,149936:0:0:0:0:
320,192,149650,128,0,149793:0:0:0:0:
64,192,149793,128,0,149936:0:0:0:0:
320,192,149936,128,2,150079:0:0:0:0:
448,192,149936,128,4,150222:0:0:0:0:
192,192,150079,128,0,150222:0:0:0:0:
64,192,150222,128,2,150507:0:0:0:0:
320,192,150222,128,8,150364:0:0:0:0:
448,192,150364,128,0,150507:0:0:0:0:
192,192,150507,128,2,150793:0:0:0:0:
320,192,150507,128,0,150650:0:0:0:0:
64,192,150650,128,0,150793:0:0:0:0:
320,192,150793,128,2,151079:0:0:0:0:
448,192,150793,128,8,150936:0:0:0:0:
192,192,150936,128,0,151079:0:0:0:0:
64,192,151079,128,2,151222:0:0:0:0:
448,192,151079,128,0,151364:0:0:0:0:
320,192,151222,128,0,151364:0:0:0:0:
64,192,151364,128,2,151507:0:0:0:0:
192,192,151364,128,8,151650:0:0:0:0:
448,192,151507,128,0,151650:0:0:0:0:
64,192,151650,128,2,151936:0:0:0:0:
320,192,151650,128,0,151793:0:0:0:0:
192,192,151793,128,0,151936:0:0:0:0:
320,192,151936,128,2,152079:0:0:0:0:
448,192,151936,128,8,152079:0:0:0:0:
64,192,152079,128,0,152222:0:0:0:0:
192,192,152079,128,0,152222:0:0:0:0:
320,192,152222,128,2,152364:0:0:0:0:
448,192,152222,128,0,152436:0:0:0:0:
192,192,152364,128,0,152507:0:0:0:0:
64,192,152507,128,2,152650:0:0:0:0:
448,192,152507,128,8,152722:0:0:0:0:
192,192,152650,128,0,152793:0:0:0:0:
320,192,152793,128,2,152936:0:0:0:0:
448,192,152793,128,0,153079:0:0:0:0:
192,192,152936,128,0,153079:0:0:0:0:
64,192,153079,128,2,153222:0:0:0:0:
320,192,153079,128,8,153222:0:0:0:0:
192,192,153222,128,0,153364:0:0:0:0:
448,192,153222,128,0,153364:0:0:0:0:
64,192,153364,128,2,153507:0:0:0:0:
320,192,153364,128,0,153579:0:0:0:0:
192,192,153507,128,0,153650:0:0:0:0:
320,192,153650,128,2,153864:0:0:0:0:
448,192,153650,128,8,153793:0:0:0:0:
192,192,153793,128,0,153936:0:0:0:0:
64,192,153936,128,2,154079:0:0:0:0:
320,192,153936,128,0,154222:0:0:0:0:
192,192,154079,128,0,154222:0:0:0:0:
64,192,154222,128,2,154364:0:0:0:0:
448,192,154222,128,8,154364:0:0:0:0:
192,192,154364,128,0,154507:0:0:0:0:
320,192,154364,128,0,154507:0:0:0:0:
64,192,154507,128,2,154722:0:0:0:0:
448,192,154507,128,0,154650:0:0:0:0:
320,192,154650,128,0,154793:0:0:0:0:
64,192,154793,128,2,155007:0:0:0:0:
192,192,154793,128,8,154936:0:0:0:0:
320,192,154936,128,0,155079:0:0:0:0:
64,192,155079,128,2,155364:0:0:0:0:
448,192,155079,128,0,155222:0:0:0:0:
320,192,155222,128,0,155364:0:0:0:0:
192,192,155364,128,2,155507:0:0:0:0:
448,192,155364,128,8,155507:0:0:0:0:
64,192,155507,128,0,155650:0:0:0:0:
320,192,155507,128,0,155650:0:0:0:0:
192,192,155650,128,2,155864:0:0:0:0:
448,192,155650,128,0,155793:0:0:0:0:
320,192,155793,128,0,155936:0:0:0:0:
64,192,155936,128,2,156079:0:0:0:0:
192,192,155936,128,8,156150:0:0:0:0:
320,192,156079,128,0,156222:0:0:0:0:
192,192,156222,128,2,156507:0:0:0:0:
448,192,156222,128,0,156364:0:0:0:0:
320,192,156364,128,0,156507:0:0:0:0:
64,192,156507,128,2,156650:0:0:0:0:
448,192,156507,128,8,156650:0:0:0:0:
192,192,156650,128,0,156793:0:0:0:0:
320,192,156650,128,0,156793:0:0:0:0:
64,192,156793,128,2,156936:0:0:0:0:
448,192,156793,128,0,157007:0:0:0:0:
192,192,156936,128,0,157079:0:0:0:0:
320,192,157079,128,2,157222:0:0:0:0:
448,192,157079,128,8,157293:0:0:0:0:
192,192,157222,128,0,157364:0:0:0:0:
64,192,157364,128,2,157507:0:0:0:0:
448,192,157364,128,0,157650:0:0:0:0:
192,192,157507,128,0,157650:0:0:0:0:
64,192,157650,128,2,157793:0:0:0:0:
320,192,157650,128,8,157793:0:0:0:0:
192,192,157793,128,0,157936:0:0:0:0:
448,192,157793,128,0,157936:0:0:0:0:
64,192,157936,128,2,158150:0:0:0:0:
320,192,157936,128,0,158079:0:0:0:0:
448,192,158079,128,0,158222:0:0:0:0:
64,192,158222,128,2,158436:0:0:0:0:
192,192,158222,128,8,158364:0:0:0:0:
448,192,158364,128,0,158507:0:0:0:0:
64,192,158507,128,2,158793:0:0:0:0:
320,192,158507,128,0,158650:0:0:0:0:
448,192,158650,128,0,158793:0:0:0:0:
192,192,158793,128,2,158936:0:0:0:0:
320,192,158793,128,8,158864:0:0:0:0:
320,192,158936,128,2,159079:0:0:0:0:
448,192,158936,128,0,159079:0:0:0:0:
64,192,159079,128,2,159364:0:0:0:0:
192,192,159079,128,0,159222:0:0:0:0:
320,192,159222,128,0,159364:0:0:0:0:
192,192,159364,128,2,159507:0:0:0:0:
448,192,159364,128,8,159507:0:0:0:0:
64,192,159507,128,0,159650:0:0:0:0:
320,192,159507,128,0,159650:0:0:0:0:
192,192,159650,128,2,159793:0:0:0:0:
448,192,159650,128,0,159936:0:0:0:0:
320,192,159793,128,0,159936:0:0:0:0:
64,192,159936,128,2,160079:0:0:0:0:
192,192,159936,128,8,160007:0:0:0:0:
192,192,160079,128,2,160222:0:0:0:0:
320,192,160079,128,0,160222:0:0:0:0:
64,192,160222,128,2,160507:0:0:0:0:
448,192,160222,128,0,160364:0:0:0:0:
320,192,160364,128,0,160507:0:0:0:0:
192,192,160507,128,8,160650:0:0:0:0:
448,192,160507,128,2,160650:0:0:0:0:
64,192,160650,128,0,160793:0:0:0:0:
320,192,160650,128,0,160793:0:0:0:0:
192,192,160793,128,2,160936:0:0:0:0:
448,192,160793,128,0,161079:0:0:0:0:
64,192,160936,128,0,161079:0:0:0:0:
192,192,161079,128,8,161222:0:0:0:0:
320,192,161079,128,2,161150:0:0:0:0:
320,192,161222,128,2,161364:0:0:0:0:
448,192,161222,128,0,161364:0:0:0:0:
64,192,161364,128,2,161507:0:0:0:0:
192,192,161364,128,0,161650:0:0:0:0:
448,192,161507,128,0,161650:0:0:0:0:
64,192,161650,128,8,161793:0:0:0:0:
320,192,161650,128,2,161793:0:0:0:0:
192,192,161793,128,0,161936:0:0:0:0:
448,192,161793,128,0,161936:0:0:0:0:
64,192,161936,1,2,0:0:0:0:
320,192,161936,128,0,162222:0:0:0:0:
448,192,162079,128,0,162222:0:0:0:0:
64,192,162222,128,8,162364:0:0:0:0:
192,192,162222,128,2,162293:0:0:0:0:
192,192,162364,128,2,162507:0:0:0:0:
320,192,162364,128,0,162507:0:0:0:0:
64,192,162507,128,2,162793:0:0:0:0:
448,192,162507,128,0,162650:0:0:0:0:
192,192,162650,128,0,162793:0:0:0:0:
320,192,162793,128,8,162936:0:0:0:0:
448,192,162793,128,2,163079:0:0:0:0:
192,192,162936,128,0,163079:0:0:0:0:
64,192,163079,128,2,163222:0:0:0:0:
320,192,163079,128,0,163222:0:0:0:0:
192,192,163222,128,0,163364:0:0:0:0:
448,192,163222,128,0,163364:0:0:0:0:
64,192,163364,128,8,163507:0:0:0:0:
320,192,163364,128,2,163507:0:0:0:0:
192,192,163507,128,0,163650:0:0:0:0:
448,192,163507,128,0,163650:0:0:0:0:
64,192,163650,128,2,163936:0:0:0:0:
320,192,163650,128,0,163793:0:0:0:0:
192,192,163793,128,0,163936:0:0:0:0:
320,192,163936,128,2,164079:0:0:0:0:
448,192,163936,128,8,164079:0:0:0:0:
64,192,164079,128,0,164222:0:0:0:0:
192,192,164079,128,0,164222:0:0:0:0:
320,192,164222,1,2,0:0:0:0:
448,192,164222,128,0,164507:0:0:0:0:
320,192,164364,128,0,164507:0:0:0:0:
64,192,164507,128,2,164793:0:0:0:0:
192,192,164507,1,8,0:0:0:0:
320,192,164650,128,0,164793:0:0:0:0:
192,192,164793,128,2,164936:0:0:0:0:
448,192,164793,128,0,165079:0:0:0:0:
320,192,164936,128,0,165079:0:0:0:0:
64,192,165079,128,2,165222:0:0:0:0:
192,192,165079,128,8,165222:0:0:0:0:
320,192,165222,128,0,165364:0:0:0:0:
448,192,165222,128,0,165364:0:0:0:0:
64,192,165364,128,2,165650:0:0:0:0:
192,192,165364,1,0,0:0:0:0:
192,192,165507,128,0,165650:0:0:0:0:
320,192,165650,1,2,0:0:0:0:
448,192,165650,128,8,165936:0:0:0:0:
192,192,165793,128,0,165936:0:0:0:0:
64,192,165936,128,2,166079:0:0:0:0:
320,192,165936,128,0,166079:0:0:0:0:
192,192,166079,128,0,166222:0:0:0:0:
448,192,166079,128,0,166222:0:0:0:0:
64,192,166222,128,2,166364:0:0:0:0:
320,192,166222,128,8,166293:0:0:0:0:
192,192,166364,128,2,166507:0:0:0:0:
320,192,166364,128,0,166507:0:0:0:0:
64,192,166507,128,2,166650:0:0:0:0:
448,192,166507,128,0,166793:0:0:0:0:
320,192,166650,128,0,166793:0:0:0:0:
64,192,166793,128,2,166936:0:0:0:0:
192,192,166793,128,8,166864:0:0:0:0:
192,192,166936,128,2,167079:0:0:0:0:
320,192,166936,128,0,167007:0:0:0:0:
64,192,167079,1,2,0:0:0:0:
320,192,167079,1,4,0:0:0:0:
448,192,167079,128,0,167150:0:0:0:0:
448,192,167222,1,0,0:0:0:0:
192,192,167364,1,0,0:0:0:0:
320,192,167436,1,0,0:0:0:0:
192,192,167507,1,0,0:0:0:0:
320,192,167579,1,0,0:0:0:0:
64,192,167650,128,0,167793:0:0:0:0:
192,192,167722,128,0,167864:0:0:0:0:
320,192,167793,128,0,167936:0:0:0:0:
448,192,167864,128,0,168007:0:0:0:0:
64,192,167936,128,0,168079:0:0:0:0:
192,192,168007,128,0,168150:0:0:0:0:
320,192,168079,128,0,168222:0:0:0:0:
448,192,168150,128,0,168222:0:0:0:0:
64,192,168222,1,4,0:0:0:0:
192,192,168222,1,2,0:0:0:0:
