osu file format v14

[General]
AudioFilename: audio.mp3
AudioLeadIn: 0
PreviewTime: 41936
Countdown: 0
SampleSet: Soft
StackLeniency: 0.7
Mode: 3
LetterboxInBreaks: 0
SpecialStyle: 0
WidescreenStoryboard: 1

[Editor]
Bookmarks: 222,9364,18507,24222,33364,42507,56222,65364,74507,92793,111079,113364,122507,131650,149936,168222
DistanceSpacing: 1.4
BeatDivisor: 4
GridSize: 4
TimelineZoom: 1.9

[Metadata]
Title:Ad Astra
TitleUnicode:Ad Astra
Artist:Fractal Dreamers
ArtistUnicode:Fractal Dreamers
Creator:Keiga
Version:DRAGO'S ANOTHER
Source:osu!
Tags:-ziel- kamuy dragolord helblinde skymuted monolithia featured artist fa mappers' guild mg drum and & n bass dnb d&b electronic instrumental
BeatmapID:2320347
BeatmapSetID:1096683

[Difficulty]
HPDrainRate:8
CircleSize:4
OverallDifficulty:8
ApproachRate:5
SliderMultiplier:1.4
SliderTickRate:1

[Events]
//Background and Video events
0,0,"oops i crashed the spaceship.jpg",0,0
//Break Periods
//Storyboard Layer 0 (Background)
//Storyboard Layer 1 (Fail)
//Storyboard Layer 2 (Pass)
//Storyboard Layer 3 (Foreground)
//Storyboard Layer 4 (Overlay)
//Storyboard Sound Samples

[TimingPoints]
222,285.714285714286,4,2,1,50,1,0
9364,-100.0,4,2,1,60,0,0
24222,-100.0,4,2,1,70,0,0
33364,-100.0,4,2,1,60,0,0
37936,-100.0,4,2,1,70,0,0
41364,-100.0,4,2,1,60,0,0
42507,-100.0,4,2,1,80,0,1
53936,-100.0,4,2,1,60,0,0
56222,-100.0,4,2,1,50,0,0
65364,-100.0,4,2,1,60,0,0
74507,-100.0,4,2,1,70,0,0
91650,-100.0,4,2,1,60,0,0
92793,-100.0,4,2,1,80,0,1
101364,-100.0,4,2,1,80,0,0
101936,-100.0,4,2,1,80,0,1
109936,-100.0,4,2,1,70,0,0
113364,-100.0,4,2,1,60,0,0
122507,-100.0,4,2,1,70,0,0
130507,-100.0,4,2,1,60,0,0
131650,-100.0,4,2,1,80,0,1
145364,-100.0,4,2,1,80,0,0
147650,-100.0,4,2,1,70,0,0
149936,-100.0,4,2,1,80,0,1
167079,-100.0,4,2,1,70,0,0

[HitObjects]
64,192,222,1,0,0:0:0:0:
192,192,507,1,0,0:0:0:0:
320,192,650,1,0,0:0:0:0:
64,192,793,1,0,0:0:0:0:
192,192,1079,1,0,0:0:0:0:
320,192,1222,1,0,0:0:0:0:
64,192,1364,1,0,0:0:0:0:
192,192,1650,1,0,0:0:0:0:
320,192,1793,1,0,0:0:0:0:
64,192,1936,1,0,0:0:0:0:
192,192,2222,1,0,0:0:0:0:
320,192,2364,1,0,0:0:0:0:
64,192,2507,1,0,0:0:0:0:
192,192,2793,1,0,0:0:0:0:
320,192,2936,1,0,0:0:0:0:
64,192,3079,1,0,0:0:0:0:
192,192,3364,1,0,0:0:0:0:
320,192,3507,1,0,0:0:0:0:
448,192,3650,1,0,0:0:0:0:
320,192,3936,1,0,0:0:0:0:
192,192,4079,1,0,0:0:0:0:
320,192,4222,1,0,0:0:0:0:
192,192,4507,1,0,0:0:0:0:
64,192,4793,1,0,0:0:0:0:
192,192,5079,1,0,0:0:0:0:
320,192,5222,1,0,0:0:0:0:
64,192,5364,1,0,0:0:0:0:
192,192,5650,1,0,0:0:0:0:
320,192,5793,1,0,0:0:0:0:
64,192,5936,1,0,0:0:0:0:
192,192,6222,1,0,0:0:0:0:
320,192,6364,1,0,0:0:0:0:
64,192,6507,1,0,0:0:0:0:
192,192,6793,1,0,0:0:0:0:
320,192,6936,1,0,0:0:0:0:
64,192,7079,1,0,0:0:0:0:
192,192,7364,1,0,0:0:0:0:
320,192,7507,1,0,0:0:0:0:
64,192,7650,1,0,0:0:0:0:
192,192,7936,1,0,0:0:0:0:
320,192,8079,1,0,0:0:0:0:
192,192,8222,1,0,0:0:0:0:
320,192,8507,1,0,0:0:0:0:
192,192,8650,1,0,0:0:0:0:
320,192,8793,1,0,0:0:0:0:
192,192,9079,1,0,0:0:0:0:
64,192,9364,128,4,9507:0:0:0:0:
320,192,9364,1,0,0:0:0:0:
192,192,9650,128,0,9793:0:0:0:0:
320,192,9793,128,0,9936:0:0:0:0:
64,192,9936,128,0,10079:0:0:0:0:
192,192,10222,128,0,10364:0:0:0:0:
320,192,10364,128,0,10507:0:0:0:0:
64,192,10507,128,0,10650:0:0:0:0:
192,192,10793,128,0,10936:0:0:0:0:
320,192,10936,128,0,11079:0:0:0:0:
64,192,11079,128,0,11222:0:0:0:0:
192,192,11364,128,0,11507:0:0:0:0:
320,192,11507,128,0,11650:0:0:0:0:
64,192,11650,128,0,11793:0:0:0:0:
192,192,11936,128,0,12079:0:0:0:0:
320,192,12079,128,0,12222:0:0:0:0:
64,192,12222,128,0,12364:0:0:0:0:
192,192,12507,128,0,12650:0:0:0:0:
320,192,12650,128,0,12793:0:0:0:0:
448,192,12793,128,0,12936:0:0:0:0:
320,192,13079,128,0,13222:0:0:0:0:
192,192,13222,128,0,13364:0:0:0:0:
320,192,13364,128,0,13507:0:0:0:0:
192,192,13650,128,0,13793:0:0:0:0:
64,192,13936,128,0,14079:0:0:0:0:
192,192,14222,128,0,14364:0:0:0:0:
320,192,14364,128,0,14507:0:0:0:0:
64,192,14507,128,0,14650:0:0:0:0:
192,192,14793,128,0,14936:0:0:0:0:
320,192,14936,128,0,15079:0:0:0:0:
64,192,15079,128,0,15222:0:0:0:0:
192,192,15364,128,0,15507:0:0:0:0:
320,192,15507,128,0,15650:0:0:0:0:
64,192,15650,128,0,15793:0:0:0:0:
192,192,15936,128,0,16079:0:0:0:0:
320,192,16079,128,0,16222:0:0:0:0:
64,192,16222,128,0,16364:0:0:0:0:
192,192,16507,128,0,16650:0:0:0:0:
320,192,16650,128,0,16793:0:0:0:0:
64,192,16793,128,0,16936:0:0:0:0:
192,192,17079,128,0,17222:0:0:0:0:
320,192,17222,128,0,17364:0:0:0:0:
192,192,17364,128,0,17507:0:0:0:0:
320,192,17650,128,0,17793:0:0:0:0:
192,192,17793,128,0,17936:0:0:0:0:
320,192,17936,128,0,18079:0:0:0:0:
192,192,18222,128,0,18364:0:0:0:0:
64,192,18507,1,4,0:0:0:0:
320,192,18507,128,0,21936:0:0:0:0:
64,192,20222,1,2,0:0:0:0:
192,192,20222,1,0,0:0:0:0:
192,192,20507,1,0,0:0:0:0:
448,192,20793,1,0,0:0:0:0:
192,192,21079,1,0,0:0:0:0:
64,192,21364,1,2,0:0:0:0:
192,192,21364,1,0,0:0:0:0:
192,192,21793,1,0,0:0:0:0:
448,192,21936,1,0,0:0:0:0:
192,192,22222,1,0,0:0:0:0:
64,192,22507,1,2,0:0:0:0:
192,192,22507,1,0,0:0:0:0:
320,192,22793,1,0,0:0:0:0:
448,192,23079,1,0,0:0:0:0:
320,192,23364,1,0,0:0:0:0:
64,192,23650,1,2,0:0:0:0:
192,192,23650,1,0,0:0:0:0:
448,192,24079,1,0,0:0:0:0:
64,192,24222,1,2,0:0:0:0:
192,192,24222,1,0,0:0:0:0:
320,192,24364,1,0,0:0:0:0:
64,192,24507,1,2,0:0:0:0:
192,192,24507,1,0,0:0:0:0:
448,192,24650,1,0,0:0:0:0:
64,192,24793,1,2,0:0:0:0:
192,192,24793,1,0,0:0:0:0:
320,192,24936,1,0,0:0:0:0:
64,192,25079,1,0,0:0:0:0:
192,192,25079,1,0,0:0:0:0:
448,192,25222,1,0,0:0:0:0:
64,192,25364,1,2,0:0:0:0:
192,192,25364,1,0,0:0:0:0:
320,192,25507,1,0,0:0:0:0:
64,192,25650,1,2,0:0:0:0:
192,192,25650,1,0,0:0:0:0:
448,192,25793,1,0,0:0:0:0:
64,192,25936,1,2,0:0:0:0:
192,192,25936,1,0,0:0:0:0:
320,192,26079,1,0,0:0:0:0:
192,192,26222,128,0,26507:0:0:0:0:
320,192,26507,1,2,0:0:0:0:
448,192,26507,1,0,0:0:0:0:
64,192,26650,1,0,0:0:0:0:
320,192,26793,1,2,0:0:0:0:
448,192,26793,1,0,0:0:0:0:
192,192,26936,1,0,0:0:0:0:
320,192,27079,1,2,0:0:0:0:
448,192,27079,1,0,0:0:0:0:
64,192,27222,1,0,0:0:0:0:
320,192,27364,1,2,0:0:0:0:
448,192,27364,1,0,0:0:0:0:
192,192,27507,1,0,0:0:0:0:
320,192,27650,1,2,0:0:0:0:
448,192,27650,1,0,0:0:0:0:
64,192,27793,1,0,0:0:0:0:
320,192,27936,1,2,0:0:0:0:
448,192,27936,1,0,0:0:0:0:
192,192,28079,1,0,0:0:0:0:
320,192,28222,1,2,0:0:0:0:
448,192,28222,1,0,0:0:0:0:
64,192,28364,128,0,28650:0:0:0:0:
320,192,28650,128,0,28793:0:0:0:0:
64,192,28793,1,4,0:0:0:0:
192,192,28793,1,2,0:0:0:0:
320,192,28936,1,2,0:0:0:0:
448,192,28936,1,0,0:0:0:0:
64,192,29079,1,2,0:0:0:0:
192,192,29079,1,0,0:0:0:0:
320,192,29222,1,2,0:0:0:0:
448,192,29222,1,0,0:0:0:0:
64,192,29364,1,2,0:0:0:0:
192,192,29364,1,0,0:0:0:0:
320,192,29507,1,2,0:0:0:0:
448,192,29507,1,0,0:0:0:0:
64,192,29650,1,2,0:0:0:0:
192,192,29650,1,0,0:0:0:0:
320,192,29793,1,2,0:0:0:0:
448,192,29793,1,0,0:0:0:0:
64,192,29936,1,2,0:0:0:0:
192,192,29936,1,0,0:0:0:0:
64,192,30079,1,2,0:0:0:0:
192,192,30079,1,0,0:0:0:0:
320,192,30222,1,2,0:0:0:0:
448,192,30222,1,0,0:0:0:0:
320,192,30364,1,2,0:0:0:0:
448,192,30364,1,0,0:0:0:0:
64,192,30507,1,2,0:0:0:0:
192,192,30507,1,0,0:0:0:0:
64,192,30650,1,2,0:0:0:0:
192,192,30650,1,0,0:0:0:0:
320,192,30793,1,2,0:0:0:0:
448,192,30793,1,0,0:0:0:0:
320,192,30936,1,2,0:0:0:0:
448,192,30936,1,0,0:0:0:0:
64,192,31079,1,2,0:0:0:0:
192,192,31079,1,0,0:0:0:0:
320,192,31150,1,2,0:0:0:0:
448,192,31222,1,2,0:0:0:0:
192,192,31293,1,2,0:0:0:0:
320,192,31364,1,2,0:0:0:0:
448,192,31436,1,2,0:0:0:0:
64,192,31507,1,2,0:0:0:0:
192,192,31579,1,2,0:0:0:0:
448,192,31650,1,2,0:0:0:0:
64,192,31722,1,2,0:0:0:0:
192,192,31793,1,2,0:0:0:0:
320,192,31864,1,2,0:0:0:0:
64,192,31936,1,2,0:0:0:0:
192,192,32007,1,2,0:0:0:0:
320,192,32079,1,2,0:0:0:0:
448,192,32150,1,2,0:0:0:0:
64,192,32222,128,2,33364:0:0:0:0:
192,192,32222,1,0,0:0:0:0:
320,192,32364,128,0,32507:0:0:0:0:
448,192,32507,128,0,32650:0:0:0:0:
192,192,32650,128,0,32936:0:0:0:0:
448,192,32936,128,0,33079:0:0:0:0:
320,192,33079,128,0,33222:0:0:0:0:
192,192,33222,128,0,33364:0:0:0:0:
320,192,33364,1,4,0:0:0:0:
448,192,33364,128,2,35507:0:0:0:0:
64,192,33507,1,0,0:0:0:0:
192,192,33650,1,0,0:0:0:0:
320,192,33793,1,0,0:0:0:0:
64,192,33936,1,0,0:0:0:0:
192,192,34079,1,0,0:0:0:0:
320,192,34222,1,0,0:0:0:0:
192,192,34364,1,0,0:0:0:0:
320,192,34507,1,0,0:0:0:0:
64,192,34650,1,0,0:0:0:0:
192,192,34793,1,0,0:0:0:0:
320,192,34936,1,0,0:0:0:0:
64,192,35079,1,0,0:0:0:0:
192,192,35222,1,0,0:0:0:0:
320,192,35364,1,0,0:0:0:0:
192,192,35507,1,0,0:0:0:0:
320,192,35650,1,2,0:0:0:0:
448,192,35650,1,4,0:0:0:0:
64,192,35793,1,0,0:0:0:0:
320,192,35936,1,2,0:0:0:0:
448,192,35936,1,0,0:0:0:0:
192,192,36079,1,0,0:0:0:0:
448,192,36222,1,0,0:0:0:0:
320,192,36364,1,0,0:0:0:0:
192,192,36507,1,0,0:0:0:0:
64,192,36650,1,0,0:0:0:0:
192,192,36793,1,0,0:0:0:0:
448,192,36936,1,0,0:0:0:0:
320,192,37079,1,0,0:0:0:0:
192,192,37222,1,0,0:0:0:0:
448,192,37364,1,0,0:0:0:0:
320,192,37507,1,0,0:0:0:0:
192,192,37650,1,0,0:0:0:0:
64,192,37793,1,0,0:0:0:0:
320,192,37936,1,2,0:0:0:0:
448,192,37936,128,4,40079:0:0:0:0:
64,192,38079,1,0,0:0:0:0:
192,192,38222,1,0,0:0:0:0:
320,192,38364,1,0,0:0:0:0:
64,192,38507,1,0,0:0:0:0:
192,192,38650,1,0,0:0:0:0:
320,192,38793,1,0,0:0:0:0:
192,192,38936,1,0,0:0:0:0:
320,192,39079,1,0,0:0:0:0:
64,192,39222,1,0,0:0:0:0:
192,192,39364,1,0,0:0:0:0:
320,192,39507,1,0,0:0:0:0:
64,192,39650,1,0,0:0:0:0:
192,192,39793,1,0,0:0:0:0:
320,192,39936,1,0,0:0:0:0:
192,192,40079,1,0,0:0:0:0:
320,192,40222,1,4,0:0:0:0:
448,192,40222,1,2,0:0:0:0:
64,192,40364,1,0,0:0:0:0:
320,192,40507,1,2,0:0:0:0:
448,192,40507,1,0,0:0:0:0:
192,192,40650,1,0,0:0:0:0:
448,192,40793,1,0,0:0:0:0:
320,192,40936,1,0,0:0:0:0:
64,192,41079,1,0,0:0:0:0:
192,192,41222,1,0,0:0:0:0:
320,192,41364,1,2,0:0:0:0:
448,192,41364,1,0,0:0:0:0:
448,192,41507,1,0,0:0:0:0:
64,192,41650,1,0,0:0:0:0:
64,192,41793,1,0,0:0:0:0:
448,192,41936,1,0,0:0:0:0:
64,192,42079,1,0,0:0:0:0:
192,192,42222,1,2,0:0:0:0:
320,192,42222,1,0,0:0:0:0:
448,192,42364,1,0,0:0:0:0:
64,192,42507,1,2,0:0:0:0:
192,192,42507,1,4,0:0:0:0:
192,192,42650,1,0,0:0:0:0:
64,192,42793,1,2,0:0:0:0:
320,192,42793,1,8,0:0:0:0:
320,192,42936,1,0,0:0:0:0:
64,192,43079,1,2,0:0:0:0:
192,192,43079,1,0,0:0:0:0:
64,192,43222,1,0,0:0:0:0:
192,192,43364,1,2,0:0:0:0:
448,192,43364,1,8,0:0:0:0:
192,192,43507,1,0,0:0:0:0:
320,192,43650,1,2,0:0:0:0:
448,192,43650,1,0,0:0:0:0:
320,192,43793,1,0,0:0:0:0:
192,192,43936,1,2,0:0:0:0:
448,192,43936,1,8,0:0:0:0:
192,192,44079,1,0,0:0:0:0:
320,192,44222,1,2,0:0:0:0:
448,192,44222,1,0,0:0:0:0:
448,192,44364,1,0,0:0:0:0:
64,192,44507,1,2,0:0:0:0:
192,192,44507,1,8,0:0:0:0:
64,192,44650,1,2,0:0:0:0:
192,192,44650,1,0,0:0:0:0:
320,192,44793,1,2,0:0:0:0:
448,192,44793,1,0,0:0:0:0:
448,192,44936,1,0,0:0:0:0:
64,192,45079,1,2,0:0:0:0:
320,192,45079,1,8,0:0:0:0:
320,192,45222,1,0,0:0:0:0:
64,192,45364,1,2,0:0:0:0:
192,192,45364,1,0,0:0:0:0:
192,192,45507,1,0,0:0:0:0:
64,192,45650,1,2,0:0:0:0:
320,192,45650,1,8,0:0:0:0:
64,192,45793,1,0,0:0:0:0:
320,192,45936,1,2,0:0:0:0:
448,192,45936,1,0,0:0:0:0:
448,192,46079,1,0,0:0:0:0:
64,192,46222,1,2,0:0:0:0:
320,192,46222,1,8,0:0:0:0:
64,192,46364,1,0,0:0:0:0:
320,192,46507,1,2,0:0:0:0:
448,192,46507,1,0,0:0:0:0:
320,192,46650,1,2,0:0:0:0:
192,192,46793,1,2,0:0:0:0:
448,192,46793,1,8,0:0:0:0:
448,192,46936,1,2,0:0:0:0:
64,192,47079,1,2,0:0:0:0:
192,192,47079,1,0,0:0:0:0:
192,192,47222,1,0,0:0:0:0:
64,192,47364,1,2,0:0:0:0:
320,192,47364,1,8,0:0:0:0:
320,192,47507,1,0,0:0:0:0:
64,192,47650,1,2,0:0:0:0:
192,192,47650,1,0,0:0:0:0:
64,192,47793,1,0,0:0:0:0:
192,192,47936,1,2,0:0:0:0:
448,192,47936,1,8,0:0:0:0:
448,192,48079,1,0,0:0:0:0:
64,192,48222,1,2,0:0:0:0:
192,192,48222,1,0,0:0:0:0:
192,192,48364,1,0,0:0:0:0:
64,192,48507,1,2,0:0:0:0:
320,192,48507,1,8,0:0:0:0:
320,192,48650,1,0,0:0:0:0:
64,192,48793,1,2,0:0:0:0:
192,192,48793,1,0,0:0:0:0:
64,192,48936,1,0,0:0:0:0:
320,192,49079,1,2,0:0:0:0:
448,192,49079,1,8,0:0:0:0:
320,192,49222,1,2,0:0:0:0:
448,192,49222,1,0,0:0:0:0:
64,192,49364,1,2,0:0:0:0:
192,192,49364,1,0,0:0:0:0:
192,192,49507,128,0,49650:0:0:0:0:
64,192,49650,1,2,0:0:0:0:
320,192,49650,1,8,0:0:0:0:
320,192,49793,128,0,49936:0:0:0:0:
64,192,49936,1,2,0:0:0:0:
192,192,49936,1,0,0:0:0:0:
64,192,50079,128,0,50222:0:0:0:0:
192,192,50222,1,2,0:0:0:0:
448,192,50222,1,8,0:0:0:0:
192,192,50364,128,0,50507:0:0:0:0:
320,192,50507,1,2,0:0:0:0:
448,192,50507,1,0,0:0:0:0:
320,192,50650,128,0,50793:0:0:0:0:
192,192,50793,1,2,0:0:0:0:
448,192,50793,1,8,0:0:0:0:
192,192,50936,128,0,51079:0:0:0:0:
320,192,51079,1,2,0:0:0:0:
448,192,51079,1,0,0:0:0:0:
448,192,51222,128,0,51364:0:0:0:0:
64,192,51364,1,2,0:0:0:0:
192,192,51364,1,8,0:0:0:0:
64,192,51507,1,2,0:0:0:0:
192,192,51507,1,0,0:0:0:0:
320,192,51650,1,2,0:0:0:0:
448,192,51650,1,0,0:0:0:0:
448,192,51793,128,0,51936:0:0:0:0:
64,192,51936,1,2,0:0:0:0:
320,192,51936,1,8,0:0:0:0:
320,192,52079,128,0,52222:0:0:0:0:
64,192,52222,1,2,0:0:0:0:
192,192,52222,1,0,0:0:0:0:
192,192,52364,128,0,52507:0:0:0:0:
64,192,52507,1,2,0:0:0:0:
320,192,52507,1,8,0:0:0:0:
64,192,52650,128,0,52793:0:0:0:0:
320,192,52793,1,2,0:0:0:0:
448,192,52793,1,0,0:0:0:0:
448,192,52936,128,0,53079:0:0:0:0:
64,192,53079,1,2,0:0:0:0:
320,192,53079,1,8,0:0:0:0:
64,192,53222,128,0,53364:0:0:0:0:
320,192,53364,1,2,0:0:0:0:
448,192,53364,1,0,0:0:0:0:
320,192,53507,1,2,0:0:0:0:
192,192,53650,1,2,0:0:0:0:
448,192,53650,1,8,0:0:0:0:
448,192,53793,1,2,0:0:0:0:
64,192,53936,128,2,54079:0:0:0:0:
192,192,53936,1,4,0:0:0:0:
320,192,54079,128,0,54222:0:0:0:0:
192,192,54222,128,0,54364:0:0:0:0:
448,192,54364,128,0,54507:0:0:0:0:
320,192,54507,128,0,54650:0:0:0:0:
448,192,54650,128,0,54793:0:0:0:0:
320,192,54793,128,0,54936:0:0:0:0:
192,192,54936,128,0,55079:0:0:0:0:
64,192,55079,128,0,55222:0:0:0:0:
320,192,55222,128,0,55364:0:0:0:0:
192,192,55364,128,0,55507:0:0:0:0:
448,192,55507,128,0,55650:0:0:0:0:
192,192,55650,128,0,55793:0:0:0:0:
320,192,55793,128,0,55936:0:0:0:0:
192,192,55936,128,0,56079:0:0:0:0:
64,192,56079,128,0,56222:0:0:0:0:
192,192,56222,1,2,0:0:0:0:
448,192,56222,1,0,0:0:0:0:
320,192,56364,1,0,0:0:0:0:
192,192,56507,1,0,0:0:0:0:
64,192,56650,1,0,0:0:0:0:
320,192,56793,1,0,0:0:0:0:
192,192,56936,1,0,0:0:0:0:
448,192,57079,1,0,0:0:0:0:
320,192,57222,1,0,0:0:0:0:
192,192,57364,1,0,0:0:0:0:
448,192,57507,1,0,0:0:0:0:
320,192,57650,1,0,0:0:0:0:
192,192,57793,1,0,0:0:0:0:
64,192,57936,1,0,0:0:0:0:
320,192,58079,1,0,0:0:0:0:
192,192,58222,1,0,0:0:0:0:
64,192,58364,1,0,0:0:0:0:
448,192,58507,1,0,0:0:0:0:
320,192,58650,1,0,0:0:0:0:
192,192,58793,1,0,0:0:0:0:
64,192,58936,1,0,0:0:0:0:
320,192,59079,1,0,0:0:0:0:
192,192,59222,1,0,0:0:0:0:
448,192,59364,1,0,0:0:0:0:
320,192,59507,1,0,0:0:0:0:
192,192,59650,1,0,0:0:0:0:
448,192,59793,1,0,0:0:0:0:
320,192,59936,1,0,0:0:0:0:
192,192,60079,1,0,0:0:0:0:
64,192,60222,1,0,0:0:0:0:
320,192,60364,1,0,0:0:0:0:
192,192,60507,1,0,0:0:0:0:
64,192,60650,1,0,0:0:0:0:
448,192,60793,1,0,0:0:0:0:
320,192,60936,1,0,0:0:0:0:
192,192,61079,1,0,0:0:0:0:
64,192,61222,1,0,0:0:0:0:
320,192,61364,1,0,0:0:0:0:
192,192,61507,1,0,0:0:0:0:
448,192,61650,1,0,0:0:0:0:
320,192,61793,1,0,0:0:0:0:
192,192,61936,1,0,0:0:0:0:
448,192,62079,1,0,0:0:0:0:
320,192,62222,1,0,0:0:0:0:
192,192,62364,1,0,0:0:0:0:
64,192,62507,1,0,0:0:0:0:
320,192,62650,1,0,0:0:0:0:
192,192,62793,1,0,0:0:0:0:
64,192,62936,1,0,0:0:0:0:
448,192,63079,1,0,0:0:0:0:
320,192,63222,1,0,0:0:0:0:
192,192,63364,1,0,0:0:0:0:
64,192,63507,1,0,0:0:0:0:
320,192,63650,1,0,0:0:0:0:
192,192,63793,1,0,0:0:0:0:
448,192,63936,1,0,0:0:0:0:
320,192,64079,1,0,0:0:0:0:
192,192,64222,1,0,0:0:0:0:
448,192,64364,1,0,0:0:0:0:
320,192,64507,1,0,0:0:0:0:
192,192,64650,1,0,0:0:0:0:
64,192,64793,1,0,0:0:0:0:
320,192,64936,1,0,0:0:0:0:
192,192,65079,1,0,0:0:0:0:
64,192,65222,1,0,0:0:0:0:
192,192,65364,1,4,0:0:0:0:
448,192,65364,1,0,0:0:0:0:
320,192,65507,1,0,0:0:0:0:
192,192,65650,1,0,0:0:0:0:
64,192,65793,1,0,0:0:0:0:
320,192,65936,1,0,0:0:0:0:
448,192,65936,1,0,0:0:0:0:
192,192,66079,1,0,0:0:0:0:
448,192,66222,1,0,0:0:0:0:
320,192,66364,1,0,0:0:0:0:
64,192,66507,1,0,0:0:0:0:
192,192,66507,1,0,0:0:0:0:
448,192,66650,1,0,0:0:0:0:
320,192,66793,1,0,0:0:0:0:
192,192,66936,1,0,0:0:0:0:
64,192,67079,1,0,0:0:0:0:
448,192,67079,1,0,0:0:0:0:
320,192,67222,1,0,0:0:0:0:
192,192,67364,1,0,0:0:0:0:
64,192,67507,1,0,0:0:0:0:
192,192,67650,1,0,0:0:0:0:
448,192,67650,1,0,0:0:0:0:
320,192,67793,1,0,0:0:0:0:
192,192,67936,1,0,0:0:0:0:
64,192,68079,1,0,0:0:0:0:
320,192,68222,1,0,0:0:0:0:
448,192,68222,1,0,0:0:0:0:
192,192,68364,1,0,0:0:0:0:
448,192,68507,1,0,0:0:0:0:
320,192,68650,1,0,0:0:0:0:
64,192,68793,1,0,0:0:0:0:
192,192,68793,1,0,0:0:0:0:
448,192,68936,1,0,0:0:0:0:
320,192,69079,1,0,0:0:0:0:
192,192,69222,1,0,0:0:0:0:
64,192,69364,1,0,0:0:0:0:
448,192,69364,1,0,0:0:0:0:
320,192,69507,1,0,0:0:0:0:
192,192,69650,1,0,0:0:0:0:
64,192,69793,1,0,0:0:0:0:
192,192,69936,1,0,0:0:0:0:
448,192,69936,1,0,0:0:0:0:
320,192,70079,1,0,0:0:0:0:
192,192,70222,1,0,0:0:0:0:
64,192,70364,1,0,0:0:0:0:
320,192,70507,1,0,0:0:0:0:
448,192,70507,1,0,0:0:0:0:
192,192,70650,1,0,0:0:0:0:
448,192,70793,1,0,0:0:0:0:
320,192,70936,1,0,0:0:0:0:
64,192,71079,1,0,0:0:0:0:
192,192,71079,1,0,0:0:0:0:
448,192,71222,1,0,0:0:0:0:
64,192,71364,1,0,0:0:0:0:
320,192,71364,1,0,0:0:0:0:
192,192,71507,1,0,0:0:0:0:
64,192,71650,1,0,0:0:0:0:
448,192,71650,1,0,0:0:0:0:
320,192,71793,1,0,0:0:0:0:
192,192,71936,1,0,0:0:0:0:
448,192,71936,1,0,0:0:0:0:
64,192,72079,1,0,0:0:0:0:
320,192,72222,1,0,0:0:0:0:
448,192,72222,1,0,0:0:0:0:
64,192,72436,1,0,0:0:0:0:
192,192,72507,1,0,0:0:0:0:
448,192,72507,1,0,0:0:0:0:
64,192,72722,1,0,0:0:0:0:
320,192,72793,1,0,0:0:0:0:
448,192,72793,128,0,73079:0:0:0:0:
64,192,73079,1,0,0:0:0:0:
320,192,73079,1,0,0:0:0:0:
64,192,73364,1,0,0:0:0:0:
192,192,73364,1,0,0:0:0:0:
320,192,73936,128,0,74507:0:0:0:0:
64,192,74507,1,4,0:0:0:0:
192,192,74507,1,2,0:0:0:0:
320,192,74650,1,0,0:0:0:0:
192,192,74793,1,0,0:0:0:70:LR_Drum Rpd Fast .wav
448,192,74793,1,0,0:0:0:0:
64,192,74936,1,0,0:0:0:0:
320,192,75079,1,0,0:0:0:0:
64,192,75222,1,2,0:0:0:0:
192,192,75222,1,0,0:0:0:0:
192,192,75364,1,0,0:0:0:70:LR_Drum Rpd Fast .wav
448,192,75364,1,0,0:0:0:0:
320,192,75507,1,0,0:0:0:0:
64,192,75650,1,0,0:0:0:0:
320,192,75793,1,2,0:0:0:0:
448,192,75793,1,0,0:0:0:0:
64,192,75936,1,0,0:0:0:70:LR_Drum Rpd Fast .wav
320,192,75936,1,0,0:0:0:0:
192,192,76079,1,0,0:0:0:0:
448,192,76222,1,0,0:0:0:0:
64,192,76364,1,2,0:0:0:0:
192,192,76364,1,0,0:0:0:0:
192,192,76507,1,0,0:0:0:70:LR_Drum Rpd Fast .wav
448,192,76507,1,0,0:0:0:0:
320,192,76650,1,0,0:0:0:0:
64,192,76793,1,2,0:0:0:0:
192,192,76793,1,0,0:0:0:0:
320,192,76936,1,0,0:0:0:0:
192,192,77079,1,0,0:0:0:70:LR_Drum Rpd Fast .wav
448,192,77079,1,0,0:0:0:0:
64,192,77222,1,0,0:0:0:0:
320,192,77364,1,0,0:0:0:0:
64,192,77507,1,2,0:0:0:0:
192,192,77507,1,0,0:0:0:0:
192,192,77650,1,0,0:0:0:70:LR_Drum Rpd Fast .wav
448,192,77650,1,0,0:0:0:0:
320,192,77793,1,0,0:0:0:0:
448,192,77864,1,0,0:0:0:0:
64,192,77936,1,0,0:0:0:0:
320,192,78079,1,2,0:0:0:0:
448,192,78079,1,0,0:0:0:0:
64,192,78222,1,0,0:0:0:70:LR_Drum Rpd Fast .wav
320,192,78222,1,0,0:0:0:0:
192,192,78364,1,0,0:0:0:0:
448,192,78507,1,0,0:0:0:0:
64,192,78650,1,2,0:0:0:0:
192,192,78650,1,0,0:0:0:0:
192,192,78793,1,0,0:0:0:70:LR_Drum Rpd Fast .wav
448,192,78793,1,0,0:0:0:0:
64,192,78936,1,0,0:0:0:0:
320,192,79079,1,2,0:0:0:0:
448,192,79079,1,0,0:0:0:0:
192,192,79222,1,0,0:0:0:0:
64,192,79364,1,0,0:0:0:70:LR_Drum Rpd Fast .wav
320,192,79364,1,0,0:0:0:0:
448,192,79507,1,0,0:0:0:0:
192,192,79650,1,0,0:0:0:0:
320,192,79793,1,2,0:0:0:0:
448,192,79793,1,0,0:0:0:0:
64,192,79936,1,0,0:0:0:70:LR_Drum Rpd Fast .wav
320,192,79936,1,0,0:0:0:0:
192,192,80079,1,0,0:0:0:0:
448,192,80222,1,0,0:0:0:0:
64,192,80364,1,2,0:0:0:0:
192,192,80364,1,0,0:0:0:0:
192,192,80507,1,0,0:0:0:70:LR_Drum Rpd Fast .wav
448,192,80507,1,0,0:0:0:0:
320,192,80650,1,0,0:0:0:0:
64,192,80793,1,0,0:0:0:0:
320,192,80936,1,2,0:0:0:0:
448,192,80936,1,0,0:0:0:0:
64,192,81079,1,0,0:0:0:70:LR_Drum Rpd Fast .wav
320,192,81079,1,0,0:0:0:0:
192,192,81222,1,0,0:0:0:0:
320,192,81364,1,2,0:0:0:0:
448,192,81364,1,0,0:0:0:0:
192,192,81507,1,0,0:0:0:0:
64,192,81650,1,0,0:0:0:70:LR_Drum Rpd Fast .wav
320,192,81650,1,0,0:0:0:0:
448,192,81793,1,0,0:0:0:0:
192,192,81936,1,0,0:0:0:0:
320,192,82079,1,2,0:0:0:0:
448,192,82079,1,0,0:0:0:0:
64,192,82222,1,0,0:0:0:70:LR_Drum Rpd Fast .wav
320,192,82222,1,0,0:0:0:0:
192,192,82364,1,0,0:0:0:0:
448,192,82507,1,0,0:0:0:0:
64,192,82650,1,2,0:0:0:0:
192,192,82650,1,0,0:0:0:0:
192,192,82793,1,0,0:0:0:70:LR_Drum Rpd Fast .wav
448,192,82793,1,0,0:0:0:0:
320,192,82936,1,0,0:0:0:0:
64,192,83079,1,0,0:0:0:0:
320,192,83222,1,2,0:0:0:0:
448,192,83222,1,0,0:0:0:0:
64,192,83364,1,0,0:0:0:70:LR_Drum Rpd Fast .wav
320,192,83364,1,0,0:0:0:0:
448,192,83507,1,0,0:0:0:0:
64,192,83650,1,2,0:0:0:0:
192,192,83650,1,0,0:0:0:0:
320,192,83793,1,0,0:0:0:0:
192,192,83936,1,0,0:0:0:70:LR_Drum Rpd Fast .wav
448,192,83936,128,0,84079:0:0:0:0:
64,192,84079,1,0,0:0:0:0:
320,192,84222,128,0,84364:0:0:0:0:
64,192,84364,1,2,0:0:0:0:
192,192,84364,1,0,0:0:0:0:
192,192,84507,1,0,0:0:0:70:LR_Drum Rpd Fast .wav
448,192,84507,128,0,84650:0:0:0:0:
320,192,84650,1,0,0:0:0:0:
64,192,84793,128,0,84936:0:0:0:0:
320,192,84936,1,2,0:0:0:0:
448,192,84936,1,0,0:0:0:0:
64,192,85079,1,0,0:0:0:70:LR_Drum Rpd Fast .wav
320,192,85079,1,0,0:0:0:0:
192,192,85222,1,0,0:0:0:0:
448,192,85364,128,0,85507:0:0:0:0:
64,192,85507,1,2,0:0:0:0:
192,192,85507,1,0,0:0:0:0:
192,192,85650,1,0,0:0:0:70:LR_Drum Rpd Fast .wav
448,192,85650,1,0,0:0:0:0:
320,192,85793,1,0,0:0:0:0:
64,192,85936,1,2,0:0:0:0:
192,192,85936,1,0,0:0:0:0:
320,192,86079,1,0,0:0:0:0:
192,192,86222,1,0,0:0:0:70:LR_Drum Rpd Fast .wav
448,192,86222,128,0,86364:0:0:0:0:
64,192,86364,1,0,0:0:0:0:
320,192,86507,128,0,86650:0:0:0:0:
64,192,86650,1,2,0:0:0:0:
192,192,86650,1,0,0:0:0:0:
192,192,86793,1,0,0:0:0:70:LR_Drum Rpd Fast .wav
448,192,86793,128,0,86936:0:0:0:0:
64,192,86936,128,0,87007:0:0:0:0:
448,192,87007,128,0,87079:0:0:0:0:
192,192,87079,128,0,87222:0:0:0:0:
320,192,87222,1,2,0:0:0:0:
448,192,87222,1,0,0:0:0:0:
64,192,87364,128,0,87507:0:0:0:70:LR_Drum Rpd Fast .wav
320,192,87364,1,0,0:0:0:0:
192,192,87507,1,0,0:0:0:0:
448,192,87650,128,0,87793:0:0:0:0:
64,192,87793,1,2,0:0:0:0:
192,192,87793,1,0,0:0:0:0:
192,192,87936,128,0,88079:0:0:0:70:LR_Drum Rpd Fast .wav
448,192,87936,1,0,0:0:0:0:
64,192,88079,1,0,0:0:0:0:
320,192,88222,1,2,0:0:0:0:
448,192,88222,1,0,0:0:0:0:
192,192,88364,1,0,0:0:0:0:
64,192,88507,128,0,88650:0:0:0:70:LR_Drum Rpd Fast .wav
320,192,88507,1,0,0:0:0:0:
448,192,88650,1,0,0:0:0:0:
192,192,88793,128,0,88936:0:0:0:0:
320,192,88936,1,2,0:0:0:0:
448,192,88936,1,0,0:0:0:0:
64,192,89079,128,0,89222:0:0:0:70:LR_Drum Rpd Fast .wav
320,192,89079,1,0,0:0:0:0:
192,192,89222,1,0,0:0:0:0:
448,192,89364,128,0,89507:0:0:0:0:
64,192,89507,1,2,0:0:0:0:
192,192,89507,1,0,0:0:0:0:
192,192,89650,1,0,0:0:0:70:LR_Drum Rpd Fast .wav
448,192,89650,128,0,89793:0:0:0:0:
320,192,89793,1,0,0:0:0:0:
64,192,89936,128,0,90079:0:0:0:0:
320,192,90079,1,2,0:0:0:0:
448,192,90079,1,0,0:0:0:0:
64,192,90222,128,0,90364:0:0:0:70:LR_Drum Rpd Fast .wav
320,192,90222,1,0,0:0:0:0:
192,192,90364,1,0,0:0:0:0:
320,192,90507,1,2,0:0:0:0:
448,192,90507,128,0,90650:0:0:0:0:
192,192,90650,1,0,0:0:0:0:
64,192,90793,128,0,90936:0:0:0:70:LR_Drum Rpd Fast .wav
320,192,90793,1,0,0:0:0:0:
448,192,90936,1,0,0:0:0:0:
192,192,91079,128,0,91222:0:0:0:0:
448,192,91222,1,0,0:0:0:0:
64,192,91364,128,0,91507:0:0:0:70:LR_Drum Rpd Fast .wav
320,192,91364,1,0,0:0:0:0:
192,192,91507,1,0,0:0:0:0:
320,192,91650,1,2,0:0:0:0:
448,192,91650,1,0,0:0:0:0:
192,192,91722,1,0,0:0:0:0:
64,192,91793,1,0,0:0:0:0:
320,192,91936,1,0,0:0:0:0:
448,192,92222,128,0,92507:0:0:0:0:
64,192,92507,1,0,0:0:0:0:
192,192,92507,1,0,0:0:0:0:
320,192,92650,1,0,0:0:0:0:
448,192,92650,1,0,0:0:0:0:
64,192,92793,1,4,0:0:0:0:
192,192,92793,1,2,0:0:0:0:
192,192,92936,1,0,0:0:0:0:
64,192,93079,1,2,0:0:0:0:
320,192,93079,1,8,0:0:0:0:
320,192,93222,1,0,0:0:0:0:
64,192,93364,1,2,0:0:0:0:
192,192,93364,1,0,0:0:0:0:
64,192,93507,1,0,0:0:0:0:
192,192,93650,1,2,0:0:0:0:
448,192,93650,1,8,0:0:0:0:
448,192,93793,1,0,0:0:0:0:
64,192,93936,1,2,0:0:0:0:
192,192,93936,1,0,0:0:0:0:
448,192,94079,1,0,0:0:0:0:
64,192,94222,1,2,0:0:0:0:
320,192,94222,1,8,0:0:0:0:
320,192,94364,1,0,0:0:0:0:
64,192,94507,1,2,0:0:0:0:
192,192,94507,1,0,0:0:0:0:
192,192,94650,1,0,0:0:0:0:
64,192,94793,1,2,0:0:0:0:
320,192,94793,1,8,0:0:0:0:
320,192,94936,1,2,0:0:0:0:
448,192,94936,1,0,0:0:0:0:
64,192,95079,1,2,0:0:0:0:
192,192,95079,1,0,0:0:0:0:
192,192,95222,1,0,0:0:0:0:
64,192,95364,1,2,0:0:0:0:
320,192,95364,1,8,0:0:0:0:
320,192,95507,1,0,0:0:0:0:
64,192,95650,1,2,0:0:0:0:
192,192,95650,1,0,0:0:0:0:
64,192,95793,1,0,0:0:0:0:
192,192,95936,1,2,0:0:0:0:
448,192,95936,1,8,0:0:0:0:
448,192,96079,1,0,0:0:0:0:
64,192,96222,1,2,0:0:0:0:
192,192,96222,1,0,0:0:0:0:
448,192,96364,1,0,0:0:0:0:
64,192,96507,1,2,0:0:0:0:
320,192,96507,1,8,0:0:0:0:
448,192,96650,1,0,0:0:0:0:
64,192,96793,1,2,0:0:0:0:
192,192,96793,1,0,0:0:0:0:
192,192,96936,1,0,0:0:0:0:
320,192,97079,1,2,0:0:0:0:
448,192,97079,1,0,0:0:0:0:
320,192,97222,1,0,0:0:0:0:
64,192,97364,1,2,0:0:0:0:
192,192,97364,1,0,0:0:0:0:
192,192,97507,1,0,0:0:0:0:
64,192,97650,1,2,0:0:0:0:
320,192,97650,1,8,0:0:0:0:
448,192,97793,1,0,0:0:0:0:
64,192,97936,1,2,0:0:0:0:
192,192,97936,1,0,0:0:0:0:
192,192,98079,1,0,0:0:0:0:
64,192,98222,1,2,0:0:0:0:
320,192,98222,1,8,0:0:0:0:
448,192,98364,1,0,0:0:0:0:
64,192,98507,1,2,0:0:0:0:
192,192,98507,1,0,0:0:0:0:
192,192,98650,1,0,0:0:0:0:
64,192,98793,1,2,0:0:0:0:
320,192,98793,1,8,0:0:0:0:
448,192,98936,1,0,0:0:0:0:
64,192,99079,1,2,0:0:0:0:
192,192,99079,1,0,0:0:0:0:
320,192,99222,1,2,0:0:0:0:
448,192,99222,1,0,0:0:0:0:
64,192,99364,1,2,0:0:0:0:
320,192,99364,1,8,0:0:0:0:
64,192,99507,1,0,0:0:0:0:
192,192,99650,1,2,0:0:0:0:
320,192,99650,1,0,0:0:0:0:
192,192,99793,1,0,0:0:0:0:
64,192,99936,1,2,0:0:0:0:
320,192,99936,1,8,0:0:0:0:
448,192,100079,1,0,0:0:0:0:
64,192,100222,1,2,0:0:0:0:
192,192,100222,1,0,0:0:0:0:
192,192,100364,1,0,0:0:0:0:
64,192,100507,1,2,0:0:0:0:
320,192,100507,1,8,0:0:0:0:
448,192,100650,1,0,0:0:0:0:
64,192,100793,1,2,0:0:0:0:
192,192,100793,1,0,0:0:0:0:
192,192,100936,1,0,0:0:0:0:
64,192,101079,1,2,0:0:0:0:
320,192,101079,1,8,0:0:0:0:
448,192,101222,1,0,0:0:0:0:
320,192,101364,1,2,0:0:0:0:
448,192,101364,1,0,0:0:0:0:
192,192,101650,1,2,0:0:0:0:
320,192,101650,1,0,0:0:0:0:
64,192,101936,1,2,0:0:0:0:
192,192,101936,1,0,0:0:0:0:
192,192,102079,128,0,102222:0:0:0:0:
64,192,102222,1,2,0:0:0:0:
320,192,102222,1,8,0:0:0:0:
320,192,102364,128,0,102507:0:0:0:0:
64,192,102507,1,2,0:0:0:0:
192,192,102507,1,0,0:0:0:0:
64,192,102650,128,0,102793:0:0:0:0:
192,192,102793,1,2,0:0:0:0:
448,192,102793,1,8,0:0:0:0:
448,192,102936,128,0,103079:0:0:0:0:
64,192,103079,1,2,0:0:0:0:
192,192,103079,1,0,0:0:0:0:
448,192,103222,128,0,103364:0:0:0:0:
64,192,103364,1,2,0:0:0:0:
320,192,103364,1,8,0:0:0:0:
320,192,103507,128,0,103650:0:0:0:0:
64,192,103650,1,2,0:0:0:0:
192,192,103650,1,0,0:0:0:0:
192,192,103793,128,0,103936:0:0:0:0:
64,192,103936,1,2,0:0:0:0:
320,192,103936,1,8,0:0:0:0:
320,192,104079,1,0,0:0:0:0:
448,192,104079,128,0,104222:0:0:0:0:
64,192,104222,1,2,0:0:0:0:
192,192,104222,1,0,0:0:0:0:
192,192,104364,128,0,104507:0:0:0:0:
64,192,104507,1,2,0:0:0:0:
320,192,104507,1,8,0:0:0:0:
320,192,104650,128,0,104793:0:0:0:0:
64,192,104793,1,2,0:0:0:0:
192,192,104793,1,0,0:0:0:0:
64,192,104936,128,0,105079:0:0:0:0:
192,192,105079,1,2,0:0:0:0:
448,192,105079,1,8,0:0:0:0:
448,192,105222,128,0,105364:0:0:0:0:
64,192,105364,1,2,0:0:0:0:
192,192,105364,1,0,0:0:0:0:
448,192,105507,128,0,105650:0:0:0:0:
64,192,105650,1,2,0:0:0:0:
320,192,105650,1,8,0:0:0:0:
448,192,105793,128,0,105936:0:0:0:0:
64,192,105936,1,2,0:0:0:0:
192,192,105936,1,0,0:0:0:0:
192,192,106079,128,0,106222:0:0:0:0:
64,192,106222,1,2,0:0:0:0:
320,192,106222,1,8,0:0:0:0:
320,192,106364,128,2,106507:0:0:0:0:
64,192,106507,1,2,0:0:0:0:
192,192,106507,1,8,0:0:0:0:
192,192,106650,1,2,0:0:0:0:
320,192,106793,1,2,0:0:0:0:
448,192,106793,1,8,0:0:0:0:
320,192,106936,1,2,0:0:0:0:
64,192,107079,1,2,0:0:0:0:
192,192,107079,1,8,0:0:0:0:
192,192,107222,1,2,0:0:0:0:
320,192,107364,1,2,0:0:0:0:
448,192,107364,1,8,0:0:0:0:
320,192,107507,1,2,0:0:0:0:
64,192,107650,1,2,0:0:0:0:
192,192,107650,1,8,0:0:0:0:
192,192,107793,1,2,0:0:0:0:
320,192,107936,1,2,0:0:0:0:
448,192,107936,1,8,0:0:0:0:
320,192,108079,1,2,0:0:0:0:
448,192,108079,1,8,0:0:0:0:
64,192,108222,1,2,0:0:0:0:
192,192,108222,1,0,0:0:0:0:
192,192,108364,1,10,0:0:0:0:
320,192,108507,1,2,0:0:0:0:
448,192,108507,1,8,0:0:0:0:
320,192,108650,1,2,0:0:0:0:
448,192,108650,1,8,0:0:0:0:
64,192,108793,1,2,0:0:0:0:
192,192,108793,1,8,0:0:0:0:
64,192,108936,1,2,0:0:0:0:
192,192,108936,1,8,0:0:0:0:
320,192,109079,1,2,0:0:0:0:
448,192,109079,1,8,0:0:0:0:
320,192,109222,1,2,0:0:0:0:
448,192,109222,1,8,0:0:0:0:
64,192,109364,1,2,0:0:0:0:
192,192,109364,1,8,0:0:0:0:
64,192,109507,1,2,0:0:0:0:
192,192,109507,1,8,0:0:0:0:
320,192,109650,1,2,0:0:0:0:
448,192,109650,1,8,0:0:0:0:
320,192,109793,1,2,0:0:0:0:
448,192,109793,1,8,0:0:0:0:
64,192,109936,1,2,0:0:0:0:
192,192,109936,1,4,0:0:0:0:
192,192,110079,1,0,0:0:0:0:
320,192,110222,1,0,0:0:0:0:
448,192,110364,1,0,0:0:0:0:
448,192,110507,1,0,0:0:0:0:
192,192,110793,1,0,0:0:0:0:
320,192,111079,128,0,113364:0:0:0:0:
64,192,113364,1,2,0:0:0:0:
192,192,113364,1,0,0:0:0:0:
448,192,113650,1,0,0:0:0:0:
64,192,113936,1,0,0:0:0:0:
448,192,113936,1,0,0:0:0:0:
192,192,114222,1,0,0:0:0:0:
320,192,114364,1,0,0:0:0:0:
192,192,114507,1,0,0:0:0:0:
64,192,114793,1,0,0:0:0:0:
64,192,115079,1,0,0:0:0:0:
448,192,115079,1,0,0:0:0:0:
448,192,115650,1,0,0:0:0:0:
64,192,115936,1,0,0:0:0:0:
64,192,116222,1,0,0:0:0:0:
448,192,116222,1,0,0:0:0:0:
192,192,116507,1,0,0:0:0:0:
320,192,116650,1,0,0:0:0:0:
64,192,116793,128,0,117079:0:0:0:0:
448,192,116793,1,0,0:0:0:0:
320,192,117079,128,0,117364:0:0:0:0:
192,192,117364,1,0,0:0:0:0:
64,192,117507,1,0,0:0:0:0:
320,192,117650,128,0,117936:0:0:0:0:
64,192,117936,1,0,0:0:0:0:
448,192,118222,1,0,0:0:0:0:
64,192,118507,1,0,0:0:0:0:
448,192,118507,1,0,0:0:0:0:
192,192,118793,1,0,0:0:0:0:
320,192,118936,1,0,0:0:0:0:
192,192,119079,1,0,0:0:0:0:
448,192,119364,1,0,0:0:0:0:
64,192,119650,1,0,0:0:0:0:
448,192,119650,1,0,0:0:0:0:
320,192,120222,1,0,0:0:0:0:
64,192,120507,1,0,0:0:0:0:
64,192,120793,1,0,0:0:0:0:
448,192,120793,1,0,0:0:0:0:
320,192,121079,1,0,0:0:0:0:
64,192,121364,128,0,121650:0:0:0:0:
448,192,121364,1,0,0:0:0:0:
320,192,121650,128,0,121936:0:0:0:0:
192,192,121936,1,0,0:0:0:0:
64,192,122079,1,0,0:0:0:0:
320,192,122222,128,0,122507:0:0:0:0:
64,192,122507,1,2,0:0:0:0:
192,192,122507,1,8,0:0:0:0:
64,192,122793,1,2,0:0:0:0:
192,192,122793,1,8,0:0:0:0:
64,192,123079,1,2,0:0:0:0:
192,192,123079,1,8,0:0:0:0:
64,192,123364,1,2,0:0:0:0:
192,192,123364,1,8,0:0:0:0:
320,192,123650,1,2,0:0:0:0:
448,192,123650,1,8,0:0:0:0:
320,192,123936,1,2,0:0:0:0:
448,192,123936,1,8,0:0:0:0:
320,192,124222,1,2,0:0:0:0:
448,192,124222,1,8,0:0:0:0:
320,192,124507,1,2,0:0:0:0:
448,192,124507,1,8,0:0:0:0:
64,192,124793,1,2,0:0:0:0:
192,192,124793,1,8,0:0:0:0:
64,192,125079,1,2,0:0:0:0:
192,192,125079,1,8,0:0:0:0:
320,192,125364,1,2,0:0:0:0:
448,192,125364,1,8,0:0:0:0:
320,192,125650,1,2,0:0:0:0:
448,192,125650,1,8,0:0:0:0:
64,192,125936,1,2,0:0:0:0:
192,192,125936,1,8,0:0:0:0:
64,192,126222,1,2,0:0:0:0:
192,192,126222,1,8,0:0:0:0:
320,192,126507,1,2,0:0:0:0:
448,192,126507,1,8,0:0:0:0:
320,192,126793,1,2,0:0:0:0:
448,192,126793,1,8,0:0:0:0:
64,192,127079,1,2,0:0:0:0:
192,192,127079,1,8,0:0:0:0:
320,192,127222,1,2,0:0:0:0:
448,192,127222,1,8,0:0:0:0:
64,192,127364,1,2,0:0:0:0:
192,192,127364,1,8,0:0:0:0:
320,192,127507,1,2,0:0:0:0:
448,192,127507,1,8,0:0:0:0:
64,192,127650,1,2,0:0:0:0:
192,192,127650,1,8,0:0:0:0:
320,192,127793,1,2,0:0:0:0:
448,192,127793,1,8,0:0:0:0:
64,192,127936,1,2,0:0:0:0:
192,192,127936,1,8,0:0:0:0:
320,192,128079,1,2,0:0:0:0:
448,192,128079,1,8,0:0:0:0:
64,192,128222,1,2,0:0:0:0:
192,192,128222,1,8,0:0:0:0:
64,192,128364,1,2,0:0:0:0:
192,192,128364,1,8,0:0:0:0:
320,192,128507,1,2,0:0:0:0:
448,192,128507,1,8,0:0:0:0:
320,192,128650,1,2,0:0:0:0:
448,192,128650,1,8,0:0:0:0:
64,192,128793,1,2,0:0:0:0:
192,192,128793,1,8,0:0:0:0:
64,192,128936,1,2,0:0:0:0:
192,192,128936,1,8,0:0:0:0:
320,192,129079,1,2,0:0:0:0:
448,192,129079,1,8,0:0:0:0:
320,192,129222,1,2,0:0:0:0:
448,192,129222,1,8,0:0:0:0:
64,192,129364,128,4,130507:0:0:0:0:
192,192,129364,1,2,0:0:0:0:
320,192,130507,1,2,0:0:0:0:
448,192,130507,1,0,0:0:0:0:
320,192,130793,128,0,131079:0:0:0:0:
448,192,131079,1,0,0:0:0:0:
64,192,131364,1,2,0:0:0:0:
192,192,131364,1,0,0:0:0:0:
64,192,131650,1,2,0:0:0:0:
192,192,131650,1,4,0:0:0:0:
320,192,131793,1,0,0:0:0:0:
192,192,131936,1,2,0:0:0:0:
448,192,131936,1,8,0:0:0:0:
64,192,132079,1,0,0:0:0:0:
320,192,132222,1,2,0:0:0:0:
448,192,132222,1,0,0:0:0:0:
192,192,132364,1,0,0:0:0:0:
64,192,132507,1,2,0:0:0:0:
320,192,132507,1,8,0:0:0:0:
448,192,132650,1,0,0:0:0:0:
64,192,132793,1,2,0:0:0:0:
192,192,132793,128,0,132936:0:0:0:0:
320,192,132936,128,0,133079:0:0:0:0:
192,192,133079,128,2,133222:0:0:0:0:
448,192,133079,1,8,0:0:0:0:
64,192,133222,1,0,0:0:0:0:
320,192,133364,128,2,133507:0:0:0:0:
448,192,133364,1,0,0:0:0:0:
192,192,133507,128,0,133650:0:0:0:0:
64,192,133650,1,2,0:0:0:0:
320,192,133650,128,8,133793:0:0:0:0:
448,192,133793,1,0,0:0:0:0:
64,192,133936,128,2,134079:0:0:0:0:
192,192,133936,1,0,0:0:0:0:
320,192,134079,128,0,134222:0:0:0:0:
64,192,134222,128,2,134364:0:0:0:0:
448,192,134222,1,8,0:0:0:0:
192,192,134364,1,0,0:0:0:0:
320,192,134507,1,2,0:0:0:0:
448,192,134507,128,0,134650:0:0:0:0:
192,192,134650,128,0,134793:0:0:0:0:
64,192,134793,1,2,0:0:0:0:
448,192,134793,128,8,134936:0:0:0:0:
320,192,134936,1,0,0:0:0:0:
64,192,135079,1,2,0:0:0:0:
192,192,135079,128,0,135222:0:0:0:0:
320,192,135222,128,0,135364:0:0:0:0:
192,192,135364,128,2,135507:0:0:0:0:
448,192,135364,1,8,0:0:0:0:
64,192,135507,1,0,0:0:0:0:
320,192,135650,128,2,135793:0:0:0:0:
448,192,135650,1,0,0:0:0:0:
192,192,135793,128,0,135936:0:0:0:0:
64,192,135936,1,2,0:0:0:0:
320,192,135936,128,8,136079:0:0:0:0:
448,192,136079,1,0,0:0:0:0:
64,192,136222,128,2,136364:0:0:0:0:
192,192,136222,1,0,0:0:0:0:
320,192,136364,128,0,136507:0:0:0:0:
64,192,136507,128,2,136650:0:0:0:0:
448,192,136507,1,8,0:0:0:0:
192,192,136650,1,0,0:0:0:0:
320,192,136793,1,2,0:0:0:0:
448,192,136793,128,0,136936:0:0:0:0:
192,192,136936,128,0,137079:0:0:0:0:
64,192,137079,1,2,0:0:0:0:
448,192,137079,128,8,137222:0:0:0:0:
320,192,137222,1,0,0:0:0:0:
64,192,137364,1,2,0:0:0:0:
192,192,137364,128,0,137507:0:0:0:0:
320,192,137507,128,0,137650:0:0:0:0:
192,192,137650,128,2,137793:0:0:0:0:
448,192,137650,1,8,0:0:0:0:
64,192,137793,1,0,0:0:0:0:
320,192,137936,128,2,138079:0:0:0:0:
448,192,137936,1,0,0:0:0:0:
192,192,138079,128,0,138222:0:0:0:0:
64,192,138222,1,2,0:0:0:0:
320,192,138222,128,8,138364:0:0:0:0:
448,192,138364,1,0,0:0:0:0:
64,192,138507,128,2,138650:0:0:0:0:
192,192,138507,1,0,0:0:0:0:
320,192,138650,128,0,138793:0:0:0:0:
64,192,138793,128,2,138936:0:0:0:0:
448,192,138793,1,8,0:0:0:0:
192,192,138936,1,0,0:0:0:0:
320,192,139079,1,2,0:0:0:0:
448,192,139079,128,0,139222:0:0:0:0:
192,192,139222,128,0,139364:0:0:0:0:
64,192,139364,1,2,0:0:0:0:
448,192,139364,128,8,139507:0:0:0:0:
320,192,139507,1,0,0:0:0:0:
64,192,139650,128,2,139793:0:0:0:0:
192,192,139650,1,0,0:0:0:0:
320,192,139793,128,0,139936:0:0:0:0:
64,192,139936,128,2,140079:0:0:0:0:
448,192,139936,1,8,0:0:0:0:
192,192,140079,1,0,0:0:0:0:
320,192,140222,1,2,0:0:0:0:
448,192,140222,128,0,140364:0:0:0:0:
192,192,140364,128,0,140507:0:0:0:0:
64,192,140507,1,2,0:0:0:0:
448,192,140507,128,8,140650:0:0:0:0:
64,192,140650,1,2,0:0:0:0:
192,192,140650,1,0,0:0:0:0:
320,192,140793,128,2,140936:0:0:0:0:
448,192,140793,1,0,0:0:0:0:
192,192,140936,128,0,141079:0:0:0:0:
64,192,141079,1,2,0:0:0:0:
320,192,141079,128,8,141222:0:0:0:0:
448,192,141222,1,0,0:0:0:0:
64,192,141364,1,2,0:0:0:0:
192,192,141364,128,0,141507:0:0:0:0:
320,192,141507,128,0,141650:0:0:0:0:
192,192,141650,128,2,141793:0:0:0:0:
448,192,141650,1,8,0:0:0:0:
64,192,141793,1,0,0:0:0:0:
320,192,141936,1,2,0:0:0:0:
448,192,141936,128,0,142079:0:0:0:0:
192,192,142079,128,0,142222:0:0:0:0:
64,192,142222,1,8,0:0:0:0:
448,192,142222,128,2,142364:0:0:0:0:
320,192,142364,1,0,0:0:0:0:
64,192,142507,128,2,142650:0:0:0:0:
192,192,142507,1,0,0:0:0:0:
320,192,142650,128,0,142793:0:0:0:0:
64,192,142793,128,8,142936:0:0:0:0:
448,192,142793,1,2,0:0:0:0:
192,192,142936,1,0,0:0:0:0:
320,192,143079,128,2,143222:0:0:0:0:
448,192,143079,1,0,0:0:0:0:
192,192,143222,128,0,143364:0:0:0:0:
64,192,143364,1,8,0:0:0:0:
320,192,143364,128,2,143507:0:0:0:0:
448,192,143507,1,0,0:0:0:0:
64,192,143650,1,2,0:0:0:0:
192,192,143650,128,0,143793:0:0:0:0:
320,192,143793,128,0,143936:0:0:0:0:
192,192,143936,128,8,144079:0:0:0:0:
448,192,143936,1,2,0:0:0:0:
64,192,144079,1,0,0:0:0:0:
320,192,144222,1,2,0:0:0:0:
448,192,144222,128,0,144364:0:0:0:0:
192,192,144364,128,0,144507:0:0:0:0:
64,192,144507,1,8,0:0:0:0:
448,192,144507,128,2,144650:0:0:0:0:
320,192,144650,1,0,0:0:0:0:
64,192,144793,128,2,144936:0:0:0:0:
192,192,144793,1,0,0:0:0:0:
320,192,144936,128,0,145079:0:0:0:0:
64,192,145079,128,8,145222:0:0:0:0:
448,192,145079,1,2,0:0:0:0:
192,192,145222,1,2,0:0:0:0:
320,192,145364,128,2,145507:0:0:0:0:
448,192,145364,1,4,0:0:0:0:
192,192,145507,128,0,145650:0:0:0:0:
320,192,145650,128,0,145793:0:0:0:0:
64,192,145936,1,2,0:0:0:0:
192,192,145936,128,0,146079:0:0:0:0:
320,192,146079,128,0,146222:0:0:0:0:
64,192,146150,1,2,0:0:0:0:
192,192,146222,128,0,146364:0:0:0:0:
320,192,146364,1,2,0:0:0:0:
448,192,146364,1,0,0:0:0:0:
64,192,146507,128,2,146650:0:0:0:0:
192,192,146507,1,4,0:0:0:0:
320,192,146650,128,0,146793:0:0:0:0:
64,192,146793,128,0,146936:0:0:0:0:
320,192,147079,1,2,0:0:0:0:
448,192,147079,128,4,147222:0:0:0:0:
192,192,147222,128,0,147364:0:0:0:0:
448,192,147364,128,0,147507:0:0:0:0:
64,192,147650,128,2,148793:0:0:0:0:
192,192,147650,1,4,0:0:0:0:
192,192,148793,1,4,0:0:0:0:
448,192,148793,1,2,0:0:0:0:
192,192,149079,1,2,0:0:0:0:
448,192,149079,1,0,0:0:0:0:
64,192,149364,1,2,0:0:0:0:
448,192,149364,1,0,0:0:0:0:
64,192,149650,1,2,0:0:0:0:
192,192,149650,1,0,0:0:0:0:
320,192,149793,1,0,0:0:0:0:
448,192,149793,1,0,0:0:0:0:
64,192,149936,128,2,150222:0:0:0:0:
192,192,149936,1,4,0:0:0:0:
192,192,150222,1,2,0:0:0:0:
448,192,150222,128,8,150507:0:0:0:0:
64,192,150507,1,2,0:0:0:0:
192,192,150507,128,0,150793:0:0:0:0:
64,192,150793,1,2,0:0:0:0:
320,192,150793,128,8,151079:0:0:0:0:
64,192,151079,128,2,151364:0:0:0:0:
192,192,151079,1,0,0:0:0:0:
192,192,151364,128,2,151650:0:0:0:0:
448,192,151364,1,8,0:0:0:0:
320,192,151650,1,2,0:0:0:0:
448,192,151650,128,0,151936:0:0:0:0:
64,192,151936,128,2,152079:0:0:0:0:
320,192,151936,1,8,0:0:0:0:
192,192,152079,128,0,152222:0:0:0:0:
320,192,152222,1,2,0:0:0:0:
448,192,152222,128,0,152507:0:0:0:0:
64,192,152507,128,2,152793:0:0:0:0:
320,192,152507,1,8,0:0:0:0:
320,192,152793,1,2,0:0:0:0:
448,192,152793,128,0,153079:0:0:0:0:
64,192,153079,1,2,0:0:0:0:
320,192,153079,128,8,153222:0:0:0:0:
192,192,153222,128,0,153364:0:0:0:0:
320,192,153364,128,2,153650:0:0:0:0:
448,192,153364,1,0,0:0:0:0:
192,192,153650,128,2,153936:0:0:0:0:
448,192,153650,1,8,0:0:0:0:
320,192,153936,128,2,154222:0:0:0:0:
448,192,153936,1,0,0:0:0:0:
192,192,154222,128,2,154364:0:0:0:0:
448,192,154222,1,8,0:0:0:0:
320,192,154364,128,0,154507:0:0:0:0:
64,192,154507,128,2,154793:0:0:0:0:
192,192,154507,1,0,0:0:0:0:
192,192,154793,1,2,0:0:0:0:
448,192,154793,128,8,155079:0:0:0:0:
64,192,155079,128,2,155364:0:0:0:0:
192,192,155079,1,0,0:0:0:0:
192,192,155364,128,2,155507:0:0:0:0:
448,192,155364,1,8,0:0:0:0:
320,192,155507,128,0,155650:0:0:0:0:
64,192,155650,1,2,0:0:0:0:
192,192,155650,128,0,155936:0:0:0:0:
64,192,155936,1,2,0:0:0:0:
320,192,155936,128,8,156222:0:0:0:0:
64,192,156222,1,2,0:0:0:0:
192,192,156222,128,0,156507:0:0:0:0:
64,192,156507,1,2,0:0:0:0:
320,192,156507,128,8,156650:0:0:0:0:
192,192,156650,128,0,156793:0:0:0:0:
320,192,156793,1,2,0:0:0:0:
448,192,156793,128,0,157079:0:0:0:0:
64,192,157079,128,2,157364:0:0:0:0:
320,192,157079,1,8,0:0:0:0:
320,192,157364,1,2,0:0:0:0:
448,192,157364,128,0,157650:0:0:0:0:
64,192,157650,1,2,0:0:0:0:
320,192,157650,128,8,157793:0:0:0:0:
192,192,157793,128,0,157936:0:0:0:0:
320,192,157936,1,2,0:0:0:0:
448,192,157936,128,0,158222:0:0:0:0:
64,192,158222,128,2,158507:0:0:0:0:
320,192,158222,1,8,0:0:0:0:
320,192,158507,1,2,0:0:0:0:
448,192,158507,128,0,158793:0:0:0:0:
64,192,158793,1,2,0:0:0:0:
320,192,158793,128,8,158936:0:0:0:0:
64,192,158936,1,2,0:0:0:0:
192,192,158936,128,0,159079:0:0:0:0:
320,192,159079,128,2,159364:0:0:0:0:
448,192,159079,1,0,0:0:0:0:
192,192,159364,128,2,159507:0:0:0:0:
448,192,159364,1,8,0:0:0:0:
320,192,159507,128,0,159650:0:0:0:0:
64,192,159650,1,2,0:0:0:0:
192,192,159650,128,0,159936:0:0:0:0:
320,192,159936,1,2,0:0:0:0:
448,192,159936,128,8,160079:0:0:0:0:
64,192,160079,128,2,160222:0:0:0:0:
192,192,160079,1,0,0:0:0:0:
320,192,160222,1,2,0:0:0:0:
448,192,160222,128,0,160507:0:0:0:0:
64,192,160507,128,8,160650:0:0:0:0:
320,192,160507,1,2,0:0:0:0:
192,192,160650,128,0,160793:0:0:0:0:
320,192,160793,128,2,161079:0:0:0:0:
448,192,160793,1,0,0:0:0:0:
64,192,161079,128,8,161222:0:0:0:0:
192,192,161079,1,2,0:0:0:0:
320,192,161222,1,2,0:0:0:0:
448,192,161222,128,0,161364:0:0:0:0:
64,192,161364,128,2,161650:0:0:0:0:
192,192,161364,1,0,0:0:0:0:
192,192,161650,1,8,0:0:0:0:
448,192,161650,128,2,161793:0:0:0:0:
320,192,161793,128,0,161936:0:0:0:0:
64,192,161936,1,2,0:0:0:0:
192,192,161936,1,0,0:0:0:0:
448,192,162079,128,0,162222:0:0:0:0:
64,192,162222,1,8,0:0:0:0:
192,192,162222,128,2,162364:0:0:0:0:
320,192,162364,128,2,162507:0:0:0:0:
448,192,162364,1,0,0:0:0:0:
64,192,162507,1,2,0:0:0:0:
192,192,162507,128,0,162793:0:0:0:0:
64,192,162793,1,8,0:0:0:0:
320,192,162793,128,2,163079:0:0:0:0:
64,192,163079,128,2,163222:0:0:0:0:
192,192,163079,1,0,0:0:0:0:
448,192,163222,128,0,163364:0:0:0:0:
64,192,163364,1,8,0:0:0:0:
320,192,163364,128,2,163507:0:0:0:0:
192,192,163507,128,0,163650:0:0:0:0:
320,192,163650,128,2,163936:0:0:0:0:
448,192,163650,1,0,0:0:0:0:
192,192,163936,1,2,0:0:0:0:
448,192,163936,128,8,164079:0:0:0:0:
64,192,164079,128,0,164222:0:0:0:0:
320,192,164222,128,2,164364:0:0:0:0:
448,192,164222,1,0,0:0:0:0:
192,192,164364,128,0,164507:0:0:0:0:
64,192,164507,1,2,0:0:0:0:
320,192,164507,128,8,164793:0:0:0:0:
64,192,164793,1,2,0:0:0:0:
192,192,164793,128,0,165079:0:0:0:0:
64,192,165079,128,2,165222:0:0:0:0:
320,192,165079,1,8,0:0:0:0:
448,192,165222,128,0,165364:0:0:0:0:
64,192,165364,1,2,0:0:0:0:
192,192,165364,128,0,165507:0:0:0:0:
320,192,165507,128,0,165650:0:0:0:0:
192,192,165650,128,2,165936:0:0:0:0:
448,192,165650,1,8,0:0:0:0:
320,192,165936,128,2,166079:0:0:0:0:
448,192,165936,1,0,0:0:0:0:
64,192,166079,128,0,166222:0:0:0:0:
192,192,166222,1,2,0:0:0:0:
448,192,166222,128,8,166364:0:0:0:0:
64,192,166364,1,2,0:0:0:0:
320,192,166364,128,0,166507:0:0:0:0:
192,192,166507,128,2,166793:0:0:0:0:
448,192,166507,1,0,0:0:0:0:
320,192,166793,128,2,166936:0:0:0:0:
448,192,166793,1,8,0:0:0:0:
64,192,166936,128,2,167079:0:0:0:0:
192,192,166936,1,0,0:0:0:0:
320,192,167079,1,2,0:0:0:0:
448,192,167079,128,4,167364:0:0:0:0:
192,192,167364,1,0,0:0:0:0:
320,192,167436,1,0,0:0:0:0:
64,192,167507,1,0,0:0:0:0:
448,192,167579,1,0,0:0:0:0:
192,192,167650,128,0,168222:0:0:0:0:
320,192,167936,128,0,168222:0:0:0:0:
64,192,168222,1,4,0:0:0:0:
448,192,168222,1,2,0:0:0:0:
