osu file format v14

[General]
AudioFilename: audio.mp3
AudioLeadIn: 0
PreviewTime: 168727
Countdown: 0
SampleSet: Soft
StackLeniency: 0.2
Mode: 0
LetterboxInBreaks: 0
EpilepsyWarning: 1
WidescreenStoryboard: 1

[Editor]
Bookmarks: 33904,56492,90374,112963,135551,152492,169433,192021,214610,237198,259786
DistanceSpacing: 0.1
BeatDivisor: 6
GridSize: 16
TimelineZoom: 5.499997

[Metadata]
Title:Spection
TitleUnicode:Spection
Artist:Fractal
ArtistUnicode:Fractal
Creator:NeilPerry
Version:Quantum Flux
Source:
Tags:toybot rrtyui sharu sing -tochi tochi electronic monstercat dubstep melodic
BeatmapID:1967216
BeatmapSetID:942117

[Difficulty]
HPDrainRate:5
CircleSize:4
OverallDifficulty:9
ApproachRate:9.4
SliderMultiplier:1.92
SliderTickRate:0.5

[Events]
//Background and Video events
0,0,"uh.png",0,0
//Break Periods
//Storyboard Layer 0 (Background)
//Storyboard Layer 1 (Fail)
//Storyboard Layer 2 (Pass)
//Storyboard Layer 3 (Foreground)
Sprite,Foreground,Centre,"sb\collabLyrics\004e.png",0,0 S,0,5669,,0.5 C,0,5669,,255,0,253 F,0,5669,6169,0,0.4 MX,30,5669,6169,196,209 MY,30,5669,6169,463.25,453.25 P,0,5669,33904,A F,0,33404,33904,0.4,0 MX,29,33404,33904,209,221 MY,29,33404,33904,453.25,460.25
Sprite,Foreground,Centre,"sb\collabLyrics\0045.png",0,0 S,0,5669,,0.5 C,0,5669,,255,0,253 P,0,5669,33904,A F,0,5769,6269,0,0.4 MX,30,5769,6269,222.5,236.5 MY,30,5769,6269,467.25,453.25 F,0,33504,34004,0.4,0 MX,29,33504,34004,236.5,245.5 MY,29,33504,34004,453.25,460.25
Sprite,Foreground,Centre,"sb\collabLyrics\0049.png",0,0 S,0,5669,,0.5 C,0,5669,,255,0,253 P,0,5669,33904,A F,0,5869,6369,0,0.4 MX,30,5869,6369,254.5,263.5 MY,30,5869,6369,462.25,453.25 F,0,33604,34104,0.4,0 MX,29,33604,34104,263.5,274.5 MY,29,33604,34104,453.25,467.25
Sprite,Foreground,Centre,"sb\collabLyrics\004c.png",0,0 S,0,5669,,0.5 C,0,5669,,255,0,253 P,0,5669,33904,A F,0,5969,6469,0,0.4 MX,30,5969,6469,278,291 MY,30,5969,6469,464.25,453.25 F,0,33704,34204,0.4,0 MX,29,33704,34204,291,305 MY,29,33704,34204,453.25,461.25
Sprite,Foreground,Centre,"sb\collabLyrics\0050.png",0,0 S,0,5669,,0.5 C,0,5669,,255,0,253 P,0,5669,33904,A F,0,6069,6569,0,0.4 MX,30,6069,6569,305.5,318.5 MY,30,6069,6569,458.25,453.25 F,0,33804,34304,0.4,0 MX,29,33804,34304,318.5,332.5 MY,29,33804,34304,453.25,464.25
Sprite,Foreground,Centre,"sb\collabLyrics\0045.png",0,0 S,0,5669,,0.5 C,0,5669,,255,0,253 P,0,5669,33904,A F,0,6169,6669,0,0.4 MX,30,6169,6669,332,346 MY,30,6169,6669,463.25,453.25 F,0,33904,34404,0.4,0 MX,29,33904,34404,346,357 MY,29,33904,34404,453.25,458.25
Sprite,Foreground,Centre,"sb\collabLyrics\0052.png",0,0 S,0,5669,,0.5 C,0,5669,,255,0,253 P,0,5669,33904,A F,0,6269,6769,0,0.4 MX,30,6269,6769,364,373 MY,30,6269,6769,467.25,453.25 F,0,34004,34504,0.4,0 MX,29,34004,34504,373,380 MY,29,34004,34504,453.25,464.25
Sprite,Foreground,Centre,"sb\collabLyrics\0052.png",0,0 S,0,5669,,0.5 C,0,5669,,255,0,253 P,0,5669,33904,A F,0,6369,6869,0,0.4 MX,30,6369,6869,395.5,400.5 MY,30,6369,6869,461.25,453.25 F,0,34104,34604,0.4,0 MX,29,34104,34604,400.5,408.5 MY,29,34104,34604,453.25,467.25
Sprite,Foreground,Centre,"sb\collabLyrics\0059.png",0,0 S,0,5669,,0.5 C,0,5669,,255,0,253 P,0,5669,33904,A F,0,6469,6969,0,0.4 MX,30,6469,6969,416,428 MY,30,6469,6969,460.25,453.25 F,0,34204,34704,0.4,0 MX,29,34204,34704,428,434 MY,29,34204,34704,453.25,467.25
Sprite,Foreground,Centre,"sb\collabLyrics\004e.png",0,0 S,0,5669,,0.5 C,0,5669,,255,255,255 F,0,5669,6169,0,0.8 MX,30,5669,6169,202,210 MY,30,5669,6169,460.25,454.25 P,0,5669,33904,A F,0,33404,33904,0.8,0 MX,29,33404,33904,210,219 MY,29,33404,33904,454.25,461.25
Sprite,Foreground,Centre,"sb\collabLyrics\0045.png",0,0 S,0,5669,,0.5 C,0,5669,,255,255,255 P,0,5669,33904,A F,0,5769,6269,0,0.8 MX,30,5769,6269,225.5,237.5 MY,30,5769,6269,463.25,454.25 F,0,33504,34004,0.8,0 MX,29,33504,34004,237.5,248.5 MY,29,33504,34004,454.25,460.25
Sprite,Foreground,Centre,"sb\collabLyrics\0049.png",0,0 S,0,5669,,0.5 C,0,5669,,255,255,255 P,0,5669,33904,A F,0,5869,6369,0,0.8 MX,30,5869,6369,251.5,264.5 MY,30,5869,6369,467.25,454.25 F,0,33604,34104,0.8,0 MX,29,33604,34104,264.5,276.5 MY,29,33604,34104,454.25,465.25
Sprite,Foreground,Centre,"sb\collabLyrics\004c.png",0,0 S,0,5669,,0.5 C,0,5669,,255,255,255 P,0,5669,33904,A F,0,5969,6469,0,0.8 MX,30,5969,6469,285,292 MY,30,5969,6469,467.25,454.25 F,0,33704,34204,0.8,0 MX,29,33704,34204,292,305 MY,29,33704,34204,454.25,459.25
Sprite,Foreground,Centre,"sb\collabLyrics\0050.png",0,0 S,0,5669,,0.5 C,0,5669,,255,255,255 P,0,5669,33904,A F,0,6069,6569,0,0.8 MX,30,6069,6569,313.5,319.5 MY,30,6069,6569,467.25,454.25 F,0,33804,34304,0.8,0 MX,29,33804,34304,319.5,330.5 MY,29,33804,34304,454.25,461.25
Sprite,Foreground,Centre,"sb\collabLyrics\0045.png",0,0 S,0,5669,,0.5 C,0,5669,,255,255,255 P,0,5669,33904,A F,0,6169,6669,0,0.8 MX,30,6169,6669,338,347 MY,30,6169,6669,466.25,454.25 F,0,33904,34404,0.8,0 MX,29,33904,34404,347,358 MY,29,33904,34404,454.25,467.25
Sprite,Foreground,Centre,"sb\collabLyrics\0052.png",0,0 S,0,5669,,0.5 C,0,5669,,255,255,255 P,0,5669,33904,A F,0,6269,6769,0,0.8 MX,30,6269,6769,362,374 MY,30,6269,6769,460.25,454.25 F,0,34004,34504,0.8,0 MX,29,34004,34504,374,386 MY,29,34004,34504,454.25,468.25
Sprite,Foreground,Centre,"sb\collabLyrics\0052.png",0,0 S,0,5669,,0.5 C,0,5669,,255,255,255 P,0,5669,33904,A F,0,6369,6869,0,0.8 MX,30,6369,6869,392.5,401.5 MY,30,6369,6869,462.25,454.25 F,0,34104,34604,0.8,0 MX,29,34104,34604,401.5,411.5 MY,29,34104,34604,454.25,465.25
Sprite,Foreground,Centre,"sb\collabLyrics\0059.png",0,0 S,0,5669,,0.5 C,0,5669,,255,255,255 P,0,5669,33904,A F,0,6469,6969,0,0.8 MX,30,6469,6969,416,429 MY,30,6469,6969,466.25,454.25 F,0,34204,34704,0.8,0 MX,29,34204,34704,429,442 MY,29,34204,34704,454.25,466.25
Sprite,Foreground,Centre,"sb\collabLyrics\004e.png",0,0 S,0,5669,,0.5 C,0,5669,,126,244,255 F,0,5669,6169,0,0.4 MX,30,5669,6169,204,211 MY,30,5669,6169,466.25,455.25 P,0,5669,33904,A F,0,33404,33904,0.4,0 MX,29,33404,33904,211,221 MY,29,33404,33904,455.25,463.25
Sprite,Foreground,Centre,"sb\collabLyrics\0045.png",0,0 S,0,5669,,0.5 C,0,5669,,126,244,255 P,0,5669,33904,A F,0,5769,6269,0,0.4 MX,30,5769,6269,225.5,238.5 MY,30,5769,6269,461.25,455.25 F,0,33504,34004,0.4,0 MX,29,33504,34004,238.5,245.5 MY,29,33504,34004,455.25,460.25
Sprite,Foreground,Centre,"sb\collabLyrics\0049.png",0,0 S,0,5669,,0.5 C,0,5669,,126,244,255 P,0,5669,33904,A F,0,5869,6369,0,0.4 MX,30,5869,6369,254.5,265.5 MY,30,5869,6369,469.25,455.25 F,0,33604,34104,0.4,0 MX,29,33604,34104,265.5,276.5 MY,29,33604,34104,455.25,462.25
Sprite,Foreground,Centre,"sb\collabLyrics\004c.png",0,0 S,0,5669,,0.5 C,0,5669,,126,244,255 P,0,5669,33904,A F,0,5969,6469,0,0.4 MX,30,5969,6469,288,293 MY,30,5969,6469,466.25,455.25 F,0,33704,34204,0.4,0 MX,29,33704,34204,293,307 MY,29,33704,34204,455.25,460.25
Sprite,Foreground,Centre,"sb\collabLyrics\0050.png",0,0 S,0,5669,,0.5 C,0,5669,,126,244,255 P,0,5669,33904,A F,0,6069,6569,0,0.4 MX,30,6069,6569,314.5,320.5 MY,30,6069,6569,469.25,455.25 F,0,33804,34304,0.4,0 MX,29,33804,34304,320.5,331.5 MY,29,33804,34304,455.25,464.25
Sprite,Foreground,Centre,"sb\collabLyrics\0045.png",0,0 S,0,5669,,0.5 C,0,5669,,126,244,255 P,0,5669,33904,A F,0,6169,6669,0,0.4 MX,30,6169,6669,337,348 MY,30,6169,6669,462.25,455.25 F,0,33904,34404,0.4,0 MX,29,33904,34404,348,358 MY,29,33904,34404,455.25,466.25
Sprite,Foreground,Centre,"sb\collabLyrics\0052.png",0,0 S,0,5669,,0.5 C,0,5669,,126,244,255 P,0,5669,33904,A F,0,6269,6769,0,0.4 MX,30,6269,6769,367,375 MY,30,6269,6769,460.25,455.25 F,0,34004,34504,0.4,0 MX,29,34004,34504,375,388 MY,29,34004,34504,455.25,462.25
Sprite,Foreground,Centre,"sb\collabLyrics\0052.png",0,0 S,0,5669,,0.5 C,0,5669,,126,244,255 P,0,5669,33904,A F,0,6369,6869,0,0.4 MX,30,6369,6869,388.5,402.5 MY,30,6369,6869,463.25,455.25 F,0,34104,34604,0.4,0 MX,29,34104,34604,402.5,416.5 MY,29,34104,34604,455.25,465.25
Sprite,Foreground,Centre,"sb\collabLyrics\0059.png",0,0 S,0,5669,,0.5 C,0,5669,,126,244,255 P,0,5669,33904,A F,0,6469,6969,0,0.4 MX,30,6469,6969,420,430 MY,30,6469,6969,460.25,455.25 F,0,34204,34704,0.4,0 MX,29,34204,34704,430,440 MY,29,34204,34704,455.25,462.25
Sprite,Foreground,Centre,"sb\collabLyrics\004e.png",0,0 S,0,90374,,0.5 C,0,90374,,255,0,253 F,0,90374,90874,0,0.4 MX,30,90374,90874,196,209 MY,30,90374,90874,459.25,453.25 P,0,90374,112963,A F,0,112463,112963,0.4,0 MX,29,112463,112963,209,220 MY,29,112463,112963,453.25,465.25
Sprite,Foreground,Centre,"sb\collabLyrics\0045.png",0,0 S,0,90374,,0.5 C,0,90374,,255,0,253 P,0,90374,112963,A F,0,90474,90974,0,0.4 MX,30,90474,90974,222.5,236.5 MY,30,90474,90974,464.25,453.25 F,0,112563,113063,0.4,0 MX,29,112563,113063,236.5,242.5 MY,29,112563,113063,453.25,464.25
Sprite,Foreground,Centre,"sb\collabLyrics\0049.png",0,0 S,0,90374,,0.5 C,0,90374,,255,0,253 P,0,90374,112963,A F,0,90574,91074,0,0.4 MX,30,90574,91074,252.5,263.5 MY,30,90574,91074,459.25,453.25 F,0,112663,113163,0.4,0 MX,29,112663,113163,263.5,273.5 MY,29,112663,113163,453.25,459.25
Sprite,Foreground,Centre,"sb\collabLyrics\004c.png",0,0 S,0,90374,,0.5 C,0,90374,,255,0,253 P,0,90374,112963,A F,0,90674,91174,0,0.4 MX,30,90674,91174,284,291 MY,30,90674,91174,463.25,453.25 F,0,112763,113263,0.4,0 MX,29,112763,113263,291,305 MY,29,112763,113263,453.25,458.25
Sprite,Foreground,Centre,"sb\collabLyrics\0050.png",0,0 S,0,90374,,0.5 C,0,90374,,255,0,253 P,0,90374,112963,A F,0,90774,91274,0,0.4 MX,30,90774,91274,305.5,318.5 MY,30,90774,91274,464.25,453.25 F,0,112863,113363,0.4,0 MX,29,112863,113363,318.5,328.5 MY,29,112863,113363,453.25,463.25
Sprite,Foreground,Centre,"sb\collabLyrics\0045.png",0,0 S,0,90374,,0.5 C,0,90374,,255,0,253 P,0,90374,112963,A F,0,90874,91374,0,0.4 MX,30,90874,91374,341,346 MY,30,90874,91374,459.25,453.25 F,0,112963,113463,0.4,0 MX,29,112963,113463,346,356 MY,29,112963,113463,453.25,466.25
Sprite,Foreground,Centre,"sb\collabLyrics\0052.png",0,0 S,0,90374,,0.5 C,0,90374,,255,0,253 P,0,90374,112963,A F,0,90974,91474,0,0.4 MX,30,90974,91474,363,373 MY,30,90974,91474,464.25,453.25 F,0,113063,113563,0.4,0 MX,29,113063,113563,373,383 MY,29,113063,113563,453.25,467.25
Sprite,Foreground,Centre,"sb\collabLyrics\0052.png",0,0 S,0,90374,,0.5 C,0,90374,,255,0,253 P,0,90374,112963,A F,0,91074,91574,0,0.4 MX,30,91074,91574,395.5,400.5 MY,30,91074,91574,462.25,453.25 F,0,113163,113663,0.4,0 MX,29,113163,113663,400.5,409.5 MY,29,113163,113663,453.25,460.25
Sprite,Foreground,Centre,"sb\collabLyrics\0059.png",0,0 S,0,90374,,0.5 C,0,90374,,255,0,253 P,0,90374,112963,A F,0,91174,91674,0,0.4 MX,30,91174,91674,421,428 MY,30,91174,91674,462.25,453.25 F,0,113263,113763,0.4,0 MX,29,113263,113763,428,434 MY,29,113263,113763,453.25,462.25
Sprite,Foreground,Centre,"sb\collabLyrics\004e.png",0,0 S,0,90374,,0.5 C,0,90374,,255,255,255 F,0,90374,90874,0,0.8 MX,30,90374,90874,202,210 MY,30,90374,90874,461.25,454.25 P,0,90374,112963,A F,0,112463,112963,0.8,0 MX,29,112463,112963,210,223 MY,29,112463,112963,454.25,468.25
Sprite,Foreground,Centre,"sb\collabLyrics\0045.png",0,0 S,0,90374,,0.5 C,0,90374,,255,255,255 P,0,90374,112963,A F,0,90474,90974,0,0.8 MX,30,90474,90974,227.5,237.5 MY,30,90474,90974,468.25,454.25 F,0,112563,113063,0.8,0 MX,29,112563,113063,237.5,251.5 MY,29,112563,113063,454.25,459.25
Sprite,Foreground,Centre,"sb\collabLyrics\0049.png",0,0 S,0,90374,,0.5 C,0,90374,,255,255,255 P,0,90374,112963,A F,0,90574,91074,0,0.8 MX,30,90574,91074,257.5,264.5 MY,30,90574,91074,464.25,454.25 F,0,112663,113163,0.8,0 MX,29,112663,113163,264.5,278.5 MY,29,112663,113163,454.25,466.25
Sprite,Foreground,Centre,"sb\collabLyrics\004c.png",0,0 S,0,90374,,0.5 C,0,90374,,255,255,255 P,0,90374,112963,A F,0,90674,91174,0,0.8 MX,30,90674,91174,283,292 MY,30,90674,91174,467.25,454.25 F,0,112763,113263,0.8,0 MX,29,112763,113263,292,306 MY,29,112763,113263,454.25,468.25
Sprite,Foreground,Centre,"sb\collabLyrics\0050.png",0,0 S,0,90374,,0.5 C,0,90374,,255,255,255 P,0,90374,112963,A F,0,90774,91274,0,0.8 MX,30,90774,91274,313.5,319.5 MY,30,90774,91274,460.25,454.25 F,0,112863,113363,0.8,0 MX,29,112863,113363,319.5,332.5 MY,29,112863,113363,454.25,467.25
Sprite,Foreground,Centre,"sb\collabLyrics\0045.png",0,0 S,0,90374,,0.5 C,0,90374,,255,255,255 P,0,90374,112963,A F,0,90874,91374,0,0.8 MX,30,90874,91374,335,347 MY,30,90874,91374,462.25,454.25 F,0,112963,113463,0.8,0 MX,29,112963,113463,347,357 MY,29,112963,113463,454.25,468.25
Sprite,Foreground,Centre,"sb\collabLyrics\0052.png",0,0 S,0,90374,,0.5 C,0,90374,,255,255,255 P,0,90374,112963,A F,0,90974,91474,0,0.8 MX,30,90974,91474,363,374 MY,30,90974,91474,460.25,454.25 F,0,113063,113563,0.8,0 MX,29,113063,113563,374,380 MY,29,113063,113563,454.25,463.25
Sprite,Foreground,Centre,"sb\collabLyrics\0052.png",0,0 S,0,90374,,0.5 C,0,90374,,255,255,255 P,0,90374,112963,A F,0,91074,91574,0,0.8 MX,30,91074,91574,394.5,401.5 MY,30,91074,91574,461.25,454.25 F,0,113163,113663,0.8,0 MX,29,113163,113663,401.5,409.5 MY,29,113163,113663,454.25,466.25
Sprite,Foreground,Centre,"sb\collabLyrics\0059.png",0,0 S,0,90374,,0.5 C,0,90374,,255,255,255 P,0,90374,112963,A F,0,91174,91674,0,0.8 MX,30,91174,91674,418,429 MY,30,91174,91674,465.25,454.25 F,0,113263,113763,0.8,0 MX,29,113263,113763,429,439 MY,29,113263,113763,454.25,462.25
Sprite,Foreground,Centre,"sb\collabLyrics\004e.png",0,0 S,0,90374,,0.5 C,0,90374,,126,244,255 F,0,90374,90874,0,0.4 MX,30,90374,90874,206,211 MY,30,90374,90874,467.25,455.25 P,0,90374,112963,A F,0,112463,112963,0.4,0 MX,29,112463,112963,211,224 MY,29,112463,112963,455.25,468.25
Sprite,Foreground,Centre,"sb\collabLyrics\0045.png",0,0 S,0,90374,,0.5 C,0,90374,,126,244,255 P,0,90374,112963,A F,0,90474,90974,0,0.4 MX,30,90474,90974,231.5,238.5 MY,30,90474,90974,464.25,455.25 F,0,112563,113063,0.4,0 MX,29,112563,113063,238.5,245.5 MY,29,112563,113063,455.25,461.25
Sprite,Foreground,Centre,"sb\collabLyrics\0049.png",0,0 S,0,90374,,0.5 C,0,90374,,126,244,255 P,0,90374,112963,A F,0,90574,91074,0,0.4 MX,30,90574,91074,256.5,265.5 MY,30,90574,91074,463.25,455.25 F,0,112663,113163,0.4,0 MX,29,112663,113163,265.5,276.5 MY,29,112663,113163,455.25,463.25
Sprite,Foreground,Centre,"sb\collabLyrics\004c.png",0,0 S,0,90374,,0.5 C,0,90374,,126,244,255 P,0,90374,112963,A F,0,90674,91174,0,0.4 MX,30,90674,91174,279,293 MY,30,90674,91174,460.25,455.25 F,0,112763,113263,0.4,0 MX,29,112763,113263,293,304 MY,29,112763,113263,455.25,469.25
Sprite,Foreground,Centre,"sb\collabLyrics\0050.png",0,0 S,0,90374,,0.5 C,0,90374,,126,244,255 P,0,90374,112963,A F,0,90774,91274,0,0.4 MX,30,90774,91274,314.5,320.5 MY,30,90774,91274,460.25,455.25 F,0,112863,113363,0.4,0 MX,29,112863,113363,320.5,332.5 MY,29,112863,113363,455.25,461.25
Sprite,Foreground,Centre,"sb\collabLyrics\0045.png",0,0 S,0,90374,,0.5 C,0,90374,,126,244,255 P,0,90374,112963,A F,0,90874,91374,0,0.4 MX,30,90874,91374,342,348 MY,30,90874,91374,461.25,455.25 F,0,112963,113463,0.4,0 MX,29,112963,113463,348,360 MY,29,112963,113463,455.25,468.25
Sprite,Foreground,Centre,"sb\collabLyrics\0052.png",0,0 S,0,90374,,0.5 C,0,90374,,126,244,255 P,0,90374,112963,A F,0,90974,91474,0,0.4 MX,30,90974,91474,365,375 MY,30,90974,91474,468.25,455.25 F,0,113063,113563,0.4,0 MX,29,113063,113563,375,382 MY,29,113063,113563,455.25,468.25
Sprite,Foreground,Centre,"sb\collabLyrics\0052.png",0,0 S,0,90374,,0.5 C,0,90374,,126,244,255 P,0,90374,112963,A F,0,91074,91574,0,0.4 MX,30,91074,91574,388.5,402.5 MY,30,91074,91574,464.25,455.25 F,0,113163,113663,0.4,0 MX,29,113163,113663,402.5,415.5 MY,29,113163,113663,455.25,463.25
Sprite,Foreground,Centre,"sb\collabLyrics\0059.png",0,0 S,0,90374,,0.5 C,0,90374,,126,244,255 P,0,90374,112963,A F,0,91174,91674,0,0.4 MX,30,91174,91674,421,430 MY,30,91174,91674,469.25,455.25 F,0,113263,113763,0.4,0 MX,29,113263,113763,430,441 MY,29,113263,113763,455.25,466.25
Sprite,Foreground,Centre,"sb\collabLyrics\004e.png",0,0 S,0,152492,,0.5 C,0,152492,,255,0,253 F,0,152492,152992,0,0.4 MX,30,152492,152992,198,209 MY,30,152492,152992,466.25,453.25 P,0,152492,192021,A F,0,191521,192021,0.4,0 MX,29,191521,192021,209,223 MY,29,191521,192021,453.25,463.25
Sprite,Foreground,Centre,"sb\collabLyrics\0045.png",0,0 S,0,152492,,0.5 C,0,152492,,255,0,253 P,0,152492,192021,A F,0,152592,153092,0,0.4 MX,30,152592,153092,231.5,236.5 MY,30,152592,153092,464.25,453.25 F,0,191621,192121,0.4,0 MX,29,191621,192121,236.5,246.5 MY,29,191621,192121,453.25,461.25
Sprite,Foreground,Centre,"sb\collabLyrics\0049.png",0,0 S,0,152492,,0.5 C,0,152492,,255,0,253 P,0,152492,192021,A F,0,152692,153192,0,0.4 MX,30,152692,153192,255.5,263.5 MY,30,152692,153192,463.25,453.25 F,0,191721,192221,0.4,0 MX,29,191721,192221,263.5,275.5 MY,29,191721,192221,453.25,466.25
Sprite,Foreground,Centre,"sb\collabLyrics\004c.png",0,0 S,0,152492,,0.5 C,0,152492,,255,0,253 P,0,152492,192021,A F,0,152792,153292,0,0.4 MX,30,152792,153292,281,291 MY,30,152792,153292,464.25,453.25 F,0,191821,192321,0.4,0 MX,29,191821,192321,291,297 MY,29,191821,192321,453.25,463.25
Sprite,Foreground,Centre,"sb\collabLyrics\0050.png",0,0 S,0,152492,,0.5 C,0,152492,,255,0,253 P,0,152492,192021,A F,0,152892,153392,0,0.4 MX,30,152892,153392,311.5,318.5 MY,30,152892,153392,462.25,453.25 F,0,191921,192421,0.4,0 MX,29,191921,192421,318.5,331.5 MY,29,191921,192421,453.25,467.25
Sprite,Foreground,Centre,"sb\collabLyrics\0045.png",0,0 S,0,152492,,0.5 C,0,152492,,255,0,253 P,0,152492,192021,A F,0,152992,153492,0,0.4 MX,30,152992,153492,340,346 MY,30,152992,153492,464.25,453.25 F,0,192021,192521,0.4,0 MX,29,192021,192521,346,352 MY,29,192021,192521,453.25,460.25
Sprite,Foreground,Centre,"sb\collabLyrics\0052.png",0,0 S,0,152492,,0.5 C,0,152492,,255,0,253 P,0,152492,192021,A F,0,153092,153592,0,0.4 MX,30,153092,153592,363,373 MY,30,153092,153592,462.25,453.25 F,0,192121,192621,0.4,0 MX,29,192121,192621,373,385 MY,29,192121,192621,453.25,459.25
Sprite,Foreground,Centre,"sb\collabLyrics\0052.png",0,0 S,0,152492,,0.5 C,0,152492,,255,0,253 P,0,152492,192021,A F,0,153192,153692,0,0.4 MX,30,153192,153692,394.5,400.5 MY,30,153192,153692,463.25,453.25 F,0,192221,192721,0.4,0 MX,29,192221,192721,400.5,413.5 MY,29,192221,192721,453.25,465.25
Sprite,Foreground,Centre,"sb\collabLyrics\0059.png",0,0 S,0,152492,,0.5 C,0,152492,,255,0,253 P,0,152492,192021,A F,0,153292,153792,0,0.4 MX,30,153292,153792,423,428 MY,30,153292,153792,462.25,453.25 F,0,192321,192821,0.4,0 MX,29,192321,192821,428,438 MY,29,192321,192821,453.25,467.25
Sprite,Foreground,Centre,"sb\collabLyrics\004e.png",0,0 S,0,152492,,0.5 C,0,152492,,255,255,255 F,0,152492,152992,0,0.8 MX,30,152492,152992,204,210 MY,30,152492,152992,465.25,454.25 P,0,152492,192021,A F,0,191521,192021,0.8,0 MX,29,191521,192021,210,217 MY,29,191521,192021,454.25,466.25
Sprite,Foreground,Centre,"sb\collabLyrics\0045.png",0,0 S,0,152492,,0.5 C,0,152492,,255,255,255 P,0,152492,192021,A F,0,152592,153092,0,0.8 MX,30,152592,153092,230.5,237.5 MY,30,152592,153092,463.25,454.25 F,0,191621,192121,0.8,0 MX,29,191621,192121,237.5,242.5 MY,29,191621,192121,454.25,461.25
Sprite,Foreground,Centre,"sb\collabLyrics\0049.png",0,0 S,0,152492,,0.5 C,0,152492,,255,255,255 P,0,152492,192021,A F,0,152692,153192,0,0.8 MX,30,152692,153192,251.5,264.5 MY,30,152692,153192,468.25,454.25 F,0,191721,192221,0.8,0 MX,29,191721,192221,264.5,274.5 MY,29,191721,192221,454.25,461.25
Sprite,Foreground,Centre,"sb\collabLyrics\004c.png",0,0 S,0,152492,,0.5 C,0,152492,,255,255,255 P,0,152492,192021,A F,0,152792,153292,0,0.8 MX,30,152792,153292,279,292 MY,30,152792,153292,463.25,454.25 F,0,191821,192321,0.8,0 MX,29,191821,192321,292,305 MY,29,191821,192321,454.25,467.25
Sprite,Foreground,Centre,"sb\collabLyrics\0050.png",0,0 S,0,152492,,0.5 C,0,152492,,255,255,255 P,0,152492,192021,A F,0,152892,153392,0,0.8 MX,30,152892,153392,309.5,319.5 MY,30,152892,153392,463.25,454.25 F,0,191921,192421,0.8,0 MX,29,191921,192421,319.5,327.5 MY,29,191921,192421,454.25,462.25
Sprite,Foreground,Centre,"sb\collabLyrics\0045.png",0,0 S,0,152492,,0.5 C,0,152492,,255,255,255 P,0,152492,192021,A F,0,152992,153492,0,0.8 MX,30,152992,153492,336,347 MY,30,152992,153492,468.25,454.25 F,0,192021,192521,0.8,0 MX,29,192021,192521,347,358 MY,29,192021,192521,454.25,468.25
Sprite,Foreground,Centre,"sb\collabLyrics\0052.png",0,0 S,0,152492,,0.5 C,0,152492,,255,255,255 P,0,152492,192021,A F,0,153092,153592,0,0.8 MX,30,153092,153592,363,374 MY,30,153092,153592,463.25,454.25 F,0,192121,192621,0.8,0 MX,29,192121,192621,374,382 MY,29,192121,192621,454.25,466.25
Sprite,Foreground,Centre,"sb\collabLyrics\0052.png",0,0 S,0,152492,,0.5 C,0,152492,,255,255,255 P,0,152492,192021,A F,0,153192,153692,0,0.8 MX,30,153192,153692,387.5,401.5 MY,30,153192,153692,467.25,454.25 F,0,192221,192721,0.8,0 MX,29,192221,192721,401.5,411.5 MY,29,192221,192721,454.25,468.25
Sprite,Foreground,Centre,"sb\collabLyrics\0059.png",0,0 S,0,152492,,0.5 C,0,152492,,255,255,255 P,0,152492,192021,A F,0,153292,153792,0,0.8 MX,30,153292,153792,420,429 MY,30,153292,153792,460.25,454.25 F,0,192321,192821,0.8,0 MX,29,192321,192821,429,437 MY,29,192321,192821,454.25,461.25
Sprite,Foreground,Centre,"sb\collabLyrics\004e.png",0,0 S,0,152492,,0.5 C,0,152492,,126,244,255 F,0,152492,152992,0,0.4 MX,30,152492,152992,201,211 MY,30,152492,152992,463.25,455.25 P,0,152492,192021,A F,0,191521,192021,0.4,0 MX,29,191521,192021,211,225 MY,29,191521,192021,455.25,467.25
Sprite,Foreground,Centre,"sb\collabLyrics\0045.png",0,0 S,0,152492,,0.5 C,0,152492,,126,244,255 P,0,152492,192021,A F,0,152592,153092,0,0.4 MX,30,152592,153092,232.5,238.5 MY,30,152592,153092,466.25,455.25 F,0,191621,192121,0.4,0 MX,29,191621,192121,238.5,244.5 MY,29,191621,192121,455.25,466.25
Sprite,Foreground,Centre,"sb\collabLyrics\0049.png",0,0 S,0,152492,,0.5 C,0,152492,,126,244,255 P,0,152492,192021,A F,0,152692,153192,0,0.4 MX,30,152692,153192,252.5,265.5 MY,30,152692,153192,462.25,455.25 F,0,191721,192221,0.4,0 MX,29,191721,192221,265.5,278.5 MY,29,191721,192221,455.25,463.25
Sprite,Foreground,Centre,"sb\collabLyrics\004c.png",0,0 S,0,152492,,0.5 C,0,152492,,126,244,255 P,0,152492,192021,A F,0,152792,153292,0,0.4 MX,30,152792,153292,282,293 MY,30,152792,153292,465.25,455.25 F,0,191821,192321,0.4,0 MX,29,191821,192321,293,298 MY,29,191821,192321,455.25,469.25
Sprite,Foreground,Centre,"sb\collabLyrics\0050.png",0,0 S,0,152492,,0.5 C,0,152492,,126,244,255 P,0,152492,192021,A F,0,152892,153392,0,0.4 MX,30,152892,153392,311.5,320.5 MY,30,152892,153392,461.25,455.25 F,0,191921,192421,0.4,0 MX,29,191921,192421,320.5,325.5 MY,29,191921,192421,455.25,469.25
Sprite,Foreground,Centre,"sb\collabLyrics\0045.png",0,0 S,0,152492,,0.5 C,0,152492,,126,244,255 P,0,152492,192021,A F,0,152992,153492,0,0.4 MX,30,152992,153492,340,348 MY,30,152992,153492,465.25,455.25 F,0,192021,192521,0.4,0 MX,29,192021,192521,348,353 MY,29,192021,192521,455.25,465.25
Sprite,Foreground,Centre,"sb\collabLyrics\0052.png",0,0 S,0,152492,,0.5 C,0,152492,,126,244,255 P,0,152492,192021,A F,0,153092,153592,0,0.4 MX,30,153092,153592,368,375 MY,30,153092,153592,461.25,455.25 F,0,192121,192621,0.4,0 MX,29,192121,192621,375,381 MY,29,192121,192621,455.25,467.25
Sprite,Foreground,Centre,"sb\collabLyrics\0052.png",0,0 S,0,152492,,0.5 C,0,152492,,126,244,255 P,0,152492,192021,A F,0,153192,153692,0,0.4 MX,30,153192,153692,390.5,402.5 MY,30,153192,153692,461.25,455.25 F,0,192221,192721,0.4,0 MX,29,192221,192721,402.5,409.5 MY,29,192221,192721,455.25,461.25
Sprite,Foreground,Centre,"sb\collabLyrics\0059.png",0,0 S,0,152492,,0.5 C,0,152492,,126,244,255 P,0,152492,192021,A F,0,153292,153792,0,0.4 MX,30,153292,153792,420,430 MY,30,153292,153792,468.25,455.25 F,0,192321,192821,0.4,0 MX,29,192321,192821,430,442 MY,29,192321,192821,455.25,462.25
Sprite,Foreground,Centre,"sb\collabLyrics\0052.png",0,0 S,0,33904,,0.5 C,0,33904,,255,0,253 F,0,33904,34404,0,0.4 MX,30,33904,34404,244.75,249.75 MY,30,33904,34404,462.25,453.25 P,0,33904,56492,A F,0,55992,56492,0.4,0 MX,29,55992,56492,249.75,256.75 MY,29,55992,56492,453.25,461.25
Sprite,Foreground,Centre,"sb\collabLyrics\0052.png",0,0 S,0,33904,,0.5 C,0,33904,,255,0,253 P,0,33904,56492,A F,0,34004,34504,0,0.4 MX,30,34004,34504,268.25,277.25 MY,30,34004,34504,459.25,453.25 F,0,56092,56592,0.4,0 MX,29,56092,56592,277.25,289.25 MY,29,56092,56592,453.25,459.25
Sprite,Foreground,Centre,"sb\collabLyrics\0054.png",0,0 S,0,33904,,0.5 C,0,33904,,255,0,253 P,0,33904,56492,A F,0,34104,34604,0,0.4 MX,30,34104,34604,294.75,304.75 MY,30,34104,34604,461.25,453.25 F,0,56192,56692,0.4,0 MX,29,56192,56692,304.75,316.75 MY,29,56192,56692,453.25,465.25
Sprite,Foreground,Centre,"sb\collabLyrics\0059.png",0,0 S,0,33904,,0.5 C,0,33904,,255,0,253 P,0,33904,56492,A F,0,34204,34704,0,0.4 MX,30,34204,34704,327.25,332.25 MY,30,34204,34704,458.25,453.25 F,0,56292,56792,0.4,0 MX,29,56292,56792,332.25,342.25 MY,29,56292,56792,453.25,465.25
Sprite,Foreground,Centre,"sb\collabLyrics\0055.png",0,0 S,0,33904,,0.5 C,0,33904,,255,0,253 P,0,33904,56492,A F,0,34304,34804,0,0.4 MX,30,34304,34804,348.75,359.75 MY,30,34304,34804,462.25,453.25 F,0,56392,56892,0.4,0 MX,29,56392,56892,359.75,371.75 MY,29,56392,56892,453.25,463.25
Sprite,Foreground,Centre,"sb\collabLyrics\0049.png",0,0 S,0,33904,,0.5 C,0,33904,,255,0,253 P,0,33904,56492,A F,0,34404,34904,0,0.4 MX,30,34404,34904,378.25,387.25 MY,30,34404,34904,462.25,453.25 F,0,56492,56992,0.4,0 MX,29,56492,56992,387.25,401.25 MY,29,56492,56992,453.25,466.25
Sprite,Foreground,Centre,"sb\collabLyrics\0052.png",0,0 S,0,33904,,0.5 C,0,33904,,255,255,255 F,0,33904,34404,0,0.8 MX,30,33904,34404,238.75,250.75 MY,30,33904,34404,468.25,454.25 P,0,33904,56492,A F,0,55992,56492,0.8,0 MX,29,55992,56492,250.75,257.75 MY,29,55992,56492,454.25,464.25
Sprite,Foreground,Centre,"sb\collabLyrics\0052.png",0,0 S,0,33904,,0.5 C,0,33904,,255,255,255 P,0,33904,56492,A F,0,34004,34504,0,0.8 MX,30,34004,34504,273.25,278.25 MY,30,34004,34504,460.25,454.25 F,0,56092,56592,0.8,0 MX,29,56092,56592,278.25,288.25 MY,29,56092,56592,454.25,468.25
Sprite,Foreground,Centre,"sb\collabLyrics\0054.png",0,0 S,0,33904,,0.5 C,0,33904,,255,255,255 P,0,33904,56492,A F,0,34104,34604,0,0.8 MX,30,34104,34604,296.75,305.75 MY,30,34104,34604,459.25,454.25 F,0,56192,56692,0.8,0 MX,29,56192,56692,305.75,319.75 MY,29,56192,56692,454.25,465.25
Sprite,Foreground,Centre,"sb\collabLyrics\0059.png",0,0 S,0,33904,,0.5 C,0,33904,,255,255,255 P,0,33904,56492,A F,0,34204,34704,0,0.8 MX,30,34204,34704,319.25,333.25 MY,30,34204,34704,463.25,454.25 F,0,56292,56792,0.8,0 MX,29,56292,56792,333.25,346.25 MY,29,56292,56792,454.25,465.25
Sprite,Foreground,Centre,"sb\collabLyrics\0055.png",0,0 S,0,33904,,0.5 C,0,33904,,255,255,255 P,0,33904,56492,A F,0,34304,34804,0,0.8 MX,30,34304,34804,346.75,360.75 MY,30,34304,34804,459.25,454.25 F,0,56392,56892,0.8,0 MX,29,56392,56892,360.75,371.75 MY,29,56392,56892,454.25,467.25
Sprite,Foreground,Centre,"sb\collabLyrics\0049.png",0,0 S,0,33904,,0.5 C,0,33904,,255,255,255 P,0,33904,56492,A F,0,34404,34904,0,0.8 MX,30,34404,34904,380.25,388.25 MY,30,34404,34904,468.25,454.25 F,0,56492,56992,0.8,0 MX,29,56492,56992,388.25,401.25 MY,29,56492,56992,454.25,464.25
Sprite,Foreground,Centre,"sb\collabLyrics\0052.png",0,0 S,0,33904,,0.5 C,0,33904,,126,244,255 F,0,33904,34404,0,0.4 MX,30,33904,34404,241.75,251.75 MY,30,33904,34404,463.25,455.25 P,0,33904,56492,A F,0,55992,56492,0.4,0 MX,29,55992,56492,251.75,259.75 MY,29,55992,56492,455.25,465.25
Sprite,Foreground,Centre,"sb\collabLyrics\0052.png",0,0 S,0,33904,,0.5 C,0,33904,,126,244,255 P,0,33904,56492,A F,0,34004,34504,0,0.4 MX,30,34004,34504,272.25,279.25 MY,30,34004,34504,467.25,455.25 F,0,56092,56592,0.4,0 MX,29,56092,56592,279.25,292.25 MY,29,56092,56592,455.25,467.25
Sprite,Foreground,Centre,"sb\collabLyrics\0054.png",0,0 S,0,33904,,0.5 C,0,33904,,126,244,255 P,0,33904,56492,A F,0,34104,34604,0,0.4 MX,30,34104,34604,296.75,306.75 MY,30,34104,34604,460.25,455.25 F,0,56192,56692,0.4,0 MX,29,56192,56692,306.75,315.75 MY,29,56192,56692,455.25,463.25
Sprite,Foreground,Centre,"sb\collabLyrics\0059.png",0,0 S,0,33904,,0.5 C,0,33904,,126,244,255 P,0,33904,56492,A F,0,34204,34704,0,0.4 MX,30,34204,34704,322.25,334.25 MY,30,34204,34704,468.25,455.25 F,0,56292,56792,0.4,0 MX,29,56292,56792,334.25,345.25 MY,29,56292,56792,455.25,462.25
Sprite,Foreground,Centre,"sb\collabLyrics\0055.png",0,0 S,0,33904,,0.5 C,0,33904,,126,244,255 P,0,33904,56492,A F,0,34304,34804,0,0.4 MX,30,34304,34804,351.75,361.75 MY,30,34304,34804,467.25,455.25 F,0,56392,56892,0.4,0 MX,29,56392,56892,361.75,370.75 MY,29,56392,56892,455.25,467.25
Sprite,Foreground,Centre,"sb\collabLyrics\0049.png",0,0 S,0,33904,,0.5 C,0,33904,,126,244,255 P,0,33904,56492,A F,0,34404,34904,0,0.4 MX,30,34404,34904,384.25,389.25 MY,30,34404,34904,460.25,455.25 F,0,56492,56992,0.4,0 MX,29,56492,56992,389.25,395.25 MY,29,56492,56992,455.25,468.25
Sprite,Foreground,Centre,"sb\collabLyrics\0052.png",0,0 S,0,112963,,0.5 C,0,112963,,255,0,253 F,0,112963,113463,0,0.4 MX,30,112963,113463,242.75,249.75 MY,30,112963,113463,464.25,453.25 P,0,112963,135551,A F,0,135051,135551,0.4,0 MX,29,135051,135551,249.75,260.75 MY,29,135051,135551,453.25,465.25
Sprite,Foreground,Centre,"sb\collabLyrics\0052.png",0,0 S,0,112963,,0.5 C,0,112963,,255,0,253 P,0,112963,135551,A F,0,113063,113563,0,0.4 MX,30,113063,113563,272.25,277.25 MY,30,113063,113563,463.25,453.25 F,0,135151,135651,0.4,0 MX,29,135151,135651,277.25,287.25 MY,29,135151,135651,453.25,460.25
Sprite,Foreground,Centre,"sb\collabLyrics\0054.png",0,0 S,0,112963,,0.5 C,0,112963,,255,0,253 P,0,112963,135551,A F,0,113163,113663,0,0.4 MX,30,113163,113663,298.75,304.75 MY,30,113163,113663,465.25,453.25 F,0,135251,135751,0.4,0 MX,29,135251,135751,304.75,309.75 MY,29,135251,135751,453.25,460.25
Sprite,Foreground,Centre,"sb\collabLyrics\0059.png",0,0 S,0,112963,,0.5 C,0,112963,,255,0,253 P,0,112963,135551,A F,0,113263,113763,0,0.4 MX,30,113263,113763,322.25,332.25 MY,30,113263,113763,465.25,453.25 F,0,135351,135851,0.4,0 MX,29,135351,135851,332.25,343.25 MY,29,135351,135851,453.25,467.25
Sprite,Foreground,Centre,"sb\collabLyrics\0055.png",0,0 S,0,112963,,0.5 C,0,112963,,255,0,253 P,0,112963,135551,A F,0,113363,113863,0,0.4 MX,30,113363,113863,348.75,359.75 MY,30,113363,113863,465.25,453.25 F,0,135451,135951,0.4,0 MX,29,135451,135951,359.75,373.75 MY,29,135451,135951,453.25,464.25
Sprite,Foreground,Centre,"sb\collabLyrics\0049.png",0,0 S,0,112963,,0.5 C,0,112963,,255,0,253 P,0,112963,135551,A F,0,113463,113963,0,0.4 MX,30,113463,113963,382.25,387.25 MY,30,113463,113963,464.25,453.25 F,0,135551,136051,0.4,0 MX,29,135551,136051,387.25,398.25 MY,29,135551,136051,453.25,467.25
Sprite,Foreground,Centre,"sb\collabLyrics\0052.png",0,0 S,0,112963,,0.5 C,0,112963,,255,255,255 F,0,112963,113463,0,0.8 MX,30,112963,113463,244.75,250.75 MY,30,112963,113463,468.25,454.25 P,0,112963,135551,A F,0,135051,135551,0.8,0 MX,29,135051,135551,250.75,262.75 MY,29,135051,135551,454.25,459.25
Sprite,Foreground,Centre,"sb\collabLyrics\0052.png",0,0 S,0,112963,,0.5 C,0,112963,,255,255,255 P,0,112963,135551,A F,0,113063,113563,0,0.8 MX,30,113063,113563,264.25,278.25 MY,30,113063,113563,461.25,454.25 F,0,135151,135651,0.8,0 MX,29,135151,135651,278.25,290.25 MY,29,135151,135651,454.25,463.25
Sprite,Foreground,Centre,"sb\collabLyrics\0054.png",0,0 S,0,112963,,0.5 C,0,112963,,255,255,255 P,0,112963,135551,A F,0,113163,113663,0,0.8 MX,30,113163,113663,298.75,305.75 MY,30,113163,113663,464.25,454.25 F,0,135251,135751,0.8,0 MX,29,135251,135751,305.75,311.75 MY,29,135251,135751,454.25,461.25
Sprite,Foreground,Centre,"sb\collabLyrics\0059.png",0,0 S,0,112963,,0.5 C,0,112963,,255,255,255 P,0,112963,135551,A F,0,113263,113763,0,0.8 MX,30,113263,113763,324.25,333.25 MY,30,113263,113763,463.25,454.25 F,0,135351,135851,0.8,0 MX,29,135351,135851,333.25,345.25 MY,29,135351,135851,454.25,460.25
Sprite,Foreground,Centre,"sb\collabLyrics\0055.png",0,0 S,0,112963,,0.5 C,0,112963,,255,255,255 P,0,112963,135551,A F,0,113363,113863,0,0.8 MX,30,113363,113863,351.75,360.75 MY,30,113363,113863,459.25,454.25 F,0,135451,135951,0.8,0 MX,29,135451,135951,360.75,369.75 MY,29,135451,135951,454.25,468.25
Sprite,Foreground,Centre,"sb\collabLyrics\0049.png",0,0 S,0,112963,,0.5 C,0,112963,,255,255,255 P,0,112963,135551,A F,0,113463,113963,0,0.8 MX,30,113463,113963,381.25,388.25 MY,30,113463,113963,468.25,454.25 F,0,135551,136051,0.8,0 MX,29,135551,136051,388.25,402.25 MY,29,135551,136051,454.25,460.25
Sprite,Foreground,Centre,"sb\collabLyrics\0052.png",0,0 S,0,112963,,0.5 C,0,112963,,126,244,255 F,0,112963,113463,0,0.4 MX,30,112963,113463,242.75,251.75 MY,30,112963,113463,466.25,455.25 P,0,112963,135551,A F,0,135051,135551,0.4,0 MX,29,135051,135551,251.75,264.75 MY,29,135051,135551,455.25,469.25
Sprite,Foreground,Centre,"sb\collabLyrics\0052.png",0,0 S,0,112963,,0.5 C,0,112963,,126,244,255 P,0,112963,135551,A F,0,113063,113563,0,0.4 MX,30,113063,113563,271.25,279.25 MY,30,113063,113563,466.25,455.25 F,0,135151,135651,0.4,0 MX,29,135151,135651,279.25,285.25 MY,29,135151,135651,455.25,460.25
Sprite,Foreground,Centre,"sb\collabLyrics\0054.png",0,0 S,0,112963,,0.5 C,0,112963,,126,244,255 P,0,112963,135551,A F,0,113163,113663,0,0.4 MX,30,113163,113663,294.75,306.75 MY,30,113163,113663,463.25,455.25 F,0,135251,135751,0.4,0 MX,29,135251,135751,306.75,314.75 MY,29,135251,135751,455.25,460.25
Sprite,Foreground,Centre,"sb\collabLyrics\0059.png",0,0 S,0,112963,,0.5 C,0,112963,,126,244,255 P,0,112963,135551,A F,0,113263,113763,0,0.4 MX,30,113263,113763,324.25,334.25 MY,30,113263,113763,464.25,455.25 F,0,135351,135851,0.4,0 MX,29,135351,135851,334.25,343.25 MY,29,135351,135851,455.25,460.25
Sprite,Foreground,Centre,"sb\collabLyrics\0055.png",0,0 S,0,112963,,0.5 C,0,112963,,126,244,255 P,0,112963,135551,A F,0,113363,113863,0,0.4 MX,30,113363,113863,353.75,361.75 MY,30,113363,113863,464.25,455.25 F,0,135451,135951,0.4,0 MX,29,135451,135951,361.75,367.75 MY,29,135451,135951,455.25,469.25
Sprite,Foreground,Centre,"sb\collabLyrics\0049.png",0,0 S,0,112963,,0.5 C,0,112963,,126,244,255 P,0,112963,135551,A F,0,113463,113963,0,0.4 MX,30,113463,113963,378.25,389.25 MY,30,113463,113963,469.25,455.25 F,0,135551,136051,0.4,0 MX,29,135551,136051,389.25,401.25 MY,29,135551,136051,455.25,461.25
Sprite,Foreground,Centre,"sb\collabLyrics\0052.png",0,0 S,0,259786,,0.5 C,0,259786,,255,0,253 F,0,259786,260286,0,0.4 MX,30,259786,260286,244.75,249.75 MY,30,259786,260286,459.25,453.25 P,0,259786,281669,A F,0,281169,281669,0.4,0 MX,29,281169,281669,249.75,262.75 MY,29,281169,281669,453.25,463.25
Sprite,Foreground,Centre,"sb\collabLyrics\0052.png",0,0 S,0,259786,,0.5 C,0,259786,,255,0,253 P,0,259786,281669,A F,0,259886,260386,0,0.4 MX,30,259886,260386,269.25,277.25 MY,30,259886,260386,464.25,453.25 F,0,281269,281769,0.4,0 MX,29,281269,281769,277.25,287.25 MY,29,281269,281769,453.25,461.25
Sprite,Foreground,Centre,"sb\collabLyrics\0054.png",0,0 S,0,259786,,0.5 C,0,259786,,255,0,253 P,0,259786,281669,A F,0,259986,260486,0,0.4 MX,30,259986,260486,296.75,304.75 MY,30,259986,260486,461.25,453.25 F,0,281369,281869,0.4,0 MX,29,281369,281869,304.75,309.75 MY,29,281369,281869,453.25,463.25
Sprite,Foreground,Centre,"sb\collabLyrics\0059.png",0,0 S,0,259786,,0.5 C,0,259786,,255,0,253 P,0,259786,281669,A F,0,260086,260586,0,0.4 MX,30,260086,260586,326.25,332.25 MY,30,260086,260586,467.25,453.25 F,0,281469,281969,0.4,0 MX,29,281469,281969,332.25,338.25 MY,29,281469,281969,453.25,460.25
Sprite,Foreground,Centre,"sb\collabLyrics\0055.png",0,0 S,0,259786,,0.5 C,0,259786,,255,0,253 P,0,259786,281669,A F,0,260186,260686,0,0.4 MX,30,260186,260686,346.75,359.75 MY,30,260186,260686,467.25,453.25 F,0,281569,282069,0.4,0 MX,29,281569,282069,359.75,368.75 MY,29,281569,282069,453.25,458.25
Sprite,Foreground,Centre,"sb\collabLyrics\0049.png",0,0 S,0,259786,,0.5 C,0,259786,,255,0,253 P,0,259786,281669,A F,0,260286,260786,0,0.4 MX,30,260286,260786,380.25,387.25 MY,30,260286,260786,464.25,453.25 F,0,281669,282169,0.4,0 MX,29,281669,282169,387.25,395.25 MY,29,281669,282169,453.25,458.25
Sprite,Foreground,Centre,"sb\collabLyrics\0052.png",0,0 S,0,259786,,0.5 C,0,259786,,255,255,255 F,0,259786,260286,0,0.8 MX,30,259786,260286,239.75,250.75 MY,30,259786,260286,464.25,454.25 P,0,259786,281669,A F,0,281169,281669,0.8,0 MX,29,281169,281669,250.75,257.75 MY,29,281169,281669,454.25,460.25
Sprite,Foreground,Centre,"sb\collabLyrics\0052.png",0,0 S,0,259786,,0.5 C,0,259786,,255,255,255 P,0,259786,281669,A F,0,259886,260386,0,0.8 MX,30,259886,260386,264.25,278.25 MY,30,259886,260386,466.25,454.25 F,0,281269,281769,0.8,0 MX,29,281269,281769,278.25,284.25 MY,29,281269,281769,454.25,465.25
Sprite,Foreground,Centre,"sb\collabLyrics\0054.png",0,0 S,0,259786,,0.5 C,0,259786,,255,255,255 P,0,259786,281669,A F,0,259986,260486,0,0.8 MX,30,259986,260486,300.75,305.75 MY,30,259986,260486,460.25,454.25 F,0,281369,281869,0.8,0 MX,29,281369,281869,305.75,317.75 MY,29,281369,281869,454.25,466.25
Sprite,Foreground,Centre,"sb\collabLyrics\0059.png",0,0 S,0,259786,,0.5 C,0,259786,,255,255,255 P,0,259786,281669,A F,0,260086,260586,0,0.8 MX,30,260086,260586,326.25,333.25 MY,30,260086,260586,468.25,454.25 F,0,281469,281969,0.8,0 MX,29,281469,281969,333.25,345.25 MY,29,281469,281969,454.25,465.25
Sprite,Foreground,Centre,"sb\collabLyrics\0055.png",0,0 S,0,259786,,0.5 C,0,259786,,255,255,255 P,0,259786,281669,A F,0,260186,260686,0,0.8 MX,30,260186,260686,351.75,360.75 MY,30,260186,260686,465.25,454.25 F,0,281569,282069,0.8,0 MX,29,281569,282069,360.75,372.75 MY,29,281569,282069,454.25,466.25
Sprite,Foreground,Centre,"sb\collabLyrics\0049.png",0,0 S,0,259786,,0.5 C,0,259786,,255,255,255 P,0,259786,281669,A F,0,260286,260786,0,0.8 MX,30,260286,260786,378.25,388.25 MY,30,260286,260786,460.25,454.25 F,0,281669,282169,0.8,0 MX,29,281669,282169,388.25,401.25 MY,29,281669,282169,454.25,468.25
Sprite,Foreground,Centre,"sb\collabLyrics\0052.png",0,0 S,0,259786,,0.5 C,0,259786,,126,244,255 F,0,259786,260286,0,0.4 MX,30,259786,260286,237.75,251.75 MY,30,259786,260286,465.25,455.25 P,0,259786,281669,A F,0,281169,281669,0.4,0 MX,29,281169,281669,251.75,264.75 MY,29,281169,281669,455.25,460.25
Sprite,Foreground,Centre,"sb\collabLyrics\0052.png",0,0 S,0,259786,,0.5 C,0,259786,,126,244,255 P,0,259786,281669,A F,0,259886,260386,0,0.4 MX,30,259886,260386,274.25,279.25 MY,30,259886,260386,462.25,455.25 F,0,281269,281769,0.4,0 MX,29,281269,281769,279.25,289.25 MY,29,281269,281769,455.25,469.25
Sprite,Foreground,Centre,"sb\collabLyrics\0054.png",0,0 S,0,259786,,0.5 C,0,259786,,126,244,255 P,0,259786,281669,A F,0,259986,260486,0,0.4 MX,30,259986,260486,292.75,306.75 MY,30,259986,260486,463.25,455.25 F,0,281369,281869,0.4,0 MX,29,281369,281869,306.75,314.75 MY,29,281369,281869,455.25,469.25
Sprite,Foreground,Centre,"sb\collabLyrics\0059.png",0,0 S,0,259786,,0.5 C,0,259786,,126,244,255 P,0,259786,281669,A F,0,260086,260586,0,0.4 MX,30,260086,260586,329.25,334.25 MY,30,260086,260586,462.25,455.25 F,0,281469,281969,0.4,0 MX,29,281469,281969,334.25,341.25 MY,29,281469,281969,455.25,461.25
Sprite,Foreground,Centre,"sb\collabLyrics\0055.png",0,0 S,0,259786,,0.5 C,0,259786,,126,244,255 P,0,259786,281669,A F,0,260186,260686,0,0.4 MX,30,260186,260686,352.75,361.75 MY,30,260186,260686,460.25,455.25 F,0,281569,282069,0.4,0 MX,29,281569,282069,361.75,370.75 MY,29,281569,282069,455.25,463.25
Sprite,Foreground,Centre,"sb\collabLyrics\0049.png",0,0 S,0,259786,,0.5 C,0,259786,,126,244,255 P,0,259786,281669,A F,0,260286,260786,0,0.4 MX,30,260286,260786,375.25,389.25 MY,30,260286,260786,468.25,455.25 F,0,281669,282169,0.4,0 MX,29,281669,282169,389.25,399.25 MY,29,281669,282169,455.25,460.25
Sprite,Foreground,Centre,"sb\collabLyrics\0053.png",0,0 S,0,56492,,0.5 C,0,56492,,255,0,253 F,0,56492,56992,0,0.4 MX,30,56492,56992,272.5,277.5 MY,30,56492,56992,465.25,453.25 P,0,56492,90374,A F,0,89874,90374,0.4,0 MX,29,89874,90374,277.5,282.5 MY,29,89874,90374,453.25,462.25
Sprite,Foreground,Centre,"sb\collabLyrics\0049.png",0,0 S,0,56492,,0.5 C,0,56492,,255,0,253 P,0,56492,90374,A F,0,56592,57092,0,0.4 MX,30,56592,57092,297.5,304.5 MY,30,56592,57092,459.25,453.25 F,0,89974,90474,0.4,0 MX,29,89974,90474,304.5,311.5 MY,29,89974,90474,453.25,458.25
Sprite,Foreground,Centre,"sb\collabLyrics\004e.png",0,0 S,0,56492,,0.5 C,0,56492,,255,0,253 P,0,56492,90374,A F,0,56692,57192,0,0.4 MX,30,56692,57192,320,332 MY,30,56692,57192,458.25,453.25 F,0,90074,90574,0.4,0 MX,29,90074,90574,332,342 MY,29,90074,90574,453.25,461.25
Sprite,Foreground,Centre,"sb\collabLyrics\0047.png",0,0 S,0,56492,,0.5 C,0,56492,,255,0,253 P,0,56492,90374,A F,0,56792,57292,0,0.4 MX,30,56792,57292,353.5,359.5 MY,30,56792,57292,465.25,453.25 F,0,90174,90674,0.4,0 MX,29,90174,90674,359.5,367.5 MY,29,90174,90674,453.25,461.25
Sprite,Foreground,Centre,"sb\collabLyrics\0053.png",0,0 S,0,56492,,0.5 C,0,56492,,255,255,255 F,0,56492,56992,0,0.8 MX,30,56492,56992,270.5,278.5 MY,30,56492,56992,468.25,454.25 P,0,56492,90374,A F,0,89874,90374,0.8,0 MX,29,89874,90374,278.5,289.5 MY,29,89874,90374,454.25,466.25
Sprite,Foreground,Centre,"sb\collabLyrics\0049.png",0,0 S,0,56492,,0.5 C,0,56492,,255,255,255 P,0,56492,90374,A F,0,56592,57092,0,0.8 MX,30,56592,57092,295.5,305.5 MY,30,56592,57092,461.25,454.25 F,0,89974,90474,0.8,0 MX,29,89974,90474,305.5,318.5 MY,29,89974,90474,454.25,461.25
Sprite,Foreground,Centre,"sb\collabLyrics\004e.png",0,0 S,0,56492,,0.5 C,0,56492,,255,255,255 P,0,56492,90374,A F,0,56692,57192,0,0.8 MX,30,56692,57192,323,333 MY,30,56692,57192,460.25,454.25 F,0,90074,90574,0.8,0 MX,29,90074,90574,333,344 MY,29,90074,90574,454.25,468.25
Sprite,Foreground,Centre,"sb\collabLyrics\0047.png",0,0 S,0,56492,,0.5 C,0,56492,,255,255,255 P,0,56492,90374,A F,0,56792,57292,0,0.8 MX,30,56792,57292,347.5,360.5 MY,30,56792,57292,468.25,454.25 F,0,90174,90674,0.8,0 MX,29,90174,90674,360.5,370.5 MY,29,90174,90674,454.25,464.25
Sprite,Foreground,Centre,"sb\collabLyrics\0053.png",0,0 S,0,56492,,0.5 C,0,56492,,126,244,255 F,0,56492,56992,0,0.4 MX,30,56492,56992,267.5,279.5 MY,30,56492,56992,461.25,455.25 P,0,56492,90374,A F,0,89874,90374,0.4,0 MX,29,89874,90374,279.5,285.5 MY,29,89874,90374,455.25,464.25
Sprite,Foreground,Centre,"sb\collabLyrics\0049.png",0,0 S,0,56492,,0.5 C,0,56492,,126,244,255 P,0,56492,90374,A F,0,56592,57092,0,0.4 MX,30,56592,57092,292.5,306.5 MY,30,56592,57092,466.25,455.25 F,0,89974,90474,0.4,0 MX,29,89974,90474,306.5,314.5 MY,29,89974,90474,455.25,465.25
Sprite,Foreground,Centre,"sb\collabLyrics\004e.png",0,0 S,0,56492,,0.5 C,0,56492,,126,244,255 P,0,56492,90374,A F,0,56692,57192,0,0.4 MX,30,56692,57192,324,334 MY,30,56692,57192,464.25,455.25 F,0,90074,90574,0.4,0 MX,29,90074,90574,334,346 MY,29,90074,90574,455.25,469.25
Sprite,Foreground,Centre,"sb\collabLyrics\0047.png",0,0 S,0,56492,,0.5 C,0,56492,,126,244,255 P,0,56492,90374,A F,0,56792,57292,0,0.4 MX,30,56792,57292,352.5,361.5 MY,30,56792,57292,460.25,455.25 F,0,90174,90674,0.4,0 MX,29,90174,90674,361.5,367.5 MY,29,90174,90674,455.25,466.25
Sprite,Foreground,Centre,"sb\collabLyrics\0053.png",0,0 S,0,237198,,0.5 C,0,237198,,255,0,253 F,0,237198,237698,0,0.4 MX,30,237198,237698,268.5,277.5 MY,30,237198,237698,466.25,453.25 P,0,237198,259786,A F,0,259286,259786,0.4,0 MX,29,259286,259786,277.5,291.5 MY,29,259286,259786,453.25,461.25
Sprite,Foreground,Centre,"sb\collabLyrics\0049.png",0,0 S,0,237198,,0.5 C,0,237198,,255,0,253 P,0,237198,259786,A F,0,237298,237798,0,0.4 MX,30,237298,237798,299.5,304.5 MY,30,237298,237798,459.25,453.25 F,0,259386,259886,0.4,0 MX,29,259386,259886,304.5,312.5 MY,29,259386,259886,453.25,460.25
Sprite,Foreground,Centre,"sb\collabLyrics\004e.png",0,0 S,0,237198,,0.5 C,0,237198,,255,0,253 P,0,237198,259786,A F,0,237398,237898,0,0.4 MX,30,237398,237898,322,332 MY,30,237398,237898,460.25,453.25 F,0,259486,259986,0.4,0 MX,29,259486,259986,332,341 MY,29,259486,259986,453.25,460.25
Sprite,Foreground,Centre,"sb\collabLyrics\0047.png",0,0 S,0,237198,,0.5 C,0,237198,,255,0,253 P,0,237198,259786,A F,0,237498,237998,0,0.4 MX,30,237498,237998,352.5,359.5 MY,30,237498,237998,462.25,453.25 F,0,259586,260086,0.4,0 MX,29,259586,260086,359.5,368.5 MY,29,259586,260086,453.25,459.25
Sprite,Foreground,Centre,"sb\collabLyrics\0053.png",0,0 S,0,237198,,0.5 C,0,237198,,255,255,255 F,0,237198,237698,0,0.8 MX,30,237198,237698,272.5,278.5 MY,30,237198,237698,466.25,454.25 P,0,237198,259786,A F,0,259286,259786,0.8,0 MX,29,259286,259786,278.5,284.5 MY,29,259286,259786,454.25,465.25
Sprite,Foreground,Centre,"sb\collabLyrics\0049.png",0,0 S,0,237198,,0.5 C,0,237198,,255,255,255 P,0,237198,259786,A F,0,237298,237798,0,0.8 MX,30,237298,237798,293.5,305.5 MY,30,237298,237798,460.25,454.25 F,0,259386,259886,0.8,0 MX,29,259386,259886,305.5,311.5 MY,29,259386,259886,454.25,461.25
Sprite,Foreground,Centre,"sb\collabLyrics\004e.png",0,0 S,0,237198,,0.5 C,0,237198,,255,255,255 P,0,237198,259786,A F,0,237398,237898,0,0.8 MX,30,237398,237898,321,333 MY,30,237398,237898,462.25,454.25 F,0,259486,259986,0.8,0 MX,29,259486,259986,333,342 MY,29,259486,259986,454.25,465.25
Sprite,Foreground,Centre,"sb\collabLyrics\0047.png",0,0 S,0,237198,,0.5 C,0,237198,,255,255,255 P,0,237198,259786,A F,0,237498,237998,0,0.8 MX,30,237498,237998,347.5,360.5 MY,30,237498,237998,467.25,454.25 F,0,259586,260086,0.8,0 MX,29,259586,260086,360.5,367.5 MY,29,259586,260086,454.25,461.25
Sprite,Foreground,Centre,"sb\collabLyrics\0053.png",0,0 S,0,237198,,0.5 C,0,237198,,126,244,255 F,0,237198,237698,0,0.4 MX,30,237198,237698,269.5,279.5 MY,30,237198,237698,464.25,455.25 P,0,237198,259786,A F,0,259286,259786,0.4,0 MX,29,259286,259786,279.5,286.5 MY,29,259286,259786,455.25,465.25
Sprite,Foreground,Centre,"sb\collabLyrics\0049.png",0,0 S,0,237198,,0.5 C,0,237198,,126,244,255 P,0,237198,259786,A F,0,237298,237798,0,0.4 MX,30,237298,237798,300.5,306.5 MY,30,237298,237798,462.25,455.25 F,0,259386,259886,0.4,0 MX,29,259386,259886,306.5,316.5 MY,29,259386,259886,455.25,466.25
Sprite,Foreground,Centre,"sb\collabLyrics\004e.png",0,0 S,0,237198,,0.5 C,0,237198,,126,244,255 P,0,237198,259786,A F,0,237398,237898,0,0.4 MX,30,237398,237898,329,334 MY,30,237398,237898,469.25,455.25 F,0,259486,259986,0.4,0 MX,29,259486,259986,334,345 MY,29,259486,259986,455.25,468.25
Sprite,Foreground,Centre,"sb\collabLyrics\0047.png",0,0 S,0,237198,,0.5 C,0,237198,,126,244,255 P,0,237198,259786,A F,0,237498,237998,0,0.4 MX,30,237498,237998,354.5,361.5 MY,30,237498,237998,462.25,455.25 F,0,259586,260086,0.4,0 MX,29,259586,260086,361.5,368.5 MY,29,259586,260086,455.25,461.25
Sprite,Foreground,Centre,"sb\collabLyrics\0053.png",0,0 S,0,135551,,0.5 C,0,135551,,255,0,253 F,0,135551,136051,0,0.4 MX,30,135551,136051,251,264 MY,30,135551,136051,467.25,453.25 P,0,135551,152492,A F,0,151992,152492,0.4,0 MX,29,151992,152492,264,271 MY,29,151992,152492,453.25,462.25
Sprite,Foreground,Centre,"sb\collabLyrics\0048.png",0,0 S,0,135551,,0.5 C,0,135551,,255,0,253 P,0,135551,152492,A F,0,135651,136151,0,0.4 MX,30,135651,136151,286,291 MY,30,135651,136151,464.25,453.25 F,0,152092,152592,0.4,0 MX,29,152092,152592,291,297 MY,29,152092,152592,453.25,463.25
Sprite,Foreground,Centre,"sb\collabLyrics\0041.png",0,0 S,0,135551,,0.5 C,0,135551,,255,0,253 P,0,135551,152492,A F,0,135751,136251,0,0.4 MX,30,135751,136251,304.5,318.5 MY,30,135751,136251,460.25,453.25 F,0,152192,152692,0.4,0 MX,29,152192,152692,318.5,329.5 MY,29,152192,152692,453.25,464.25
Sprite,Foreground,Centre,"sb\collabLyrics\0052.png",0,0 S,0,135551,,0.5 C,0,135551,,255,0,253 P,0,135551,152492,A F,0,135851,136351,0,0.4 MX,30,135851,136351,332.5,345.5 MY,30,135851,136351,459.25,453.25 F,0,152292,152792,0.4,0 MX,29,152292,152792,345.5,357.5 MY,29,152292,152792,453.25,463.25
Sprite,Foreground,Centre,"sb\collabLyrics\0055.png",0,0 S,0,135551,,0.5 C,0,135551,,255,0,253 P,0,135551,152492,A F,0,135951,136451,0,0.4 MX,30,135951,136451,366,373 MY,30,135951,136451,463.25,453.25 F,0,152392,152892,0.4,0 MX,29,152392,152892,373,387 MY,29,152392,152892,453.25,465.25
Sprite,Foreground,Centre,"sb\collabLyrics\0053.png",0,0 S,0,135551,,0.5 C,0,135551,,255,255,255 F,0,135551,136051,0,0.8 MX,30,135551,136051,259,265 MY,30,135551,136051,463.25,454.25 P,0,135551,152492,A F,0,151992,152492,0.8,0 MX,29,151992,152492,265,275 MY,29,151992,152492,454.25,467.25
Sprite,Foreground,Centre,"sb\collabLyrics\0048.png",0,0 S,0,135551,,0.5 C,0,135551,,255,255,255 P,0,135551,152492,A F,0,135651,136151,0,0.8 MX,30,135651,136151,282,292 MY,30,135651,136151,465.25,454.25 F,0,152092,152592,0.8,0 MX,29,152092,152592,292,297 MY,29,152092,152592,454.25,467.25
Sprite,Foreground,Centre,"sb\collabLyrics\0041.png",0,0 S,0,135551,,0.5 C,0,135551,,255,255,255 P,0,135551,152492,A F,0,135751,136251,0,0.8 MX,30,135751,136251,311.5,319.5 MY,30,135751,136251,468.25,454.25 F,0,152192,152692,0.8,0 MX,29,152192,152692,319.5,327.5 MY,29,152192,152692,454.25,463.25
Sprite,Foreground,Centre,"sb\collabLyrics\0052.png",0,0 S,0,135551,,0.5 C,0,135551,,255,255,255 P,0,135551,152492,A F,0,135851,136351,0,0.8 MX,30,135851,136351,332.5,346.5 MY,30,135851,136351,466.25,454.25 F,0,152292,152792,0.8,0 MX,29,152292,152792,346.5,359.5 MY,29,152292,152792,454.25,460.25
Sprite,Foreground,Centre,"sb\collabLyrics\0055.png",0,0 S,0,135551,,0.5 C,0,135551,,255,255,255 P,0,135551,152492,A F,0,135951,136451,0,0.8 MX,30,135951,136451,366,374 MY,30,135951,136451,461.25,454.25 F,0,152392,152892,0.8,0 MX,29,152392,152892,374,382 MY,29,152392,152892,454.25,463.25
Sprite,Foreground,Centre,"sb\collabLyrics\0053.png",0,0 S,0,135551,,0.5 C,0,135551,,126,244,255 F,0,135551,136051,0,0.4 MX,30,135551,136051,257,266 MY,30,135551,136051,467.25,455.25 P,0,135551,152492,A F,0,151992,152492,0.4,0 MX,29,151992,152492,266,271 MY,29,151992,152492,455.25,461.25
Sprite,Foreground,Centre,"sb\collabLyrics\0048.png",0,0 S,0,135551,,0.5 C,0,135551,,126,244,255 P,0,135551,152492,A F,0,135651,136151,0,0.4 MX,30,135651,136151,279,293 MY,30,135651,136151,461.25,455.25 F,0,152092,152592,0.4,0 MX,29,152092,152592,293,305 MY,29,152092,152592,455.25,467.25
Sprite,Foreground,Centre,"sb\collabLyrics\0041.png",0,0 S,0,135551,,0.5 C,0,135551,,126,244,255 P,0,135551,152492,A F,0,135751,136251,0,0.4 MX,30,135751,136251,310.5,320.5 MY,30,135751,136251,468.25,455.25 F,0,152192,152692,0.4,0 MX,29,152192,152692,320.5,331.5 MY,29,152192,152692,455.25,460.25
Sprite,Foreground,Centre,"sb\collabLyrics\0052.png",0,0 S,0,135551,,0.5 C,0,135551,,126,244,255 P,0,135551,152492,A F,0,135851,136351,0,0.4 MX,30,135851,136351,333.5,347.5 MY,30,135851,136351,463.25,455.25 F,0,152292,152792,0.4,0 MX,29,152292,152792,347.5,352.5 MY,29,152292,152792,455.25,460.25
Sprite,Foreground,Centre,"sb\collabLyrics\0055.png",0,0 S,0,135551,,0.5 C,0,135551,,126,244,255 P,0,135551,152492,A F,0,135951,136451,0,0.4 MX,30,135951,136451,365,375 MY,30,135951,136451,467.25,455.25 F,0,152392,152892,0.4,0 MX,29,152392,152892,375,388 MY,29,152392,152892,455.25,465.25
Sprite,Foreground,Centre,"sb\collabLyrics\0053.png",0,0 S,0,192021,,0.5 C,0,192021,,255,0,253 F,0,192021,192521,0,0.4 MX,30,192021,192521,255,264 MY,30,192021,192521,461.25,453.25 P,0,192021,237198,A F,0,236698,237198,0.4,0 MX,29,236698,237198,264,270 MY,29,236698,237198,453.25,461.25
Sprite,Foreground,Centre,"sb\collabLyrics\0048.png",0,0 S,0,192021,,0.5 C,0,192021,,255,0,253 P,0,192021,237198,A F,0,192121,192621,0,0.4 MX,30,192121,192621,279,291 MY,30,192121,192621,458.25,453.25 F,0,236798,237298,0.4,0 MX,29,236798,237298,291,298 MY,29,236798,237298,453.25,467.25
Sprite,Foreground,Centre,"sb\collabLyrics\0041.png",0,0 S,0,192021,,0.5 C,0,192021,,255,0,253 P,0,192021,237198,A F,0,192221,192721,0,0.4 MX,30,192221,192721,309.5,318.5 MY,30,192221,192721,462.25,453.25 F,0,236898,237398,0.4,0 MX,29,236898,237398,318.5,326.5 MY,29,236898,237398,453.25,465.25
Sprite,Foreground,Centre,"sb\collabLyrics\0052.png",0,0 S,0,192021,,0.5 C,0,192021,,255,0,253 P,0,192021,237198,A F,0,192321,192821,0,0.4 MX,30,192321,192821,335.5,345.5 MY,30,192321,192821,459.25,453.25 F,0,236998,237498,0.4,0 MX,29,236998,237498,345.5,352.5 MY,29,236998,237498,453.25,462.25
Sprite,Foreground,Centre,"sb\collabLyrics\0055.png",0,0 S,0,192021,,0.5 C,0,192021,,255,0,253 P,0,192021,237198,A F,0,192421,192921,0,0.4 MX,30,192421,192921,365,373 MY,30,192421,192921,465.25,453.25 F,0,237098,237598,0.4,0 MX,29,237098,237598,373,378 MY,29,237098,237598,453.25,460.25
Sprite,Foreground,Centre,"sb\collabLyrics\0053.png",0,0 S,0,192021,,0.5 C,0,192021,,255,255,255 F,0,192021,192521,0,0.8 MX,30,192021,192521,258,265 MY,30,192021,192521,461.25,454.25 P,0,192021,237198,A F,0,236698,237198,0.8,0 MX,29,236698,237198,265,270 MY,29,236698,237198,454.25,463.25
Sprite,Foreground,Centre,"sb\collabLyrics\0048.png",0,0 S,0,192021,,0.5 C,0,192021,,255,255,255 P,0,192021,237198,A F,0,192121,192621,0,0.8 MX,30,192121,192621,282,292 MY,30,192121,192621,460.25,454.25 F,0,236798,237298,0.8,0 MX,29,236798,237298,292,300 MY,29,236798,237298,454.25,459.25
Sprite,Foreground,Centre,"sb\collabLyrics\0041.png",0,0 S,0,192021,,0.5 C,0,192021,,255,255,255 P,0,192021,237198,A F,0,192221,192721,0,0.8 MX,30,192221,192721,307.5,319.5 MY,30,192221,192721,466.25,454.25 F,0,236898,237398,0.8,0 MX,29,236898,237398,319.5,328.5 MY,29,236898,237398,454.25,463.25
Sprite,Foreground,Centre,"sb\collabLyrics\0052.png",0,0 S,0,192021,,0.5 C,0,192021,,255,255,255 P,0,192021,237198,A F,0,192321,192821,0,0.8 MX,30,192321,192821,339.5,346.5 MY,30,192321,192821,468.25,454.25 F,0,236998,237498,0.8,0 MX,29,236998,237498,346.5,357.5 MY,29,236998,237498,454.25,468.25
Sprite,Foreground,Centre,"sb\collabLyrics\0055.png",0,0 S,0,192021,,0.5 C,0,192021,,255,255,255 P,0,192021,237198,A F,0,192421,192921,0,0.8 MX,30,192421,192921,363,374 MY,30,192421,192921,465.25,454.25 F,0,237098,237598,0.8,0 MX,29,237098,237598,374,384 MY,29,237098,237598,454.25,461.25
Sprite,Foreground,Centre,"sb\collabLyrics\0053.png",0,0 S,0,192021,,0.5 C,0,192021,,126,244,255 F,0,192021,192521,0,0.4 MX,30,192021,192521,258,266 MY,30,192021,192521,463.25,455.25 P,0,192021,237198,A F,0,236698,237198,0.4,0 MX,29,236698,237198,266,278 MY,29,236698,237198,455.25,460.25
Sprite,Foreground,Centre,"sb\collabLyrics\0048.png",0,0 S,0,192021,,0.5 C,0,192021,,126,244,255 P,0,192021,237198,A F,0,192121,192621,0,0.4 MX,30,192121,192621,284,293 MY,30,192121,192621,460.25,455.25 F,0,236798,237298,0.4,0 MX,29,236798,237298,293,302 MY,29,236798,237298,455.25,467.25
Sprite,Foreground,Centre,"sb\collabLyrics\0041.png",0,0 S,0,192021,,0.5 C,0,192021,,126,244,255 P,0,192021,237198,A F,0,192221,192721,0,0.4 MX,30,192221,192721,308.5,320.5 MY,30,192221,192721,465.25,455.25 F,0,236898,237398,0.4,0 MX,29,236898,237398,320.5,325.5 MY,29,236898,237398,455.25,465.25
Sprite,Foreground,Centre,"sb\collabLyrics\0052.png",0,0 S,0,192021,,0.5 C,0,192021,,126,244,255 P,0,192021,237198,A F,0,192321,192821,0,0.4 MX,30,192321,192821,341.5,347.5 MY,30,192321,192821,464.25,455.25 F,0,236998,237498,0.4,0 MX,29,236998,237498,347.5,353.5 MY,29,236998,237498,455.25,460.25
Sprite,Foreground,Centre,"sb\collabLyrics\0055.png",0,0 S,0,192021,,0.5 C,0,192021,,126,244,255 P,0,192021,237198,A F,0,192421,192921,0,0.4 MX,30,192421,192921,369,375 MY,30,192421,192921,467.25,455.25 F,0,237098,237598,0.4,0 MX,29,237098,237598,375,384 MY,29,237098,237598,455.25,461.25
//Storyboard Sound Samples

[TimingPoints]
1,352.941176470588,4,2,1,60,1,0
5559,-100,4,2,1,5,0,0
5648,-370.37037037037,4,2,1,60,0,0
21971,-344.827586206897,4,2,1,5,0,0
22059,-100,4,2,1,45,0,0
22589,-250,4,2,1,45,0,0
23295,-66.6666666666667,4,2,1,45,0,0
23648,-344.827586206897,4,2,1,45,0,0
24353,-250,4,2,1,45,0,0
24706,-66.6666666666667,4,2,1,45,0,0
25059,-344.827586206897,4,2,2,45,0,0
25103,-344.827586206897,4,2,1,45,0,0
26118,-66.6666666666667,4,2,1,45,0,0
26471,-250,4,2,1,45,0,0
26824,-100,4,2,1,45,0,0
27177,-250,4,2,1,45,0,0
27530,-66.6666666666667,4,2,1,45,0,0
27883,-344.827586206897,4,2,2,45,0,0
27927,-344.827586206897,4,2,1,45,0,0
28236,-100,4,2,1,45,0,0
28942,-66.6666666666667,4,2,1,45,0,0
29295,-250,4,2,1,45,0,0
29648,-100,4,2,1,45,0,0
30000,-250,4,2,1,45,0,0
30353,-66.6666666666667,4,2,1,45,0,0
31059,-250,4,2,1,45,0,0
31765,-66.6666666666667,4,2,1,45,0,0
32118,-100,4,2,1,45,0,0
32471,-200,4,2,1,45,0,0
32824,-333.333333333333,4,2,1,45,0,0
33883,-50,4,2,1,60,0,0
34589,-66.6666666666667,4,2,1,60,0,0
34942,-80,4,2,1,60,0,0
35295,-66.6666666666667,4,2,1,60,0,0
35471,-80,4,2,1,60,0,0
35648,-88.4955752212389,4,2,1,60,0,0
36000,-57.1428571428571,4,2,1,60,0,0
36353,-100,4,2,1,60,0,0
36706,-50,4,2,1,60,0,0
37059,-100,4,2,1,60,0,0
37412,-50,4,2,1,60,0,0
37589,-66.6666666666667,4,2,1,60,0,0
38118,-100,4,2,1,60,0,0
38471,-50,4,2,1,60,0,0
39000,-66.6666666666667,4,2,1,60,0,0
39530,-133.333333333333,4,2,1,60,0,0
39883,-80,4,2,1,60,0,0
40236,-50,4,2,1,60,0,0
40589,-66.6666666666667,4,2,1,60,0,0
40765,-133.333333333333,4,2,1,60,0,0
41118,-200,4,2,1,60,0,0
41295,-66.6666666666667,4,2,1,60,0,0
41648,-57.1428571428571,4,2,1,60,0,0
42000,-100,4,2,1,60,0,0
42353,-100,4,2,1,60,0,0
42706,-66.6666666666667,4,2,1,60,0,0
42883,-50,4,2,1,60,0,0
43236,-50,4,2,1,60,0,0
43412,-66.6666666666667,4,2,1,60,0,0
43589,-33.3333333333333,4,2,1,60,0,0
43765,-66.6666666666667,4,2,1,60,0,0
44118,-88.4955752212389,4,2,1,60,0,0
44471,-50,4,2,1,60,0,0
44648,-66.6666666666667,4,2,1,60,0,0
44824,-66.6666666666667,4,2,1,60,0,0
45177,-50,4,2,1,60,0,0
46236,-80,4,2,1,60,0,0
46589,-66.6666666666667,4,2,1,60,0,0
46765,-80,4,2,1,60,0,0
46942,-88.4955752212389,4,2,1,60,0,0
47295,-57.1428571428571,4,2,1,60,0,0
47648,-100,4,2,1,60,0,0
48000,-50,4,2,1,60,0,0
48353,-100,4,2,1,60,0,0
48706,-50,4,2,1,60,0,0
48883,-66.6666666666667,4,2,1,60,0,0
49412,-100,4,2,1,60,0,0
49765,-50,4,2,1,60,0,0
50295,-66.6666666666667,4,2,1,60,0,0
50824,-133.333333333333,4,2,1,60,0,0
51177,-80,4,2,1,60,0,0
51530,-50,4,2,1,60,0,0
51883,-66.6666666666667,4,2,1,60,0,0
52059,-133.333333333333,4,2,1,60,0,0
52412,-200,4,2,1,60,0,0
52589,-66.6666666666667,4,2,1,60,0,0
52942,-57.1428571428571,4,2,1,60,0,0
53295,-100,4,2,1,60,0,0
54000,-66.6666666666667,4,2,1,60,0,0
54177,-50,4,2,1,60,0,0
54706,-66.6666666666667,4,2,1,60,0,0
54883,-33.3333333333333,4,2,1,60,0,0
55059,-66.6666666666667,4,2,1,60,0,0
55412,-88.4955752212389,4,2,1,60,0,0
55765,-50,4,2,1,60,0,0
55942,-66.6666666666667,4,2,1,60,0,0
56118,-100,4,2,1,60,0,0
56559,-100,4,2,1,30,0,0
67589,-100,4,2,1,40,0,0
67765,-133.333333333333,4,2,1,50,0,0
68471,-66.6666666666667,4,2,1,50,0,0
69000,-80,4,2,1,50,0,0
69530,-100,4,2,1,50,0,0
70765,-80,4,2,1,50,0,0
71295,-66.6666666666667,4,2,1,50,0,0
71824,-100,4,2,1,50,0,0
72177,-66.6666666666667,4,2,1,50,0,0
72706,-57.1428571428571,4,2,1,50,0,0
73059,-66.6666666666667,4,2,1,50,0,0
73412,-100,4,2,1,50,0,0
74118,-80,4,2,1,50,0,0
74648,-133.333333333333,4,2,1,50,0,0
75177,-100,4,2,1,50,0,0
76236,-80,4,2,1,50,0,0
77471,-100,4,2,1,50,0,0
78177,-133.333333333333,4,2,1,50,0,0
79059,-200,4,2,1,40,0,0
81883,-133.333333333333,4,2,1,50,0,0
84706,-100,4,2,1,50,0,0
85412,-100,4,2,1,60,0,0
86648,-333.333333333333,4,2,1,60,0,0
87000,-66.6666666666667,4,2,1,60,0,0
89295,-166.666666666667,4,2,1,60,0,0
90353,-40,4,2,1,75,0,0
91059,-50,4,2,1,75,0,0
91545,-50,4,2,1,5,0,0
91589,-44.8240325485525,4,2,1,75,0,0
92118,-92.1368359456297,4,2,1,75,0,0
92589,-100,4,2,1,75,0,0
92706,-66.6666666666667,4,2,1,75,0,0
92824,-50,4,2,1,75,0,0
92942,-40,4,2,1,75,0,0
93059,-33.3333333333333,4,2,1,75,0,0
93177,-66.6666666666667,4,2,1,75,0,0
93530,-40,4,2,1,75,0,0
93883,-50,4,2,1,75,0,0
94015,-50,4,2,1,5,0,0
94059,-66.6666666666667,4,2,1,75,0,0
94192,-66.6666666666667,4,2,1,5,0,0
94236,-100,4,2,1,75,0,0
94368,-100,4,2,1,5,0,0
94412,-500,4,2,1,75,0,0
94942,-66.6666666666667,4,2,1,75,0,0
95471,-45.4545454545455,4,2,1,75,0,0
96000,-500,4,2,1,75,0,0
96706,-40,4,2,1,75,0,0
97236,-50,4,2,1,75,0,0
97765,-200,4,2,1,75,0,0
98118,-66.6666666666667,4,2,1,75,0,0
98471,-40,4,2,1,75,0,0
98603,-40,4,2,1,5,0,0
98648,-40,4,2,2,75,0,0
98692,-40,4,2,1,75,0,0
98824,-100,4,2,1,75,0,0
99530,-66.6666666666667,4,2,1,75,0,0
100059,-100,4,2,1,75,0,0
100412,-66.6666666666667,4,2,1,75,0,0
100942,-100,4,2,1,75,0,0
101648,-40,4,2,1,75,0,0
102353,-285.714285714284,4,2,1,75,0,0
103059,-66.6666666666667,4,2,1,75,0,0
103412,-40,4,2,1,75,0,0
104118,-285.714285714284,4,2,1,75,0,0
104471,-40,4,2,1,75,0,0
104824,-33.3333333333333,4,2,1,75,0,0
105177,-33.2225913621262,4,2,1,75,0,0
105662,-33.2225913621262,4,2,1,5,0,0
105706,-285.714285714284,4,2,1,75,0,0
106236,-50,4,2,1,75,0,0
106765,-40,4,2,1,75,0,0
107295,-100,4,2,1,75,0,0
107648,-50,4,2,1,75,0,0
107956,-50,4,2,1,5,0,0
108000,-285.714285714284,4,2,1,75,0,0
108309,-285.714285714284,4,2,1,5,0,0
108353,-40,4,2,1,75,0,0
108883,-66.6666666666667,4,2,1,75,0,0
109412,-100,4,2,1,75,0,0
110824,-66.6666666666667,4,2,1,75,0,0
111353,-100,4,2,1,75,0,0
111706,-66.6666666666667,4,2,1,75,0,0
112236,-100,4,2,1,75,0,0
113648,-55.5555555555556,4,2,1,75,0,0
114353,-50,4,2,1,75,0,0
115059,-100,4,2,1,75,0,0
116471,-57.1428571428571,4,2,1,75,0,0
117883,-33.3333333333333,4,2,1,75,0,0
118589,-333.333333333333,4,2,2,60,0,0
118633,-333.333333333333,4,2,1,60,0,0
118942,-333.333333333333,4,2,1,60,0,0
119295,-40,4,2,1,75,0,0
120706,-43.4782608695652,4,2,1,75,0,0
122118,-66.6666666666667,4,2,1,75,0,0
123530,-33.3333333333333,4,2,1,75,0,0
124236,-333.333333333333,4,2,1,75,0,0
124589,-200,4,2,1,75,0,0
124942,-50,4,2,1,75,0,0
125472,-50,4,2,1,75,0,0
126000,-57.1428571428571,4,2,1,75,0,0
126353,-100,4,2,1,75,0,0
127765,-57.1428571428571,4,2,1,75,0,0
129883,-142.857142857143,4,2,1,75,0,0
130589,-40,4,2,1,75,0,0
132000,-43.4782608695652,4,2,1,75,0,0
133412,-333.333333333333,4,2,1,75,0,0
134824,-95.2380952380952,4,2,1,75,0,0
135530,-166.666666666667,4,2,1,40,0,0
136589,-71.4285714285714,4,2,1,40,0,0
137118,-500,4,2,1,40,0,0
137295,-71.4285714285714,4,2,1,40,0,0
137648,-166.666666666667,4,2,1,40,0,0
138353,-62.5,4,2,1,40,0,0
139059,-71.4285714285714,4,2,1,40,0,0
139412,-500,4,2,1,40,0,0
140118,-71.4285714285714,4,2,1,40,0,0
141177,-125,4,2,1,40,0,0
142236,-71.4285714285714,4,2,1,40,0,0
142765,-500,4,2,1,40,0,0
142942,-71.4285714285714,4,2,1,40,0,0
143295,-125,4,2,1,40,0,0
144000,-62.5,4,2,1,50,0,0
145059,-125,4,2,1,60,0,0
145589,-83.3333333333333,4,2,1,60,0,0
145765,-166.666666666667,4,2,1,60,0,0
146118,-500,4,2,1,60,0,0
146648,-62.5,4,2,1,60,0,0
146824,-55.5555555555556,4,2,1,60,0,0
147177,-83.3333333333333,4,2,1,60,0,0
147530,-62.5,4,2,1,60,0,0
148589,-166.666666666667,4,2,1,60,0,0
148942,-62.5,4,2,1,60,0,0
149648,-83.3333333333333,4,2,1,60,0,0
150353,-55.5555555555556,4,2,1,60,0,0
150706,-83.3333333333333,4,2,1,60,0,0
151765,-55.5555555555556,4,2,1,60,0,0
152471,-50,4,2,1,60,0,0
152603,-50,4,2,1,5,0,0
152648,-83.3333333333333,4,2,1,60,0,0
152780,-83.3333333333333,4,2,1,5,0,0
152824,-133.333333333333,4,2,1,60,0,0
152956,-133.333333333333,4,2,1,5,0,0
153000,-250,4,2,1,60,0,0
153133,-250,4,2,1,5,0,0
153177,-55.5555555555556,4,2,1,60,0,0
153530,-83.3333333333333,4,2,1,60,0,0
153883,-62.5,4,2,1,60,0,0
155295,-83.3333333333333,4,2,1,60,0,0
155824,-55.5555555555556,4,2,1,60,0,0
156000,-62.5,4,2,1,60,0,0
156353,-83.3333333333333,4,2,1,60,0,0
157412,-62.5,4,2,1,60,0,0
157853,-83.3333333333333,4,2,1,60,0,0
158118,-55.5555555555556,4,2,1,60,0,0
159177,-62.5,4,2,1,60,0,0
159883,-166.666666666667,4,2,1,60,0,0
160236,-62.5,4,2,1,60,0,0
161295,-50,4,2,1,60,0,0
162000,-83.3333333333333,4,2,1,60,0,0
163059,-55.5555555555556,4,2,1,60,0,0
163898,-55.5555555555556,4,2,1,5,0,0
163942,-100,4,2,1,60,0,0
164074,-100,4,2,1,5,0,0
164118,-200,4,2,1,60,0,0
164250,-200,4,2,1,5,0,0
164295,-43.4782608695652,4,2,1,60,0,0
164471,-55.5555555555556,4,2,1,60,0,0
164824,-83.3333333333333,4,2,1,60,0,0
165177,-62.5,4,2,1,60,0,0
165353,-55.5555555555556,4,2,1,60,0,0
166589,-83.3333333333333,4,2,1,60,0,0
167118,-55.5555555555556,4,2,1,60,0,0
167648,-83.3333333333333,4,2,1,60,0,0
169412,-50,4,2,1,60,0,0
170471,-80,4,2,1,60,0,0
170824,-66.6666666666667,4,2,1,60,0,0
171177,-88.4955752212389,4,2,1,60,0,0
171530,-57.1428571428571,4,2,1,60,0,0
171883,-100,4,2,1,60,0,0
172236,-50,4,2,1,60,0,0
172589,-100,4,2,1,60,0,0
172942,-50,4,2,1,60,0,0
173118,-66.6666666666667,4,2,1,60,0,0
173648,-100,4,2,1,60,0,0
174000,-50,4,2,1,60,0,0
174530,-57.1428571428571,4,2,1,60,0,0
175059,-133.333333333333,4,2,1,60,0,0
175412,-80,4,2,1,60,0,0
175765,-50,4,2,1,60,0,0
176118,-66.6666666666667,4,2,1,60,0,0
176295,-133.333333333333,4,2,1,60,0,0
176648,-200,4,2,1,60,0,0
176824,-66.6666666666667,4,2,1,60,0,0
177177,-57.1428571428571,4,2,1,60,0,0
177530,-100,4,2,1,60,0,0
178236,-66.6666666666667,4,2,1,60,0,0
178412,-50,4,2,1,60,0,0
178942,-66.6666666666667,4,2,1,60,0,0
179118,-33.3333333333333,4,2,1,60,0,0
179295,-66.6666666666667,4,2,1,60,0,0
179648,-88.4955752212389,4,2,1,60,0,0
180000,-50,4,2,1,60,0,0
180177,-66.6666666666667,4,2,1,60,0,0
180706,-50,4,2,1,60,0,0
181589,-80,4,2,1,60,0,0
182118,-66.6666666666667,4,2,1,60,0,0
182471,-88.4955752212389,4,2,1,60,0,0
182824,-57.1428571428571,4,2,1,60,0,0
183177,-100,4,2,1,60,0,0
183530,-50,4,2,1,60,0,0
183883,-100,4,2,1,60,0,0
184236,-50,4,2,1,60,0,0
184412,-66.6666666666667,4,2,1,60,0,0
184942,-100,4,2,1,60,0,0
185295,-50,4,2,1,60,0,0
185824,-57.1428571428571,4,2,1,60,0,0
186353,-133.333333333333,4,2,1,60,0,0
186706,-79.9999999999999,4,2,1,60,0,0
187059,-50,4,2,1,60,0,0
187412,-66.6666666666667,4,2,1,60,0,0
187589,-133.333333333333,4,2,1,60,0,0
187942,-200,4,2,1,60,0,0
188118,-66.6666666666667,4,2,1,60,0,0
188471,-57.1428571428571,4,2,1,60,0,0
188824,-100,4,2,1,60,0,0
189530,-66.6666666666667,4,2,1,60,0,0
189706,-50,4,2,1,60,0,0
190236,-66.6666666666667,4,2,1,60,0,0
190412,-33.3333333333333,4,2,1,60,0,0
190589,-66.6666666666667,4,2,1,60,0,0
190942,-88.4955752212389,4,2,1,60,0,0
191295,-50,4,2,1,50,0,0
191471,-66.6666666666667,4,2,1,50,0,0
191648,-100,4,2,1,45,0,0
194824,-83.3333333333333,4,2,1,50,0,0
203295,-125,4,2,1,50,0,0
203648,-250,4,2,1,50,0,0
204000,-166.666666666667,4,2,1,50,0,0
204353,-125,4,2,1,50,0,0
204706,-250,4,2,1,50,0,0
205059,-166.666666666667,4,2,1,50,0,0
205412,-125,4,2,1,50,0,0
206118,-125,4,2,1,50,0,0
206471,-250,4,2,1,50,0,0
206824,-166.666666666667,4,2,1,50,0,0
207177,-125,4,2,1,50,0,0
207530,-250,4,2,1,50,0,0
207883,-166.666666666667,4,2,1,50,0,0
208236,-125,4,2,1,60,0,0
208942,-250,4,2,1,60,0,0
209118,-166.666666666667,4,2,1,60,0,0
209295,-125,4,2,1,60,0,0
209471,-100,4,2,1,60,0,0
209648,-250,4,2,1,60,0,0
209824,-166.666666666667,4,2,1,60,0,0
210000,-125,4,2,1,60,0,0
210177,-100,4,2,1,60,0,0
213883,-166.666666666667,4,2,1,60,0,0
214412,-62.5,4,2,1,60,0,0
214589,-50,4,2,1,75,0,0
214942,-1000,4,2,1,90,0,0
215295,-41.6666666666667,4,2,1,75,0,0
215780,-38.4615384615385,4,2,1,5,0,0
215824,-90.9090909090909,4,2,1,75,0,0
216353,-41.6666666666667,4,2,1,75,0,0
217412,-39.8470321832439,4,2,1,75,0,0
217721,-39.8470321832439,4,2,1,5,0,0
217765,-100,4,2,1,75,0,0
218074,-100,4,2,1,5,0,0
218118,-41.6666666666667,4,2,1,75,0,0
218648,-62.5,4,2,1,75,0,0
219177,-166.666666666667,4,2,1,75,0,0
219530,-41.6666666666667,4,2,1,75,0,0
220236,-62.5,4,2,1,75,0,0
220589,-100,4,2,1,75,0,0
220898,-100,4,2,1,5,0,0
220942,-38.4615384615385,4,2,1,75,0,0
221471,-90.9090909090909,4,2,1,75,0,0
222000,-41.6666666666667,4,2,1,75,0,0
223059,-62.5,4,2,1,75,0,0
225177,-100,4,2,1,75,0,0
225883,-99.2812579899401,4,2,1,75,0,0
226192,-99.2812579899401,4,2,1,5,0,0
226236,-62.5,4,2,1,75,0,0
226589,-38.4615384615385,4,2,1,75,0,0
226942,-45.4545454545455,4,2,1,75,0,0
227118,-38.4615384615385,4,2,1,75,0,0
227471,-45.4545454545455,4,2,1,75,0,0
228177,-50,4,2,1,75,0,0
228353,-62.5,4,2,1,75,0,0
228530,-166.666666666667,4,2,1,75,0,0
228706,-70.9674885208417,4,2,1,75,0,0
229015,-70.9674885208417,4,2,1,5,0,0
229059,-62.5,4,2,1,75,0,0
229412,-55.5555555555556,4,2,1,75,0,0
230118,-50,4,2,1,75,0,0
230824,-50,4,2,1,75,0,0
231530,-38.4615384615385,4,2,1,75,0,0
231883,-62.5,4,2,1,75,0,0
232236,-38.4615384615385,4,2,1,75,0,0
232589,-45.4545454545455,4,2,1,75,0,0
232765,-38.4615384615385,4,2,1,75,0,0
233118,-45.4545454545455,4,2,1,75,0,0
233648,-62.5,4,2,1,75,0,0
234353,-66.6666666666667,4,2,1,75,0,0
235765,-90.9090909090909,4,2,1,75,0,0
237177,-200,4,2,1,75,0,0
237530,-66.6666666666667,4,2,1,75,0,0
237883,-50,4,2,1,75,0,0
239295,-66.6666666666667,4,2,1,75,0,0
240706,-57.1428571428571,4,2,1,75,0,0
242118,-33.3333333333333,4,2,1,75,0,0
242824,-333.333333333333,4,2,1,75,0,0
243530,-43.4782608695652,4,2,1,75,0,0
246353,-66.6666666666667,4,2,1,75,0,0
247765,-33.3333333333333,4,2,1,75,0,0
248471,-333.333333333333,4,2,1,75,0,0
249177,-40,4,2,1,75,0,0
250589,-100,4,2,1,75,0,0
252000,-57.1428571428571,4,2,1,75,0,0
254118,-133.333333333333,4,2,1,75,0,0
254824,-43.4782608695652,4,2,1,75,0,0
257648,-333.333333333333,4,2,1,75,0,0
259059,-66.6666666666667,4,2,1,75,0,0
259765,-200,4,2,1,40,0,0
260471,-133.333333333333,4,2,1,40,0,0
263295,-133.333333333333,4,2,2,40,0,0
263339,-133.333333333333,4,2,1,40,0,0
265059,-133.333333333333,4,2,2,40,0,0
265103,-133.333333333333,4,2,1,40,0,0
272118,-250,4,2,1,30,0,0
273177,-250,4,2,2,30,0,0
273221,-250,4,2,1,30,0,0
274589,-250,4,2,2,30,0,0
274633,-250,4,2,1,30,0,0
276353,-250,4,2,2,30,0,0
276398,-250,4,2,1,30,0,0
277412,-250,4,2,2,30,0,0
277456,-250,4,2,1,30,0,0
281648,-250,4,2,1,20,0,0

[Colours]
Combo1 : 185,95,224
Combo2 : 77,244,249
Combo3 : 255,130,192
Combo4 : 244,255,253
Combo5 : 244,184,26

[HitObjects]
256,192,1,12,0,5559,0:0:0:0:
332,135,5648,38,0,B|378:115|461:69|413:-13|350:-71|217:-10|221:80|276:163|335:221|344:311|425:288|425:288|440:262|481:254|473:279|537:222|537:222|341:111|513:238|282:86|278:208|220:306|183:336|147:235|121:251|101:195|101:195|76:100|-40:102|-67:152|-59:287|49:220|-32:349|47:272|47:346|77:388|178:367|157:273|144:256|144:256|156:232|156:232|212:151|134:87|85:70|61:27|61:27|189:74|233:176|249:257|239:344,1,2397.60005853516,0|0,3:0|0:0,0:0:0:0:
239,341,22059,54,0,L|187:130,1,192
362,318,22589,6,0,B|384:287|384:287|385:260|385:260|405:279|405:279|450:288,1,134.4,0|0,3:0|0:0,0:0:0:0:
446,286,23295,54,0,B|501:292|501:292|509:295|509:295|474:297|474:297|431:294|431:294|358:319,1,216.000008239746,8|0,0:0|0:0,0:0:0:0:
223,367,23648,6,0,L|212:327,1,41.7600012744141,2|0,0:0|0:0,0:0:0:0:
141,368,24000,1,2,3:0:0:0:
399,13,24353,54,0,L|381:79,1,57.6,0|0,3:0|0:0,0:0:0:0:
384,69,24706,6,0,B|237:91|237:91|231:100|231:100|239:105|239:105|291:99,1,216.000008239746,8|0,0:0|0:0,0:0:0:0:
449,143,25059,54,0,L|461:97,1,41.7600012744141,2|0,0:2|0:0,0:0:0:0:
482,28,25412,5,0,3:0:0:0:
364,176,25589,1,0,0:0:0:0:
506,229,25765,2,0,L|482:221,2,13.9200004248047
290,313,26118,54,0,B|372:218|495:287|412:367|384:253,1,216.000008239746,10|0,0:0|0:0,0:0:0:0:
364,176,26471,6,0,P|378:144|397:122,1,57.6,2|0,0:3|0:0,0:0:0:0:
507,87,26824,54,0,B|499:120|468:126|468:126|466:106|415:106|381:133,1,144,2|0,0:0|0:0,0:0:0:0:
160,239,27177,6,0,L|179:295,1,57.6,0|0,3:0|0:0,0:0:0:0:
179,294,27530,54,0,B|52:352|52:352|75:312|75:312|155:276,1,216.000008239746,8|0,0:0|0:0,0:0:0:0:
289,224,27883,6,0,L|249:238,1,41.7600012744141,2|0,0:0|0:0,0:0:0:0:
29,166,28236,54,0,B|11:170|15:195|41:187|41:187|147:149,2,144,0|2|2,3:0|0:0|0:0,0:0:0:0:
185,93,28942,6,0,B|158:66|105:78|105:78|179:45|240:129,1,216.000008239746,8|0,0:0|0:0,0:0:0:0:
308,148,29295,54,0,P|290:170|272:192,1,57.6,2|0,0:0|0:0,0:0:0:0:
387,177,29648,6,0,P|317:206|297:268,1,144
459,361,30000,54,0,L|438:302,1,57.6,0|0,3:0|0:0,0:0:0:0:
439,306,30353,6,0,B|426:328|403:334|403:334|284:360|284:360|250:370|232:400,2,216.000008239746,8|2|2,0:0|0:0|0:0,0:0:0:0:
500,32,31059,54,0,P|486:61|470:99,1,57.6,0|0,3:0|0:0,0:0:0:0:
486,200,31412,1,2,0:0:0:0:
461,216,31500,1,2,0:0:0:0:
472,191,31589,1,2,0:0:0:0:
459,200,31677,1,2,0:0:0:0:
458,190,31765,6,0,B|447:171|419:164|419:164|300:138|300:138|269:129|252:97,1,216.000008239746,8|0,0:0|0:0,0:0:0:0:
160,63,32118,54,0,B|182:128,3,48,2|0|2|0,0:0|0:0|0:0|0:0,0:0:0:0:
271,259,32471,2,0,L|258:297,3,24,2|0|2|0,0:3|0:0|0:0|0:0,0:0:0:0:
122,214,32824,2,0,L|147:205,1,14.3999995605469,2|0,0:0|0:0,0:0:0:0:
279,154,33000,1,0,3:0:0:0:
279,154,33883,54,0,B|382:132|401:28|401:28|401:135|497:188,2,384,0|0|8,3:0|0:0|0:0,0:0:0:0:
466,334,34942,2,0,B|476:319|476:319|383:313|334:380,1,180,2|0,0:0|0:0,0:0:0:0:
334,378,35295,6,0,P|328:344|345:314,1,72.0000027465821,2|0,0:0|0:0,0:0:0:0:
394,250,35471,2,0,P|381:224|381:194,1,60,2|0,0:0|0:0,0:0:0:0:
410,84,35648,54,0,B|358:81|326:44|323:-1|349:-14|364:8|354:41,1,162.720000496582,0|0,3:0|0:0,0:0:0:0:
322,133,36000,6,0,P|403:108|487:101,1,168.000001602173,8|0,0:0|0:0,0:0:0:0:
382,338,36353,2,0,B|365:325|365:294|365:294|355:318|333:326,1,96,2|0,0:0|0:0,0:0:0:0:
48,273,36706,54,0,B|2:282|-5:332|11:365|48:376|107:371|141:302|105:249|37:261,1,288,0|0,3:0|0:0,0:0:0:0:
136,184,37059,2,0,B|159:168|148:140|108:139|88:154|81:186|106:208|142:192,1,144,2|0,0:0|0:0,0:0:0:0:
276,221,37412,6,0,B|247:212|242:184|242:184|258:199|280:203,1,96,8|0,0:0|0:0,0:0:0:0:
354,227,37589,2,0,B|413:228|418:175|498:162|541:269|480:353,1,288.000010986329,2|0,0:0|0:0,0:0:0:0:
474,66,38118,54,0,B|458:87|416:52|435:-5|479:4|500:52|482:74,1,144,2|0,0:0|0:0,0:0:0:0:
358,125,38471,2,0,B|350:135|312:144|251:116|250:38|311:6|363:24|392:74|385:117|355:147,1,288,0|0,3:0|0:0,0:0:0:0:
245,254,38824,6,0,B|276:253|288:228|288:228|269:238|247:236,1,96,8|0,0:0|0:0,0:0:0:0:
168,240,39000,2,0,B|124:236|44:283|176:303|51:368|-33:331|-37:276|11:252|69:296|70:330,1,288.000010986329,2|0,0:0|0:0,0:0:0:0:
411,311,39530,54,0,B|428:289|458:284|458:284|434:265|429:241,1,108.000004119873,0|0,3:0|0:0,0:0:0:0:
328,220,39883,2,2,B|468:205|500:158,1,180,2|0,0:1|0:1,0:1:0:0:
458,284,40236,6,0,B|489:273|494:313|444:320|358:217|424:329|340:305|309:274|309:274|312:266|312:266|278:232|214:249,1,288,8|0,0:0|0:0,0:0:0:0:
168,288,40589,2,0,B|150:285|138:295|138:295|145:297|145:297|127:310|112:304,1,72.0000027465821,2|0,0:0|0:0,0:0:0:0:
47,131,40765,54,0,B|36:149|96:162|132:109,1,108.000004119873,2|0,0:0|0:0,0:0:0:0:
132,111,41118,2,0,L|127:86,1,24,2|0,0:0|0:0,0:0:0:0:
224,17,41295,6,0,P|259:17|293:30,1,72.0000027465821,0|0,3:0|0:0,0:0:0:0:
214,99,41471,2,0,P|246:89|271:112,1,72.0000027465821,2|0,0:0|0:0,0:0:0:0:
373,8,41648,54,0,P|398:73|417:170,1,168.000001602173,8|0,0:0|0:0,0:0:0:0:
338,350,42000,2,0,B|328:327|303:319|303:319|334:317|344:299,1,96,2|0,0:0|0:0,0:0:0:0:
466,353,42353,6,0,B|489:337|478:309|438:308|418:323|411:355|436:377|472:361,1,144,0|0,3:0|0:0,0:0:0:0:
450,268,42706,54,0,B|455:235|409:233|413:271|435:271,1,72.0000027465821,2|0,0:0|0:0,0:0:0:0:
350,215,42883,2,0,B|335:173|291:186|302:233|335:225,1,96,2|0,0:0|0:0,0:0:0:0:
200,255,43059,2,0,B|199:286|174:298|174:298|184:279|183:256,1,96,8|0,0:0|0:0,0:0:0:0:
62,207,43236,2,0,B|39:186|41:148|79:149|83:184|75:197,1,96,2|0,0:0|0:0,0:0:0:0:
28,90,43412,2,0,B|16:65|31:38|59:61|37:81,1,72.0000027465821,2|0,0:0|0:0,0:0:0:0:
158,11,43589,6,0,B|125:9|106:57|135:76|164:67|185:31|167:0,1,144.000005493164,2|0,0:1|0:0,0:0:0:0:
246,34,43765,54,0,B|330:48|291:89|369:102,1,144.000005493164,2|0,0:0|0:0,0:0:0:0:
510,0,44118,6,0,B|458:4|426:41|423:86|449:99|464:77|454:43,1,162.720000496582,0|0,3:0|0:0,0:0:0:0:
300,17,44471,54,0,B|274:-13|219:-17|226:14|283:19,1,96,8|0,0:0|0:0,0:0:0:0:
442,155,44648,2,0,P|477:155|504:133,1,72.0000027465821,2|0,0:0|0:0,0:0:0:0:
281,205,44824,2,0,B|247:247|277:245|254:281|254:281|247:286|247:286|244:296|244:296|238:301|238:301|234:313|234:313|226:319|226:319|222:333|222:333|215:339|215:339|214:348|214:348|206:354|206:354|205:365|205:365|198:370|198:370|195:381|195:381|188:388,1,216.000008239746,2|0,0:0|0:0,0:0:0:0:
126,311,45177,6,0,B|137:351|101:412|68:412|22:397|24:321|155:283|186:281|179:402|280:338|292:282,2,384,0|0|8,3:0|0:0|0:0,0:0:0:0:
250,22,46236,2,0,B|251:9|251:9|316:15|350:67|338:126,1,180,2|0,0:0|0:0,0:0:0:0:
338,125,46589,54,0,P|303:130|276:153,1,72.0000027465821,2|0,0:0|0:0,0:0:0:0:
224,213,46765,2,0,P|195:206|166:215,1,60,2|0,0:0|0:0,0:0:0:0:
31,75,46942,6,0,B|-2:85|-24:70|-11:44|34:47|71:79|75:130,1,162.720000496582,0|0,3:0|0:0,0:0:0:0:
86,206,47295,54,0,P|97:123|124:44,1,168.000001602173,8|0,0:0|0:0,0:0:0:0:
243,237,47648,2,0,B|256:254|287:254|287:254|263:264|255:286,1,96,2|0,0:0|0:0,0:0:0:0:
485,257,48000,6,0,B|473:290|442:299|442:299|339:327|339:327|325:330|325:340|363:332|363:332|434:313,1,288,0|0,3:0|0:0,0:0:0:0:
414,181,48353,2,0,B|413:198|403:207|403:207|361:238|361:238|352:243|358:252|374:241|374:241|404:221,1,144,2|0,0:0|0:0,0:0:0:0:
255,163,48706,54,0,B|277:158|293:143|293:143|288:171|259:180,1,96,8|0,0:0|0:0,0:0:0:0:
179,184,48883,2,0,B|104:203|134:146|65:127|3:185|14:246|78:261|86:260|70:327,1,288.000010986329,2|0,0:0|0:0,0:0:0:0:
0,79,49412,6,0,B|18:80|27:90|27:90|58:132|58:132|63:141|72:135|61:119|61:119|42:90,1,144,2|0,0:0|0:0,0:0:0:0:
76,8,49765,2,0,B|110:20|119:51|119:51|147:154|147:154|150:168|160:168|152:130|152:130|133:59,1,288,0|0,3:0|0:0,0:0:0:0:
288,57,50118,54,0,B|258:58|246:83|246:83|265:73|288:74,1,96,8|0,0:0|0:0,0:0:0:0:
370,59,50295,2,0,B|431:25|429:72|502:46|461:6|539:-9|539:-9|510:72|484:28|448:110|489:90|487:104,1,288.000010986329,2|0,0:0|0:0,0:0:0:0:
428,262,50824,6,0,B|430:281|418:296|418:296|454:294|485:316,1,108.000004119873,0|0,3:0|0:0,0:0:0:0:
485,316,51177,2,2,B|440:155|460:135,1,180,2|0,0:1|0:1,0:1:0:0:
348,253,51530,54,0,B|520:240|342:181|185:285,1,288,10|0,0:0|0:0,0:0:0:0:
133,285,51883,2,8,B|153:301|141:320|62:248,1,72.0000027465821,2|0,0:0|0:0,0:0:0:0:
44,83,52059,6,0,B|57:84|64:68|52:57|38:60|34:80|34:80|23:132,1,108.000004119873,2|0,0:0|0:0,0:0:0:0:
23,133,52412,2,0,L|0:140,1,24,2|0,0:0|0:0,0:0:0:0:
61,266,52589,54,0,P|62:230|72:195,1,72.0000027465821,0|0,3:3|0:3,0:3:0:0:
144,275,52765,2,0,P|133:240|153:214,1,72.0000027465821,2|0,0:3|0:3,0:3:0:0:
0,325,52942,6,0,P|77:293|161:287,1,168.000001602173,8|0,0:0|0:0,0:0:0:0:
415,330,53295,2,0,B|438:338|448:362|448:362|448:331|465:319,1,96,2|0,0:0|0:0,0:0:0:0:
424,148,53648,54,0,B|415:160|414:174|414:174|422:225|422:225|422:236|412:237|410:218|410:218|403:183,1,144,0|0,3:0|0:0,0:0:0:0:
352,109,54000,6,0,B|351:114|355:122|355:122|365:147|365:147|363:151|363:151|358:150|358:150|349:131,1,72.0000027465821,2|0,0:0|0:0,0:0:0:0:
242,88,54177,2,0,B|243:94|250:104|250:104|272:133|272:133|271:138|271:138|264:139|264:139|246:117,1,96,2|0,0:0|0:0,0:0:0:0:
110,103,54353,54,0,B|84:86|86:58|86:58|98:77|118:87,1,96,8|0,0:0|0:0,0:0:0:0:
76,207,54530,2,0,B|84:210|88:221|88:221|103:254|103:254|109:255|109:255|112:250|112:250|101:224,1,96,2|0,0:0|0:0,0:0:0:0:
44,315,54706,2,0,B|51:315|56:323|56:323|73:344|73:344|78:343|78:343|79:339|79:339|66:322,1,72.0000027465821,2|0,0:0|0:0,0:0:0:0:
297,342,54883,6,0,B|233:271|233:271|226:271|226:271|225:280|225:280|248:304,1,144.000005493164,2|0,0:1|0:0,0:0:0:0:
159,329,55059,54,0,B|238:307|222:364|298:342,1,144.000005493164,2|0,0:0|0:0,0:0:0:0:
484,293,55412,6,0,B|432:289|400:252|397:207|423:194|438:216|428:250,1,162.720000496582,0|0,3:0|0:0,0:0:0:0:
296,344,55765,54,0,B|274:387|274:387|279:339,1,96,8|0,0:0|0:0,0:0:0:0:
439,139,55942,2,0,B|455:107|455:107|451:143,1,72.0000027465821,2|0,0:0|0:0,0:0:0:0:
306,265,56118,6,0,B|300:231|258:222|258:222|186:203,1,144,0|0,3:0|0:0,0:0:0:0:
109,189,56471,5,4,3:2:0:0:
256,192,56559,12,0,67589,0:0:0:0:
157,47,67765,54,0,P|158:86|171:131,1,72.0000027465821,2|0,3:2|0:0,0:0:0:0:
84,129,68118,2,0,P|83:90|70:45,1,72.0000027465821,2|0,0:0|0:0,0:0:0:0:
18,256,68471,6,0,P|54:232|57:313,1,144.000005493164,2|0,0:0|0:0,0:0:0:0:
14,338,68824,1,0,0:0:0:0:
218,177,69000,54,0,B|247:161|293:179|281:234|239:241,1,120,2|0,0:0|0:0,0:0:0:0:
174,241,69353,1,0,0:0:0:0:
429,195,69530,6,0,B|447:194|465:213|467:238|447:252|416:242|409:216,1,96,2|0,0:0|0:0,0:0:0:0:
353,183,69883,1,0,0:0:0:0:
400,117,70059,53,2,0:0:0:0:
358,38,70236,1,2,0:0:0:0:
246,29,70412,1,2,0:0:0:0:
134,98,70589,1,2,0:0:0:0:
99,237,70765,6,0,P|159:239|206:309,1,120,2|0,0:0|0:0,0:0:0:0:
33,285,71118,1,0,0:0:0:0:
355,328,71295,54,0,B|334:307|265:327|228:401,1,144.000005493164,2|0,0:1|0:0,0:0:0:0:
434,340,71648,1,0,0:0:0:0:
243,167,71824,6,0,B|257:152|290:187|287:235|263:260,1,96,2|0,0:0|0:0,0:0:0:0:
409,41,72177,54,0,B|401:16|368:18|333:44|311:77|309:120,1,144.000005493164,2|0,0:1|0:0,0:0:0:0:
489,13,72530,1,0,0:0:0:0:
494,213,72706,6,0,B|501:242|476:278|429:274|392:252|356:226|363:175,1,168.000001602173,2|0,0:1|0:0,0:0:0:0:
207,50,73059,54,0,B|229:42|248:78|264:93|263:132|253:149|229:191,1,144.000005493164,2|2,0:0|0:1,0:0:0:0:
120,341,73412,6,0,P|71:330|9:323,1,96,2|0,0:0|0:0,0:0:0:0:
195,368,73765,1,2,0:0:0:0:
200,352,73942,1,0,0:0:0:0:
0,250,74118,54,0,P|58:228|128:222,1,120,2|0,0:0|0:0,0:0:0:0:
180,266,74471,1,0,0:0:0:0:
189,186,74648,6,0,P|241:207|282:209,1,72.0000027465821,2|0,0:0|0:0,0:0:0:0:
331,182,75000,1,0,0:0:0:0:
306,271,75177,54,0,P|371:265|437:288,1,96,2|0,0:0|0:0,0:0:0:0:
462,321,75530,1,0,0:0:0:0:
455,164,75706,5,2,0:0:0:0:
470,242,75883,1,2,0:0:0:0:
460,155,76059,1,2,0:0:0:0:
306,271,76236,54,0,P|341:269|349:344,1,120
280,348,76589,1,2,0:0:0:0:
280,361,76765,1,0,0:0:0:0:
178,361,76942,6,0,P|208:292|217:231,1,120,2|0,0:0|0:0,0:0:0:0:
167,186,77295,1,0,0:0:0:0:
15,320,77471,54,0,P|65:342|105:410,1,96,2|0,0:0|0:0,0:0:0:0:
75,248,77824,2,0,P|85:194|52:122,1,96,2|0,0:0|0:0,0:0:0:0:
255,177,78177,6,0,P|303:180|344:186,1,72.0000027465821,0|2,0:0|0:0,0:0:0:0:
196,238,78530,1,2,0:0:0:0:
72,73,78706,2,0,P|24:70|-17:64,1,72.0000027465821,0|2,0:0|0:0,0:0:0:0:
91,369,79059,38,0,P|69:360|94:364,1,72,4|0,3:1|0:0,0:0:0:0:
211,374,79412,2,0,P|191:384|209:368,1,72,2|0,0:3|0:0,0:0:0:0:
163,111,79765,6,0,P|185:110|162:116,1,72,0|0,3:0|0:0,0:0:0:0:
51,157,80118,2,0,P|64:138|54:161,1,72,2|0,0:3|0:0,0:0:0:0:
292,286,80471,54,0,P|288:308|286:283,1,72,0|0,3:0|0:0,0:0:0:0:
270,167,80824,2,0,P|284:184|264:169,1,72,2|0,0:3|0:0,0:0:0:0:
20,276,81177,6,0,P|14:253|25:275,1,72,2|0,0:3|0:0,0:0:0:0:
79,31,81530,53,2,0:3:0:0:
77,40,81618,1,2,0:3:0:0:
79,49,81706,1,2,0:3:0:0:
85,56,81795,1,2,0:3:0:0:
173,42,81883,6,0,P|157:93|154:165,1,108.000004119873,0|0,3:0|0:0,0:0:0:0:
245,85,82236,2,0,P|247:138|269:207,1,108.000004119873,2|0,0:3|0:0,0:0:0:0:
77,370,82589,54,0,P|65:317|68:245,1,108.000004119873,2|0,0:3|0:0,0:0:0:0:
152,333,82942,2,0,P|159:280|186:213,1,108.000004119873,2|0,0:3|0:0,0:0:0:0:
349,199,83295,6,0,P|360:251|394:315,1,108.000004119873,0|0,3:0|0:0,0:0:0:0:
432,200,83648,2,0,P|460:245|514:293,1,108.000004119873,2|0,0:3|0:0,0:0:0:0:
464,351,84000,53,2,0:3:0:0:
197,330,84177,1,2,0:3:0:0:
384,300,84353,6,0,B|311:291|355:319|267:300,1,108.000004119873,0|0,3:0|0:0,0:0:0:0:
197,330,84706,54,0,L|200:265,1,48,0|0,1:0|0:0,0:0:0:0:
202,205,84883,2,0,L|205:140,1,48,0|0,1:0|0:0,0:0:0:0:
122,326,85059,6,0,L|125:261,1,48,2|0,0:3|0:0,0:0:0:0:
127,201,85236,2,0,L|130:136,1,48,2|0,0:3|0:0,0:0:0:0:
357,34,85412,54,0,L|360:99,1,48,0|0,1:0|0:0,0:0:0:0:
362,159,85589,2,0,L|365:224,1,48,0|0,1:0|0:0,0:0:0:0:
282,38,85765,6,0,L|285:103,1,48,2|0,0:3|0:0,0:0:0:0:
287,163,85942,2,0,L|290:228,1,48,2|0,0:3|0:0,0:0:0:0:
497,365,86118,53,2,0:3:0:0:
466,372,86206,1,2,0:3:0:0:
439,343,86295,1,2,0:3:0:0:
383,351,86383,1,2,0:3:0:0:
343,292,86471,1,2,0:3:0:0:
260,315,86559,1,2,0:3:0:0:
204,233,86648,6,0,P|178:234|150:236,1,43.1999986816407,2|0,0:3|0:0,0:0:0:0:
89,203,87000,54,0,P|69:209|40:218,12,36.0000013732911,0|0|0|0|0|0|0|0|0|0|0|0|0,1:0|1:0|1:0|1:0|1:0|1:0|1:0|1:0|1:0|1:0|1:0|1:0|3:0,1:0:0:0:
256,192,87618,12,2,88765,0:0:0:0:
40,77,88942,6,0,B|99:64|155:118|96:143|122:209|200:205,1,216.000008239746,0|0,3:0|0:0,0:0:0:0:
260,169,89295,54,0,P|271:200|245:256,1,86.3999973632813,0|0,1:0|0:0,0:0:0:0:
42,238,89648,5,0,1:0:0:0:
50,250,89736,1,0,1:0:0:0:
61,243,89824,2,0,L|83:277,1,28.7999991210938,0|0,1:0|0:0,0:0:0:0:
205,81,90000,2,0,L|200:122,1,28.7999991210938,0|0,3:0|0:0,0:0:0:0:
432,41,90177,2,0,L|390:56,1,28.7999991210938,0|0,3:0|0:0,0:0:0:0:
458,166,90353,38,2,B|492:201|552:146|501:36|320:78|282:252|335:435|477:470|529:415|534:341|487:240|397:215|227:211|298:322|262:453|187:442|114:389|59:247|247:164,1,840,8|0,3:1|0:0,0:1:0:0:
23,221,91059,6,0,B|11:276|40:319|40:319|43:214|97:112|250:68|250:68|191:142,1,528,8|0,0:0|0:0,0:0:0:0:
182,205,91589,22,2,B|184:207|184:207|186:207|186:207|185:209|185:209|186:209|186:209|187:210|187:210|189:210|189:210|187:212|187:212|189:212|189:212|190:212|190:212|192:213|192:213|190:214|190:214|192:215|192:215|193:215|193:215|195:216|195:216|193:217|193:217|195:217|195:217|196:218|196:218|198:218|198:218|196:220|196:220|198:220|198:220|199:221|199:221|200:221|200:221|199:222|199:222|201:223|201:223|202:223|202:223|203:224|203:224|202:225|202:225|204:225|204:225|204:226|204:226|206:226|206:226|205:228|205:228|207:228|207:228|207:229|207:229|209:229|209:229|208:231|208:231|209:231|209:231|210:232|210:232|212:232|212:232|211:233|211:233|212:234|212:234|213:234|213:234|215:235|215:235|214:236|214:236|215:236|215:236|216:237|216:237|216:239|216:239|215:238|215:238|215:240|215:240|214:241|214:241|215:243|215:243|213:242|213:242|213:244|213:244|213:246|213:246|211:245|211:245|211:247|211:247|211:248|211:248|213:247|213:247|212:249|212:249|214:248|214:248|215:249|215:249|217:248|217:248|216:250|216:250|218:249|218:249|219:249|219:249|221:249|221:249|220:250|220:250|222:250|222:250|223:250|223:250|224:249|224:249|224:251|224:251|226:250|226:250|227:251|227:251|228:250|228:250|228:252|228:252|230:251|230:251|231:251|231:251|232:250|232:250|232:252|232:252|234:252|234:252|235:252|235:252|236:251|236:251|236:253|236:253|238:252|238:252|239:252|239:252|240:252|240:252|240:254|240:254|242:253|242:253|242:251|242:251|244:252|244:252|244:250|244:250|244:249|244:249|244:247|244:247|246:248|246:248|245:246|245:246|246:245|246:245|246:244|246:244|247:245|247:245|247:243|247:243|248:241|248:241|249:240|249:240|250:242|250:242|251:240|251:240|252:239|252:239|253:241|253:241|254:239|254:239|255:239|255:239|256:238|256:238|256:240|256:240|258:238|258:238|259:238|259:238|260:237|260:237|260:239|260:239|261:237|261:237|262:237|262:237|264:236|264:236|264:238|264:238|265:236|265:236|266:236|266:236|267:235|267:235|268:237|268:237|269:235|269:235|270:235|270:235|271:234|271:234|272:236|272:236|273:234|273:234|274:234|274:234|275:232|275:232|276:235|276:235|277:233|277:233|278:233|278:233|279:231|279:231|280:233|280:233|281:232|281:232|282:232|282:232|283:230|283:230|284:232|284:232|285:231|285:231|286:231|286:231|287:229|287:229|288:231|288:231|289:230|289:230|290:230|290:230|291:228|291:228|292:230|292:230|293:229|293:229|294:229|294:229|295:227|295:227|295:229|295:229|297:228|297:228|298:227|298:227|299:226|299:226|299:228|299:228|300:227|300:227|301:226|301:226|303:225|303:225|303:227|303:227|304:226|304:226|305:225|305:225|306:224|306:224|307:226|307:226|308:225|308:225|309:224|309:224|310:223|310:223|311:225|311:225|312:224|312:224|313:223|313:223|314:222|314:222|315:224|315:224|316:223|316:223|317:222|317:222|318:221|318:221|318:223|318:223|320:221|320:221|321:221|321:221|322:220|322:220|322:222|322:222|323:220|323:220|324:220|324:220|326:219|326:219|326:221|326:221|327:219|327:219|328:219|328:219|329:218|329:218|330:220|330:220|331:218|331:218|332:218|332:218|333:217|333:217|334:219|334:219|335:217|335:217|336:217|336:217|336:215|336:215|337:216|337:216|337:214|337:214|337:213|337:213|337:212|337:212|339:212|339:212|338:211|338:211|339:210|339:210|338:208|338:208|340:209|340:209|340:207|340:207|340:206|340:206|342:206|342:206|341:208|341:208|343:208|343:208|344:209|344:209|345:209|345:209|344:210|344:210|346:210|346:210|347:211|347:211|349:211|349:211|348:213|348:213|349:213|349:213|350:213|350:213|352:213|352:213|351:215|351:215|353:215|353:215|355:216|355:216|354:217|354:217|356:217|356:217|357:218|357:218|358:218|358:218|357:219|357:219|359:219|359:219|360:220|360:220|362:220|362:220|361:222|361:222|362:222|362:222|363:222|363:222|365:222|365:222|364:224|364:224|366:224|366:224|366:225|366:225|368:225|368:225|367:226|367:226|369:226|369:226|370:227|370:227|371:227|371:227|370:229|370:229|372:229|372:229|373:229|373:229|375:229|375:229|373:231|373:231|375:231|375:231|376:232|376:232|378:232|378:232|377:233|377:233|379:233|379:233|379:234|379:234|381:234|381:234|380:235|380:235|382:236|382:236|383:236|383:236|384:236|384:236|383:238|383:238|385:238|385:238|386:238|386:238|388:238|388:238|386:240|386:240|388:240|388:240|389:241|389:241|391:241|391:241|390:242|390:242|392:242|392:242|392:243|392:243|394:243|394:243|393:245|393:245|395:245|395:245|398:247|398:247|396:245|396:245|397:245|397:245|396:247|396:247|398:247|398:247|399:246|399:246|399:245|399:245|401:246|401:246|401:244|401:244|402:243|402:243|402:242|402:242|404:243|404:243|404:241|404:241|405:241|405:241|405:239|405:239|407:240|407:240|407:239|407:239|409:237|409:237|410:237|410:237|409:238|409:238|411:239|411:239|413:239|413:239|412:240|412:240|413:240|413:240|414:241|414:241|416:241|416:241|415:243|415:243|416:243|416:243|417:244|417:244|419:244|419:244|418:245|418:245|419:246|419:246|420:246|420:246|422:246|422:246|421:248|421:248|423:248|423:248|423:249|423:249|425:249|425:249|424:250|424:250|426:251|426:251|428:251|428:251|427:253|427:253|429:253|429:253|429:254|429:254|431:254|431:254|430:255|430:255|432:256|432:256|433:256|433:256|434:256|434:256|433:258|433:258|435:258|435:258|436:259|436:259|437:259|437:259|436:261|436:261|438:261|438:261|439:261|439:261|441:261|441:261|439:263|439:263|441:263|441:263|442:264|442:264|444:264|444:264|442:266|442:266|444:266|444:266|445:266|445:266|447:267|447:267|445:268|445:268|447:268|447:268|448:269,1,588.969739902542,0|0,3:0|0:0,0:1:0:0:
448,269,92118,22,2,B|446:271|446:271|447:273|447:273|445:272|445:272|446:274|446:274|445:275|445:275|445:276|445:276|443:276|443:276|444:278|444:278|444:279|444:279|445:281|445:281|442:280|442:280|443:281|443:281|442:282|442:282|442:284|442:284|441:284|441:284|442:286|442:286|441:286|441:286|441:288|441:288|439:287|439:287|440:289|440:289|440:290|440:290|440:292|440:292|438:291|438:291|438:293|438:293|437:296|437:296|438:294|438:294|438:295|438:295|437:295|437:295|437:296|437:296|439:297|439:297|440:297|440:297|439:299|439:299|440:299|440:299|441:300|441:300|443:301|443:301|441:302|441:302|443:302|443:302|443:303|443:303|445:303|445:303|444:305|444:305|446:305|446:305|446:306|446:306|448:307|448:307|447:308|447:308|449:308|449:308|449:309|449:309|451:309|451:309|449:310|449:310|452:311|452:311|452:312|452:312|454:312|454:312|452:314|452:314|453:314|453:314|455:314|455:314|457:315|457:315|455:316|455:316|456:317|456:317|459:319|459:319|458:318|458:318|459:318|459:318|458:319|458:319|459:319|459:319|459:320|459:320|460:322|460:322|458:323|458:323|459:323|459:323|458:325|458:325|460:326|460:326|458:326|458:326|458:328|458:328|458:329|458:329|460:330|460:330|458:330|458:330|458:332|458:332|459:333|459:333|459:335|459:335|457:334|457:334|458:336|458:336|459:337|459:337|459:338|459:338|457:338|457:338|458:339|458:339|456:352,1,156.289287370682,0|0,3:0|0:0,0:1:0:0:
176,25,92471,5,2,1:0:0:0:
176,33,92589,54,0,P|181:36|175:28,1,32,2|0,0:1|0:0,0:0:0:0:
182,47,92706,6,0,P|193:61|195:42,1,48.0000018310548,2|0,0:1|0:0,0:0:0:0:
183,74,92824,54,0,P|201:87|213:55,1,64,2|0,0:1|0:0,0:0:0:0:
186,115,92942,6,0,P|229:114|249:74,1,80,2|0,0:1|0:0,0:0:0:0:
216,210,93059,54,0,P|260:184|311:174,1,96.0000036621095,2|0,0:1|0:0,0:0:0:0:
243,311,93177,6,2,B|188:279|127:297|127:297|191:296|230:343,1,216.000008239746,10|0,0:1|0:1,0:1:0:0:
28,365,93530,54,2,L|401:305,1,360,0|0,3:1|0:0,0:1:0:0:
512,0,93883,6,2,P|436:19|415:84,1,144,8|0,0:0|0:0,0:1:0:0:
346,129,94059,2,0,P|366:183|358:234,1,108.000004119873,2|0,0:1|0:0,0:0:0:0:
449,244,94236,2,0,P|458:281|477:313,1,72,2|0,0:1|0:0,0:0:0:0:
506,136,94412,22,2,L|460:153,1,48,0|0,3:0|0:0,0:1:0:0:
359,232,94942,22,2,B|300:300|204:268|215:187|257:128,1,252.000009613037,0|0,3:0|0:0,0:1:0:0:
253,132,95295,1,8,0:0:0:0:
53,116,95471,6,2,B|123:40|281:-84|454:-43|458:128|311:148,1,528.000016113282,0|0,3:0|0:0,0:1:0:0:
512,242,96000,22,2,L|445:260,1,67.2,0|0,3:0|0:0,0:1:0:0:
331,278,96706,22,0,B|361:343|361:343|334:225|334:225|327:218|327:218|321:147|321:147|347:73|347:73|344:67|344:67|346:73|346:73|377:-5|377:-5|331:171,1,600,12|0,0:0|0:0,0:0:0:0:
140,219,97236,6,0,B|79:250|46:403|94:445|220:433|266:341|131:320|179:240|275:229|312:238|351:306,1,480,0|0,3:0|0:0,0:0:0:0:
500,384,97765,22,0,L|469:377,1,24,0|0,3:0|0:0,0:0:0:0:
396,356,97942,2,0,L|365:349,1,24,2|0,0:0|0:0,0:0:0:0:
419,206,98118,22,0,B|479:224|502:282|502:282|468:238|398:221,1,216.000008239746,8|0,0:0|0:0,0:0:0:0:
110,93,98471,6,0,B|68:109|56:136|60:224|173:221,1,180,0|0,3:0|0:0,0:0:0:0:
226,237,98648,2,0,B|236:197|208:180|208:180|223:209|212:246,1,120,2|0,0:0|0:0,0:0:0:0:
6,348,98824,21,4,3:2:0:0:
21,257,99000,2,0,P|0:207|-21:153,1,96,2|0,0:0|0:0,0:0:0:0:
140,5,99353,37,0,0:0:0:0:
72,90,99530,2,0,B|50:116|60:143|60:143|99:234|99:234|112:265|76:306,1,216.000008239746,2|0,0:0|0:0,0:0:0:0:
6,348,99883,22,0,B|43:355|43:355|62:386,1,72.0000027465821
376,173,100059,38,0,B|401:159|419:157|419:157|397:166|374:190,1,96,2|0,0:0|0:0,0:0:0:0:
379,186,100412,22,0,B|348:135|291:131|210:246|178:333|114:332|77:277,1,360.000013732911,0|0,3:0|0:0,0:0:0:0:
130,40,100942,38,0,L|99:34,1,24,10|0,0:0|0:0,0:0:0:0:
133,73,101030,2,0,L|106:87,1,24,2|0,0:0|0:0,0:0:0:0:
166,105,101118,2,0,L|158:135,1,24,2|0,0:0|0:0,0:0:0:0:
215,113,101206,2,0,L|226:154,1,24,2|0,0:0|0:0,0:0:0:0:
265,56,101295,21,2,0:0:0:0:
333,22,101383,1,2,0:0:0:0:
414,23,101471,1,2,0:0:0:0:
487,68,101559,1,2,0:0:0:0:
435,137,101648,22,0,B|482:218|485:299|324:284|427:398|501:382|618:318|606:215|562:178|546:152|504:105|312:127|264:156|192:250|207:383|295:385|369:336,1,840,8|0,0:1|0:0,0:0:0:0:
113,337,102353,5,2,0:0:0:0:
129,343,102442,1,2,0:0:0:0:
147,339,102530,1,2,0:0:0:0:
149,327,102618,1,2,0:0:0:0:
142,324,102706,1,2,0:0:0:0:
132,328,102795,1,2,0:0:0:0:
138,342,102883,1,2,0:0:0:0:
138,342,102971,1,2,0:0:0:0:
132,328,103059,22,0,P|95:339|21:365,2,96.0000036621095,2|2|2,0:0|0:0|0:0,0:0:0:0:
77,127,103412,22,0,B|-8:138|-16:248|35:282|90:275|142:220|111:192|175:148|245:196,1,360,0|0,3:0|0:0,0:0:0:0:
495,265,103765,1,10,0:0:0:0:
495,265,104118,38,2,L|510:211,1,50.3999984619141,2|0,0:1|0:1,0:1:0:0:
422,25,104471,38,0,B|366:23|409:-49|486:-6|477:67|556:116|472:117|465:226|413:114|399:161|354:131|340:81,1,360,0|0,3:0|0:0,0:0:0:0:
67,171,104824,54,2,B|84:107|123:62|172:39|172:39|162:38|162:38|172:39|172:39|231:10|316:25|316:25|264:49|267:117,1,432.000016479493,2|0,3:1|0:1,0:1:0:0:
380,236,105177,6,2,B|379:236|380:238|380:238|381:239|381:239|380:240|380:240|381:241|381:241|382:241|382:241|383:242|383:242|381:243|381:243|382:244|382:244|383:245|383:245|383:246|383:246|381:247|381:247|383:248|383:248|383:249|383:249|384:251|384:251|382:250|382:250|384:252|384:252|384:253|384:253|385:254|385:254|383:254|383:254|384:256|384:256|384:257|384:257|384:258|384:258|383:259|383:259|384:260|384:260|384:261|384:261|385:262|385:262|383:263|383:263|385:264|385:264|383:265|383:265|384:266|384:266|382:266|382:266|383:268|383:268|384:269|384:269|385:270|385:270|383:270|383:270|384:272|384:272|383:273|383:273|383:274|383:274|381:274|381:274|382:276|382:276|382:277|382:277|383:278|383:278|381:278|381:278|381:280|381:280|381:281|381:281|382:282|382:282|380:282|380:282|380:284|380:284|380:285|380:285|381:286|381:286|379:286|379:286|379:288|379:288|379:289|379:289|380:290|380:290|378:290|378:290|379:292|379:292|379:293|379:293|378:294|378:294|376:293|376:293|376:295|376:295|376:296|376:296|377:298|377:298|375:296|375:296|376:299|376:299|374:299|374:299|375:301|375:301|373:300|373:300|373:302|373:302|373:303|373:303|373:304|373:304|371:304|371:304|372:305|372:305|372:306|372:306|371:308|371:308|369:308|369:308|370:309|370:309|370:310|370:310|369:312|369:312|368:311|368:311|368:313|368:313|366:314|366:314|367:316|367:316|365:314|365:314|365:316|365:316|365:317|365:317|365:319|365:319|363:317|363:317|364:318|364:318|363:319|362:319|362:319|362:321|362:321|361:320|361:320|360:322|360:322|360:323|360:323|360:325|360:325|358:324|358:324|358:326|358:326|357:327|357:327|357:329|357:329|355:326|355:326|355:327|355:327|355:328|355:328|354:330|354:330|353:329|353:329|352:331|352:331|351:332|351:332|351:333|351:333|349:332|349:332|349:334|349:334|349:335|349:335|349:337|349:337|347:336|347:336|347:337|347:337|345:338|345:338|345:337|345:337|343:339|343:339|342:339|342:340|342:340|342:341|342:341|341:340|341:340|340:342|340:342|340:343|340:343|340:344|340:344|338:342|338:342|337:344|337:344|337:344|336:345|336:345|336:346|336:346|334:344|334:344|334:346|334:346|333:347|333:347|332:348|332:348|332:347|332:347|330:349|330:349|329:348|329:348|328:350|328:350|328:349|328:349|326:350|326:350|326:351|326:351|325:352|325:352|324:350|324:350|323:352|323:352|322:352|322:352|322:353|322:353|321:352|321:352|320:354|320:354|319:354|319:354|318:356|318:356|318:354|318:354|316:355|316:355|315:356|315:356|314:356|314:356|313:355|313:355|313:356|313:356|311:357|311:357|310:358|310:358|309:357|309:357|308:358|308:358|308:359|307:359|307:359|307:360|307:360|306:358|306:358|305:358|305:358|304:359|304:359|302:360|302:360|302:358|302:358|300:360|300:360|299:360|299:360|298:361|298:361|297:359|297:359|297:361|297:361|296:360|296:360|295:362|295:362|294:360|294:360|293:361|293:361|292:361|292:361|291:362|291:362|290:360|290:360|289:361|289:361|288:362|288:362|287:362|287:362|286:360|286:360|285:362|285:362|284:361|284:361|283:362|283:362|283:360|283:360|281:362|281:362|280:362|280:362|279:363|279:363|279:361|279:361|277:360|277:360|276:361|276:361|274:362|274:362|275:360|275:360|273:361|273:361|272:361|272:361|270:362|270:362|271:360|271:360|269:360|269:360|268:360|268:360|266:361|266:361|267:358|267:358|265:360|265:360|264:360|264:360|262:360|262:360|263:359|263:359|261:359|261:359|260:359|260:359|258:359|258:359|259:358|259:358|257:357|257:357|256:357|256:357|255:357|255:357|255:355|255:355|254:356|254:356|253:356|253:356|251:357|251:357|251:355|251:355|250:356|250:356|249:355|249:355|247:354|247:354|248:352|248:352|246:353|246:353|245:353|245:353|243:353|243:353|244:351|244:351|243:352|243:352|242:351|242:351|240:351|240:351|241:349|241:349|239:349|239:349|238:349|238:349|236:349|236:349|238:347|238:347|236:348|236:348|235:346|235:346|233:347|233:347|234:345|234:345|232:345|232:345|231:345|231:345|230:345|230:345|230:343|230:343|230:342|230:342|229:341|229:341|227:341|227:341|228:339|228:339|226:340|226:340|226:339|226:339|226:339|224:339|224:339|225:338|225:338|224:338|224:338|223:337|223:337|221:335|221:335|222:335|222:335|220:334|220:334|220:333|219:333|219:333|218:333|218:333|220:331|220:331|218:331|218:331|217:331|217:331|215:330|215:330|218:329|218:329|216:328|216:328|215:327|215:327|213:327|213:327|215:325|215:325|213:325|213:325|212:325|212:325|210:323|210:323|212:323|212:323|212:321|212:321|211:320|211:320|209:319|209:319|211:318|211:318|209:318|209:318|208:317|208:317|207:317|207:317|208:315|208:315|206:315|206:315|207:314|207:314|206:312|206:312|207:312|207:312|206:311|206:311|205:310|205:310|203:308|203:308|205:308|205:308|203:306|203:306|202:305|202:305|204:305|204:305|202:303|202:303|202:302|202:302|201:302|201:302|202:301|202:301|201:300|201:300|200:298|200:298|200:297|200:297|201:297|201:297|200:295|200:295|199:295|199:295|198:294|198:294|200:293|200:293|199:292|199:292|199:291|199:291|198:290|198:290|200:289|200:289|198:288|198:288|198:287|198:287|196:286|196:286|198:286|198:286|197:285|197:285|196:284|196:284|197:283|197:283|199:282|199:282|197:281|197:281|197:280|197:280|195:277|195:277|197:278|197:278|196:276|196:276|197:275|197:275|196:273|196:273|198:273|198:273|197:272|197:272|197:271|197:271|195:269|195:269|197:269|197:269|197:268|197:268|197:267|197:267|195:265|195:265|197:266|197:266|197:264|197:264|197:263|197:263|196:261|196:261|198:262|198:262|198:260|198:260|197:260|197:259|197:259|196:257|196:257|198:258|198:258|197:256|197:256|198:255|198:255|198:254|198:254|200:254|200:254|199:252|199:252|199:251|199:251|198:250|198:250|200:250|200:250|199:248|199:248|200:247|200:247|199:246|199:246|201:246|201:246|201:244|201:244|201:243|201:243|200:242|200:242|202:242|202:242|201:240|201:240|202:239|202:239|201:238|201:238|203:238|203:238|202:236|202:236|203:235|203:235|203:234|203:234|205:235|205:235|205:232|205:232|205:231|205:231|204:230|204:230|206:231|206:231|206:230|206:230|206:229|206:229|205:227|205:227|207:227|207:227|208:226|208:226|209:226|209:226|208:223|208:223|210:225|210:225|209:223|209:223|210:222|210:222|210:220|210:220|211:221|211:221|212:219|212:219|212:218|212:218|213:216|213:216|214:217|214:217|214:215|214:215|214:214|214:214|215:212|215:212|216:214|216:214|217:213|217:213|217:212|217:212|217:210|217:210|218:212|218:212|218:210|218:210|219:209|219:209|220:207|220:207|221:208|221:208|222:206|222:206|223:205|223:205|222:204|222:204|224:205|224:205|224:203|224:203|224:202|225:203|225:203|225:201|225:201|226:202|226:202|226:201|226:201|228:201|228:201|229:199|229:199|229:200|229:200|231:198|231:198|231:197|231:197|231:196|231:196|233:197|233:197|233:196|233:196|235:195|235:195|235:194|235:194|236:195|236:195|237:193|237:193|237:192|237:192|238:192|238:192|239:193|239:193|239:191|239:191|240:191|241:190|241:190|241:189|241:189|242:191|242:191|244:189|244:189|245:189|245:189|245:187|245:187|247:188|247:188|247:187|247:187|248:186|248:186|249:185|249:185|250:188|250:188|250:186|250:186|251:186|251:186|252:184|252:184|253:186|253:186|254:184|254:184|255:183|255:183|256:182|256:182|257:183|257:183|258:184|258:184|258:183|259:183|259:183|260:182|260:182|261:183|261:183|261:182|261:182|263:181|263:181|264:180|264:180|265:181|265:181|266:181|266:181|267:181|267:180|267:180|268:180|268:180|269:182|269:182|270:180|270:180|272:178|272:178|272:180|272:180|274:180|274:180|275:179|275:179|276:178|276:178|276:180|276:180|278:179|278:179|279:179|279:179|280:178|280:178|281:180|281:180|282:179|282:179|283:179|283:179|284:178|284:178|285:179|285:179|286:178|286:178|287:179|287:179|288:179|288:179|288:181|288:181|290:179|290:179|291:179|291:179|292:178|292:178|292:180|292:180|294:179|294:179|295:180,1,794.117479148644,8|0,0:0|0:0,0:1:0:0:
380,236,105706,22,2,B|401:239|431:231|412:222|431:207|462:202,1,83.9999974365235,0|0,3:0|0:0,0:1:0:0:
452,380,106236,22,2,B|495:324|474:258|363:235|395:286|252:290|277:172,1,336,2|0,3:1|0:0,0:1:0:0:
275,179,106589,1,8,0:0:0:0:
37,152,106765,6,0,B|116:141|187:174|158:303|-11:199|26:77|74:-44|168:-96|248:-48|308:7|278:77|316:94|214:133|172:96,1,600,0|0,3:0|0:0,0:0:0:0:
175,256,107295,22,0,B|90:274|90:274|159:276,1,144,12|0,0:1|0:0,0:0:0:0:
31,343,107648,22,2,B|117:318|117:318|107:325|107:325|371:249,1,336,2|0,0:1|0:1,0:1:0:0:
408,206,108000,38,2,L|425:265,1,58.7999982055665,10|2,0:0|0:1,0:1:0:0:
357,340,108353,38,0,B|385:372|456:385|557:362|561:236|525:129|453:50|279:71|274:193,1,600,0|0,3:0|0:0,0:0:0:0:
28,290,108883,54,0,B|5:326|8:371|8:371|30:310|75:232|169:236|169:236|117:252,1,360.000013732911,0|0,3:0|0:0,0:0:0:0:
424,262,109412,6,2,B|357:280|357:280|351:276|351:276|306:298|306:298|316:298|316:298|235:311|235:311|243:306|243:306|210:315|210:315|214:311|214:311|128:334,1,336,10|0,0:0|0:1,0:1:0:0:
8,109,110118,21,4,3:2:0:0:
0,198,110295,2,0,P|16:249|32:305,1,96,2|0,0:0|0:0,0:0:0:0:
270,8,110648,37,0,0:0:0:0:
208,92,110824,2,0,B|182:70|155:80|155:80|64:119|64:119|33:132|-8:96,1,216.000008239746,2|0,0:0|0:0,0:0:0:0:
21,19,111177,2,0,B|24:2|39:-11|39:-11|30:5|28:32,1,72.0000027465821
177,297,111353,22,0,B|157:315|157:315|169:329|169:329|193:325|193:325|185:285,1,96,2|0,0:0|0:0,0:0:0:0:
188,300,111706,38,0,B|448:238|250:318|523:256,1,324.00001235962,2|0,0:0|0:0,0:0:0:0:
480,97,112236,22,0,L|506:86,1,24,2|0,3:2|0:0,0:0:0:0:
475,129,112324,2,0,L|502:139,1,24,2|0,0:0|0:0,0:0:0:0:
439,153,112412,2,0,L|442:190,1,24,2|0,0:0|0:0,0:0:0:0:
390,153,112500,2,0,L|372:191,1,24,2|0,0:0|0:0,0:0:0:0:
350,88,112589,37,2,0:0:0:0:
289,42,112677,1,2,0:0:0:0:
209,29,112765,1,2,0:0:0:0:
125,53,112853,1,2,0:0:0:0:
58,123,112942,21,2,3:1:0:0:
58,123,113295,1,2,0:1:0:0:
204,182,113648,6,0,B|186:171|186:171|175:137|161:121|161:121|161:115|161:115|123:120|78:132|78:132|58:123|58:123|74:146|74:146|88:175|110:198|110:198|118:200|118:200|147:201|168:216|168:216|181:198|212:251|212:251|202:248|202:248|242:288|251:269|251:269|317:277|365:326,1,604.799981542969,12|0,0:0|0:0,0:0:0:0:
161,320,114353,54,0,B|148:325|148:325|143:333|143:333|148:342|148:342|166:353|212:303|212:303|212:310|230:289|230:289|257:241|257:241|340:148|340:148|374:140|374:140|410:139|458:169|458:169|457:195|483:239|483:239|461:240|446:266|446:266|411:266|395:291|395:291|361:322,1,672,0|0,3:0|0:0,0:0:0:0:
148,28,115059,22,2,B|164:127|154:120|154:120|146:111|159:184|159:184|162:202|172:200|172:200|188:288|188:288|190:300|185:299|186:307|186:307|195:353,1,336,8|0,0:0|0:0,0:1:0:0:
298,388,115765,37,2,3:2:0:0:
316,383,115853,1,2,0:0:0:0:
344,372,115942,1,2,0:0:0:0:
380,349,116030,1,2,0:0:0:0:
425,305,116118,1,2,0:0:0:0:
468,245,116206,1,2,0:0:0:0:
499,169,116295,1,2,0:0:0:0:
510,76,116383,1,2,0:0:0:0:
415,119,116471,6,2,B|395:151|357:145|357:145|240:125|240:125|198:118|189:154,1,252.000002403259,10|0,0:1|0:1,0:1:0:0:
298,388,116824,53,2,3:2:0:0:
316,383,116942,5,2,0:0:0:0:
344,372,117059,53,2,0:0:0:0:
380,349,117177,5,2,0:0:0:0:
425,305,117295,53,2,0:0:0:0:
468,245,117412,5,2,0:0:0:0:
499,169,117530,53,2,0:0:0:0:
510,76,117648,5,2,0:0:0:0:
415,119,117765,53,2,0:0:0:0:
447,243,117883,6,2,B|444:281|444:281|352:341,1,144.000005493164,10|2,0:0|0:1,0:1:0:0:
372,194,118059,2,0,B|341:242|341:242|256:246,1,144.000005493164,2|0,0:1|0:0,0:0:0:0:
314,116,118236,2,0,B|250:161|250:161|201:115,1,144.000005493164,2|0,0:1|0:0,0:0:0:0:
294,20,118412,2,0,B|198:37|198:37|213:-6,1,144.000005493164,2|0,0:1|0:0,0:0:0:0:
17,132,118589,54,0,L|45:128,1,28.7999991210938,2|0,3:2|0:0,0:0:0:0:
96,65,118942,2,0,P|117:69|135:80,1,43.1999986816407,2|0,0:1|0:0,0:0:0:0:
293,261,119295,6,2,B|475:173|339:-50|247:-42|180:87|208:182|139:337|14:299|24:226|24:226|37:161|126:117|174:172|362:236|486:124|491:31|434:-86|268:-59|144:253|19:404|315:486|486:396|541:204|495:90|411:73,1,1800,10|0,0:0|0:1,0:1:0:0:
318,180,120706,6,2,B|253:188|222:300|283:383|390:372|480:284|503:199|388:216|387:148|485:81|574:98|600:166|551:296|506:365|374:389,1,772.800014739991,10|0,0:0|0:1,0:1:0:0:
174,383,121412,37,2,0:0:0:0:
179,370,121500,1,2,0:0:0:0:
185,345,121589,1,2,0:0:0:0:
189,299,121677,1,2,0:0:0:0:
180,237,121765,1,2,0:0:0:0:
147,163,121853,1,2,0:0:0:0:
89,98,121942,1,2,0:0:0:0:
8,56,122030,1,2,0:0:0:0:
0,160,122118,6,2,B|59:182|135:86|206:111,1,216.000008239746,8|0,0:1|0:0,0:1:0:0:
174,383,122471,53,2,0:0:0:0:
179,370,122589,5,2,0:0:0:0:
185,345,122706,53,2,0:0:0:0:
189,299,122824,5,2,0:0:0:0:
180,237,122942,53,2,0:0:0:0:
147,163,123059,5,2,0:0:0:0:
89,98,123177,53,2,0:0:0:0:
8,56,123295,5,2,0:0:0:0:
0,160,123412,53,2,0:0:0:0:
101,230,123530,6,2,L|132:89,1,144.000005493164,8|0,0:0|0:0,0:1:0:0:
228,235,123706,2,2,B|222:178|222:178|228:149|228:149|221:91,1,144.000005493164,2|0,0:1|0:1,0:1:0:0:
351,206,123883,2,0,B|325:158|325:158|336:126|336:126|307:68,1,144.000005493164,2|0,0:1|0:0,0:0:0:0:
462,146,124059,2,0,B|426:117|426:117|431:69|431:69|384:24,1,144.000005493164,2|0,0:1|0:0,0:0:0:0:
182,10,124236,54,0,L|179:30,1,14.3999995605469
173,8,124412,2,0,L|170:28,1,14.3999995605469
158,99,124589,2,0,B|170:137|193:116|205:159,1,72,2|0,0:0|0:0,0:0:0:0:
276,180,124942,6,0,B|364:174|355:234|113:160|113:160|32:136|4:174|-4:198|-4:198|-11:221|-7:258|5:286,1,480,8|0,0:0|0:0,0:0:0:0:
154,214,125471,2,0,B|96:164|457:268|401:217,1,288,0|0,3:0|0:0,0:0:0:0:
121,286,125824,2,0,B|103:288|89:290|72:291|64:296|66:302|81:305|100:300|117:298,1,96,2|0,0:0|0:0,0:0:0:0:
359,150,126000,2,0,B|402:99|311:414|355:365,1,252.000002403259,0|0,3:0|0:0,0:0:0:0:
195,350,126353,6,0,B|262:335|262:335|262:341|262:341|517:288,1,336,8|0,0:0|0:0,0:0:0:0:
405,119,127059,37,2,3:2:0:0:
389,115,127148,1,2,0:0:0:0:
360,111,127236,1,2,0:0:0:0:
313,117,127324,1,2,0:0:0:0:
257,140,127412,1,2,0:0:0:0:
195,183,127500,1,2,0:0:0:0:
137,252,127589,1,2,0:0:0:0:
103,348,127677,1,2,0:0:0:0:
62,222,127765,6,0,B|71:208|71:208|84:203|84:203|307:238,1,252.000002403259,8|0,0:0|0:0,0:0:0:0:
405,119,128118,53,2,3:2:0:0:
389,115,128236,5,2,0:0:0:0:
360,111,128353,53,2,0:0:0:0:
313,117,128471,5,2,0:0:0:0:
257,140,128589,53,2,0:0:0:0:
195,183,128706,5,2,0:0:0:0:
137,252,128824,53,2,0:0:0:0:
103,348,128942,5,2,0:0:0:0:
62,222,129059,53,2,0:0:0:0:
150,121,129177,6,2,P|178:137|195:183,1,84.0000008010864,10|2,0:0|0:1,0:1:0:0:
237,253,129353,5,2,0:1:0:0:
254,257,129442,1,2,0:1:0:0:
271,256,129530,1,2,0:1:0:0:
287,250,129618,1,2,0:1:0:0:
301,240,129706,1,2,0:1:0:0:
310,230,129795,1,2,0:1:0:0:
384,252,129883,38,0,B|371:245|371:245|361:248|361:248|303:227|153:219,1,235.199992822266,4|0,3:1|0:0,0:0:0:0:
172,299,130589,6,2,B|287:331|410:222|431:96|415:-13|347:-39|256:-36|143:19|70:57|7:143|-30:233|-38:299|-13:364|26:376|117:368|229:352|321:275|271:199|216:157|164:208|139:202|116:161|266:80|374:55|470:68|507:115|563:106|518:282|519:316|490:402|454:441|354:433|281:394|252:289|283:244|335:194|329:116|272:122|195:107|112:123|95:163|86:204,1,1800,10|0,0:0|0:1,0:1:0:0:
142,371,132000,6,2,B|300:414|480:327|453:59|417:-39|203:-49|152:64|202:137,1,772.800014739991,10|0,0:0|0:1,0:1:0:0:
347,3,132706,37,2,3:2:0:0:
339,13,132795,1,2,0:0:0:0:
320,30,132883,1,2,0:0:0:0:
286,54,132971,1,2,0:0:0:0:
244,77,133059,1,2,0:0:0:0:
182,99,133148,1,2,0:0:0:0:
104,114,133236,1,2,0:0:0:0:
9,118,133324,1,2,0:0:0:0:
56,234,133412,6,2,L|48:189,1,43.1999986816407,2|0,0:1|0:1,0:1:0:0:
0,107,133765,53,2,3:2:0:0:
9,118,133883,5,2,0:0:0:0:
104,114,134000,53,2,0:0:0:0:
182,99,134118,5,2,0:0:0:0:
244,77,134236,53,2,0:0:0:0:
286,54,134353,5,2,0:2:0:0:
320,30,134471,53,2,0:0:0:0:
339,13,134589,5,2,0:0:0:0:
347,3,134706,53,2,0:0:0:0:
256,11,134824,6,0,B|256:28|258:43|254:47|254:47|257:82|259:111|249:128|257:141|257:141|252:140|258:165|258:165|256:169|254:182|254:182|254:205|256:226|252:232|252:232|257:241|259:269|255:273|255:273|258:294|248:284|252:318|256:311|256:311|253:337|256:357,1,352.799989233399,2|0,0:0|0:0,0:0:0:0:
444,325,135530,54,0,B|469:283|482:325|512:278,2,86.3999973632813,0|2|2,3:0|0:0|0:0,0:0:0:0:
444,325,136236,1,2,0:3:0:0:
512,279,136589,54,0,P|399:305|222:372,1,268.799991796875,2|0,0:1|0:0,0:0:0:0:
255,356,137118,2,0,L|245:352,1,9.6,2|0,0:1|0:0,0:0:0:0:
170,346,137295,6,0,B|131:326|144:285|144:285|167:223|167:223|181:181|131:158,1,201.599993847656,2|0,0:3|0:0,0:0:0:0:
135,92,137648,54,0,B|105:100|77:86|77:86|89:118|75:149,1,115.199996484375,2|0,3:1|0:0,0:0:0:0:
488,45,138353,6,0,P|454:98|474:25,2,230.4,0|2|2,3:0|0:0|0:0,0:0:0:0:
426,176,139059,54,0,B|371:167|344:118|344:118|335:176|288:209,1,201.599993847656,0|0,0:3|0:0,0:0:0:0:
370,238,139412,2,0,L|374:256,1,19.2,2|0,0:1|0:0,0:0:0:0:
200,59,139942,6,0,L|202:68,1,9.6,2|0,0:1|0:0,0:0:0:0:
262,118,140118,2,0,B|204:97|104:144|112:174|174:216|179:108,1,201.599993847656,0|0,0:3|0:0,0:0:0:0:
58,124,140471,54,0,B|87:76|-24:37|-53:136|13:207|60:137|142:108|187:194|223:287|167:356|76:391|21:264|162:290,1,470.399985644532,2|0,0:3|0:0,0:0:0:0:
129,287,141177,6,0,B|59:306|39:245|60:233,2,115.2,0|2|2,3:0|0:0|0:0,0:0:0:0:
129,287,141883,1,2,0:3:0:0:
259,228,142236,54,0,B|201:206|131:252|142:328|142:328|123:345|97:321|112:308|112:308|136:276,1,268.799991796875,2|0,0:1|0:0,0:0:0:0:
129,286,142765,2,0,L|139:290,1,9.6,2|0,0:1|0:0,0:0:0:0:
227,306,142942,6,0,B|239:332|266:338|266:338|355:354|355:354|367:355|368:364|335:360|335:360|274:349,1,201.599993847656,0|0,3:0|0:0,0:0:0:0:
363,214,143295,2,0,B|364:232|379:242|379:242|430:271|430:271|437:274|436:280|416:270|416:270|382:250,1,153.6,2|0,3:0|0:0,0:0:0:0:
385,252,144000,54,0,B|347:258|311:237|308:190|308:190|304:138|263:116|217:130,2,230.4,0|2|2,3:0|0:0|0:0,0:0:0:0:
473,91,144706,2,0,B|466:74|466:74|388:86|387:199,1,153.6,2|0,3:0|0:0,0:0:0:0:
423,335,145059,6,0,B|397:368|397:368|401:380|401:380|432:290|377:244,1,192,2|0,0:1|0:0,0:0:0:0:
384,251,145589,54,0,B|355:255|355:255|352:261|352:261|331:265,1,57.5999982421876,2|0,0:1|0:0,0:0:0:0:
229,313,145765,2,0,B|225:284|225:284|219:281|219:281|215:260,1,57.5999982421876,0|0,3:0|0:0,0:0:0:0:
149,41,146118,6,0,L|158:38,5,9.6,2|2|2|2|2|2,0:3|0:3|0:3|0:3|0:3|0:3,0:0:0:0:
149,41,146648,38,0,L|131:115,1,76.8,2|2,0:1|0:1,0:0:0:0:
131,116,146824,22,2,B|240:110|275:206|275:206|251:172|211:173,1,259.199992089844,0|0,3:0|0:0,0:1:0:0:
296,295,147177,38,0,B|262:343|168:312|170:206|225:270,1,172.799994726563,0|0,3:0|0:0,0:0:0:0:
403,298,147530,2,0,B|360:321|376:367|376:367|399:276|520:271,1,230.4,8|0,0:0|0:0,0:0:0:0:
512,193,147883,22,0,B|506:154|506:154|484:198,1,76.8,2|0,0:1|0:0,0:0:0:0:
401,106,148059,2,0,B|429:184|312:276|258:165|315:133,1,230.4,0|0,3:0|0:0,0:0:0:0:
330,55,148412,38,0,B|359:39|357:13|293:3|335:70,1,76.8,2|0,0:1|0:0,0:0:0:0:
164,38,148589,2,0,L|186:137,1,86.3999973632813,0|0,3:0|0:0,0:0:0:0:
183,123,148942,22,0,B|54:188|54:188|42:209|42:209|97:181,1,230.4,8|0,0:0|0:0,0:0:0:0:
92,271,149295,2,0,B|221:206|221:206|233:185|233:185|178:213,1,230.4,2|0,0:0|0:0,0:0:0:0:
12,337,149648,38,0,P|145:299|315:294,1,287.999991210938,2|0,3:2|0:0,0:0:0:0:
328,223,150177,2,0,B|353:206|353:206|339:239,1,57.5999982421876,2|0,0:1|0:0,0:0:0:0:
295,293,150353,22,0,B|267:136|267:136|258:84|331:92|304:138|280:145,1,259.199992089844,8|0,0:0|0:0,0:0:0:0:
346,356,150706,38,0,B|319:383|266:371|266:371|340:404|401:320,1,230.39999296875,2|0,3:1|0:0,0:0:0:0:
412,194,151236,2,0,B|412:232|457:261|457:261|382:232|398:129,1,230.39999296875,2|0,3:1|0:0,0:0:0:0:
463,101,151677,1,0,0:0:0:0:
476,123,151765,22,0,B|489:56|489:56|496:20|453:-5|420:15|414:50|414:50|395:143|395:143|388:197|340:190|310:173|325:120|325:120|335:71|335:71|340:44|328:7|289:-8|289:-8|325:-2,1,604.799981542969,8|0,0:0|0:0,0:0:0:0:
258,65,152471,38,0,B|184:96|184:96|149:108|108:69,1,144,2|0,3:1|0:0,0:0:0:0:
44,90,152648,22,0,B|86:72|86:72|106:65|129:87,1,86.3999973632813,2|0,0:1|0:0,0:0:0:0:
94,153,152824,38,0,L|123:209,1,54.0000020599366,2|0,0:1|0:0,0:0:0:0:
98,195,153000,22,0,L|81:164,1,28.8,2|0,0:1|0:0,0:0:0:0:
171,264,153177,38,0,B|111:197|53:151|-45:262|48:338|107:259,1,259.199992089844,8|0,0:0|0:0,0:0:0:0:
11,361,153530,22,0,P|17:321|93:285,1,115.199996484375,2|0,0:1|0:0,0:0:0:0:
241,169,153883,38,0,B|281:196|281:196|225:177,1,76.8,0|0,3:0|0:0,0:0:0:0:
382,149,154059,22,0,B|458:158|458:158|485:109|485:109|219:174,1,384,2|0,0:1|0:0,0:0:0:0:
232,34,154589,38,0,B|152:62|159:159|159:159|165:118|216:92,1,230.4,8|0,0:0|0:0,0:0:0:0:
12,145,154942,2,0,P|83:196|93:288,1,153.6,2|0,0:0|0:0,0:0:0:0:
452,370,155295,22,0,B|393:248|393:248|305:240|305:240|344:323,1,287.999991210938,2|0,3:2|0:0,0:0:0:0:
250,320,155824,38,0,B|308:319|271:300|367:296,1,86.3999973632813,0|0,3:0|0:0,0:0:0:0:
498,166,156000,2,0,B|427:131|427:131|500:279,1,230.4,8|0,0:0|0:0,0:0:0:0:
453,371,156353,22,0,B|382:413|337:362|359:349|304:290|243:323,1,230.39999296875,2|0,3:1|0:0,0:0:0:0:
152,138,156883,2,0,B|225:81|92:67|75:135|91:247|161:262|222:229,1,287.999991210938,2|0,3:1|0:0,0:0:0:0:
289,219,157412,38,0,B|308:286|250:320|250:320|279:280,1,153.6,8|0,0:0|0:0,0:0:0:0:
320,131,157677,21,2,0:0:0:0:
323,138,157765,1,2,0:0:0:0:
326,145,157853,2,0,L|382:128,2,57.5999982421876,2|2|2,0:0|0:0|0:0,0:0:0:0:
205,236,158118,38,2,L|10:281,1,172.799994726563,0|0,3:0|0:0,0:1:0:0:
0,125,158383,1,2,0:1:0:0:
82,129,158471,21,2,3:2:0:0:
88,135,158559,1,2,0:0:0:0:
90,144,158648,1,2,0:0:0:0:
85,153,158736,1,2,0:0:0:0:
78,155,158824,2,0,B|97:95|183:28|280:72|217:165,1,259.199992089844,8|0,0:0|0:0,0:0:0:0:
212,249,159177,38,0,B|174:226|174:226|212:238,1,76.8,2|0,0:1|0:0,0:0:0:0:
290,230,159353,2,0,P|416:177|415:67,1,230.4,0|0,3:0|0:0,0:0:0:0:
388,25,159706,22,0,B|365:-13|365:-13|377:25,1,76.8,2|0,0:1|0:0,0:0:0:0:
426,96,159883,2,0,L|512:63,1,86.3999973632813
446,191,160236,38,0,B|504:154|504:154|469:166|469:166|427:308,1,230.4,8|0,0:0|0:0,0:0:0:0:
326,304,160589,2,0,B|355:366|355:366|332:337|332:337|371:194,1,230.4,2|0,0:0|0:0,0:0:0:0:
362,126,160942,22,0,B|333:85|333:85|346:132,1,76.8,0|0,3:0|0:0,0:0:0:0:
210,212,161118,2,0,P|250:192|298:187,1,76.8,2|0,0:1|0:0,0:0:0:0:
506,65,161295,38,0,P|441:46|407:-3,1,96,2|0,0:1|0:0,0:0:0:0:
252,45,161471,2,0,B|217:94|217:94|235:36,1,96,2|0,0:1|0:0,0:0:0:0:
364,216,161648,21,8,0:0:0:0:
364,216,162000,38,0,B|412:284|400:358|342:376|302:356|290:316,1,230.39999296875,2|0,3:1|0:0,0:0:0:0:
0,166,162530,2,0,B|69:198|172:224|91:155|179:150|242:182|233:265,1,287.999991210938,2|0,3:1|0:0,0:0:0:0:
292,322,163059,22,0,B|426:411|491:384|467:196|385:185|347:344|250:274|244:147|302:77|371:79|463:138|388:241,1,604.799981542969,8|0,0:0|0:0,0:0:0:0:
233,253,163765,38,0,B|153:284|153:284|125:295|100:265,1,129.599996044922,2|0,3:1|0:0,0:0:0:0:
44,293,163942,22,0,B|90:274|90:274|106:268|121:286,1,72,2|0,0:1|0:0,0:0:0:0:
127,165,164118,38,0,L|137:199,1,36,2|0,0:1|0:0,0:0:0:0:
127,165,164295,22,2,L|92:30,1,110.400002105713,2|2,0:1|0:1,0:1:0:0:
310,2,164471,38,0,B|225:9|191:68|191:68|238:17|311:22,1,259.199992089844,8|0,0:0|0:0,0:0:0:0:
415,50,164824,22,0,P|432:82|408:51,1,115.199996484375,2|0,0:1|0:0,0:0:0:0:
298,311,165177,38,0,P|281:323|307:316,1,76.8,0|0,3:0|0:0,0:0:0:0:
344,202,165353,22,2,B|392:223|415:116|320:101|262:170|332:205|368:278|294:329|212:373|142:329|99:249|210:184|202:317,1,431.999986816407,2|0,0:1|0:0,0:1:0:0:
0,234,165883,38,2,B|89:216|140:334|94:400|44:393|83:314,1,259.199992089844,8|0,0:0|0:0,0:0:0:0:
139,167,166236,2,0,P|80:155|75:45,1,172.799994726563,2|0,0:0|0:0,0:0:0:0:
512,179,166589,22,0,B|454:145|466:65|466:65|358:73|381:187,1,287.999991210938,0|0,3:0|0:0,0:0:0:0:
482,342,167118,38,0,P|504:365|498:333,1,86.3999973632813,2|0,0:0|0:0,0:0:0:0:
222,166,167295,2,0,B|351:192|351:192|427:210|448:289,1,259.199992089844,8|0,0:0|0:0,0:0:0:0:
323,372,167648,22,0,B|286:302|346:241|359:290|394:236|377:164,1,230.39999296875,2|0,3:1|0:0,0:0:0:0:
141,51,168177,38,0,P|173:71|183:105,2,57.5999982421876,2|2|2,3:1|0:0|0:0,0:0:0:0:
26,147,168442,2,2,P|58:127|68:93,2,57.5999982421876
55,260,168706,21,10,0:0:0:0:
95,219,168795,1,2,0:0:0:0:
145,191,168883,1,2,0:0:0:0:
201,179,168971,1,2,0:0:0:0:
269,216,169059,53,2,0:1:0:0:
267,228,169148,1,2,0:1:0:0:
259,235,169236,1,2,0:1:0:0:
250,239,169324,1,2,0:1:0:0:
201,179,169412,54,0,B|306:182|343:281|343:281|324:176|409:107,2,384,2|0|8,3:2|3:0|0:0,0:0:0:0:
481,310,170471,2,0,B|506:308|522:327|522:327|437:315|383:373,1,180,2|0,0:0|0:0,0:0:0:0:
396,359,170824,6,0,P|382:320|415:286,1,72.0000027465821,2|0,0:0|0:0,0:0:0:0:
236,206,171000,2,0,P|277:209|294:254,1,72.0000027465821,2|0,0:0|0:0,0:0:0:0:
444,29,171177,54,0,B|484:-14|404:-28|385:74|454:115,1,162.720000496582,0|0,3:0|0:0,0:0:0:0:
512,159,171530,6,0,P|452:210|347:181,1,168.000001602173,8|0,0:0|0:0,0:0:0:0:
184,338,171883,2,0,B|141:352|141:352|133:346|133:346|93:360,1,96,2|0,0:0|0:0,0:0:0:0:
87,90,172236,54,0,B|57:63|32:85|10:95|-2:123|-6:178|37:199|89:191|119:164|111:106|61:92,1,288,2|0,3:2|0:0,0:0:0:0:
213,38,172589,6,0,B|211:17|195:16|184:12|169:18|149:36|156:58|177:74|198:75|215:52|203:29,1,144,2|0,0:0|0:0,0:0:0:0:
322,35,172942,54,0,B|351:33|374:61|336:72|378:114|401:85|370:69,1,96,10|0,0:0|0:0,0:0:0:0:
492,115,173118,6,0,P|455:148|448:198,1,72.0000027465821,2|0,0:0|0:0,0:0:0:0:
257,156,173295,2,0,B|323:117|407:201|363:307,1,216.000008239746,0|0,3:0|0:0,0:0:0:0:
307,339,173648,54,0,B|322:329|290:318|267:336|273:363|295:374|315:366|316:341,1,96,2|0,0:0|0:0,0:0:0:0:
85,211,174000,6,0,B|133:244|35:277|-34:223|-18:139|51:106|110:132|115:207,1,288,2|0,0:0|0:0,0:0:0:0:
167,364,174353,54,0,B|167:344|149:327|149:327|146:349|160:360|202:361,1,96,8|0,0:0|0:0,0:0:0:0:
315,343,174530,2,0,B|286:387|231:382|240:317|312:291|323:359|370:352|423:308|426:208|326:199|293:253,1,336.000003204346,2|0,0:0|0:0,0:0:0:0:
84,20,175059,6,0,B|125:61|125:61|151:90|140:112|111:92|125:61,1,108.000004119873,0|0,3:0|0:0,0:0:0:0:
218,114,175412,2,2,B|97:173|169:103|46:169,1,180,0|0,3:1|0:0,0:1:0:0:
0,75,175765,54,0,B|-36:159|25:201|25:201|81:189|141:229|108:321,1,288,8|0,0:0|0:0,0:0:0:0:
62,341,176118,2,0,P|38:303|46:264,1,72.0000027465821,2|0,0:0|0:0,0:0:0:0:
201,225,176295,6,0,B|215:200|245:216|272:181,1,72.0000027465821,2|0,0:0|3:0,0:0:0:0:
262,191,176648,2,0,L|268:168,1,24,2|0,0:0|0:0,0:0:0:0:
304,59,176824,54,0,P|327:88|369:106,1,72.0000027465821,2|0,0:0|0:0,0:0:0:0:
369,0,177000,2,0,P|401:34|421:20,1,72.0000027465821,2|0,0:0|0:0,0:0:0:0:
512,146,177177,6,0,P|439:158|392:251,1,168.000001602173,8|0,0:0|0:0,0:0:0:0:
212,360,177530,2,0,B|199:388|169:381|169:381|193:371|203:344,1,96,2|0,0:0|0:0,0:0:0:0:
344,342,177883,54,0,B|281:315|275:275|323:275|339:296|320:346,1,144,2|0,3:2|0:0,0:0:0:0:
240,228,178236,6,0,B|277:231|274:266|233:270|243:224,1,72.0000027465821,2|0,0:0|0:0,0:0:0:0:
148,137,178412,2,0,B|200:134|195:190|130:197|154:124,1,96,2|0,0:0|0:0,0:0:0:0:
63,4,178589,54,0,B|67:29|101:41|101:41|79:18|77:-10,1,96,8|0,0:0|0:0,0:0:0:0:
241,70,178765,2,0,B|188:72|193:16|258:9|235:83,1,96,2|0,0:0|0:0,0:0:0:0:
329,117,178942,2,0,B|366:113|363:78|322:74|332:120,1,72.0000027465821,0|0,3:0|0:0,0:0:0:0:
512,100,179118,6,0,B|526:73|491:62|425:63|441:153|506:110,1,144.000005493164,2|0,0:1|0:0,0:0:0:0:
512,248,179295,54,0,P|443:204|362:197,1,144.000005493164,2|0,0:0|3:0,0:0:0:0:
274,348,179648,6,0,B|224:329|223:266|240:241|313:236|313:283,1,162.720000496582,2|0,0:0|0:0,0:0:0:0:
382,195,180000,54,0,B|400:255|400:255|407:283|394:303|366:290|377:264,1,96,10|0,0:0|0:0,0:0:0:0:
505,339,180177,2,0,P|472:354|450:382,1,72.0000027465821,2|0,0:0|0:0,0:0:0:0:
274,348,180353,2,0,B|212:362|224:337|185:349|185:349|169:357|169:357|150:356|150:356|136:367|136:367|116:363|116:363|99:380|99:380|79:381|79:381|48:385,1,216.000008239746,2|0,0:0|0:0,0:0:0:0:
54,248,180706,6,0,B|-21:296|20:380|132:383|164:295|190:177|68:157,2,384,0|0|8,3:0|3:0|0:0,0:0:0:0:
368,70,181765,2,0,B|395:57|387:31|354:23|344:63|344:63|315:178,1,180,2|0,0:0|0:0,0:0:0:0:
322,155,182118,54,0,P|339:201|370:212,1,72.0000027465821,2|0,0:0|0:0,0:0:0:0:
435,296,182295,2,0,P|480:279|491:248,1,72.0000027465821,2|0,0:0|0:0,0:0:0:0:
239,376,182471,6,0,B|222:316|265:279|313:279|341:355,1,162.720000496582,2|0,3:2|0:0,0:0:0:0:
484,379,182824,54,0,P|413:337|308:333,1,168.000001602173,8|0,0:0|0:0,0:0:0:0:
41,309,183177,2,0,P|17:321|50:316,1,96,2|0,0:0|0:0,0:0:0:0:
91,200,183530,6,0,B|88:160|9:163|9:163|104:205|139:299,1,288,2|0,3:2|0:0,0:0:0:0:
223,323,183883,54,0,B|242:309|217:270|217:270|224:331|186:376,1,144,2|0,0:0|0:0,0:0:0:0:
329,329,184236,6,0,B|358:331|381:303|343:292|385:250|408:279|377:295,1,96,8|0,0:0|0:0,0:0:0:0:
499,249,184412,54,0,P|462:216|455:166,1,72.0000027465821,2|0,0:0|0:0,0:0:0:0:
264,208,184589,2,0,B|330:247|414:163|370:57,1,216.000008239746,0|0,3:0|0:0,0:0:0:0:
274,39,184942,6,0,B|254:25|279:-13|279:-13|272:47|310:92,1,144,2|0,0:0|0:0,0:0:0:0:
378,82,185295,54,0,B|381:42|460:45|460:45|365:87|330:181,1,288,2|0,0:0|0:0,0:0:0:0:
136,194,185648,6,0,B|143:214|118:231|118:231|115:209|129:198|171:197,1,96,8|0,0:0|0:0,0:0:0:0:
245,135,185824,2,0,B|216:91|161:96|170:161|242:187|253:119|300:126|353:170|356:270|256:279|223:225,1,336.000003204346,2|0,0:0|0:0,0:0:0:0:
54,371,186353,54,0,B|48:323|-13:300|7:266|35:294,1,108.000004119873,0|0,3:0|0:0,0:0:0:0:
23,286,186706,2,2,B|57:301|126:291|179:334|194:371,1,180,0|0,0:0|0:0,0:1:0:0:
133,231,187059,6,0,B|86:237|81:193|167:179|210:109|221:51|156:14|99:42,1,288,8|0,0:0|0:0,0:0:0:0:
49,120,187412,2,0,B|59:137|40:147|3:128|14:102|41:115,1,72.0000027465821,2|0,0:0|0:0,0:0:0:0:
310,87,187589,54,0,B|272:69|255:54|289:34|335:54|340:91|325:109,1,108.000004119873,2|0,0:0|0:0,0:0:0:0:
329,81,187942,2,0,L|322:117,1,24,2|0,0:0|0:0,0:0:0:0:
502,240,188118,6,0,P|479:211|437:193,1,72.0000027465821,2|0,3:2|0:0,0:0:0:0:
437,299,188295,2,0,P|405:265|385:279,1,72.0000027465821,2|0,0:0|0:0,0:0:0:0:
324,104,188471,54,0,P|373:178|477:160,1,168.000001602173,2|0,3:0|0:0,0:0:0:0:
247,364,188824,2,0,B|250:326|206:322|206:322|233:353,1,96,2|0,0:0|0:0,0:0:0:0:
47,265,189177,6,0,B|28:251|53:212|53:212|46:273|84:318,1,144,0|0,3:0|0:0,0:0:0:0:
109,136,189530,54,0,B|89:133|81:170|81:170|113:130|160:126,1,72.0000027465821,2|0,0:0|0:0,0:0:0:0:
210,75,189706,2,0,B|197:70|186:94|186:94|213:71|247:76,1,96,2|0,0:0|0:0,0:0:0:0:
380,44,189883,6,0,B|384:19|418:7|418:7|396:30|394:58,1,96,2|0,3:0|0:0,0:0:0:0:
382,178,190059,2,0,B|377:190|401:201|401:201|378:174|383:140,1,96,2|0,0:0|0:0,0:0:0:0:
474,317,190236,2,0,B|454:319|446:282|446:282|478:322|525:326,1,72.0000027465821,2|0,0:0|0:0,0:0:0:0:
316,294,190412,54,0,B|335:280|310:241|310:241|317:302|278:349,1,144.000005493164,2|0,0:1|0:0,0:0:0:0:
166,355,190589,6,0,B|194:382|262:362|217:335|260:314|350:324,1,144.000005493164,2|0,0:0|0:0,0:0:0:0:
512,182,190942,54,0,B|437:153|434:57|499:57|473:122,1,162.720000496582,0|0,3:0|0:0,0:0:0:0:
392,206,191295,6,0,B|381:242|381:242|381:259|392:245|392:245|405:201,1,96,2|0,0:3|0:0,0:0:0:0:
367,40,191471,2,0,B|358:11|358:11|358:-1|367:9|367:9|377:43,1,72.0000027465821,2|0,0:0|0:0,0:0:0:0:
275,77,191648,54,0,B|178:108|178:108|142:122|147:163,1,144,0|0,3:0|0:0,0:0:0:0:
149,222,192000,21,0,3:0:0:0:
213,178,192177,1,2,0:0:0:0:
21,30,192353,2,0,P|60:71|47:138,1,96
81,276,192706,54,0,B|87:220|151:189|191:212|191:212|148:215|125:238,1,192,2|0,0:0|0:0,0:0:0:0:
188,289,193236,2,0,B|176:330|176:330|159:328|159:328|174:280,1,96,2|0,0:0|0:0,0:0:0:0:
148,221,193589,1,0,0:0:0:0:
419,185,193765,6,0,P|318:183|280:286,1,192,2|0,0:0|0:0,0:0:0:0:
345,349,194295,53,0,0:0:0:0:
409,307,194471,1,2,0:0:0:0:
450,371,194648,1,0,0:0:0:0:
276,253,194824,6,0,B|266:195|266:195|271:198|271:198|260:139,1,115.199996484375,2|2,0:3|0:0,0:0:0:0:
195,107,195177,1,2,0:3:0:0:
498,195,195353,1,0,0:0:0:0:
482,122,195530,54,0,P|377:133|367:243,1,230.39999296875,2|0,3:2|0:0,0:0:0:0:
409,307,196059,1,0,0:0:0:0:
195,107,196236,6,0,P|250:112|275:161,1,115.199996484375,2|2,0:3|0:1,0:0:0:0:
231,227,196589,2,0,P|186:226|156:146,1,115.199996484375,0|2,3:0|0:0,0:0:0:0:
107,6,196942,53,2,3:1:0:0:
27,150,197118,1,0,0:0:0:0:
95,107,197295,5,2,0:0:0:0:
41,50,197471,1,2,0:1:0:0:
250,10,197648,54,0,B|242:71|204:44|193:109,1,115.199996484375,0|2,3:0|0:0,0:0:0:0:
242,170,198000,1,0,3:0:0:0:
367,90,198177,5,0,0:0:0:0:
501,177,198353,2,0,B|451:140|493:119|442:77,1,115.199996484375,2|2,3:2|0:0,0:0:0:0:
376,239,198706,53,2,3:2:0:0:
233,311,198883,2,0,B|289:286|285:333|347:310,1,115.199996484375,2|2,0:0|0:0,0:0:0:0:
91,219,199236,5,0,0:0:0:0:
150,171,199412,2,0,P|142:228|129:284,1,115.199996484375,2|0,3:2|0:0,0:0:0:0:
77,97,199765,53,0,3:0:0:0:
216,63,199942,1,2,0:0:0:0:
138,45,200118,1,2,3:2:0:0:
248,136,200295,1,2,0:0:0:0:
129,284,200471,6,0,B|66:306|66:306|78:279|78:279|137:265,1,115.199996484375,0|2,3:0|0:0,0:0:0:0:
221,357,200824,1,0,3:0:0:0:
142,372,201000,1,2,0:0:0:0:
82,188,201177,54,0,P|192:213|218:285,1,172.799994726563,2|0,3:1|0:0,0:0:0:0:
215,259,201530,2,0,B|264:268|264:268|276:286|276:286|328:296,1,115.199996484375,0|2,3:0|0:0,0:0:0:0:
457,330,201883,5,0,3:0:0:0:
402,280,202059,1,2,0:0:0:0:
377,379,202236,1,0,3:0:0:0:
481,232,202412,1,2,0:0:0:0:
215,259,202589,54,0,L|242:70,1,172.799994726563,2|0,3:2|0:0,0:0:0:0:
239,87,202942,2,0,B|304:72|262:40|331:20,1,115.199996484375,0|2,3:0|0:0,0:0:0:0:
481,47,203295,54,0,P|402:62|394:102,1,115.2,4|0,3:1|0:0,0:0:0:0:
435,154,203648,6,0,B|453:176|453:176|445:184|445:184|433:165,1,57.6,2|0,0:3|0:0,0:0:0:0:
353,213,204000,54,0,B|359:252|359:252|344:256|344:256|342:224,1,86.3999973632813,2|0,0:3|0:0,0:0:0:0:
252,225,204353,6,0,B|233:274|233:274|213:268|213:268|232:231,1,115.2,2|0,0:3|0:0,0:0:0:0:
253,81,204706,54,0,B|275:76|284:61|238:43|255:74,1,57.6,0|0,3:0|0:0,0:0:0:0:
150,69,205059,6,0,B|176:45|176:19|103:30|147:58,1,86.3999973632813,2|0,0:3|0:0,0:0:0:0:
57,120,205412,54,0,B|74:70|53:35|-32:105|46:108,1,115.2,2|0,0:3|0:0,0:0:0:0:
81,202,205765,5,2,0:3:0:0:
96,199,205853,1,2,0:3:0:0:
111,202,205942,1,2,0:3:0:0:
124,210,206030,1,2,0:3:0:0:
131,223,206118,54,0,P|67:260|63:312,1,115.2,0|0,3:0|0:0,0:0:0:0:
157,353,206471,6,0,B|152:328|152:328|141:326|141:326|140:297,1,57.6,2|0,0:3|0:0,0:0:0:0:
250,276,206824,54,0,B|262:239|262:239|249:230|249:230|270:192,1,86.3999973632813,2|0,0:3|0:0,0:0:0:0:
372,246,207177,6,0,B|415:208|415:208|405:186|405:186|460:152,1,115.2,2|0,0:3|0:0,0:0:0:0:
512,46,207530,54,0,B|500:38|492:22|492:22|486:45|474:60,1,57.6,0|0,3:0|0:0,0:0:0:0:
410,93,207883,6,0,B|389:91|367:77|367:77|375:111|372:139,1,86.3999973632813,2|0,0:3|0:0,0:0:0:0:
434,167,208236,53,2,0:3:0:0:
372,246,208412,1,2,0:3:0:0:
293,153,208589,2,0,B|266:165|230:163|230:163|264:199|279:235,1,115.2,0|0,3:0|0:0,0:0:0:0:
433,330,208942,6,0,B|438:322|438:322|411:323,1,19.2,0|0,1:0|0:0,0:0:0:0:
372,246,209118,2,0,B|372:232|372:232|340:252,1,28.7999991210938,0|0,1:0|0:0,0:0:0:0:
262,203,209295,2,0,B|253:186|253:186|228:233,1,38.4,2|0,0:3|0:0,0:0:0:0:
134,235,209471,2,0,B|115:223|115:223|117:287,1,48,2|0,0:3|0:0,0:0:0:0:
17,264,209648,54,0,B|9:259|9:259|32:246,1,19.2,0|0,1:0|0:0,0:0:0:0:
28,160,209824,2,0,B|20:148|20:148|59:150,1,28.7999991210938,0|0,1:0|0:0,0:0:0:0:
102,68,210000,2,0,B|101:49|101:49|146:77,1,38.4,2|0,0:3|0:0,0:0:0:0:
230,38,210177,2,0,B|240:19|240:19|270:74,1,48,2|0,0:3|0:0,0:0:0:0:
449,51,210353,5,2,0:3:0:0:
429,48,210442,1,2,0:3:0:0:
410,55,210530,1,2,0:3:0:0:
398,70,210618,1,2,0:3:0:0:
390,87,210706,1,2,0:3:0:0:
378,103,210795,1,2,0:3:0:0:
361,112,210883,1,2,0:3:0:0:
341,110,210971,1,2,0:3:0:0:
271,224,211236,54,0,P|267:212|261:201,11,24,0|0|0|0|0|0|0|0|0|0|0|0,1:0|1:0|1:0|1:0|1:0|1:0|1:0|1:0|1:0|1:0|1:0|1:0,1:0:0:0:
291,236,211765,5,0,3:0:0:0:
256,192,211809,12,0,213000,0:0:0:0:
487,82,213177,6,0,B|399:110|459:144|375:173,1,144,0|0,3:0|0:0,0:0:0:0:
313,136,213530,2,0,P|357:178|312:262,1,144,2|0,1:3|0:0,0:0:0:0:
265,279,213883,1,0,1:0:0:0:
265,279,214059,54,0,L|221:293,1,28.7999991210938,2|0,1:3|0:0,0:0:0:0:
265,279,214236,2,0,L|221:265,1,28.7999991210938,2|0,3:0|0:0,0:0:0:0:
171,165,214412,6,0,B|175:181|173:202|173:202|188:188|209:182,1,76.8,0|0,3:0|0:0,0:0:0:0:
228,41,214589,22,2,B|118:101|118:101|77:63|77:63|73:24|73:24|122:72,1,288,2|0,3:1|0:1,0:1:0:0:
122,72,214942,38,2,L|120:87,1,14.4,0|0,0:0|0:0,0:1:0:0:
121,87,215295,38,2,B|104:30|19:-2|-15:13|-32:77|20:98|20:98|78:124|61:189|61:189|48:244|141:264|144:172|144:172|190:220|181:276|159:298,1,633.599980664063,8|0,0:0|0:0,0:1:0:0:
82,363,215824,2,2,B|98:327|139:325|139:325|266:320|266:320|311:318|323:283,1,264.000008056641,0|0,3:0|0:0,0:1:0:0:
420,287,216353,54,0,B|484:282|526:369|447:421|383:362|398:306|398:306|411:257|378:219|331:214,1,345.599989453125,0|0,3:0|0:0,0:0:0:0:
350,218,216706,2,0,B|355:196|355:196|287:169|287:169|291:150,1,115.199996484375,10|0,0:0|0:0,0:0:0:0:
450,30,216883,5,2,0:0:0:0:
423,52,216971,1,2,0:0:0:0:
349,81,217059,1,2,0:0:0:0:
293,63,217148,1,2,0:0:0:0:
219,92,217236,1,2,0:0:0:0:
214,105,217324,1,2,0:0:0:0:
161,160,217412,54,2,B|158:158|158:158|157:158|157:158|156:157|156:157|155:156|155:156|154:155|154:155|153:155|153:155|152:154|152:154|150:154|150:154|149:152|149:152|148:152|148:152|148:150|148:150|146:150|146:150|145:150|145:150|143:150|143:150|143:148|143:148|142:148|142:148|141:146|141:146|139:146|139:146|138:145|138:145|137:146|137:146|136:144|136:144|135:143|135:143|134:142|134:142|132:142|132:142|132:141|132:141|130:141|130:141|129:140|129:140|128:139|128:139|128:137|128:137|126:137|126:137|125:137|125:137|123:137|123:137|122:135|122:135|121:133|121:133|119:133|119:133|118:133|118:133|116:133|116:133|116:131|116:131|115:130|115:130|114:129|114:129|112:129|112:129|111:128|111:128|111:130|111:130|109:131|109:131|108:132|108:132|108:134|108:134|107:134|107:134|107:136|107:136|106:137|106:137|104:140|104:140|105:138|105:138|104:139|104:139|104:140|104:140|104:139|104:139|104:137|104:137|105:136|105:136|105:135|105:135|106:133|106:133|106:132|106:132|106:131|106:131|105:129|105:129|106:128|106:128|107:127|107:127|108:126|108:126|107:124|107:124|107:123|107:123|107:121|107:121|108:120|108:120|108:119|108:119|109:118|109:118|109:116|109:116|109:115|109:115|108:113|108:113|110:112|110:112|110:111|110:111|111:110|111:110|110:108|110:108|111:107|111:107|110:106|110:106|111:104|111:104|111:103|111:103|113:102|113:102|112:100|112:100|112:99|112:99|111:98|111:98|113:97|113:97|113:96|113:96|114:94|114:94|113:93|113:93|114:92|114:92|113:90|113:90|114:89|114:89|114:88|114:88|116:86|116:86|115:85|115:85|115:84|115:84|115:82|115:82|116:81|116:81|116:80|116:80|117:79|117:79|117:77|117:77|117:76|117:76|116:74|116:74|117:73|117:73|118:72|118:72|119:71|119:71|118:69|118:69|118:68|118:68|118:66|118:66|119:65|119:65|119:64|119:64|121:63|121:63|120:61|120:61|120:60|120:60|119:58|119:58|121:57|121:57|121:55|121:55|120:53|120:53|118:54|118:54|118:53|118:53|116:53|116:53|116:52|116:52|115:52|115:52|114:50|114:50|112:50|112:50|111:50|111:50|110:50|110:50|109:48|109:48|108:48|108:48|107:46|107:46|105:46|105:46|104:46|104:46|103:46|103:46|102:44|102:44|101:44|101:44|100:42|100:42|98:42|98:42|97:42|97:42|96:42|96:42|95:40|95:40|94:40|94:40|93:38|93:38|91:38|91:38|90:38|90:38|89:38|89:38|88:36|88:36|87:36|87:36|86:34|86:34|84:35|84:35|84:34|84:34|82:34|82:34|81:33|81:33|80:32|80:32|79:30|79:30|77:31|77:31|77:30|77:30|75:30|75:30|74:29|74:29|73:28|73:28|72:27|72:27|70:27|70:27|70:26|70:26|68:26|68:26|67:25|67:25|66:24|66:24|65:23|65:23|63:23|63:23|63:22|63:22|61:22|61:22|60:21|60:21|59:20|59:20|58:19|58:19|56:19|56:19|53:17|53:17|56:18|56:18|54:19|54:19|53:17|53:17|52:18|52:18|50:18|50:18|50:20|50:20|49:20|49:20|49:22|49:22|47:22|47:22|46:23|46:23|44:23|44:23|44:25|44:25|43:25|43:25|43:27|43:27|41:27|41:27|40:28|40:28|38:28|38:28|38:30|38:30|37:31|37:31|37:32|37:32|35:33|35:33|34:33|34:33|32:34|32:34|32:35|32:35|31:36|31:36|31:38|31:38|29:38|29:38|28:39|28:39|26:39|26:39|26:40|26:40|25:41|25:41|25:43|25:43|23:43|23:43|22:44|22:44|20:44|20:44|20:46|20:46|19:46|19:46|19:48|19:48|17:48|17:48|16:49|16:49|14:49|14:49|14:51|14:51|13:52|13:52|13:53|13:53|11:54|11:54|10:54|10:54|8:54|8:54|8:56|8:56|7:57|7:57|6:59|6:59|5:59|5:59|4:60|4:60|2:60|2:60|2:62|2:62|-1:64|-1:64|1:62|1:62|0:64|0:64|-1:64|-1:64|0:65|0:65|0:67|0:67|2:68|2:68|4:69|4:69|4:71|4:71|4:72|4:72|4:73|4:73|6:74|6:74|7:75|7:75|8:76|8:76|8:77|8:77|9:78|9:78|9:80|9:80|11:81|11:81|13:82|13:82|13:84|13:84|14:86,1,421.612326271011,0|0,3:0|0:0,0:1:0:0:
15,86,217765,38,2,B|12:88|12:88|13:90|13:90|11:89|11:89|12:91|12:91|11:92|11:92|11:93|11:93|9:93|9:93|10:95|10:95|10:97|10:97|11:99|11:99|8:98|8:98|9:99|9:99|8:100|8:100|8:102|8:102|8:102|8:102|8:104|8:104|8:104|8:104|8:106|8:106|6:105|6:105|7:108|7:108|7:109|7:109|7:111|7:111|5:110|5:110|5:112|5:112|4:115|4:115|5:113|5:113|5:114|5:114|4:114|4:114|4:115|4:115|6:116|6:116|7:116|7:116|6:119|6:119|7:119|7:119|8:120|8:120|10:121|10:121|8:122|8:122|10:122|10:122|10:123|10:123|12:123|12:123|11:125|11:125|13:125|13:125|13:126|13:126|15:127|15:127|14:128|14:128|16:128|16:128|16:129|16:129|19:129|19:129|16:130|16:130|20:131|20:131|20:133|20:133|22:133|22:133|20:135|20:135|21:135|21:135|23:135|23:135|25:136|25:136|23:137|23:137|24:138|24:138|28:140|28:140|26:139|26:139|27:139|27:139|26:140|26:140|28:140|28:140|28:141|28:141|29:143|29:143|26:144|26:144|28:144|28:144|27:147|27:147|29:148|29:148|27:148|27:148|27:150|27:150|27:151|27:151|29:152|29:152|27:152|27:152|27:154|27:154|28:155|28:155|28:158|28:158|26:157|26:157|27:159|27:159|28:160|28:160|28:161|28:161|26:161|26:161|27:162|27:162|25:176,1,168,0|0,3:0|0:0,0:1:0:0:
68,299,218118,38,0,B|155:374|274:353|357:302|345:267|304:253|272:255|258:262|242:271|229:276|214:277|187:276|170:259|172:246|186:224|194:213|234:158|256:163|294:169|343:181|338:210|368:224|394:252|370:128|305:140,1,633.599980664063,8|0,0:0|0:0,0:0:0:0:
338,149,218648,2,0,B|418:154|457:96|468:69|476:4|430:-15|388:-48|308:5|297:125|363:157,1,422.4,0|0,3:0|0:0,0:0:0:0:
343,141,219177,21,2,1:3:0:0:
63,95,219353,1,2,0:3:0:0:
126,41,219530,22,2,P|142:64|146:92,3,57.5999982421876,10|2|2|2,0:1|0:1|0:1|0:1,0:1:0:0:
115,165,219706,2,2,B|170:91|295:80|344:141|344:141|251:179|244:308|368:335|372:228|372:228|403:286|476:280,1,633.599980664063,0|0,0:0|0:0,0:1:0:0:
442,279,220236,38,0,B|508:314|545:233|394:225|478:346|342:368,1,230.4,0|0,3:0|0:0,0:0:0:0:
39,188,220589,2,2,B|17:148|54:115|54:115|111:117|115:173,1,168,0|0,3:0|0:0,0:1:0:0:
125,263,220942,38,2,B|48:321|69:414|186:453|305:337|275:231|155:306|158:129|272:65|275:56|352:93|494:88|452:404|225:105|235:205|308:313|382:341|322:179|367:183,1,686.399968579103,10|0,0:0|0:1,0:1:0:0:
427,105,221471,2,2,P|460:21|409:96,1,264.000008056641,0|2,3:1|0:1,0:1:0:0:
417,300,222000,54,0,B|418:350|468:392|526:371|589:311|501:180|461:310|395:232|418:135|500:167|474:247,1,345.599989453125,0|0,3:0|0:0,0:0:0:0:
477,223,222353,2,0,P|399:198|366:196,1,115.199996484375,10|2,0:0|0:0,0:0:0:0:
194,16,222530,5,2,0:0:0:0:
171,41,222618,1,2,0:0:0:0:
151,119,222706,1,2,0:0:0:0:
187,164,222795,1,2,0:0:0:0:
265,183,222883,1,2,0:0:0:0:
275,176,222971,1,2,0:0:0:0:
274,83,223059,54,0,B|331:-8|467:131|487:-18|370:-41|75:-161|15:-43|208:723|205:595|301:122|326:160|368:151|436:190|529:5|611:390|427:425|404:410|335:363|288:174|57:106|-57:390|128:494|237:302,1,1305.6,4|0,3:1|0:0,0:0:0:0:
229,314,224648,37,0,3:0:0:0:
9,56,225177,2,2,L|1:78,14,24,2|2|2|2|2|2|2|2|2|2|2|2|2|2|2,3:1|0:1|0:1|0:1|0:1|0:1|0:1|0:1|0:1|0:1|0:1|0:1|0:1|0:1|0:1,0:1:0:0:
70,3,225883,38,0,B|73:4|73:4|75:3|75:3|74:5|74:5|76:5|76:5|77:5|77:5|78:5|78:5|78:6|78:6|80:6|80:6|82:6|82:6|82:8|82:8|83:7|83:7|84:7|84:7|86:7|86:7|85:9|85:9|87:8|87:8|88:9|88:9|90:8|90:8|89:10|89:10|91:9|91:9|92:10|92:10|94:9|94:9|93:11|93:11|95:11|95:11|96:11|96:11|97:10|97:10|97:12|97:12|99:12|99:12|101:14|101:14|99:14|99:14|100:15|100:15|100:16|100:16|102:17|102:17|100:18|100:18|101:19|101:19|102:20|102:20|103:21|103:21|101:22|101:22|103:23|103:23|103:24|103:24|104:25|104:25|102:26|102:26|104:27|104:27|104:28|104:28|105:29|105:29|104:29|104:29|105:31|105:31|107:33|107:33|105:33|105:33|106:34|106:34|106:35|106:35|108:36|108:36|106:37|106:37|107:38|107:38|108:40|108:40|110:40|110:40|109:41|109:41|111:41|111:41|113:41|113:41|112:42|112:42|114:42|114:42|115:42|115:42|116:42|116:42|116:44|116:44|117:43|117:43|118:43|118:43|120:43|120:43|120:45|120:45|121:44|121:44|122:45|122:45|124:44|124:44|123:46|123:46|125:46|125:46|126:46|126:46|128:45|128:45|127:47|127:47|129:47|129:47|130:47|130:47|132:47|132:47|131:48|131:48|133:48|133:48|134:48|134:48|135:48|135:48|135:50|135:50|136:49|136:49|137:50|137:50|139:49|139:49|139:51|139:51|140:50|140:50|141:51|141:51|143:50|143:50|142:52|142:52|144:52|144:52|145:52|145:52|147:53|145:52|145:52|146:52|146:52|146:53|146:53|147:53,1,169.216222955263,0|0,3:0|0:0,0:0:0:0:
147,52,226236,54,0,B|156:127|39:159|149:6|236:33,1,230.4,0|0,0:1|0:1,0:1:0:0:
416,69,226589,6,2,B|425:56|425:56|385:6|385:6|383:15|383:15|285:35|287:141|382:173|307:268,1,374.399982861329,8|0,0:0|0:0,0:1:0:0:
210,289,226942,2,0,B|189:267|189:267|190:246|190:246|211:254|211:254|220:285,1,105.600003222656,2|0,0:0|0:0,0:0:0:0:
56,164,227118,54,2,B|47:151|47:151|86:101|86:101|88:110|88:110|186:130|186:233|66:285|168:364,1,374.399982861329,0|0,3:0|0:0,0:1:0:0:
392,301,227471,2,0,B|388:277|366:263|366:263|366:258|366:258|360:260|360:260|335:249|314:258,1,105.600003222656,2|0,0:0|0:0,0:0:0:0:
16,260,227648,6,0,B|2:284|11:333|60:347|60:347|74:257|178:245|230:293,1,316.800009667969,0|0,3:0|0:0,0:0:0:0:
416,69,228000,1,8,0:0:0:0:
416,69,228177,54,0,P|456:53|512:39,1,96,2|0,3:0|0:0,0:0:0:0:
216,97,228353,2,0,P|184:73|144:55,1,76.8,2|0,0:0|0:0,0:0:0:0:
319,79,228530,6,0,L|309:129,1,28.7999991210938,2|0,0:0|0:0,0:0:0:0:
438,349,228706,22,0,B|441:349|441:349|443:348|443:348|442:350|442:350|444:349|444:349|445:350|445:350|446:349|446:349|446:351|446:351|448:350|448:350|449:350|449:350|450:349|450:349|450:351|450:351|452:350|452:350|453:350|453:350|454:349|454:349|454:351|454:351|456:350|456:350|457:351|457:351|458:350|458:350|458:352|458:352|460:351|460:351|461:351|461:351|462:350|462:350|462:352|462:352|464:351|464:351|465:351|465:351|466:350|466:350|466:352|466:352|468:351|468:351|469:351|469:351|470:351|470:351|470:353|470:353|472:352|472:352|475:352|475:352|473:352|473:352|474:351|474:351|474:353|474:353|475:352|475:352|476:351|476:351|475:349|475:349|477:350|477:350|477:348|477:348|477:347|477:347|477:345|477:345|479:346|479:346|478:344|478:344|479:343|479:343|479:342|479:342|480:342|480:342|480:341|480:341|481:340|481:340|480:338|480:338|482:339|482:339|482:337|482:337|482:336|482:336|482:334|482:334|484:335|484:335|483:333|483:333|484:333|484:333|483:330|483:330|486:331|486:331|485:329|485:329|486:328|486:328|485:327|485:327|487:327|487:327|487:326|487:326|487:325|487:325|487:323|487:323|489:324|489:324|489:322|489:322|489:321|489:321|489:319|489:319|490:320|490:320|490:318|490:318|491:318|491:318|490:316|490:316|492:317|492:317|492:315|492:315|492:314|492:314|492:312|492:312|494:313|494:313|493:311|493:311|494:310|494:310|494:309|494:309|495:309|495:309|495:308|495:308|496:307|496:307|495:305|495:305|497:306|497:306|497:304|497:304|497:303|497:303|497:301|497:301|499:302|499:302|498:300|498:300|499:299|499:299|497:298|497:298|499:297|499:297|497:296|497:296|496:296|496:296|495:296|495:296|496:294|496:294|495:294|495:294|494:293|494:293|492:293|492:293|494:291|494:291|492:291|492:291|492:290|492:290|490:290|490:290|491:288|491:288|490:288|490:288|489:287|489:287|487:287|487:287|489:285|489:285|487:285|487:285|487:284|487:284|485:284|485:284|486:282|486:282|485:282|485:282|484:281|484:281|482:281|482:281|484:279|484:279|482:279|482:279|481:278|481:278|480:278|480:278|481:276|481:276|480:276|480:276|479:275|479:275|477:274|477:274|479:273|479:273|477:273|477:273|476:272|476:272|475:271|475:271|476:270|476:270|474:270|474:270|474:269,1,236.728118046141,2|0,3:0|0:0,0:0:0:0:
474,270,229059,22,2,B|441:214|371:248|371:248|378:256|378:256|362:328|281:316,1,230.4,2|0,0:1|0:1,0:1:0:0:
58,205,229412,6,0,B|135:278|-31:407|80:332|80:332|119:281|117:217|117:217|103:206|103:206|101:103|179:74|207:148|207:148|218:145|218:145|197:191,1,604.799981542969,12|0,0:0|0:0,0:0:0:0:
31,77,230118,54,0,B|11:98|19:125|19:125|176:105|184:186|184:186|177:218|177:218|186:210|186:210|188:259|207:331|308:318|308:318|315:301|315:301|312:290|312:290|291:220|193:189,1,672,0|0,3:0|0:0,0:0:0:0:
216,64,230824,6,2,B|264:-25|447:-71|553:27|596:211|443:308|341:272|337:141|381:69|468:101,1,672,10|0,0:1|0:1,0:1:0:0:
299,187,231530,22,2,B|273:171|279:145|279:145|301:162,6,62.3999971435548,2|2|2|2|2|2|2,0:1|0:1|0:1|0:1|0:1|0:1|0:1,0:1:0:0:
475,355,231883,2,2,B|406:368|389:316|389:316|395:308|395:308|363:245|288:279,1,230.4,2|0,0:1|0:1,0:1:0:0:
172,326,232236,22,2,B|253:334|286:281|286:281|293:289|293:289|298:275|298:275|247:174|317:74|384:72,1,374.399982861329,8|0,0:0|0:1,0:1:0:0:
463,40,232589,2,0,B|501:28|501:28|516:37|516:37|457:55,1,105.600003222656,2|0,0:0|0:0,0:0:0:0:
87,56,232765,6,0,B|138:118|199:104|199:104|198:114|198:114|211:108|211:108|246:0|366:-19|415:26,1,374.399982861329,2|2,3:2|0:0,0:0:0:0:
444,202,233118,2,0,B|420:222|420:222|376:208|376:208|371:174,1,105.600003222656,2|0,0:0|0:0,0:0:0:0:
469,51,233295,54,2,B|315:37|367:165|283:206|283:206|211:184,1,316.800009667969,0|0,3:0|0:0,0:1:0:0:
0,54,233648,1,8,0:0:0:0:
0,54,233824,6,0,B|38:-4|120:16|120:16|83:40|31:131|158:180|211:148|201:81|148:60,1,384,0|0,3:0|0:0,0:0:0:0:
171,75,234353,54,2,B|233:11|309:-9|383:-12|437:18|493:89|431:236|392:164|314:172|291:23|261:75|204:112|193:159|115:176|50:241|73:256|71:272|82:294|101:310|118:321|119:321|167:331|178:331|201:332|216:265|233:191|270:205|316:193|372:221|411:253|431:285|407:328|395:358|306:352|308:306,1,1080.00004119873,0|0,3:0|0:0,0:1:0:0:
241,354,235765,6,2,B|292:330|330:333|330:333|335:317|335:317|381:313|414:343|414:343|405:279|405:279|476:268|520:303,1,369.600011279297,2|0,0:1|0:1,0:1:0:0:
510,296,236471,53,8,0:0:0:0:
512,297,237177,38,0,P|467:298|446:332,1,72,0|0,3:0|0:0,0:0:0:0:
375,365,237530,6,2,P|370:375|380:364,5,48.0000018310548,2|2|2|2|2|2,0:1|0:1|0:1|0:1|0:1|0:1,0:1:0:0:
450,316,237883,6,2,B|290:360|81:336|-34:224|-61:92|142:0|408:52|536:142|536:142|455:44|254:85|287:234|345:314|459:240|453:190|416:148,1,1440,8|0,0:0|0:0,0:1:0:0:
170,31,239295,54,2,B|259:60|308:219|285:354|96:375|74:269|214:148|301:284,1,504.000019226075,8|0,0:0|0:0,0:1:0:0:
499,341,240000,53,2,0:0:0:0:
484,342,240089,1,2,0:0:0:0:
455,342,240177,1,2,0:0:0:0:
413,328,240265,1,2,0:0:0:0:
370,288,240353,1,2,0:0:0:0:
333,216,240442,1,2,0:0:0:0:
315,124,240530,1,2,0:0:0:0:
341,24,240618,1,2,0:0:0:0:
424,89,240706,6,0,B|408:97|403:129|403:129|384:68|453:12|553:49|499:158,1,252.000002403259,0|0,1:0|0:0,0:0:0:0:
499,341,241059,53,2,0:0:0:0:
484,342,241177,5,2,0:0:0:0:
455,342,241295,53,2,0:0:0:0:
413,328,241412,5,2,0:0:0:0:
370,288,241530,53,2,0:0:0:0:
333,216,241648,5,2,0:0:0:0:
315,123,241765,53,2,0:0:0:0:
341,24,241883,5,2,0:0:0:0:
424,89,242000,53,2,0:0:0:0:
246,36,242118,6,2,P|218:78|233:30,1,144.000005493164,8|0,0:0|0:0,0:1:0:0:
229,161,242295,2,0,P|174:191|157:131,1,144.000005493164,2|0,0:1|0:0,0:0:0:0:
171,286,242471,2,0,P|105:287|88:223,1,144.000005493164,2|0,0:1|0:0,0:0:0:0:
51,370,242648,2,0,P|8:313|-1:243,1,144.000005493164,2|0,0:1|0:0,0:0:0:0:
97,55,242824,54,0,L|135:58,1,28.7999991210938,2|0,3:1|0:0,0:0:0:0:
203,32,243177,2,0,L|241:29,1,28.7999991210938,2|0,0:1|0:0,0:0:0:0:
481,248,243530,6,2,B|370:225|331:338|454:381|503:314|516:181|440:82|301:62|301:62|382:44|450:95|409:253|235:262|175:175|175:175|125:108|9:82|-42:150|-43:261|83:336|166:321|267:172|169:-14|169:-14|180:21|168:61,1,1656.00003158569,8|0,0:0|0:0,0:1:0:0:
97,55,244942,6,2,B|-7:89|-21:-36|136:0|36:94|36:94|-28:166|-32:286|86:366|271:316|284:120|157:17|12:135|110:242,1,772.800014739991,8|0,0:0|0:0,0:1:0:0:
0,344,245648,37,2,3:2:0:0:
21,329,245736,1,2,0:0:0:0:
58,310,245824,1,2,0:0:0:0:
109,293,245912,1,2,0:0:0:0:
175,273,246000,1,2,0:0:0:0:
255,255,246089,1,2,0:0:0:0:
350,239,246177,1,2,0:0:0:0:
460,229,246265,1,2,0:0:0:0:
511,335,246353,6,2,B|465:303|416:324|416:324|422:331|422:331|351:357|295:301,1,216.000008239746,10|0,0:1|0:1,0:1:0:0:
0,344,246706,53,2,3:2:0:0:
21,329,246824,5,2,0:0:0:0:
58,310,246942,53,2,0:0:0:0:
109,293,247059,5,2,0:0:0:0:
175,273,247177,53,2,0:0:0:0:
255,255,247295,5,2,0:0:0:0:
350,239,247412,53,2,0:0:0:0:
460,229,247530,5,2,0:0:0:0:
511,335,247648,53,2,0:0:0:0:
413,306,247765,6,2,L|278:392,1,144.000005493164,8|0,0:0|0:0,0:1:0:0:
331,230,247942,2,0,B|259:240|259:240|191:314,1,144.000005493164,2|0,0:1|0:0,0:0:0:0:
277,132,248118,2,0,B|204:128|204:128|161:214,1,144.000005493164,2|0,0:1|0:0,0:0:0:0:
204,41,248295,2,0,B|138:9|138:9|129:86,1,144.000005493164,2|0,0:1|0:0,0:0:0:0:
30,242,248471,54,0,L|17:194,1,43.1999986816407,2|0,3:1|0:0,0:0:0:0:
103,277,248824,2,0,L|130:267,1,28.7999991210938,2|2,0:1|0:1,0:0:0:0:
43,322,249177,6,0,B|17:361|17:361|100:357|100:357|109:362|109:362|189:348|189:348|191:351|191:351|240:237|240:237|239:232|239:232|242:234|242:234|312:210|312:210|323:198|323:198|415:167|415:167|362:229,1,600,8|0,0:0|0:0,0:0:0:0:
385,218,249706,1,2,3:1:0:0:
211,12,249883,6,0,B|206:60|206:60|199:67|199:67|206:77|206:77|200:144,1,120,2|0,0:1|0:0,0:0:0:0:
277,132,250059,2,0,B|281:83|281:83|288:76|288:76|281:66|281:66|287:0,1,120,2|0,0:1|0:0,0:0:0:0:
120,61,250236,53,2,3:1:0:0:
365,63,250412,2,0,B|420:88|420:88|342:107,1,120,2|0,0:1|0:0,0:0:0:0:
44,15,250589,6,0,B|38:76|38:76|33:82|33:82|14:284|14:284|17:289|17:289|11:358,1,336,8|0,0:0|0:0,0:0:0:0:
181,236,251295,37,2,3:2:0:0:
164,240,251383,1,2,0:0:0:0:
131,232,251471,1,2,0:0:0:0:
103,188,251559,1,2,0:0:0:0:
138,127,251648,1,2,0:0:0:0:
217,99,251736,1,2,0:0:0:0:
312,113,251824,1,2,0:0:0:0:
385,192,251912,1,2,0:0:0:0:
417,307,252000,6,2,B|328:247|367:154|393:107|469:126|410:225|341:187,1,252.000002403259,8|0,0:1|0:0,0:1:0:0:
181,236,252353,53,2,3:2:0:0:
164,240,252471,5,2,0:0:0:0:
131,232,252589,53,2,0:0:0:0:
103,188,252706,5,2,0:0:0:0:
138,127,252824,53,2,0:0:0:0:
217,99,252942,5,2,0:0:0:0:
312,113,253059,53,2,0:0:0:0:
385,192,253177,5,2,0:0:0:0:
417,307,253295,53,2,0:0:0:0:
300,357,253412,6,2,P|264:352|230:299,1,84.0000008010864,10|2,0:0|0:1,0:1:0:0:
157,310,253589,5,2,0:1:0:0:
152,292,253677,1,2,0:1:0:0:
153,275,253765,1,2,0:1:0:0:
159,259,253853,1,2,0:1:0:0:
169,245,253942,1,2,0:1:0:0:
181,236,254030,1,2,0:1:0:0:
101,200,254118,38,0,P|129:163|46:-3,1,252.000009613037,0|0,3:0|0:0,0:0:0:0:
181,235,254824,6,2,B|200:291|200:291|210:352|152:384|77:324|151:235|242:237|302:295|302:295|360:349|464:360|531:291|533:172|478:83|382:84|292:134|261:180|261:180|311:175|354:71|289:-5|180:11|143:77|165:121|165:121|178:94|171:17|83:-6|8:79|67:138|86:138|86:138|82:124|45:102|7:121|-27:153|4:233|67:211,1,1656.00003158569,10|0,0:0|0:1,0:1:0:0:
101,219,256236,6,2,B|123:334|-22:390|-100:293|141:248|231:318|231:318|347:407|512:358|552:280|457:268|381:288|312:382,1,772.800014739991,8|0,0:0|0:0,0:1:0:0:
499,105,256942,37,2,0:0:0:0:
484,106,257030,1,2,0:0:0:0:
455,113,257118,1,2,0:0:0:0:
415,130,257206,1,2,0:0:0:0:
363,162,257295,1,2,0:0:0:0:
297,221,257383,1,2,0:0:0:0:
224,294,257471,1,2,0:0:0:0:
148,384,257559,1,2,0:0:0:0:
115,263,257648,6,2,L|131:303,1,43.1999986816407,2|0,0:1|0:1,0:1:0:0:
144,302,258000,53,2,3:2:0:0:
148,384,258118,5,2,0:0:0:0:
224,294,258236,53,2,0:0:0:0:
297,221,258353,5,2,0:0:0:0:
363,162,258471,53,2,0:0:0:0:
415,130,258589,5,2,0:0:0:0:
455,113,258706,53,2,0:0:0:0:
484,106,258824,5,2,0:0:0:0:
499,105,258942,53,2,0:0:0:0:
497,190,259059,6,2,B|468:196|468:196|455:191|455:191|431:194|428:195|408:189|407:189|402:185|402:185|383:193|376:195|371:194|366:193|342:187|314:185|314:185|303:192|302:193|259:187|279:194|242:184|238:194|233:196|231:196|231:196|177:182|184:193|136:189|137:186|137:186|92:190|92:190|99:189|99:189|87:196|86:196|46:196|46:196|41:189|41:189|-13:195,1,504.000019226075,2|0,0:1|0:1,0:1:0:0:
48,273,259765,54,0,P|106:298|71:351,1,144
132,287,260471,1,0,0:0:0:0:
132,287,260824,54,0,B|159:342|370:315|400:369,1,288.000010986329
465,330,261706,1,0,0:0:0:0:
426,238,261883,6,0,B|417:253|403:259|403:259|431:270|457:251|458:220,1,108.000004119873
458,213,262236,2,0,B|429:193|430:154|430:154|399:129,1,108.000004119873
394,119,262589,2,0,B|427:102|426:58|394:27|348:33|307:75|317:133,1,216.000008239746
266,199,263295,54,0,B|294:228|247:242|150:193|79:229,1,216.000008239746
142,288,264000,2,0,B|127:237|245:223|178:365|306:346|286:294,1,216.000008239746
343,243,264706,2,0,B|360:213|392:222|392:222|387:251|358:251,1,108.000004119873
363,263,265059,6,0,L|476:285,1,108.000004119873
489,288,265412,2,0,B|462:215|462:215|460:211|460:211|458:208|458:208|454:207|454:207|452:207|452:207|449:209|449:209|449:212|449:212|449:215|449:215|450:219|450:219|451:224|451:224|449:228|449:228|443:229|443:229|440:228|440:228|437:224|437:224|407:143,1,216.000008239746
378,64,266118,54,0,B|330:48|265:89|266:148|313:175|353:174|377:139|323:129|358:108|434:129|424:231|334:264|257:241,1,396.000015106202
248,240,267177,2,0,B|170:261|170:261|157:285,1,108.000004119873
145,285,267530,2,0,B|67:265|40:178|155:248|129:162|51:141,1,216.000008239746
37,60,268236,6,0,B|60:38|60:38|209:73|209:73|233:53,1,216.000008239746
312,31,268942,54,0,B|390:33|419:-44|231:-37|205:124|203:259,1,396.000015106202
204,269,270000,2,0,B|219:302|219:302|289:312,1,108.000004119873
302,328,270353,2,0,P|395:275|502:264,1,216.000008239746
371,198,271059,5,0,0:0:0:0:
371,198,272118,2,0,B|396:161|329:217|200:174,1,192
200,174,273177,2,0,P|208:148|224:141,1,38.4
133,205,273530,2,0,P|112:138|61:21,1,192
64,27,274589,2,0,B|93:27|116:10|116:10|96:36|98:66,1,115.2
51,128,275295,2,0,P|122:148|201:177,1,153.6
208,167,276353,2,0,P|244:153|242:119,1,76.8
113,279,277412,54,0,B|89:298|70:267|105:247|163:273|184:312,1,134.4
184,313,278118,2,0,B|181:325|181:325|299:295,1,134.4
305,294,278824,2,0,P|354:300|448:332,1,134.4
440,328,279530,2,0,B|473:289|473:289|435:129,1,211.2
422,118,280853,5,0,0:0:0:0:
431,89,281648,1,0,0:0:0:0:
