osu file format v14

[General]
AudioFilename: audio.mp3
AudioLeadIn: 0
PreviewTime: 276742
Countdown: 0
SampleSet: Soft
StackLeniency: 0.3
Mode: 0
LetterboxInBreaks: 0
WidescreenStoryboard: 0

[Editor]
DistanceSpacing: 0.6
BeatDivisor: 8
GridSize: 32
TimelineZoom: 2.999999

[Metadata]
Title:Amor (feat. Syrin)
TitleUnicode:Amor (feat. Syrin)
Artist:Fractal
ArtistUnicode:Fractal
Creator:Singularius
Version:Radiant Flux
Source:
Tags:Monstercat EDM melodic dubstep electronic instrumental english Gaia LP
BeatmapID:4559283
BeatmapSetID:2161950

[Difficulty]
HPDrainRate:5
CircleSize:4.2
OverallDifficulty:8.4
ApproachRate:9.4
SliderMultiplier:1.4
SliderTickRate:1

[Events]
//Background and Video events
0,0,"i_heart_galaxy_by_vaporeon249_dczsao6resize.jpg",0,0
//Break Periods
//Storyboard Layer 0 (Background)
//Storyboard Layer 1 (Fail)
//Storyboard Layer 2 (Pass)
//Storyboard Layer 3 (Foreground)
//Storyboard Layer 4 (Overlay)
//Storyboard Sound Samples

[TimingPoints]
84,428.571428571429,4,2,1,15,1,0
84,-166.666666666667,4,2,1,30,0,0
9512,-111.111111111111,4,2,1,30,0,0
11976,-100,4,2,1,30,0,0
12941,-83.3333333333333,4,2,1,30,0,0
18084,-66.6666666666667,4,2,1,30,0,0
19369,-111.111111111111,4,2,1,30,0,0
19798,-66.6666666666667,4,2,1,30,0,0
20655,-58.8235294117647,4,2,1,30,0,0
22798,-111.111111111111,4,2,1,30,0,0
23226,-62.5,4,2,1,30,0,0
24084,-47.6190476190476,4,2,1,30,0,0
24726,-58.8235294117647,4,2,1,30,0,0
25369,-52.6315789473684,4,2,1,30,0,0
27512,-100,4,2,1,50,0,0
27941,-50,4,2,1,50,0,0
28369,-29.4117647058824,4,2,1,50,0,0
28798,-100,4,2,1,50,0,0
29226,-50,4,2,1,50,0,0
29655,-37.037037037037,4,2,1,50,0,0
30084,-100,4,2,1,50,0,0
30512,-55.5555555555556,4,2,1,50,0,0
30941,-100,4,2,1,50,0,0
31155,-50,4,2,1,50,0,0
31369,-33.3333333333333,4,2,1,50,0,0
32012,-50,4,2,1,50,0,0
32441,-66.6666666666667,4,2,1,50,0,0
33084,-33.3333333333333,4,2,1,50,0,0
33941,-66.6666666666667,4,2,1,50,0,0
34584,-50,4,2,1,50,0,0
34798,-40,4,2,1,50,0,0
35012,-37.037037037037,4,2,1,50,0,0
35441,-43.4782608695652,4,2,1,50,0,0
35655,-55.5555555555556,4,2,1,50,0,0
35869,-100,4,2,1,50,0,0
36512,-50,4,2,1,50,0,0
37155,-40,4,2,1,50,0,0
37369,-47.6190476190476,4,2,1,50,0,0
37584,-58.8235294117647,4,2,1,50,0,0
37798,-100,4,2,1,50,0,0
38226,-31.25,4,2,1,50,0,0
38869,-66.6666666666667,4,2,1,50,0,0
39726,-58.8235294117647,4,2,1,50,0,0
40155,-66.6666666666667,4,2,1,50,0,0
41655,-35.7142857142857,4,2,1,50,0,0
42084,-50,4,2,1,50,0,0
42726,-66.6666666666667,4,2,1,50,0,0
43369,-100,4,2,1,50,0,0
44012,-50,4,2,1,50,0,0
44655,-58.8235294117647,4,2,1,50,0,0
45084,-33.3333333333333,4,2,1,50,0,0
45512,-50,4,2,1,50,0,0
45941,-58.8235294117647,4,2,1,50,0,0
46798,-33.3333333333333,4,2,1,50,0,0
47226,-66.6666666666667,4,2,1,50,0,0
48298,-40,4,2,1,50,0,0
48512,-35.7142857142857,4,2,1,50,0,0
48941,-31.25,4,2,1,50,0,0
49369,-66.6666666666667,4,2,1,50,0,0
49584,-34.4827586206897,4,2,1,50,0,0
50012,-40,4,2,1,50,0,0
50226,-40,4,2,1,50,0,0
50869,-50,4,2,1,50,0,0
51512,-58.8235294117647,4,2,1,50,0,0
51941,-40,4,2,1,50,0,0
52369,-43.4782608695652,4,2,1,50,0,0
53012,-66.6666666666667,4,2,1,50,0,0
53226,-58.8235294117647,4,2,1,50,0,0
54084,-83.3333333333333,4,2,1,50,0,0
55369,-100,4,2,1,30,0,0
57512,-125,4,2,1,30,0,0
60084,-100,4,2,1,30,0,0
61798,-83.3333333333333,4,2,1,30,0,0
62655,-100,4,2,1,25,0,0
63512,-125,4,2,1,20,0,0
64369,-100,4,2,1,30,0,0
65869,-83.3333333333333,4,2,1,30,0,0
66512,-71.4285714285714,4,2,1,30,0,0
67369,-66.6666666666667,4,2,1,30,0,0
67798,-58.8235294117647,4,2,1,30,0,0
68655,-83.3333333333333,4,2,1,20,0,0
69298,-71.4285714285714,4,2,1,20,0,0
69941,-100,4,2,1,20,0,0
71226,-76.9230769230769,4,2,1,20,0,0
72084,-83.3333333333333,4,2,1,20,0,0
72726,-76.9230769230769,4,2,1,20,0,0
74655,-71.4285714285714,4,2,1,20,0,0
75512,-83.3333333333333,4,2,1,20,0,0
76798,-100,4,2,1,20,0,0
78084,-83.3333333333333,4,2,1,20,0,0
78941,-100,4,2,1,20,0,0
80226,-90.9090909090909,4,2,1,25,0,0
81512,-76.9230769230769,4,2,1,30,0,0
82369,-125,4,2,1,25,0,0
83226,-76.9230769230769,4,2,1,25,0,0
84512,-90.9090909090909,4,2,1,25,0,0
84941,-66.6666666666667,4,2,1,25,0,0
85798,-71.4285714285714,4,2,1,25,0,0
87084,-83.3333333333333,4,2,1,25,0,0
87941,-125,4,2,1,25,0,0
88369,-76.9230769230769,4,2,1,25,0,0
89441,-100,4,2,1,25,0,0
90084,-125,4,2,1,25,0,0
90726,-166.666666666667,4,2,1,25,0,0
91798,-83.3333333333333,4,2,1,25,0,0
92655,-76.9230769230769,4,2,1,25,0,0
93298,-83.3333333333333,4,2,1,25,0,0
93941,-90.9090909090909,4,2,1,25,0,0
95226,-125,4,2,1,25,0,0
96084,-100,4,2,1,30,0,0
98441,-55.5555555555556,4,2,1,30,0,0
99084,-83.3333333333333,4,2,1,30,0,0
100155,-71.4285714285714,4,2,1,35,0,0
101869,-50,4,2,1,40,0,0
102512,-58.8235294117647,4,2,1,40,0,0
102941,-100,4,2,1,25,0,0
105084,-43.4782608695652,4,2,1,30,0,0
105512,-40,4,2,1,33,0,0
105941,-35.7142857142857,4,2,1,36,0,0
106369,-43.4782608695652,4,2,1,40,0,0
107548,-43.4782608695652,4,2,1,50,0,0
108834,-50,4,2,1,40,0,0
109369,-33.3333333333333,4,2,1,40,0,0
109798,-28.5714285714286,4,2,1,70,0,1
110655,-28.5714285714286,4,2,1,70,0,0
110869,-40,4,2,1,70,0,0
111084,-55.5555555555556,4,2,1,70,0,0
111512,-28.5714285714286,4,2,1,70,0,1
112369,-28.5714285714286,4,2,1,70,0,0
112584,-100,4,2,1,70,0,0
113226,-28.5714285714286,4,2,1,70,0,1
113655,-37.037037037037,4,2,1,70,0,1
114084,-23.2558139534884,4,2,1,70,0,0
114512,-66.6666666666667,4,2,1,70,0,0
114726,-19.7743411686128,4,2,1,70,0,0
115369,-50,4,2,1,70,0,0
116012,-22.2222222222222,4,2,1,70,0,0
116441,-66.6666666666667,4,2,1,70,0,0
116655,-28.5714285714286,4,2,1,70,0,1
117512,-28.5714285714286,4,2,1,70,0,0
117726,-45.4545454545455,4,2,1,70,0,0
118369,-28.5714285714286,4,2,1,70,0,1
119226,-100,4,2,1,70,0,0
120084,-28.5714285714286,4,2,1,70,0,1
120512,-37.037037037037,4,2,1,70,0,1
120941,-35.7142857142857,4,2,1,70,0,1
121084,-37.037037037037,4,2,1,70,0,1
121226,-38.4615384615385,4,2,1,70,0,1
121369,-40,4,2,1,70,0,1
121512,-41.6666666666667,4,2,1,70,0,1
121655,-43.4782608695652,4,2,1,70,0,1
121798,-45.4545454545455,4,2,1,70,0,1
121941,-47.6190476190476,4,2,1,70,0,1
122084,-50,4,2,1,70,0,1
122226,-28.5714285714286,4,2,1,70,0,1
122655,-28.5714285714286,4,2,1,70,0,0
122869,-100,4,2,1,70,0,0
123298,-66.6666666666667,4,2,1,70,0,0
123512,-28.5714285714286,4,2,1,70,0,1
124369,-28.5714285714286,4,2,1,70,0,0
124584,-40,4,2,1,70,0,0
124798,-55.5555555555556,4,2,1,70,0,0
125226,-28.5714285714286,4,2,1,70,0,1
126084,-28.5714285714286,4,2,1,70,0,0
126298,-66.6666666666667,4,2,1,70,0,0
126941,-47.6190476190476,4,2,1,70,0,0
127369,-25,4,2,1,70,0,1
127798,-23.2558139534884,4,2,1,70,0,0
128441,-28.5714285714286,4,2,1,70,0,1
129298,-28.5714285714286,4,2,1,70,0,0
129726,-22.2222222222222,4,2,1,70,0,0
130155,-66.6666666666667,4,2,1,70,0,0
130369,-28.5714285714286,4,2,1,70,0,1
131226,-28.5714285714286,4,2,1,70,0,0
131441,-45.4545454545455,4,2,1,70,0,0
132084,-28.5714285714286,4,2,1,70,0,1
132941,-100,4,2,1,70,0,0
133798,-27.7777777777778,4,2,1,70,0,1
134655,-166.666666666667,4,2,1,70,0,0
135726,-66.6666666666667,4,2,1,40,0,0
136369,-43.4782608695652,4,2,1,70,0,0
136798,-66.6666666666667,4,2,1,70,0,0
137226,-83.3333333333333,4,2,1,70,0,0
137869,-71.4285714285714,4,2,1,40,0,0
138512,-50,4,2,1,40,0,0
140655,-23.0578916045056,4,2,1,70,0,1
141512,-26.3157894736842,4,2,1,70,0,0
141726,-40,4,2,1,70,0,0
141869,-50,4,2,1,70,0,0
142084,-66.6666666666667,4,2,1,70,0,0
142584,-40,4,2,1,70,0,0
142798,-33.3333333333333,4,2,1,70,0,0
143226,-22.2222222222222,4,2,1,70,0,0
143869,-66.6666666666667,4,2,1,70,0,0
144084,-28.5714285714286,4,2,1,70,0,1
144941,-28.5714285714286,4,2,1,70,0,0
145155,-43.4782608695652,4,2,1,70,0,0
145798,-43.4782608695652,4,2,1,70,0,1
146012,-30.3030303030303,4,2,1,70,0,1
146655,-30.3030303030303,4,2,1,70,0,0
146869,-50,4,2,1,70,0,0
147512,-28.5714285714286,4,2,1,70,0,1
148369,-35.7142857142857,4,2,1,70,0,1
148512,-37.037037037037,4,2,1,70,0,1
148655,-38.4615384615385,4,2,1,70,0,1
148798,-40,4,2,1,70,0,1
148941,-41.6666666666667,4,2,1,70,0,1
149084,-43.4782608695652,4,2,1,70,0,1
149226,-45.4545454545455,4,2,1,70,0,1
149369,-47.6190476190476,4,2,1,70,0,1
149512,-50,4,2,1,70,0,1
149655,-28.5714285714286,4,2,1,70,0,1
150084,-28.5714285714286,4,2,1,70,0,0
150298,-100,4,2,1,70,0,0
150405,-100,4,2,1,10,0,0
150941,-55.5555555555556,4,2,1,70,0,0
151798,-20.7735951146732,4,2,1,70,0,1
152655,-28.5714285714286,4,2,1,70,0,1
153512,-28.5714285714286,4,2,1,70,0,0
153726,-66.6666666666667,4,2,1,70,0,0
154369,-28.5714285714286,4,2,1,70,0,1
155226,-23.2558139534884,4,2,1,70,0,0
155655,-66.6666666666667,4,2,1,70,0,0
155869,-19.775975264948,4,2,1,70,0,0
156298,-100,4,2,1,70,0,0
156941,-22.2222222222222,4,2,1,70,0,0
157584,-66.6666666666667,4,2,1,70,0,0
157798,-28.5714285714286,4,2,1,70,0,1
158655,-28.5714285714286,4,2,1,70,0,0
158869,-45.4545454545455,4,2,1,70,0,0
159512,-28.5714285714286,4,2,1,70,0,1
160369,-50,4,2,1,70,0,0
161226,-27.7777777777778,4,2,1,70,0,1
162084,-35.7142857142857,4,2,1,70,0,1
162227,-37.037037037037,4,2,1,70,0,1
162370,-38.4615384615385,4,2,1,70,0,1
162513,-40,4,2,1,70,0,1
162656,-41.6666666666667,4,2,1,70,0,1
162799,-43.4782608695652,4,2,1,70,0,1
162941,-45.4545454545455,4,2,1,70,0,1
163084,-47.6190476190476,4,2,1,70,0,1
163227,-50,4,2,1,70,0,1
163369,-28.5714285714286,4,2,1,70,0,1
163798,-28.5714285714286,4,2,1,70,0,0
164012,-133.333333333333,4,2,1,70,0,0
165512,-133.333333333333,4,2,1,20,0,0
167226,-166.666666666667,4,2,1,20,0,0
170655,-142.857142857143,4,2,1,20,0,0
174084,-166.666666666667,4,2,1,20,0,0
175798,-166.666666666667,4,2,1,30,0,0
176762,-133.333333333333,4,2,1,35,0,0
177512,-111.111111111111,4,2,1,50,0,0
178155,-66.6666666666667,4,2,1,50,0,0
178798,-58.8235294117647,4,2,1,50,0,0
179226,-50,4,2,1,50,0,0
179869,-58.8235294117647,4,2,1,50,0,0
180512,-100,4,2,1,50,0,0
181155,-50,4,2,1,50,0,0
181798,-58.8235294117647,4,2,1,50,0,0
182655,-50,4,2,1,50,0,0
183084,-58.8235294117647,4,2,1,50,0,0
183941,-33.3333333333333,4,2,1,50,0,0
184369,-66.6666666666667,4,2,1,50,0,0
185441,-83.3333333333333,4,2,1,50,0,0
185655,-58.8235294117647,4,2,1,50,0,0
186084,-50,4,2,1,50,0,0
186726,-58.8235294117647,4,2,1,50,0,0
187369,-100,4,2,1,50,0,0
188226,-55.5555555555556,4,2,1,50,0,0
188655,-58.8235294117647,4,2,1,50,0,0
189512,-43.4782608695652,4,2,1,50,0,0
189941,-58.8235294117647,4,2,1,50,0,0
190584,-100,4,2,1,50,0,0
191226,-60.6060606060606,4,2,1,50,0,0
191655,-58.8235294117647,4,2,1,50,0,0
192298,-66.6666666666667,4,2,1,50,0,0
192512,-35.7142857142857,4,2,1,50,0,0
192941,-50,4,2,1,50,0,0
193584,-58.8235294117647,4,2,1,50,0,0
194226,-100,4,2,1,50,0,0
194869,-50,4,2,1,50,0,0
195512,-58.8235294117647,4,2,1,50,0,0
195941,-33.3333333333333,4,2,1,50,0,0
196369,-50,4,2,1,50,0,0
196798,-58.8235294117647,4,2,1,50,0,0
197655,-33.3333333333333,4,2,1,50,0,0
198084,-66.6666666666667,4,2,1,50,0,0
199155,-40,4,2,1,50,0,0
199369,-35.7142857142857,4,2,1,50,0,0
199798,-31.25,4,2,1,50,0,0
200226,-66.6666666666667,4,2,1,50,0,0
200441,-34.4827586206897,4,2,1,50,0,0
200869,-40,4,2,1,50,0,0
201726,-50,4,2,1,50,0,0
202369,-58.8235294117647,4,2,1,50,0,0
202798,-43.4782608695652,4,2,1,50,0,0
203869,-58.8235294117647,4,2,1,50,0,0
204726,-83.3333333333333,4,2,1,50,0,0
207512,-125,4,2,1,15,0,0
208369,-76.9230769230769,4,2,1,25,0,0
210941,-71.4285714285714,4,2,1,25,0,0
211584,-76.9230769230769,4,2,1,25,0,0
212226,-100,4,2,1,25,0,0
213512,-76.9230769230769,4,2,1,25,0,0
214584,-111.111111111111,4,2,1,25,0,0
215226,-142.857142857143,4,2,1,25,0,0
216941,-76.923076923077,4,2,1,25,0,0
217798,-90.9090909090909,4,2,1,25,0,0
218441,-100,4,2,1,25,0,0
219084,-100,4,2,1,30,0,0
220369,-76.9230769230769,4,2,1,30,0,0
222084,-125,4,2,1,30,0,0
222512,-76.9230769230769,4,2,1,30,0,0
223798,-125,4,2,1,30,0,0
224226,-71.4285714285714,4,2,1,30,0,0
225512,-111.111111111111,4,2,1,30,0,0
225941,-71.4285714285714,4,2,1,30,0,0
227226,-111.111111111111,4,2,1,30,0,0
227655,-71.4285714285714,4,2,1,30,0,0
228084,-83.3333333333333,4,2,1,30,0,0
230655,-71.4285714285714,4,2,1,35,0,0
231512,-71.4285714285714,4,2,1,40,0,0
232155,-47.6190476190476,4,2,1,40,0,0
232798,-38.4615384615385,4,2,1,40,0,0
233226,-83.3333333333333,4,2,1,40,0,0
234941,-83.3333333333333,4,2,1,23,0,0
237084,-71.4285714285714,4,2,1,23,0,0
238369,-83.3333333333333,4,2,1,23,0,0
240941,-55.5555555555556,4,2,1,40,0,0
241369,-58.8235294117647,4,2,1,40,0,0
241798,-83.3333333333333,4,2,1,25,0,0
243941,-43.4782608695652,4,2,1,30,0,0
244369,-40,4,2,1,33,0,0
244798,-35.7142857142857,4,2,1,36,0,0
245226,-43.4782608695652,4,2,1,40,0,0
246405,-43.4782608695652,4,2,1,50,0,0
248655,-250,4,2,1,75,0,0
248762,-250,4,2,1,10,0,0
249512,-40,4,2,1,75,0,0
250798,-19.7740111971545,4,2,1,75,0,0
251226,-28.5714285714286,4,2,1,75,0,0
251655,-24.0549828077787,4,2,1,75,0,0
252298,-40,4,2,1,75,0,0
252512,-35.7142857142857,4,2,1,75,0,0
252941,-25,4,2,1,75,0,0
254226,-22.5108970943094,4,2,1,75,0,0
254655,-23.2558139534883,4,2,1,75,0,0
255084,-38.4615384615383,4,2,1,75,0,0
255298,-43.478260869565,4,2,1,75,0,0
255726,-24.9999999999999,4,2,1,75,0,0
256369,-39.9999999999998,4,2,1,75,0,0
257226,-27.5590553002241,4,2,1,75,0,0
257441,-27.5590553002241,4,2,1,75,0,0
257655,-40,4,2,1,75,0,0
258084,-29.4117647058824,4,2,1,75,0,0
258512,-66.6666666666667,4,2,1,75,0,0
259369,-22.5080385708527,4,2,1,75,0,0
259798,-33.3333333333333,4,2,1,75,0,0
260226,-66.6666666666667,4,2,1,75,0,0
261084,-50,4,2,1,75,0,0
261834,-50,4,2,1,45,0,0
262155,-100,4,2,1,45,0,0
263441,-66.6666666666667,4,2,1,45,0,0
264512,-29.9572039942938,4,2,1,45,0,0
264941,-37.037037037037,4,2,1,75,0,0
265369,-41.6666666666667,4,2,1,75,0,0
265798,-26.3157894736842,4,2,1,75,0,0
266226,-28.5714285714286,4,2,1,75,0,0
266655,-50,4,2,1,75,0,0
267084,-24.0549828077787,4,2,1,75,0,0
267726,-33.3333333333333,4,2,1,75,0,0
268584,-40,4,2,1,75,0,0
268798,-50,4,2,1,75,0,0
269655,-35.1758793969849,4,2,1,75,0,0
270298,-58.8235294117647,4,2,1,75,0,0
271155,-27.559055300224,4,2,1,75,0,0
271369,-40,4,2,1,75,0,0
271584,-27.5590553002243,4,2,1,75,0,0
271798,-20.2898551285505,4,2,1,75,0,0
272869,-50,4,2,1,75,0,0
273084,-23.7288135976773,4,2,1,75,0,0
273512,-40,4,2,1,75,0,0
274798,-66.6666666666667,4,2,1,75,0,0
275226,-40,4,2,1,75,0,0
276084,-58.8235294117647,4,2,1,45,0,0
276941,-66.6666666666667,4,2,1,45,0,0
278012,-50,4,2,1,45,0,0
278655,-50,4,2,1,75,0,0
278869,-55.5555555555556,4,2,1,75,0,0
279512,-28.5714285714286,4,2,1,75,0,1
280369,-28.5714285714286,4,2,1,75,0,0
280584,-33.3333333333333,4,2,1,75,0,0
280798,-50,4,2,1,75,0,0
281012,-25,4,2,1,75,0,0
281655,-50,4,2,1,75,0,0
282084,-33.3333333333333,4,2,1,75,0,1
282941,-28.5714285714286,4,2,1,75,0,1
283798,-28.5714285714286,4,2,1,75,0,0
284012,-43.4782608695652,4,2,1,75,0,0
284655,-43.4782608695652,4,2,1,75,0,1
284869,-30.3030303030303,4,2,1,75,0,1
285512,-30.3030303030303,4,2,1,75,0,0
285726,-50,4,2,1,75,0,0
286369,-28.5714285714286,4,2,1,75,0,1
287226,-45.2586206896552,4,2,1,75,0,0
287655,-66.6666666666667,4,2,1,45,0,0
288512,-31.25,4,2,1,75,0,1
288941,-31.25,4,2,1,75,0,0
289155,-142.857142857143,4,2,1,75,0,0
289262,-142.857142857143,4,2,1,10,0,0
290655,-20.7736673019795,4,2,1,75,0,1
291512,-28.5714285714286,4,2,1,75,0,1
292369,-28.5714285714286,4,2,1,75,0,0
292584,-66.6666666666667,4,2,1,75,0,0
293226,-28.5714285714286,4,2,1,75,0,1
294084,-23.2558139534884,4,2,1,75,0,0
294512,-66.6666666666667,4,2,1,75,0,0
294726,-19.7628458498024,4,2,1,75,0,0
295155,-100,4,2,1,75,0,0
295798,-22.2222222222222,4,2,1,75,0,0
296441,-66.6666666666667,4,2,1,75,0,0
296655,-30.3030303030303,4,2,1,75,0,1
297512,-30.3030303030303,4,2,1,75,0,0
297726,-45.4545454545455,4,2,1,75,0,0
298369,-40,4,2,1,75,0,0
299226,-66.6666666666667,4,2,1,50,0,0
300084,-58.8235294117647,4,2,1,30,0,0
300941,-83.3333333333333,4,2,1,30,0,0
301369,-90.9090909090909,4,2,1,30,0,0
302226,-100,4,2,1,30,0,0
306084,-50,4,2,1,45,0,0
307262,-66.6666666666667,4,2,1,45,0,0
307798,-55.5555555555556,4,2,1,45,0,0
308226,-71.4285714285714,4,2,1,45,0,0
308655,-66.6666666666667,4,2,1,45,0,0
309084,-58.8235294117647,4,2,1,45,0,0
309941,-66.6666666666667,4,2,1,45,0,0
310584,-100,4,2,1,45,0,0
311226,-66.6666666666667,4,2,1,45,0,0
312512,-100,4,2,1,45,0,0
313369,-58.8235294117647,4,2,1,45,0,0
315726,-100,4,2,1,30,0,0
316798,-76.9230769230769,4,2,1,30,0,0
317226,-76.9230769230769,4,2,1,45,0,0
317655,-66.6666666666667,4,2,1,45,0,0
319369,-100,4,2,1,45,0,0
320226,-66.6666666666667,4,2,1,45,0,0
320655,-125,4,2,1,45,0,0
321941,-76.9230769230769,4,2,1,45,0,0
322798,-100,4,2,1,45,0,0
323226,-71.4285714285714,4,2,1,45,0,0
325048,-76.9230769230769,4,2,1,45,0,0
326226,-100,4,2,1,45,0,0
327084,-76.9230769230769,4,2,1,45,0,0
327512,-71.4285714285714,4,2,1,45,0,0
328369,-83.3333333333333,4,2,1,45,0,0
328798,-71.4285714285714,4,2,1,45,0,0
329441,-125,4,2,1,30,0,0
330512,-76.9230769230769,4,2,1,25,0,0

[Colours]
Combo1 : 79,3,218
Combo2 : 158,36,249
Combo3 : 237,134,249
Combo4 : 47,244,224

[HitObjects]
5,269,84,6,0,B|207:239|207:239|186:218|186:218|114:229,1,293.999991027832
97,336,1798,2,0,B|116:173|116:173|104:137|104:137|116:43,1,293.999991027832,2|0,0:0|0:0,0:0:0:0:
117,46,3512,6,0,L|255:60,1,125.999996154785
356,82,4369,2,0,B|383:13|286:-12|260:18|246:99|271:149|315:173|325:164|325:164|375:173|426:271|357:336|265:347|221:275|233:228,1,587.999982055665
258,158,7584,6,0,L|189:164,2,62.9999980773926,2|0|0,0:0|0:0|0:0,0:0:0:0:
106,258,8655,2,0,L|251:244,1,125.999996154785
340,238,9512,6,0,P|317:274|315:330,2,94.499997116089,2|0|0,0:0|0:0|0:0,0:0:0:0:
496,282,10369,2,0,P|454:303|407:303,1,94.499997116089,2|0,0:0|0:0,0:0:0:0:
370,143,11012,2,0,P|409:168|432:209,1,94.499997116089,2|0,0:0|0:0,0:0:0:0:
415,63,11655,5,2,0:0:0:0:
237,101,11976,1,0,0:0:0:0:
331,64,12298,2,0,P|288:93|237:101,1,105,2|0,0:0|0:0,0:0:0:0:
57,26,12941,2,0,L|72:163,2,125.999996154785,2|0|0,0:0|0:0|0:0,0:0:0:0:
57,295,13798,5,2,3:2:0:0:
74,261,14119,1,2,0:0:0:0:
94,293,14441,1,2,0:0:0:0:
0,123,14655,6,0,P|48:159|119:157,1,125.999996154785,8|0,3:0|0:0,0:0:0:0:
196,93,15084,1,2,0:0:0:0:
218,138,15405,1,2,0:0:0:0:
205,186,15726,1,2,0:0:0:0:
88,316,15941,6,0,P|153:282|221:289,1,125.999996154785,0|0,3:0|0:0,0:0:0:0:
306,351,16369,1,8,3:0:0:0:
300,300,16691,1,2,0:0:0:0:
294,250,17012,1,2,0:0:0:0:
345,96,17226,5,2,3:2:0:0:
313,134,17548,1,2,0:0:0:0:
291,88,17869,1,2,0:0:0:0:
427,216,18084,6,0,B|392:192|345:213|355:219|306:240|261:206,1,157.500006008148,8|0,3:0|0:0,0:0:0:0:
224,147,18512,1,2,0:0:0:0:
179,169,18833,1,2,0:0:0:0:
131,156,19154,1,2,0:0:0:0:
51,61,19369,6,0,L|38:168,1,94.499997116089,0|0,3:0|0:0,0:0:0:0:
0,275,19798,2,0,P|55:248|105:256,1,105.000004005432,8|0,3:0|0:0,0:0:0:0:
172,317,20119,1,0,0:0:0:0:
172,317,20226,1,0,0:0:0:0:
186,237,20441,1,0,0:0:0:0:
304,351,20655,6,0,P|266:274|277:173,1,178.500003404617,0|0,3:0|0:0,0:0:0:0:
316,77,21084,2,0,L|253:85,1,59.5000011348725,2|0,0:0|0:0,0:0:0:0:
321,85,21298,2,0,L|258:93,1,59.5000011348725,2|0,0:0|0:0,0:0:0:0:
80,101,21512,2,0,B|69:50|134:33|154:113|104:174,1,178.500003404617,8|0,3:0|0:0,0:0:0:0:
37,242,21941,5,2,0:0:0:0:
104,263,22262,1,2,0:0:0:0:
170,236,22584,1,2,0:0:0:0:
301,260,22798,6,0,L|309:165,1,94.499997116089,0|0,3:0|0:0,0:0:0:0:
242,371,23226,2,0,P|303:344|357:352,2,112,8|0|0,3:0|0:0|0:0,0:0:0:0:
341,80,24084,6,0,B|236:151|111:146|83:49|185:-26|242:72,1,367.49998878479,0|0,3:0|0:0,0:0:0:0:
341,80,24726,2,0,B|279:170|301:278|301:278|310:217|350:183,1,297.500005674362,2|0,0:0|0:0,0:0:0:0:
397,256,25369,2,0,B|487:280|529:197|529:197|414:74|273:221|306:228|207:314|150:314|70:322|-41:304|-101:161|-36:-81|255:-55|294:167|148:234|83:140,1,1063.99997158814,2|0,0:0|0:0,0:0:0:0:
298,336,27512,6,0,L|312:230,1,105,0|0,3:0|0:0,0:0:0:0:
190,153,27941,2,0,B|259:114|327:145|327:145|291:141|259:161,1,210,2|0,0:0|0:0,0:0:0:0:
87,289,28369,2,0,B|118:55|118:55|87:73|87:73|74:173,1,357.000006809235,8|0,1:0|0:0,0:3:0:0:
74,299,28798,2,0,L|84:225,1,70,2|0,0:0|0:0,0:0:0:0:
346,290,29226,6,0,B|311:299|311:299|280:282,1,70,2|0,0:0|0:0,0:0:0:0:
181,175,29441,2,0,B|216:166|216:166|246:182,1,70,2|0,0:0|0:0,0:0:0:0:
191,367,29655,2,0,B|199:296|199:296|191:273|191:273|205:251|205:251|227:75,1,283.500001081467,0|0,3:0|0:0,0:0:0:0:
346,290,30084,2,0,L|354:215,1,70,8|0,1:0|0:0,0:0:0:0:
225,90,30405,5,2,0:0:0:0:
225,90,30512,2,0,L|297:97,2,62.9999980773926,2|0|0,0:0|0:0|0:0,0:0:0:0:
59,70,30834,1,2,0:0:0:0:
143,63,30941,6,0,L|132:125,1,35,0|0,3:0|0:0,0:0:0:0:
90,170,31155,2,0,B|123:187|123:187|154:182,1,70,2|0,0:0|0:0,0:0:0:0:
235,0,31369,2,0,B|246:161|246:161|241:158|241:158|254:324,1,315.000012016297,2|0,0:0|0:0,0:0:0:0:
378,181,31798,5,8,1:0:0:0:
404,263,32012,2,0,P|364:268|335:255,1,70,2|0,0:0|0:0,0:0:0:0:
355,102,32226,2,0,P|395:97|424:110,1,70,2|0,0:0|0:0,0:0:0:0:
512,198,32441,1,0,0:0:0:0:
512,198,32548,1,0,0:0:0:0:
512,198,32655,2,0,L|460:192,1,52.5000020027161
285,171,32869,5,0,0:0:0:0:
221,304,33084,2,0,B|293:241|284:110|208:91|130:148|174:223,1,315.000012016297,0|0,3:0|0:0,0:0:0:0:
312,345,33512,2,0,P|278:316|215:304,1,105.000004005432,8|0,1:0|0:0,0:0:0:0:
54,336,33726,1,0,3:0:0:0:
0,198,33941,6,0,L|5:256,1,52.5000020027161
85,243,34155,2,0,L|80:185,1,52.5000020027161
37,53,34369,5,0,3:0:0:0:
37,53,34584,2,0,B|75:57|75:57|79:53|79:53|111:56,1,70,2|0,0:0|0:0,0:0:0:0:
385,67,34798,2,0,B|345:64|345:64|341:68|341:68|286:63,1,87.5,2|0,0:0|0:0,0:0:0:0:
200,36,35012,2,0,P|207:72|188:43,1,94.5000003604889,2|0,0:0|0:0,0:0:0:0:
224,276,35226,5,8,1:0:0:0:
305,201,35441,2,0,L|315:298,1,80.5000015354157,2|0,0:0|0:0,0:0:0:0:
400,285,35655,2,0,L|391:216,1,62.9999980773926,2|0,0:0|0:0,0:0:0:0:
403,210,35869,2,0,L|415:296,1,70,2|0,0:0|0:0,0:0:0:0:
391,121,36298,5,2,0:0:0:0:
143,302,36512,2,0,B|133:265|133:265|146:237,1,70,0|0,3:0|0:0,0:0:0:0:
224,276,36726,1,0,0:0:0:0:
61,51,36941,5,8,1:0:0:0:
242,82,37155,2,0,B|225:107|225:107|232:164,1,87.5,2|0,0:0|0:0,0:0:0:0:
152,66,37369,2,0,B|135:89|135:89|142:144,1,73.4999977569581,2|0,0:0|0:0,0:0:0:0:
61,51,37584,2,0,B|46:72|46:72|52:120,1,59.5000011348725,2|0,0:0|0:0,0:0:0:0:
323,236,37798,6,0,L|312:131,1,105,0|0,3:0|0:0,0:0:0:0:
336,360,38226,2,0,B|417:369|417:369|433:349|433:349|419:327|419:327|212:303,1,336,2|0,0:0|0:0,0:0:0:0:
9,278,38655,5,8,1:0:0:0:
121,341,38869,2,0,L|118:274,1,52.5000020027161
105,338,39084,2,0,L|102:271,1,52.5000020027161
69,197,39298,1,0,0:0:0:0:
89,201,39405,1,0,0:0:0:0:
109,204,39512,2,0,L|106:137,1,52.5000020027161
74,64,39726,6,0,P|103:55|142:65,1,59.5000011348725,2|0,0:0|0:0,0:0:0:0:
280,30,39941,2,0,P|280:79|264:105,1,59.5000011348725,2|0,0:0|0:0,0:0:0:0:
196,132,40155,2,0,B|271:84|341:121|318:125|382:161|454:115,1,262.500010013581,2|0,0:0|0:0,0:0:0:0:
512,0,40798,6,0,P|498:29|501:61,1,52.5000020027161,2|0,0:0|0:0,0:0:0:0:
447,119,41012,2,0,P|450:151|469:176,1,52.5000020027161,2|0,0:0|0:0,0:0:0:0:
489,333,41226,5,0,3:0:0:0:
512,249,41441,2,0,L|443:256,1,52.5000020027161,2|0,0:0|0:0,0:0:0:0:
304,308,41655,2,0,B|373:361|437:260|370:209|279:194|221:258,1,293.999991027832,2|0,0:0|0:0,0:0:0:0:
85,376,42084,2,0,P|125:315|126:179,1,210,8|0,1:0|0:0,0:0:0:0:
228,252,42512,5,2,0:0:0:0:
269,108,42726,2,0,P|226:182|230:260,1,157.500006008148,2|0,0:0|0:0,0:0:0:0:
127,181,43155,1,2,0:0:0:0:
373,119,43369,2,0,L|268:107,1,105,0|0,3:0|0:0,0:0:0:0:
46,330,43798,5,8,1:0:0:0:
41,178,44012,1,2,0:0:0:0:
35,212,44119,1,2,0:0:0:0:
28,246,44227,2,0,L|97:237,1,70,2|0,0:0|0:0,0:0:0:0:
215,311,44441,2,0,L|143:318,1,70,2|0,0:0|0:0,0:0:0:0:
0,103,44655,2,0,B|53:77|95:104|82:107|126:136|186:105,1,178.500003404617,0|0,3:0|0:0,0:0:0:0:
199,9,45084,6,0,B|209:164|209:164|204:159|204:159|217:328,1,315.000012016297,2|0,0:0|0:0,0:0:0:0:
437,251,45512,2,0,B|514:238|489:332|398:324|344:282,1,210,8|0,1:0|0:0,0:0:0:0:
343,104,45941,2,0,P|304:101|274:119,1,59.5000011348725,2|0,0:0|0:0,0:0:0:0:
295,197,46155,2,0,P|335:199|365:182,1,59.5000011348725,2|0,0:0|0:0,0:0:0:0:
472,141,46369,2,0,P|437:208|441:268,1,119.000002269745,2|0,0:0|0:0,0:0:0:0:
451,376,46691,5,2,0:0:0:0:
511,304,46798,2,0,B|435:257|349:315|378:321|288:373|206:322,1,315.000012016297,0|0,3:0|0:0,0:0:0:0:
123,219,47226,2,0,P|127:277|91:332,1,105.000004005432,8|0,1:0|0:0,0:0:0:0:
124,51,47655,6,0,L|191:57,1,52.5000020027161,2|0,0:0|0:0,0:0:0:0:
96,133,47869,2,0,L|163:139,1,52.5000020027161,2|0,0:0|0:0,0:0:0:0:
357,116,48084,6,0,B|349:53,1,52.5000020027161,0|0,3:0|0:0,0:0:0:0:
258,23,48298,2,0,B|264:68|264:68|262:73|262:73|269:124,1,87.5,2|0,0:0|0:0,0:0:0:0:
276,219,48512,6,0,B|231:190|231:190|387:206,1,195.999994018555,2|0,0:0|0:0,0:0:0:0:
37,237,48941,2,0,B|60:276|60:314|60:314|122:186|68:61,1,336,8|0,1:0|0:0,0:0:0:0:
106,205,49369,6,0,P|108:169|103:141,1,52.5000020027161,2|0,0:0|0:0,0:0:0:0:
71,69,49584,2,0,B|174:77|174:77|181:74|181:74|289:82,1,203.000006195069,2|0,0:0|0:0,0:0:0:0:
106,205,50012,2,0,L|196:210,1,87.5,2|0,0:0|0:0,0:0:0:0:
458,189,50226,2,0,B|372:182|372:182|365:185|365:185|266:177,1,175,0|0,3:0|0:0,0:0:0:0:
436,85,50655,5,8,1:0:0:0:
309,311,50869,2,0,P|312:234|279:172,1,140,0|0,3:0|0:0,0:0:0:0:
86,171,51298,2,0,L|82:102,1,70,2|0,0:0|0:0,0:0:0:0:
332,93,51512,2,0,P|252:152|169:143,1,178.500003404617,0|0,3:0|0:0,0:0:0:0:
65,1,51941,6,0,B|71:125|71:125|68:133|68:133|76:282,1,262.5,2|0,0:0|0:0,0:0:0:0:
82,376,52369,2,0,B|11:391|-2:309|31:267|111:273|158:322,1,241.500004606247,8|0,1:0|0:0,0:0:0:0:
240,369,52798,2,0,L|246:284,1,80.5000015354157,2|0,0:0|0:0,0:0:0:0:
225,192,53012,2,0,P|257:202|284:192,1,52.5000020027161,2|0,0:0|0:0,0:0:0:0:
442,35,53226,6,0,P|425:63|424:93,1,59.5000011348725,0|0,3:0|0:0,0:0:0:0:
339,102,53441,2,0,P|343:134|361:158,1,59.5000011348725
448,310,53655,2,0,L|454:240,1,59.5000011348725,2|0,0:0|0:0,0:0:0:0:
445,167,53869,2,0,L|437:226,1,59.5000011348725,2|0,0:0|0:0,0:0:0:0:
364,279,54084,2,0,L|320:283,3,41.9999987182618
232,184,54512,6,0,L|226:230,1,41.9999987182618,2|0,0:0|0:0,0:0:0:0:
231,300,54726,2,0,L|235:258,1,41.9999987182618,2|0,0:0|0:0,0:0:0:0:
257,108,54941,1,0,3:0:0:0:
86,0,55798,6,0,L|109:196,1,175,2|0,0:0|0:0,0:0:0:0:
118,183,56441,1,2,0:0:0:0:
0,241,56655,2,0,B|51:201|51:201|230:217,1,245
347,272,57512,6,0,P|319:212|325:147,1,112
283,80,58155,2,0,P|296:45|320:24,1,56
512,232,59226,6,0,P|452:204|387:210,1,112
320,168,59869,1,0,0:0:0:0:
225,284,60084,5,2,0:0:0:0:
225,284,60191,2,0,L|173:276,1,35,2|0,0:0|0:0,0:0:0:0:
81,217,60405,1,2,0:0:0:0:
81,217,60512,2,0,L|133:225,1,35,2|0,0:0|0:0,0:0:0:0:
238,205,60726,2,0,L|186:197,1,35,2|0,0:0|0:0,0:0:0:0:
96,47,60941,5,2,0:0:0:0:
96,47,61048,1,2,0:0:0:0:
138,135,61262,1,2,0:0:0:0:
138,135,61369,1,2,0:0:0:0:
199,58,61584,1,2,0:0:0:0:
320,168,61798,6,0,L|313:119,1,41.9999987182618,2|2,3:2|0:0,0:0:0:0:
406,176,62119,2,0,L|399:127,1,41.9999987182618,2|2,0:0|0:0,0:0:0:0:
488,181,62441,1,2,0:0:0:0:
436,298,62655,6,0,L|443:249,1,35,2|2,0:0|0:0,0:0:0:0:
350,306,62976,2,0,L|357:257,1,35,2|2,0:0|0:0,0:0:0:0:
268,311,63298,1,2,0:0:0:0:
235,193,63512,6,0,L|240:234,1,28,2|2,0:0|0:0,0:0:0:0:
149,185,63833,2,0,L|156:234,1,28,2|2,0:0|0:0,0:0:0:0:
67,180,64155,1,2,0:0:0:0:
130,313,64369,6,0,P|76:281|26:284,2,105,2|0|0,0:0|0:0|0:0,0:0:0:0:
236,360,65226,2,0,B|210:321|230:273|241:282|262:237|230:185,1,175,2|0,0:0|0:0,0:0:0:0:
135,96,65869,2,0,P|201:153|339:152,1,209.999993591309,2|0,0:0|0:0,0:0:0:0:
445,104,66512,2,0,B|464:69|426:45|381:104|433:174,1,146.999995513916,2|0,0:0|0:0,0:0:0:0:
501,294,66941,6,0,L|513:186,1,97.9999970092774
501,294,67369,2,0,L|434:302,1,52.5000020027161
348,332,67584,6,0,P|363:293|360:268,1,52.5000020027161,2|0,0:0|0:0,0:0:0:0:
302,156,67798,2,0,B|316:180|316:180|310:211,1,59.5000011348725,2|0,0:0|0:0,0:0:0:0:
275,291,68012,1,0,0:0:0:0:
275,291,68119,1,0,0:0:0:0:
275,291,68226,1,0,0:0:0:0:
302,156,68441,2,0,L|228:165,1,59.5000011348725,2|0,0:0|0:0,0:0:0:0:
168,251,68655,6,0,P|213:171|208:41,1,209.999993591309,0|0,3:0|0:0,0:0:0:0:
213,56,69298,2,0,B|158:106|71:128|15:32|101:1|128:50,1,244.999992523194,2|0,0:0|0:0,0:0:0:0:
126,122,69941,2,0,B|220:197|224:310|155:369|94:362|31:289|101:224,1,385,2|0,0:0|0:0,0:0:0:0:
126,122,71226,6,0,P|74:156|-13:154,2,136.499993751526,2|2|2,0:0|0:0|0:0,0:0:0:0:
200,195,72084,2,0,P|228:132|219:57,1,125.999996154785,2|2,0:0|0:0,0:0:0:0:
408,173,72726,2,0,B|427:110|323:76|298:152|321:220|358:250,1,227.499989585877,2|0,0:0|0:0,0:0:0:0:
436,287,73369,2,0,B|349:244|283:287|298:291|202:352|115:353|62:254|93:144|226:138|244:226,1,500.499977088929,2|0,0:0|0:0,0:0:0:0:
261,67,74655,6,0,P|225:129|233:201,2,146.999995513916,2|2|2,0:0|0:0|0:0,0:0:0:0:
60,73,75512,2,0,B|112:106|166:75|155:68|205:35|268:70,1,209.999993591309,2|0,0:0|0:0,0:0:0:0:
401,9,76155,2,0,P|353:82|352:226,1,209.999993591309,2|0,0:0|0:0,0:0:0:0:
381,321,76798,2,0,B|463:350|488:244|440:189|341:208|294:262|308:263|273:313|178:283,1,385,2|0,0:0|0:0,0:0:0:0:
108,199,78084,6,0,P|106:268|67:322,2,125.999996154785,2|2|2,0:0|0:0|0:0,0:0:0:0:
44,78,78941,2,0,P|89:102|141:102,1,105,2|0,0:0|0:0,0:0:0:0:
75,314,79584,2,0,P|148:268|213:270,1,140,2|0,0:0|0:0,0:0:0:0:
307,323,80226,2,0,B|289:260|326:200|334:223|401:142|374:77|266:17|214:128|251:184,1,385.000011749268,2|0,0:0|0:0,0:0:0:0:
322,341,81512,6,0,P|315:284|350:204,2,136.499993751526,2|2|2,0:0|0:0|0:0,0:0:0:0:
456,106,82369,2,0,L|285:123,1,168,0|0,3:0|0:0,0:0:0:0:
69,202,83226,6,0,P|111:220|156:217,2,90.9999958343508,8|2|2,3:0|0:0|0:0,0:0:0:0:
96,48,83869,2,0,P|126:105|123:150,1,90.9999958343508,2|2,0:0|0:0,0:0:0:0:
218,147,84298,1,2,0:0:0:0:
144,293,84512,2,0,L|157:204,1,77.0000023498536,0|0,3:0|0:0,0:0:0:0:
337,220,84941,6,0,P|286:242|229:232,1,105.000004005432,8|2,3:0|0:0,0:0:0:0:
456,155,85369,2,0,P|429:212|435:264,1,105.000004005432,2|2,0:0|0:0,0:0:0:0:
512,76,85798,6,0,P|466:115|328:120,1,195.999994018555,2|0,3:2|0:0,0:0:0:0:
267,54,86441,1,2,0:0:0:0:
220,236,86655,2,0,P|243:186|241:132,1,97.9999970092774,8|0,3:0|0:0,0:0:0:0:
150,31,87084,2,0,B|107:51|66:44|66:44|159:97|279:48,1,293.999991027832,2|0,0:0|0:0,0:0:0:0:
374,24,87941,6,0,L|368:100,1,56,0|0,3:0|0:0,0:0:0:0:
345,264,88369,2,0,P|382:245|436:244,2,90.9999958343508,8|2|2,3:0|0:0|0:0,0:0:0:0:
362,161,89012,1,2,0:0:0:0:
267,308,89226,1,2,3:2:0:0:
267,308,89441,2,0,B|240:260|267:217|271:224|294:186|265:133,1,175,2|0,0:0|0:0,0:0:0:0:
165,64,90084,6,0,L|288:58,1,112,8|0,3:0|0:0,0:0:0:0:
184,144,90726,2,0,L|279:139,1,83.9999974365235,2|0,0:0|0:0,0:0:0:0:
242,338,91369,5,0,3:0:0:0:
331,333,91584,1,2,0:0:0:0:
138,373,91798,2,0,P|158:318|152:283,1,83.9999974365235,8|0,3:0|0:0,0:0:0:0:
90,153,92226,2,0,P|69:207|75:242,1,83.9999974365235,2|0,0:0|0:0,0:0:0:0:
0,63,92655,6,0,P|87:123|209:124,1,227.499989585877,0|0,3:0|0:0,0:0:0:0:
302,16,93298,2,0,P|236:123|240:226,1,209.999993591309,2|0,0:0|0:0,0:0:0:0:
282,330,93941,2,0,B|245:349|161:347|150:268|173:159|305:202|340:258|329:270|384:304|467:281,1,423.500012924195,2|0,0:0|0:0,0:0:0:0:
455,283,95226,2,0,P|442:250|448:194,2,84,2|0|0,0:0|0:0|0:0,0:0:0:0:
476,87,96084,6,0,L|433:84,5,35,8|0|0|0|0|0,3:0|0:0|0:0|0:0|0:0|0:0,0:0:0:0:
330,114,96726,2,0,L|287:111,5,35,8|0|0|0|0|0,3:0|0:0|0:0|0:0|0:0|0:0,0:0:0:0:
178,140,97369,2,0,L|135:137,3,35,8|0|0|0,3:0|0:0|0:0|0:0,0:0:0:0:
169,51,97798,5,0,0:0:0:0:
169,258,98012,2,0,L|111:252,3,35,8|0|0|0,3:0|0:0|0:0|0:0,0:0:0:0:
178,140,98441,2,0,P|155:196|168:257,1,125.999996154785,2|0,0:0|0:0,0:0:0:0:
287,269,98762,2,0,P|309:212|297:152,1,125.999996154785,2|0,0:0|0:0,0:0:0:0:
233,52,99084,6,0,L|289:57,3,41.9999987182618,8|0|0|0,3:0|0:0|0:0|0:0,0:0:0:0:
25,79,99512,2,0,P|17:54|22:23,2,41.9999987182618,8|0|0,3:0|0:0|0:0,0:0:0:0:
125,23,99834,2,0,P|133:48|128:79,2,41.9999987182618,2|0|0,0:0|0:0|0:0,0:0:0:0:
81,223,100155,6,0,P|112:225|140:209,1,48.9999985046387,8|0,3:0|0:0,0:0:0:0:
81,231,100369,2,0,P|112:233|140:217,1,48.9999985046387
91,140,100584,1,0,0:0:0:0:
166,353,100798,1,8,3:0:0:0:
166,353,100905,1,0,0:0:0:0:
166,353,101012,2,0,L|174:286,1,48.9999985046387
281,327,101226,1,0,0:0:0:0:
45,364,101441,1,8,3:0:0:0:
45,364,101548,1,0,0:0:0:0:
45,364,101655,2,0,L|53:297,1,48.9999985046387
281,327,101869,6,0,P|249:272|257:196,1,140,2|0,0:0|0:0,0:0:0:0:
462,85,102191,2,0,L|388:80,1,70,8|0,3:0|0:0,0:0:0:0:
200,105,102405,1,0,0:0:0:0:
291,39,102512,2,0,L|300:110,1,59.5000011348725,8|0,3:0|0:0,0:0:0:0:
283,32,102726,2,0,L|292:103,1,59.5000011348725
364,303,102941,6,0,L|373:243,5,35,0|0|0|0|0|0,3:0|0:0|0:0|0:0|0:0|0:0,0:0:0:0:
450,294,103584,1,8,3:0:0:0:
276,308,103798,2,0,L|285:248,1,35,0|0,3:0|0:0,0:0:0:0:
284,316,104012,2,0,L|293:256,1,35
450,294,104226,1,8,3:0:0:0:
450,294,104334,1,0,0:0:0:0:
450,294,104441,2,0,L|459:234,1,35
391,120,104655,5,0,3:0:0:0:
364,303,104869,1,8,3:0:0:0:
391,120,105084,2,0,B|334:184|233:191|206:117|273:78|313:125,1,241.500004606247,0|0,3:0|0:0,0:0:0:0:
180,34,105512,2,0,P|228:150|195:303,1,262.5,0|0,3:0|0:0,0:0:0:0:
70,326,105941,2,0,L|372:302,1,293.999991027832,0|0,3:0|0:0,0:0:0:0:
450,354,106369,5,0,3:0:0:0:
472,311,106476,1,0,3:0:0:0:
486,256,106584,1,0,3:0:0:0:
484,191,106691,1,0,3:0:0:0:
469,120,106798,1,0,3:0:0:0:
418,57,106905,1,0,3:0:0:0:
331,37,107012,1,0,3:0:0:0:
245,81,107119,1,0,3:0:0:0:
220,182,107226,2,0,L|202:4,1,161.000003070831,0|0,3:0|0:0,0:0:0:0:
37,86,107548,5,0,0:0:0:0:
117,13,107655,2,0,L|126:109,1,80.5000015354157,8|0,3:0|0:0,0:0:0:0:
138,250,107869,1,0,3:0:0:0:
331,37,108084,1,0,3:0:0:0:
400,336,108834,6,0,L|401:297,1,35
386,344,108941,2,0,L|389:259,1,70
484,173,109155,2,0,L|480:242,1,70
284,333,109369,5,0,0:0:0:0:
263,260,109476,1,0,0:0:0:0:
297,209,109584,1,0,0:0:0:0:
285,161,109691,1,0,0:0:0:0:
373,70,109798,6,0,B|438:14|544:66|529:161|465:258|366:233|241:109|255:109|250:-25|10:-62|-27:82|-9:177|25:245|142:249|184:178,1,857.500008177757,0|0,3:0|0:0,0:0:0:0:
163,28,110655,5,8,1:0:0:0:
170,284,110869,2,0,B|166:236|166:236|169:225|169:225|167:197,1,87.5,2|0,0:0|0:0,0:0:0:0:
251,123,111084,2,0,L|267:317,1,188.999994232178,2|0,0:0|0:0,0:0:0:0:
355,109,111512,6,0,B|432:13|617:59|547:266|477:290|377:232|273:179|304:168|210:136|110:147|42:202|42:202|110:179|176:200,1,857.500008177757,0|0,3:0|0:0,0:0:0:0:
266,311,112369,5,8,1:0:0:0:
158,324,112584,2,0,L|165:278,1,35,2|0,0:0|0:0,0:0:0:0:
51,332,112905,2,0,L|58:286,1,35,2|0,0:0|0:0,0:0:0:0:
137,93,113226,6,0,B|95:38|2:68|-10:174|64:219|166:225|240:154,1,367.500003504753,0|0,3:0|0:0,0:0:0:0:
318,48,113655,2,0,P|250:181|269:318,1,283.500001081467,2|0,0:0|0:0,0:0:0:0:
367,351,114084,6,0,B|74:329|74:329|51:294|51:294|179:304,1,451.500006889343,8|0,1:0|0:0,0:0:0:0:
173,293,114512,2,0,L|101:287,1,52.5000020027161,2|0,0:0|0:0,0:0:0:0:
0,174,114726,6,0,B|0:173|0:173|0:174|0:174|5:176|9:178|9:178|9:179|9:179|9:178|9:178|14:180|18:182|18:182|19:181|19:181|18:182|18:182|24:183|28:185|28:185|28:186|28:186|28:185|28:185|33:186|38:188|38:188|38:187|38:187|38:188|38:188|43:189|47:190|47:190|47:191|47:191|47:190|47:190|52:191|57:192|57:192|57:191|57:191|57:192|57:192|63:193|67:193|67:193|67:194|67:194|67:193|67:193|72:193|77:194|77:194|77:193|77:193|77:194|77:194|82:194|87:194|87:194|87:195|87:195|87:194|87:194|92:194|97:194|97:194|97:193|97:193|97:194|97:194|100:193|107:193|107:193|107:194|107:194|107:193|107:193|111:192|117:191|117:191|117:190|117:190|117:191|117:191|122:190|127:189|127:189|127:190|127:190|127:189|127:189|132:188|136:186|136:186|136:185|136:185|136:186|136:186|141:185|146:183|146:183|146:184|146:184|146:183|146:183|149:182|155:179|155:179|155:178|155:178|155:179|155:179|159:177|164:175|164:175|164:176|164:176|164:175|164:175|169:172|173:170|173:170|172:169|172:169|173:170|173:170|178:167|181:165|181:165|182:166|182:166|181:165|181:165|185:162|190:159|190:159|189:159|189:159|190:159|190:159|193:157|198:154|198:154|198:154|198:154|198:154|198:154|200:152|206:148|206:148|205:147|205:147|206:148|206:148|212:144|214:142|214:142|215:143|215:143|214:142|214:142|218:139|222:136|222:136|222:135|222:135|222:136|222:136|227:133|231:131|231:131|231:132|231:132|231:131|231:131|236:127|239:125|239:125|239:125|239:125|239:125|239:125|244:122|248:120|248:120|248:121|248:121|248:120|248:120|252:118|257:116|257:116|256:115|256:115|257:116|257:116|260:114|266:112|266:112|266:113|266:113|266:112|266:112|270:110|275:108|275:108|275:107|275:107|275:108|275:108|280:106|284:105|284:105|285:106|285:106|284:105|284:105|290:103|294:102|294:102|294:101|294:101|294:102|294:102|300:100|304:100|304:100|304:101|304:101|304:100|304:100|308:99|314:98|314:98|313:97|313:97|314:98|314:98|319:97|324:97|324:97|324:98|324:98|324:97|324:97|329:96|333:96|333:96|333:95|333:95|333:96|333:96|339:96|343:96|343:96|343:97|343:97|343:96|343:96|350:97|353:97|353:97|354:96|354:96|353:97|353:97|359:97|363:98|363:98|363:99|363:99|363:98|363:98|369:99|373:100|373:100|373:99|373:99|373:100|373:100|379:101|383:102|383:102|383:103|383:103|383:102|383:102|387:104|392:105|392:105|393:104|393:104|392:105|392:105|396:107|402:109|402:109|401:110|401:110|402:109|402:109|406:111|411:113|411:113|411:112|411:112|411:113|411:113|412:113,1,530.991125824802,0|0,3:0|0:0,0:0:0:0:
483,197,115155,1,0,3:0:0:0:
449,0,115369,2,0,P|437:80|485:199,1,210,2|0,0:0|0:0,0:0:0:0:
276,268,115798,5,8,1:0:0:0:
511,284,116012,2,0,L|267:267,1,236.250009012223,2|0,0:0|0:0,0:0:0:0:
188,262,116226,1,0,0:0:0:0:
369,350,116441,2,0,L|361:290,1,52.5000020027161
404,54,116655,6,0,B|480:6|533:112|492:175|362:176|293:123|271:26|271:26|258:115|207:192|109:216|2:183|12:69|72:13|152:56,1,857.500008177757,0|0,3:0|0:0,0:0:0:0:
226,163,117512,5,8,1:0:0:0:
137,49,117726,2,0,B|144:328|144:328|147:268|185:228,1,385.000011749268,2|0,0:0|0:0,0:0:0:0:
389,36,118369,6,0,B|293:93|203:192|221:339|286:355|392:358|451:285|442:160|305:74|162:100|102:155|102:155|142:136|185:145,1,857.500008177757,0|0,3:0|0:0,0:0:0:0:
247,36,119226,5,8,1:0:0:0:
143,8,119441,2,0,L|147:46,1,35,2|0,0:0|0:0,0:0:0:0:
40,0,119762,2,0,L|44:38,1,35,2|0,0:0|0:0,0:0:0:0:
0,209,120084,6,0,B|96:134|183:206|165:210|258:275|354:200,1,367.500003504753,0|0,3:0|0:0,0:0:0:0:
431,22,120512,2,0,P|372:194|401:303,1,283.500001081467,2|0,0:0|0:0,0:0:0:0:
151,317,120941,6,0,P|127:357|129:391,1,65.3333313395183,8|0,1:0|0:0,0:0:0:0:
68,238,121084,6,0,P|38:246|18:270,1,63.0000002403259,2|0,0:0|0:0,0:0:0:0:
72,134,121227,6,0,P|48:115|18:111,1,60.6666638895672,2|0,0:0|0:0,0:0:0:0:
149,64,121370,6,0,P|140:36|118:18,1,58.3333333333333,2|0,0:0|0:0,0:0:0:0:
241,55,121513,6,0,P|251:27|247:0,1,55.9999982910157,2|0,0:0|0:0,0:0:0:0:
322,83,121656,6,0,P|341:55|341:26,1,53.6666676902771,2|0,0:0|0:0,0:0:0:0:
387,119,121798,6,0,P|404:90|405:58,1,51.3333348999024,2|0,0:0|0:0,0:0:0:0:
451,132,121941,6,0,P|457:102|453:75,1,48.9999985046387,2|0,0:0|0:0,0:0:0:0:
503,112,122084,6,0,P|499:88|479:70,1,46.6666666666667,2|0,0:0|0:0,0:0:0:0:
270,194,122226,6,0,B|224:296|376:338|416:241|393:119|314:79,1,367.500003504753,0|0,3:0|0:0,0:0:0:0:
180,254,122655,1,8,1:0:0:0:
512,227,122869,2,0,L|400:212,1,105,0|0,3:0|0:0,0:0:0:0:
512,318,123298,2,0,L|459:311,1,52.5000020027161,2|0,0:0|0:0,0:0:0:0:
180,254,123512,6,0,B|132:270|106:346|183:402|302:398|323:298|334:171|331:12|281:-93|157:-83|-8:-79|-40:97|54:271|240:168|238:105,1,857.500008177757,0|0,3:0|0:0,0:0:0:0:
357,270,124369,5,8,1:0:0:0:
94,249,124584,2,0,B|142:254|142:254|148:250|148:250|196:255,1,87.5,2|0,0:0|0:0,0:0:0:0:
280,340,124798,2,0,L|261:143,1,188.999994232178,2|0,0:0|0:0,0:0:0:0:
314,28,125226,6,0,B|392:-52|524:-6|532:195|415:233|275:176|190:111|246:94|153:-24|16:-84|-67:64|-68:166|70:200|115:125,1,857.500008177757,0|0,3:0|0:0,0:0:0:0:
183,28,126084,5,8,1:0:0:0:
122,239,126298,2,0,P|96:177|106:127,1,105.000004005432,0|0,3:0|0:0,0:0:0:0:
239,360,126619,2,0,P|265:298|255:248,1,105.000004005432,0|0,3:0|0:0,0:0:0:0:
122,239,126941,2,0,L|361:222,1,220.499993270874
428,93,127369,6,0,B|366:144|322:232|349:359|472:375|539:302|522:221|467:196,1,420,0|0,3:0|0:0,0:0:0:0:
284,66,127798,2,0,B|139:77|139:77|163:110|163:110|465:90,1,451.500006889343,8|0,1:0|0:0,0:0:0:0:
512,85,128226,1,0,0:0:0:0:
462,310,128441,6,0,B|373:248|275:307|292:315|205:370|104:302,1,367.500003504753,0|0,3:0|0:0,0:0:0:0:
113,308,128869,2,0,B|188:242|202:118|165:68|38:72|53:202|125:218,1,367.500003504753,2|0,0:0|0:0,0:0:0:0:
274,345,129298,5,0,3:0:0:0:
172,100,129512,1,8,1:0:0:0:
407,118,129726,2,0,L|168:99,1,236.250009012223,2|0,0:0|0:0,0:0:0:0:
90,93,129941,1,0,0:0:0:0:
260,27,130155,2,0,L|271:82,1,52.5000020027161
373,350,130369,6,0,B|481:337|475:144|298:155|238:262|234:379|234:379|247:194|60:120|-48:236|48:362|122:312|140:292,1,857.500008177757,0|0,3:0|0:0,0:0:0:0:
199,207,131226,1,8,1:0:0:0:
48,110,131441,2,0,B|101:97|132:39|132:39|104:315,1,385.000011749268,2|0,0:0|0:0,0:0:0:0:
199,207,132084,6,0,B|270:341|454:354|571:311|605:127|559:-5|403:-62|246:-7|222:93|251:178|339:223|397:190|416:149,1,857.500008177757,0|0,3:0|0:0,0:0:0:0:
230,36,132941,5,8,1:0:0:0:
334,8,133156,2,0,L|330:46,1,35,2|0,0:0|0:0,0:0:0:0:
437,0,133477,2,0,L|433:38,1,35,2|0,0:0|0:0,0:0:0:0:
373,285,133798,6,0,B|431:259|496:264|496:264|420:221|303:189|173:163|85:234|64:316|149:425|253:404|289:336|301:201|262:100,1,881.999973083497,0|0,3:0|0:0,0:0:0:0:
169,37,134655,2,0,P|219:74|342:84,1,188.999994232178,8|0,1:0|0:0,0:0:0:0:
454,32,135726,2,0,L|444:143,2,105.000004005432,2|2|2,0:0|0:0|0:0,0:0:0:0:
511,307,136369,6,0,B|468:266|468:266|290:285,1,241.500004606247,8|0,1:0|0:0,0:0:0:0:
153,318,136798,2,0,L|163:260,1,52.5000020027161
287,286,137012,1,0,0:0:0:0:
241,64,137226,6,0,B|210:81|178:78|178:78|249:106|328:74,1,209.999993591309,0|0,3:0|0:0,0:0:0:0:
363,0,137869,2,0,B|324:61|355:124|368:107|397:175|353:241,1,244.999992523194,2|0,0:0|0:0,0:0:0:0:
234,350,138512,2,0,B|294:405|398:412|456:319|426:192|297:151|160:273|180:274|94:344|-2:297|-2:297|72:302|126:255,1,770,2|0,0:0|0:0,0:0:0:0:
233,0,139798,6,0,L|246:146,1,140,8|0,1:0|0:0,0:0:0:0:
111,126,140119,2,0,P|184:116|253:145,1,140,2|0,0:0|0:0,0:0:0:0:
347,149,140441,2,0,P|334:171|334:239,1,70,2|0,0:0|0:0,0:0:0:0:
316,349,140655,6,0,B|316:348|316:348|316:349|316:349|320:353|323:356|323:356|323:356|323:356|323:356|323:356|327:359|331:362|331:362|332:361|332:361|331:362|331:362|336:365|340:367|340:367|339:368|339:368|340:367|340:367|344:369|349:372|349:372|349:371|349:371|349:372|349:372|353:374|358:376|358:376|357:377|357:377|358:376|358:376|362:378|367:380|367:380|367:379|367:379|367:380|367:380|372:381|377:382|377:382|376:383|376:383|377:382|377:382|381:383|386:385|386:385|387:384|387:384|386:385|386:385|392:386|396:386|396:386|396:387|396:387|396:386|396:386|401:386|406:387|406:387|406:386|406:386|406:387|406:387|410:387|416:386|416:386|416:387|416:387|416:386|416:386|422:386|426:386|426:386|426:385|426:385|426:386|426:386|432:385|436:384|436:384|436:385|436:385|436:384|436:384|441:383|446:381|446:381|446:381|446:381|446:381|446:381|451:379|455:378|455:378|455:378|455:378|455:378|455:378|460:376|464:373|464:373|464:373|464:373|464:373|464:373|468:371|473:368|473:368|473:369|473:369|473:368|473:368|477:365|480:362|480:362|480:361|480:361|480:362|480:362|484:358|487:355|487:355|488:355|488:355|487:355|487:355|491:351|493:347|493:347|493:346|493:346|493:347|493:347|496:343|498:338|498:338|499:338|499:338|498:338|498:338|500:334|502:328|502:328|501:328|501:328|502:328|502:328|503:324|504:319|504:319|504:319|504:319|504:319|504:319|504:313|504:309|504:309|504:309|504:309|504:309|504:309|504:303|504:299|504:299|504:299|504:299|504:299|504:299|503:294|502:289|502:289|501:289|501:289|502:289|502:289|501:285|498:280|498:280|499:279|499:279|498:280|498:280|496:275|494:271|494:271|493:271|493:271|494:271|494:271|491:267|488:263|488:263|488:262|488:262|488:263|488:263|484:258|481:255|481:255|481:256|481:256|481:255|481:255|478:252|474:249|474:249|474:248|474:248|474:249|474:249|470:246|465:243|465:243|465:243|465:243|465:243|465:243|461:240|457:238|457:238|457:237|457:237|457:238|457:238|452:236|447:234|447:234|447:235|447:235|447:234|447:234|444:232|438:231|438:231|438:230|438:230|438:231|438:231|433:229|428:228|428:228|428:229|428:229|428:228|428:228|424:227|418:226|418:226|419:226|419:226|418:226|418:226|413:226|409:225|409:225|408:226|408:226|409:225|409:225|402:225|399:225|399:225|399:224|399:224|399:225|399:225|394:225|389:225|389:225|389:226|389:226|389:225|389:225|382:225|379:225|379:225|379:225|379:225|379:225|379:225|373:226|369:226|369:226|369:227|369:227|369:226|369:226|364:227|359:228|359:228|359:227|359:227|359:228|359:228|354:229|349:230|349:230|349:231|349:231|349:230|349:230|344:231|339:232|339:232|339:232|339:232|339:232|339:232|335:233|330:235|330:235|330:236|330:236|330:235|330:235|326:236|320:238|320:238|320:237|320:237|320:238|320:238|317:239|311:241|311:241|311:242|311:242|311:241|311:241|308:242|301:245|301:245|301:244|301:244|301:245|301:245|298:246|292:249|292:249|292:249|292:249|292:249|292:249|285:252|283:253|283:253|283:252|283:252|283:253|283:253|276:256|274:257|274:257|274:258|274:258|274:257|274:257|268:260|265:261|265:261|265:261|265:261|265:261|265:261|260:264|256:266|256:266|256:267|256:267|256:266|256:266|251:268|247:271|247:271|247:270|247:270|247:271|247:271|243:273|238:275|238:275|239:276|239:276|238:275|238:275|229:280|229:280|229:279|229:279|229:280|229:280|224:283|221:285|221:285|221:285|221:285|221:285|221:285|215:288|212:289|212:289|211:289|211:289|212:289|212:289|205:292|203:294|203:294|203:294|203:294|203:294|203:294|197:296|194:298|194:298|193:297|193:297|194:298|194:298|190:300|184:302|184:302|185:302|185:302|184:302|184:302|179:304|175:305|175:305|175:304|175:304|175:305|175:305|170:307|166:308|166:308|166:309|166:309|166:308|166:308|161:310|156:311|156:311|156:310|156:310|156:311|156:311|151:312|146:313|146:313|146:314|146:314|146:313|146:313|140:314|136:315|136:315|136:314|136:314|136:315|136:315|131:316|126:316|126:316|126:317|126:317|126:316|126:316|122:316|116:317|116:317|116:316|116:316|116:317|116:317|111:317|106:317|106:317|106:318|106:318|106:317|106:317|102:317|96:316|96:316|96:316|96:316|96:316|96:316|92:316|86:315|86:315|86:316|86:316|86:315|86:315|82:315|77:314|77:314|77:313|77:313|77:314|77:314|72:313|67:312|67:312|67:313|67:313|67:312|67:312|62:311|57:309|57:309|57:309|57:309|57:309|57:309|51:307|48:306|48:306|47:307|47:307|48:306|48:306|42:304|38:302|38:302|39:301|39:301|38:302|38:302|34:300|30:297|30:297|29:298|29:298|30:297|30:297|26:295|21:292|21:292|22:292|22:292|21:292|21:292|17:289|13:286|13:286|13:287|13:287|13:286|13:286|10:283|7:280|7:280|8:280|8:280|8:281|8:281|8:280|8:280|13:282|18:283|18:283|18:283|18:283|18:283|18:283|23:285|28:286|28:286|27:286|27:286|28:286|28:286|32:287|37:288|37:288|37:287|37:287|37:288|37:288|42:288|47:289|47:289|47:290|47:290|47:289|47:289|52:289|57:290|57:290|57:289|57:289|57:290|57:290|62:290|67:290|67:290|67:290|67:290|67:290|67:290|72:290|77:289|77:289|77:288|77:288|77:289|77:289|82:289|87:288|87:288|87:289|87:289|87:288|87:288|92:287|97:286|97:286|97:286|97:286|97:286|97:286|102:285|107:284|107:284|107:285|107:285|107:284|107:284|112:283|116:282|116:282|116:281|116:281|116:282|116:282|121:280|126:278|126:278|126:279|126:279|126:278|126:278|127:278,1,1062.54291441773,0|0,3:0|0:0,0:0:0:0:
327,214,141512,5,8,1:0:0:0:
231,175,141726,6,0,L|227:235,1,58.3333333333333,2|0,0:0|0:0,0:0:0:0:
240,240,141869,6,0,B|249:129,1,93.3333333333333,2|0,0:0|0:0,0:0:0:0:
294,60,142084,2,0,L|206:65,1,87.5000033378602
234,337,142369,5,0,3:0:0:0:
145,139,142584,2,0,B|140:182|140:182|142:189|142:189|138:235,1,87.5,2|0,0:0|0:0,0:0:0:0:
240,240,142798,2,0,B|139:252|139:252|132:248|132:248|20:260,1,210.000008010865,2|0,0:0|0:0,0:0:0:0:
330,139,143226,5,8,1:0:0:0:
313,375,143440,2,0,L|330:131,1,236.250009012223,2|0,0:0|0:0,0:0:0:0:
335,51,143654,1,0,0:0:0:0:
240,240,143869,2,0,L|300:232,1,52.5000020027161
449,91,144084,6,0,B|525:51|571:180|491:213|386:207|300:158|256:42|256:42|265:150|260:263|174:348|60:289|55:227|79:152|154:141,1,857.500008177757,0|0,3:0|0:0,0:0:0:0:
158,95,144941,1,8,1:0:0:0:
23,153,145155,2,0,P|56:176|105:177,1,80.5000015354157,2|0,0:0|0:0,0:0:0:0:
134,17,145369,2,0,B|108:264,1,241.500004606247,2|0,0:0|0:0,0:0:0:0:
98,345,145798,5,0,3:0:0:0:
296,308,146012,2,0,B|331:354|276:379|215:380|196:302|222:221|296:198|286:217|371:187|395:120|380:44|365:-21|234:0|208:45|216:110|243:144,1,577.500005507469,2|0,0:0|0:0,0:0:0:0:
411,280,146655,5,8,1:0:0:0:
341,186,146869,2,0,L|485:174,1,140,2|0,0:0|0:0,0:0:0:0:
488,163,147191,2,0,L|348:174,1,140,2|0,0:0|0:0,0:0:0:0:
119,225,147512,6,0,B|58:244|26:299|32:384|113:449|231:393|281:363|307:277|286:57|238:-79|106:-102|-56:-15|-80:80|51:178|106:145|140:52,1,857.500008177757,0|0,3:0|0:0,0:0:0:0:
304,61,148369,6,0,P|305:24|292:0,1,65.3333313395183,8|0,1:0|0:0,0:0:0:0:
413,97,148512,6,0,P|434:59|431:39,1,63.0000002403259,2|0,0:0|0:0,0:0:0:0:
458,189,148655,6,0,P|501:179|521:158,1,60.6666638895672,2|0,0:0|0:0,0:0:0:0:
447,278,148798,6,0,P|480:302|512:300,1,58.3333333333333,2|0,0:0|0:0,0:0:0:0:
373,322,148941,6,0,P|387:355|411:369,1,55.9999982910157,2|0,0:0|0:0,0:0:0:0:
294,314,149084,6,0,P|280:350|281:377,1,53.6666676902771,2|0,0:0|0:0,0:0:0:0:
250,263,149226,6,0,P|215:274|197:294,1,51.3333348999024,2|0,0:0|0:0,0:0:0:0:
251,211,149369,6,0,P|221:200|189:206,1,48.9999985046387,2|0,0:0|0:0,0:0:0:0:
284,175,149512,6,0,P|262:151|230:143,1,46.6666666666667,2|0,0:0|0:0,0:0:0:0:
109,220,149655,6,0,B|202:275|298:210|281:204|366:139|466:193,1,367.500003504753,0|0,3:0|0:0,0:0:0:0:
496,303,150084,1,8,1:0:0:0:
387,80,150298,2,0,L|371:256,1,175,0|0,3:0|0:0,0:0:0:0:
326,371,150941,2,0,B|351:394|409:403|446:322|396:273|337:281|337:281|107:305,1,440.999986541748
193,214,151798,6,0,B|193:215|193:215|193:214|193:214|183:215|183:215|183:214|183:214|183:215|183:215|173:216|173:216|173:218|173:218|173:216|173:216|163:217|163:217|163:216|163:216|163:217|163:217|153:219|153:219|153:220|153:220|153:219|153:219|143:220|143:220|143:218|143:218|143:220|143:220|133:221|133:221|134:222|134:222|133:221|133:221|123:222|123:222|123:221|123:221|123:222|123:222|114:223|114:223|114:225|114:225|114:223|114:223|104:224|104:224|103:223|103:223|104:224|104:224|94:225|94:225|94:227|94:227|94:225|94:225|84:227|84:227|84:225|84:225|84:227|84:227|74:228|74:228|74:229|74:229|74:228|74:228|64:229|64:229|64:227|64:227|64:229|64:229|63:229|63:229|58:230|54:229|54:229|54:231|54:231|54:229|54:229|49:229|44:228|44:228|44:227|44:227|44:228|44:228|40:227|35:225|35:225|34:226|34:226|35:225|35:225|31:223|26:220|26:220|27:219|27:219|26:220|26:220|22:217|19:213|19:213|17:214|17:214|19:213|19:213|15:209|13:205|13:205|14:204|14:204|13:205|13:205|10:201|9:196|9:196|7:196|7:196|9:196|9:196|7:191|7:186|7:186|8:186|8:186|7:186|7:186|7:181|7:176|7:176|6:176|6:176|7:176|7:176|8:171|10:166|10:166|11:167|11:167|10:166|10:166|12:162|14:158|14:158|13:157|13:157|14:158|14:158|17:153|21:150|21:150|22:151|22:151|21:150|21:150|24:147|28:143|28:143|27:142|27:142|28:143|28:143|32:141|37:139|37:139|38:140|38:140|37:139|37:139|42:137|47:135|47:135|46:134|46:134|47:135|47:135|50:135|54:134|54:134|56:134|56:134|57:135|57:135|56:134|56:134|66:133|66:133|66:131|66:131|66:133|66:133|76:131|76:131|76:133|76:133|76:131|76:131|86:130|86:130|86:129|86:129|86:130|86:130|96:129|96:129|96:130|96:130|96:129|96:129|106:128|106:128|106:126|106:126|106:128|106:128|116:127|116:127|116:128|116:128|116:127|116:127|126:125|126:125|126:124|126:124|126:125|126:125|136:124|136:124|136:126|136:126|136:124|136:124|146:123|146:123|146:122|146:122|146:123|146:123|156:122|156:122|156:123|156:123|156:122|156:122|166:121|166:121|165:119|165:119|166:121|166:121|176:120|176:120|176:121|176:121|176:120|176:120|185:118|185:118|185:117|185:117|185:118|185:118|195:117|195:117|196:119|196:119|195:117|195:117|205:116|205:116|205:114|205:114|205:116|205:116|215:115|215:115|215:116|215:116|215:115|215:115|225:114|225:114|225:112|225:112|225:114|225:114|235:112|235:112|235:114|235:114|235:112|235:112|245:111|245:111|245:110|245:110|245:111|245:111|255:110|255:110|255:112|255:112|255:110|255:110|265:109|265:109|265:107|265:107|265:109|265:109|275:108|275:108|275:109|275:109|275:108|275:108|285:106|285:106|285:105|285:105|285:106|285:106|295:105|295:105|295:107|295:107|295:105|295:105|305:104|305:104|304:103|304:103|305:104|305:104|315:103|315:103|315:104|315:104|315:103|315:103|324:102|324:102|324:100|324:100|324:102|324:102|334:101|334:101|335:102|335:102|334:101|334:101|344:99|344:99|344:98|344:98|344:99|344:99|354:98|354:98|354:100|354:100|354:98|354:98|364:97|364:97|364:96|364:96|364:97|364:97|374:96|374:96|374:97|374:97|374:96|374:96|384:95|384:95|384:93|384:93|384:95|384:95|394:93|394:93|394:95|394:95|394:93|394:93|398:93|398:93|402:93|404:93|404:93|404:91|404:91|404:93|404:93|409:93|414:94|414:94|414:95|414:95|414:94|414:94|419:95|423:97|423:97|424:95|424:95|423:97|423:97|428:99|432:102|432:102|431:103|431:103|432:102|432:102|436:105|440:108|440:108|441:107|441:107|440:108|440:108|443:112|446:116|446:116|444:117|444:117|446:116|446:116|448:120|450:125|450:125|451:125|451:125|450:125|450:125|452:130|452:135|452:135|451:135|451:135|452:135|452:135|453:140|453:145|453:145|454:145|454:145|453:145|453:145|452:150|451:155|451:155|450:154|450:154|451:155|451:155|449:159|447:164|447:164|448:165|448:165|447:164|447:164|445:168|441:172|441:172|440:171|440:171|441:172|441:172|438:176|434:179|434:179|435:180|435:180|434:179|434:179|429:182|425:184|425:184|425:182|425:182|425:184|425:184|421:186|416:187|416:187|416:189|416:189|416:187|416:187|412:188|407:189|407:189|406:189|406:189|406:188|406:188|406:189|406:189|396:190|396:190|396:192|396:192|396:190|396:190|386:191|386:191|386:190|386:190|386:191|386:191|376:192|376:192|376:194|376:194|376:192|376:192|366:193|366:193|366:192|366:192|366:193|366:193|356:194|356:194|357:196|357:196|356:194|356:194|347:196|347:196|346:194|346:194|347:196|347:196|337:197|337:197|337:198|337:198|337:197|337:197|327:198|327:198|326:196|326:196|327:198|327:198|317:199|317:199|317:200|317:200|317:199|317:199|307:200|307:200|307:198|307:198|307:200|307:200|297:201|297:201|297:202|297:202|297:201|297:201|290:202,1,1179.38179555809,8|0,1:0|0:0,0:0:0:0:
109,109,152655,2,0,B|37:39|92:-58|218:-63|270:31|244:94|193:180|181:161|113:209|86:323|135:391|203:437|325:428|384:364|388:289|335:195|273:200,1,857.500008177757,0|0,3:0|0:0,0:0:0:0:
131,241,153512,5,8,1:0:0:0:
109,109,153726,2,0,P|103:145|88:168,1,52.5000020027161,2|0,0:0|0:0,0:0:0:0:
36,274,153941,2,0,P|81:244|143:243,1,105.000004005432,2|0,0:0|0:0,0:0:0:0:
461,173,154369,6,0,B|304:216|321:350|321:350|404:274|378:116|275:11|275:11|310:136|222:230,1,857.500008177757,0|0,3:0|0:0,0:0:0:0:
129,287,155226,6,0,B|-3:277|-3:277|27:266|44:237|44:237|318:263,1,451.500006889343,8|0,1:0|0:0,0:0:0:0:
307,278,155655,2,0,L|240:271,1,52.5000020027161,2|0,0:0|0:0,0:0:0:0:
402,114,155869,6,0,B|403:115|403:115|402:114|402:114|399:117|395:121|395:121|394:120|394:120|395:121|395:121|393:124|388:128|388:128|389:129|389:129|388:128|388:128|385:132|382:136|382:136|381:135|381:135|382:136|382:136|378:140|375:144|375:144|376:144|376:144|375:144|375:144|373:147|369:152|369:152|369:151|369:151|369:152|369:152|367:155|364:160|364:160|365:161|365:161|364:160|364:160|361:165|358:169|358:169|358:168|358:168|358:169|358:169|356:174|354:177|354:177|354:178|354:178|354:177|354:177|352:181|349:186|349:186|348:186|348:186|349:186|349:186|347:190|345:195|345:195|346:196|346:196|345:195|345:195|343:200|341:205|341:205|341:204|341:204|341:205|341:205|339:211|338:214|338:214|339:214|339:214|338:214|338:214|337:219|336:224|336:224|335:224|335:224|336:224|336:224|335:229|334:234|334:234|335:234|335:234|334:234|334:234|333:239|332:244|332:244|331:243|331:243|332:244|332:244|332:249|332:254|332:254|333:254|333:254|332:254|332:254|332:259|332:264|332:264|331:264|331:264|332:264|332:264|332:268|332:274|332:274|333:273|333:273|332:274|332:274|333:277|334:283|334:283|333:284|333:284|334:283|334:283|335:288|336:293|336:293|337:293|337:293|336:293|336:293|338:298|339:303|339:303|338:303|338:303|339:303|339:303|341:306|343:312|343:312|344:311|344:311|343:312|343:312|345:315|348:320|348:320|347:321|347:321|348:320|348:320|351:325|354:329|354:329|355:328|355:328|354:329|354:329|358:333|361:336|361:336|360:337|360:337|361:336|361:336|365:339|369:342|369:342|369:341|369:341|369:342|369:342|372:345|377:347|377:347|377:348|377:348|377:347|377:347|381:349|387:351|387:351|387:350|387:350|387:351|387:351|390:352|396:353|396:353|396:354|396:354|396:353|396:353|400:354|406:354|406:354|406:353|406:353|406:354|406:354|410:354|416:353|416:353|416:354|416:354|416:353|416:353|420:352|426:351|426:351|426:350|426:350|426:351|426:351|430:349|435:346|435:346|435:347|435:347|435:346|435:346|438:345|443:341|443:341|443:340|443:340|443:341|443:341|446:338|450:334|450:334|451:335|451:335|450:334|450:334|454:330|456:326|456:326|456:325|456:325|456:326|456:326|459:321|461:317|461:317|462:318|462:318|461:317|461:317|463:313|464:308|464:308|463:307|463:307|464:308|464:308|465:304|466:298|466:298|467:298|467:298|466:298|466:298|466:294|466:288|466:288|465:288|465:288|466:288|466:288|466:284|465:278|465:278|466:278|466:278|465:278|465:278|464:273|463:268|463:268|462:269|462:269|463:268|463:268|461:263|459:259|459:259|460:258|460:258|459:259|459:259|457:253|455:250|455:250|454:250|454:250|455:250|455:250|454:249,1,530.947249826723,0|0,3:0|0:0,0:0:0:0:
344,32,156298,2,0,P|399:84|502:95,1,175,0|0,3:0|0:0,0:0:0:0:
243,253,156941,5,8,1:0:0:0:
261,18,157155,2,0,L|242:257,1,236.250009012223,2|0,0:0|0:0,0:0:0:0:
237,336,157370,1,0,0:0:0:0:
175,123,157584,2,0,L|230:112,1,52.5000020027161
478,311,157798,6,0,B|422:266|410:167|410:167|399:294|306:411|207:442|60:413|-12:295|73:162|192:139|262:229|239:279,1,857.500008177757,0|0,3:0|0:0,0:0:0:0:
103,366,158655,5,8,1:0:0:0:
242,253,158869,2,0,B|37:231|37:231|10:229|-2:250|4:274|31:276|31:276|136:287,1,385.000011749268,2|0,0:0|0:0,0:0:0:0:
309,194,159512,6,0,B|232:282|246:374|339:410|392:399|440:341|460:267|445:185|315:192|315:213|266:149|233:80|241:-24|359:-65|444:-26|498:71|413:158,1,857.500008177757,0|0,3:0|0:0,0:0:0:0:
239,285,160369,5,8,1:0:0:0:
309,194,160583,2,0,L|170:183,1,140,2|0,0:0|0:0,0:0:0:0:
161,170,160905,2,0,L|301:181,1,140,2|0,0:0|0:0,0:0:0:0:
203,373,161226,6,0,B|240:333|300:334|300:334|154:280|26:337|26:337|131:284|199:217|161:56|95:6|-31:70|-35:134|10:193|53:194,1,881.999973083497,0|0,3:0|0:0,0:0:0:0:
344,208,162084,6,0,P|381:207|405:220,1,65.3333313395183,8|0,1:0|0:0,0:0:0:0:
308,99,162227,6,0,P|346:78|366:81,1,63.0000002403259,2|0,0:0|0:0,0:0:0:0:
216,54,162370,6,0,P|226:11|247:-9,1,60.6666638895672,2|0,0:0|0:0,0:0:0:0:
128,70,162513,6,0,P|104:37|106:5,1,58.3333333333333,2|0,0:0|0:0,0:0:0:0:
77,137,162656,6,0,P|44:123|30:99,1,55.9999982910157,2|0,0:0|0:0,0:0:0:0:
84,215,162799,6,0,P|48:229|21:228,1,53.6666676902771,2|0,0:0|0:0,0:0:0:0:
138,259,162941,6,0,P|127:294|107:312,1,51.3333348999024,2|0,0:0|0:0,0:0:0:0:
190,258,163084,6,0,P|201:288|195:320,1,48.9999985046387,2|0,0:0|0:0,0:0:0:0:
226,225,163227,6,0,P|250:247|258:279,1,46.6666666666667,2|0,0:0|0:0,0:0:0:0:
308,99,163369,6,0,B|240:169|238:268|278:343|385:331|413:244|356:200,1,367.500003504753,0|0,3:0|0:0,0:0:0:0:
160,173,163798,1,8,1:0:0:0:
471,59,164012,2,0,B|384:13|303:64|318:73|228:124|137:64,1,341.250013017655,0|0,3:0|0:0,0:0:0:0:
41,24,165512,6,0,L|52:131,1,105.000004005432,2|0,0:0|0:0,0:0:0:0:
126,33,166155,2,0,L|137:140,1,105.000004005432,2|0,0:0|0:0,0:0:0:0:
119,328,167226,6,0,P|129:278|161:248,1,83.9999974365235
144,166,167869,2,0,P|171:148|196:144,1,41.9999987182618
435,0,168941,6,0,P|398:35|390:78,1,83.9999974365235
312,108,169584,2,0,P|309:136|320:162,1,41.9999987182618
118,328,170655,6,0,L|227:317,1,97.9999970092774,2|0,0:0|0:0,0:0:0:0:
128,242,171298,2,0,L|236:231,1,97.9999970092774,2|0,0:0|0:0,0:0:0:0:
482,272,172369,6,0,L|373:260,1,97.9999970092774,2|0,0:0|0:0,0:0:0:0:
472,185,173012,2,0,L|363:173,1,97.9999970092774,2|0,0:0|0:0,0:0:0:0:
204,13,174084,6,0,P|216:56|208:95,1,83.9999974365235
257,178,174726,2,0,P|235:212|219:220,1,41.9999987182618
300,349,175798,6,0,P|288:306|296:267,1,83.9999974365235
257,178,176440,2,0,P|275:152|297:138,1,41.9999987182618
396,182,176762,6,0,L|369:178,1,26.2500010013581
361,90,176976,1,0,0:0:0:0:
361,90,177084,2,0,L|386:93,3,26.2500010013581
188,350,177512,6,0,L|168:190,1,157.499995193482,8|0,1:0|0:0,0:0:0:0:
138,88,178155,2,0,L|199:94,1,52.5000020027161,2|0,0:0|0:0,0:0:0:0:
395,76,178369,5,0,3:0:0:0:
286,151,178584,2,0,L|352:157,1,52.5000020027161,2|0,0:0|0:0,0:0:0:0:
395,76,178798,2,0,P|361:146|379:250,1,178.500003404617,2|0,0:0|0:0,0:0:0:0:
494,36,179226,2,0,B|439:73|382:42|397:36|343:6|284:40,1,210,8|0,1:0|0:0,0:0:0:0:
207,142,179655,5,2,0:0:0:0:
148,31,179869,2,0,P|173:91|149:205,1,178.500003404617,2|0,0:0|0:0,0:0:0:0:
67,296,180298,1,2,0:0:0:0:
311,153,180512,6,0,L|200:141,1,105,0|0,3:0|0:0,0:0:0:0:
492,177,180941,1,8,1:0:0:0:
328,331,181155,1,2,0:0:0:0:
321,294,181262,1,2,0:0:0:0:
316,259,181370,2,0,L|394:269,1,70,2|0,0:0|0:0,0:0:0:0:
492,177,181584,2,0,L|417:166,1,70,2|0,0:0|0:0,0:0:0:0:
180,283,181798,6,0,B|199:312|200:338|200:338|231:272|200:209,1,178.500003404617,0|0,3:0|0:0,0:0:0:0:
115,144,182226,2,0,P|170:182|291:178,1,178.500003404617,2|0,0:0|0:0,0:0:0:0:
462,45,182655,6,0,B|490:-7|397:-34|383:66|436:135,1,210,8|0,1:0|0:0,0:0:0:0:
456,311,183084,2,0,P|495:314|525:296,1,59.5000011348725,2|0,0:0|0:0,0:0:0:0:
504,218,183298,2,0,P|464:216|434:233,1,59.5000011348725,2|0,0:0|0:0,0:0:0:0:
315,276,183512,2,0,P|344:206|332:153,1,119.000002269745,2|0,0:0|0:0,0:0:0:0:
248,201,183834,5,2,0:0:0:0:
260,67,183941,2,0,B|271:47|351:15|388:112|358:178|244:193|185:134,1,315.000012016297,0|0,3:0|0:0,0:0:0:0:
103,26,184369,2,0,P|108:77|86:124,1,105.000004005432,8|0,1:0|0:0,0:0:0:0:
8,304,184798,6,0,L|82:298,1,52.5000020027161,2|0,0:0|0:0,0:0:0:0:
19,218,185012,2,0,L|93:212,1,52.5000020027161,2|0,0:0|0:0,0:0:0:0:
242,327,185226,1,0,3:0:0:0:
153,344,185441,2,0,L|159:294,1,41.9999987182618,2|0,0:0|0:0,0:0:0:0:
331,203,185655,6,0,P|320:280|340:328,1,119.000002269745,2|0,0:0|0:0,0:0:0:0:
242,93,186084,2,0,B|215:104|185:101|185:101|254:140|338:118,1,210,8|0,1:0|0:0,0:0:0:0:
441,90,186512,5,2,0:0:0:0:
439,259,186726,2,0,P|417:196|454:71,1,178.500003404617,2|0,0:0|0:0,0:0:0:0:
331,203,187155,1,2,0:0:0:0:
499,0,187369,6,0,L|379:10,1,105,0|0,3:0|0:0,0:0:0:0:
90,35,187798,1,8,1:0:0:0:
331,203,188012,1,0,3:0:0:0:
231,124,188226,2,0,L|226:187,1,62.9999980773926,2|0,0:0|0:0,0:0:0:0:
238,271,188441,2,0,L|243:208,1,62.9999980773926,2|0,0:0|0:0,0:0:0:0:
327,46,188655,6,0,P|279:82|154:79,1,178.500003404617,0|0,3:0|0:0,0:0:0:0:
19,38,189084,2,0,B|-6:8|36:-27|74:-10|78:53|39:106,1,178.500003404617,2|0,0:0|0:0,0:0:0:0:
13,322,189512,6,0,P|102:270|240:271,1,241.500004606247,8|0,1:0|0:0,0:0:0:0:
347,346,189941,2,0,L|339:273,1,59.5000011348725,2|0,0:0|0:0,0:0:0:0:
300,198,190155,2,0,P|329:186|359:190,1,59.5000011348725,2|0,0:0|0:0,0:0:0:0:
483,305,190369,5,0,3:0:0:0:
465,199,190584,2,0,L|448:383,1,175,2|0,0:0|0:0,0:0:0:0:
437,374,191226,2,0,L|454:196,1,173.250001652241,2|0,0:0|0:0,0:0:0:0:
353,124,191655,2,0,L|426:116,1,59.5000011348725,2|0,0:0|0:0,0:0:0:0:
512,68,191869,2,0,L|504:126,1,59.5000011348725,2|0,0:0|0:0,0:0:0:0:
262,137,192084,5,0,3:0:0:0:
280,233,192298,2,0,L|211:227,1,52.5000020027161,2|0,0:0|0:0,0:0:0:0:
94,301,192512,2,0,B|149:250|167:177|140:108|60:114|22:165|47:221,1,293.999991027832,2|0,0:0|0:0,0:0:0:0:
18,377,192941,2,0,P|93:334|226:340,1,210,8|0,1:0|0:0,0:0:0:0:
316,376,193369,5,2,0:0:0:0:
338,210,193584,2,0,P|302:283|317:378,1,178.500003404617,2|0,0:0|0:0,0:0:0:0:
213,335,194012,1,2,0:0:0:0:
442,217,194226,6,0,L|330:209,1,105,0|0,3:0|0:0,0:0:0:0:
64,189,194655,1,8,1:0:0:0:
47,0,194869,1,2,0:0:0:0:
40,41,194976,1,2,0:0:0:0:
33,83,195083,2,0,L|104:75,1,70,2|0,0:0|0:0,0:0:0:0:
241,148,195298,2,0,L|169:155,1,70,2|0,0:0|0:0,0:0:0:0:
39,358,195512,6,0,B|19:308|48:265|55:276|86:233|59:177,1,178.500003404617,0|0,3:0|0:0,0:0:0:0:
33,83,195941,2,0,B|187:97|187:97|192:105|192:105|358:119,1,315.000012016297,2|0,0:0|0:0,0:0:0:0:
474,45,196369,6,0,B|413:107|427:183|475:208|531:151|472:112,1,210,8|0,1:0|0:0,0:0:0:0:
237,180,196798,2,0,P|229:143|239:110,1,59.5000011348725,2|0,0:0|0:0,0:0:0:0:
342,117,197012,2,0,P|349:153|339:186,1,59.5000011348725,2|0,0:0|0:0,0:0:0:0:
333,289,197226,2,0,P|272:264|215:273,1,119.000002269745,2|0,0:0|0:0,0:0:0:0:
131,319,197548,5,2,0:0:0:0:
15,258,197655,2,0,B|-31:323|52:389|116:352|137:278|122:205|76:163,1,315.000012016297,0|0,3:0|0:0,0:0:0:0:
18,62,198084,2,0,P|63:87|132:76,1,105.000004005432,8|0,1:0|0:0,0:0:0:0:
406,21,198512,6,0,L|400:88,1,52.5000020027161,2|0,0:0|0:0,0:0:0:0:
320,31,198726,2,0,L|314:98,1,52.5000020027161,2|0,0:0|0:0,0:0:0:0:
383,244,198941,1,0,3:0:0:0:
448,155,199155,2,0,B|402:161|402:161|395:158|395:158|350:163,1,87.5,2|0,0:0|0:0,0:0:0:0:
237,262,199369,6,0,B|256:309|256:309|271:161,1,195.999994018555,2|0,0:0|0:0,0:0:0:0:
82,322,199798,2,0,B|18:341|-16:281|8:205|82:203|138:246|126:250|179:298|256:252,1,336,8|0,1:0|0:0,0:0:0:0:
355,182,200226,6,0,L|349:237,1,52.5000020027161,2|0,0:0|0:0,0:0:0:0:
327,383,200441,2,0,B|336:279|336:279|332:272|332:272|342:177,1,203.000006195069,2|0,0:0|0:0,0:0:0:0:
446,368,200869,2,0,L|454:266,1,87.5,2|0,0:0|0:0,0:0:0:0:
260,90,201084,2,0,P|338:145|423:142,1,175,0|0,3:0|0:0,0:0:0:0:
208,19,201512,5,8,1:0:0:0:
205,237,201726,2,0,P|223:193|218:158,1,70,0|0,3:0|0:0,0:0:0:0:
106,105,201941,2,0,L|183:99,1,70
260,90,202155,1,2,0:0:0:0:
168,318,202369,6,0,B|222:342|265:310|255:306|300:273|349:298,1,178.500003404617,0|0,3:0|0:0,0:0:0:0:
375,382,202798,2,0,B|370:299|370:299|376:294|376:294|372:217,1,161.000003070831,2|0,0:0|0:0,0:0:0:0:
86,328,203226,6,0,B|61:354|68:388|130:412|149:361|154:282|119:216,1,241.500004606247,8|0,1:0|0:0,0:0:0:0:
17,113,203655,2,0,L|114:121,1,80.5000015354157,2|0,0:0|0:0,0:0:0:0:
206,98,203869,2,0,P|195:124|198:157,1,59.5000011348725,2|0,0:0|0:0,0:0:0:0:
261,362,204084,5,0,3:0:0:0:
169,331,204298,2,0,L|351:317,1,178.500003404617,2|0,0:0|0:0,0:0:0:0:
436,361,204726,6,0,L|441:313,1,41.9999987182618
398,239,204941,2,0,L|403:191,3,41.9999987182618,2|0|0|0,0:0|0:0|0:0|0:0,0:0:0:0:
441,95,205369,6,0,P|423:106|403:112,1,41.9999987182618,2|0,0:0|0:0,0:0:0:0:
323,163,205584,2,0,P|302:158|284:148,1,41.9999987182618,2|0,0:0|0:0,0:0:0:0:
73,72,205798,2,0,B|132:56|160:2|160:2|119:79|113:172|141:256|141:256|138:210|166:176,1,461.999985900879,0|0,3:0|0:0,0:0:0:0:
215,108,207084,5,0,0:0:0:0:
215,108,207191,2,0,L|263:113,1,41.9999987182618
389,126,207405,1,0,0:0:0:0:
389,126,207512,2,0,P|353:200|361:293,1,168,0|0,3:0|0:0,0:0:0:0:
275,312,208369,6,0,P|333:282|376:289,2,90.9999958343508,2|2|2,0:0|0:0|0:0,0:0:0:0:
181,241,209012,2,0,P|179:291|148:338,1,90.9999958343508,2|2,0:0|0:0,0:0:0:0:
12,229,209441,2,0,P|96:258|122:251,1,90.9999958343508,2|0,0:0|0:0,0:0:0:0:
250,179,209869,5,2,0:0:0:0:
204,17,210084,2,0,P|187:70|204:114,1,90.9999958343508,2|2,0:0|0:0,0:0:0:0:
323,28,210512,2,0,P|332:71|315:113,1,90.9999958343508,2|2,0:0|0:0,0:0:0:0:
268,291,210941,6,0,B|293:280|326:282|326:282|265:247|184:265,1,195.999994018555,2|0,0:0|0:0,0:0:0:0:
67,366,211584,2,0,P|100:308|90:190,1,181.999991668702,2|0,0:0|0:0,0:0:0:0:
0,138,212226,2,0,B|69:191|142:144|127:137|192:95|270:142,1,280,2|0,0:0|0:0,0:0:0:0:
427,362,213512,6,0,P|422:311|447:265,2,90.9999958343508,2|2|2,0:0|0:0|0:0,0:0:0:0:
475,169,214155,2,0,P|432:190|382:188,1,90.9999958343508,2|0,0:0|0:0,0:0:0:0:
291,101,214584,2,0,P|305:156|284:229,1,125.999996154785,2|0,0:0|0:0,0:0:0:0:
229,315,215226,6,0,L|277:319,2,48.9999985046387
126,328,215869,2,0,P|140:297|138:270,1,48.9999985046387
108,204,216298,1,0,0:0:0:0:
369,164,216726,5,2,0:0:0:0:
399,5,216941,2,0,P|360:56|355:92,1,90.9999958343508,2|2,0:0|0:0,0:0:0:0:
285,29,217369,2,0,P|341:60|360:90,1,90.9999958343508,2|0,0:0|0:0,0:0:0:0:
436,224,217798,6,0,P|374:188|287:187,1,154.000004699707,2|0,0:0|0:0,0:0:0:0:
162,116,218441,2,0,P|203:193|195:252,1,140,2|0,0:0|0:0,0:0:0:0:
82,351,219084,2,0,B|42:379|-31:375|-60:267|66:214|129:318|118:321|164:363|255:332,1,350,2|0,0:0|0:0,0:0:0:0:
327,235,220369,2,0,P|325:287|379:370,2,136.499993751526,2|2|2,0:0|0:0|0:0,0:0:0:0:
470,121,221226,6,0,P|412:82|333:93,1,136.499993751526,0|0,3:0|0:0,0:0:0:0:
444,164,221655,2,0,P|423:116|341:87,1,136.499993751526,0|0,3:0|0:0,0:0:0:0:
234,64,222084,2,0,P|248:96|209:141,1,84,8|0,3:0|0:0,0:0:0:0:
24,234,222512,6,0,P|82:195|161:206,1,136.499993751526,0|0,3:0|0:0,0:0:0:0:
53,279,222941,2,0,P|72:231|154:200,1,136.499993751526,0|0,3:0|0:0,0:0:0:0:
96,311,223369,2,0,P|93:259|154:196,1,136.499993751526,0|0,3:0|0:0,0:0:0:0:
248,127,223798,2,0,P|234:159|273:204,1,84,8|0,3:0|0:0,0:0:0:0:
424,337,224226,6,0,P|383:276|395:194,1,146.999995513916,0|0,3:0|0:0,0:0:0:0:
472,308,224655,2,0,P|422:287|389:201,1,146.999995513916,0|0,3:0|0:0,0:0:0:0:
508,263,225083,2,0,P|453:265|388:201,1,146.999995513916,0|0,3:0|0:0,0:0:0:0:
452,99,225512,2,0,P|419:114|373:73,1,94.499997116089,8|0,3:0|0:0,0:0:0:0:
174,49,225941,6,0,P|215:110|203:194,1,146.999995513916,0|0,3:0|0:0,0:0:0:0:
126,78,226370,2,0,P|176:98|209:185,1,146.999995513916,0|0,3:0|0:0,0:0:0:0:
90,124,226798,2,0,P|144:120|211:185,1,146.999995513916,0|0,3:0|0:0,0:0:0:0:
244,284,227227,2,0,P|211:269|164:309,1,94.499997116089,8|0,3:0|0:0,0:0:0:0:
341,360,227655,2,0,L|331:209,1,146.999995513916,0|0,3:0|0:0,0:0:0:0:
317,59,228084,6,0,L|365:64,3,41.9999987182618,8|0|0|0,3:0|0:0|0:0|0:0,0:0:0:0:
218,22,228512,2,0,L|222:81,1,41.9999987182618
229,152,228726,1,0,3:0:0:0:
430,115,228941,2,0,L|478:120,3,41.9999987182618,8|0|0|0,3:0|0:0|0:0|0:0,0:0:0:0:
229,152,229369,2,0,L|187:147,3,41.9999987182618,8|0|0|0,3:0|0:0|0:0|0:0,0:0:0:0:
328,189,229798,6,0,L|324:130,1,41.9999987182618
317,59,230012,1,0,3:0:0:0:
255,245,230226,2,0,L|257:286,3,41.9999987182618,8|0|0|0,3:0|0:0|0:0|0:0,0:0:0:0:
96,38,230655,6,0,L|47:41,3,48.9999985046387,8|0|0|0,3:0|0:0|0:0|0:0,0:0:0:0:
234,65,231084,2,0,L|185:68,1,48.9999985046387,0|0,3:0|0:0,0:0:0:0:
229,52,231298,2,0,L|180:55,1,48.9999985046387
19,128,231512,6,0,L|140:120,1,97.9999970092774,8|0,3:0|0:0,0:0:0:0:
317,59,231834,1,0,3:0:0:0:
114,328,232155,2,0,B|18:367|-28:245|40:190|163:186|223:268,1,367.49998878479,8|0,1:0|0:0,0:0:0:0:
255,382,232798,2,0,L|233:109,1,272.999987503052,8|0,1:0|0:0,0:0:0:0:
156,46,233226,6,0,B|109:73|55:66|55:66|148:136|260:76|237:79|314:25|420:68|420:68|359:66|317:107,1,587.999982055665,0|0,3:0|0:0,0:0:0:0:
255,168,234941,6,0,P|253:229|296:285,1,125.999996154785,0|2,3:0|0:0,0:0:0:0:
89,285,235584,2,0,B|138:315|200:286|183:281|237:248|295:284,1,209.999993591309,2|0,0:0|0:0,0:0:0:0:
395,357,236226,2,0,P|385:301|407:230,1,125.999996154785,2|0,0:0|0:0,0:0:0:0:
375,120,236655,6,0,P|423:150|504:142,1,125.999996154785,2|2,0:0|0:0,0:0:0:0:
238,157,237298,2,0,P|280:110|290:23,2,146.999995513916,2|2|2,0:0|0:0|0:0,0:0:0:0:
174,370,238369,6,0,L|167:228,1,125.999996154785,2|2,0:0|0:0,0:0:0:0:
317,171,239012,2,0,B|254:203|209:174|219:165|170:138|116:170,1,209.999993591309,2|0,0:0|0:0,0:0:0:0:
0,146,239655,2,0,P|33:198|30:260,1,125.999996154785,2|0,0:0|0:0,0:0:0:0:
116,351,240084,6,0,P|54:347|0:378,1,125.999996154785,2|2,0:0|0:0,0:0:0:0:
0,146,240726,1,2,0:0:0:0:
187,53,240941,5,0,0:0:0:0:
161,141,241048,2,0,L|235:135,1,62.9999980773926,8|0,3:0|0:0,0:0:0:0:
430,121,241262,5,0,0:0:0:0:
330,99,241369,2,0,L|336:170,3,59.5000011348725,8|0|0|0,3:0|0:0|0:0|0:0,0:0:0:0:
348,355,241798,6,0,L|352:295,5,41.9999987182618,0|0|0|0|0|0,3:0|0:0|0:0|0:0|0:0|0:0,0:0:0:0:
246,328,242441,1,8,3:0:0:0:
454,344,242655,2,0,L|514:348,1,41.9999987182618,0|0,3:0|0:0,0:0:0:0:
448,331,242869,2,0,L|508:335,1,41.9999987182618
246,328,243084,1,8,3:0:0:0:
246,328,243191,1,0,0:0:0:0:
246,328,243298,2,0,L|204:326,1,41.9999987182618
365,144,243512,5,0,3:0:0:0:
348,355,243726,1,8,3:0:0:0:
365,144,243941,2,0,B|394:167|428:168|428:168|338:206|246:159,1,241.500004606247,0|0,3:0|0:0,0:0:0:0:
223,0,244369,2,0,P|235:117|166:261,1,262.5,0|0,3:0|0:0,0:0:0:0:
23,284,244798,2,0,B|106:231|175:275|159:282|228:323|312:268,1,293.999991027832,0|0,3:0|0:0,0:0:0:0:
459,197,245226,5,0,3:0:0:0:
479,239,245334,1,0,3:0:0:0:
474,295,245441,1,0,3:0:0:0:
427,339,245548,1,0,3:0:0:0:
354,337,245655,1,0,3:0:0:0:
303,273,245762,1,0,3:0:0:0:
294,185,245869,1,0,3:0:0:0:
336,98,245976,1,0,3:0:0:0:
429,48,246084,2,0,L|264:69,1,161.000003070831,0|0,3:0|0:0,0:0:0:0:
86,92,246405,5,0,0:0:0:0:
184,0,246512,2,0,L|177:92,1,80.5000015354157,8|0,3:0|0:0,0:0:0:0:
158,275,246726,1,0,3:0:0:0:
429,48,246941,1,0,3:0:0:0:
510,264,248655,6,0,L|410:254,1,98,0|0,3:0|0:0,0:0:0:0:
95,211,249512,6,0,B|87:182|87:182|121:200,1,58.3333333333333,8|0,1:0|0:0,0:0:0:0:
185,218,249655,6,0,B|214:225|214:225|181:246,1,58.3333333333333,2|0,0:0|0:0,0:0:0:0:
131,300,249798,6,0,B|109:321|109:321|108:282,1,58.3333333333333,2|0,0:0|0:0,0:0:0:0:
101,206,249941,6,0,B|98:176|98:176|128:199,1,58.3333333333333,2|0,0:0|0:0,0:0:0:0:
188,228,250084,6,0,B|215:240|215:240|179:254,1,58.3333333333333,2|0,0:0|0:0,0:0:0:0:
120,299,250227,6,0,B|95:316|95:316|100:278,1,58.3333333333333,2|0,0:0|0:0,0:0:0:0:
108,203,250369,6,0,B|110:173|110:173|136:201,1,58.3333333333333,2|0,0:0|0:0,0:0:0:0:
190,240,250512,6,0,B|214:257|214:257|177:265,1,58.3333333333333,2|0,0:0|0:0,0:0:0:0:
110,298,250655,6,0,B|82:310|82:310|94:274,1,58.3333333333333,2|0,0:0|0:0,0:0:0:0:
255,127,250798,6,0,B|255:128|255:128|255:127|255:127|245:128|245:128|245:127|245:127|245:128|245:128|235:129|235:129|235:130|235:130|235:129|235:129|225:130|225:130|225:129|225:129|225:130|225:130|215:131|215:131|215:132|215:132|215:131|215:131|205:131|205:131|205:130|205:130|205:131|205:131|195:132|195:132|195:133|195:133|195:132|195:132|185:133|185:133|185:132|185:132|185:133|185:133|175:134|175:134|175:135|175:135|175:134|175:134|165:135|165:135|165:134|165:134|165:135|165:135|155:136|155:136|155:137|155:137|155:136|155:136|145:137|145:137|145:136|145:136|145:137|145:137|135:138|135:138|136:139|136:139|135:138|135:138|126:139|126:139|125:138|125:138|126:139|126:139|116:139|116:139|116:140|116:140|116:139|116:139|106:140|106:140|106:139|106:139|106:140|106:140|96:141|96:141|96:142|96:142|96:141|96:141|86:142|86:142|86:141|86:141|86:142|86:142|76:143|76:143|76:144|76:144|76:143|76:143|66:144|66:144|66:143|66:143|66:144|66:144|56:145|56:145|56:146|56:146|56:145|56:145|46:146|46:146|46:145|46:145|46:146|46:146|36:146|36:146|36:147|36:147|36:146|36:146|30:147|30:147|28:144|28:144|28:143|28:143|28:144|28:144|22:135|22:135|21:136|21:136|22:135|22:135|16:127|16:127|17:127|17:127|16:127|16:127|10:119|10:119|10:120|10:120|10:119|10:119|5:111|5:111|6:110|6:110|5:111|5:111|2:107|2:107|5:102|5:102|4:102|4:102|5:102|5:102|9:94|9:94|10:94|10:94|9:94|9:94|14:85|14:85|13:84|13:84|14:85|14:85|19:76|19:76|20:77|20:77|19:76|19:76|24:68|24:68|23:67|23:67|24:68|24:68|25:66|25:66|33:65|33:65|33:66|33:66|33:65|33:65|43:64|43:64|43:63|43:63|43:64|43:64|53:63|53:63|53:64|53:64|53:63|53:63|63:63|63:63|63:62|63:62|63:63|63:63|73:62|73:62|73:63|73:63|73:62|73:62|83:61|83:61|83:60|83:60|83:61|83:61|93:60|93:60|93:61|93:61|93:60|93:60|103:59|103:59|103:58|103:58|103:59|103:59|113:58|113:58|113:59|113:59|113:58|113:58|123:57|123:57|123:56|123:56|123:57|123:57|133:56|133:56|133:57|133:57|133:56|133:56|143:55|143:55|143:54|143:54|143:55|143:55|144:55,1,530.999986541749,0|0,3:0|0:0,0:0:0:0:
398,112,251226,2,0,B|415:18|315:-4|245:41|258:174|354:242,1,367.500003504753,8|0,1:0|0:0,0:0:0:0:
493,251,251655,2,0,B|493:249|493:249|493:251|493:251|459:254|459:254|459:252|459:252|459:254|459:254|425:257|425:257|425:255|425:255|425:257|425:257|391:259|391:259|391:257|391:257|391:259|391:259|357:262|357:262|357:260|357:260|357:262|357:262|324:265|324:265|323:263|323:263|324:265|324:265|290:268|290:268|290:266|290:266|290:268|290:268|256:271|256:271|256:269|256:269|256:271|256:271|222:273|222:273|222:271|222:271|222:273|222:273|188:276|188:276|188:274|188:274|188:276|188:276|154:279|154:279|154:277|154:277|154:279|154:279|120:282|120:282|120:280|120:280|120:282|120:282|106:283,1,436.49999851799,2|0,0:0|0:0,0:0:0:0:
11,290,252084,5,0,3:0:0:0:
194,182,252298,2,0,B|213:222|213:222|198:262,1,87.5,2|0,0:0|0:0,0:0:0:0:
102,379,252512,2,0,B|108:324|108:324|103:319|103:319|107:277,1,97.9999970092774,2|0,0:0|0:0,0:0:0:0:
12,197,252726,2,0,B|67:191|67:191|72:196|72:196|114:192,1,97.9999970092774,2|0,0:0|0:0,0:0:0:0:
328,211,252941,6,0,B|377:236|386:293|370:373|263:379|222:327|223:282|226:257|226:257|240:144|240:144|245:140|245:140|262:0|262:0|230:18|230:18|218:114,1,700,8|0,1:0|0:0,0:0:0:0:
94,232,253584,5,0,3:0:0:0:
107,192,253691,1,2,0:0:0:0:
59,115,253798,1,2,0:0:0:0:
156,108,253905,1,2,0:0:0:0:
253,103,254012,1,2,0:0:0:0:
350,98,254119,1,2,0:0:0:0:
458,204,254226,6,0,B|457:204|457:204|458:204|458:204|459:194|459:194|460:194|460:194|459:194|459:194|461:184|461:184|460:184|460:184|461:184|461:184|462:174|462:174|463:174|463:174|462:174|462:174|463:164|463:164|462:164|462:164|463:164|463:164|464:154|464:154|465:155|465:155|464:154|464:154|466:144|466:144|465:144|465:144|466:144|466:144|467:135|467:135|468:135|468:135|467:135|467:135|468:125|468:125|467:125|467:125|468:125|468:125|469:115|469:115|470:115|470:115|469:115|469:115|471:105|471:105|470:105|470:105|471:105|471:105|472:95|472:95|472:95|472:95|473:95|473:95|472:95|472:95|473:90|472:85|472:85|471:85|471:85|472:85|472:85|472:80|471:75|471:75|471:75|471:75|471:75|471:75|469:70|467:66|467:66|466:66|466:66|467:66|467:66|464:62|461:58|461:58|462:57|462:57|461:58|461:58|458:54|454:51|454:51|453:52|453:52|454:51|454:51|449:47|445:45|445:45|446:45|446:45|445:45|445:45|441:43|436:42|436:42|436:43|436:43|436:42|436:42|431:41|426:41|426:41|426:40|426:40|426:41|426:41|421:41|416:42|416:42|416:43|416:43|416:42|416:42|412:43|407:45|407:45|406:44|406:44|407:45|407:45|402:47|398:50|398:50|399:51|399:51|398:50|398:50|394:53|390:56|390:56|390:56|390:56|390:56|390:56|387:60|384:64|384:64|385:65|385:65|384:64|384:64|382:69|380:73|380:73|379:73|379:73|380:73|380:73|378:79|377:83|377:83|378:83|378:83|377:83|377:83|377:85|377:85|376:93|376:93|375:93|375:93|376:93|376:93|374:103|374:103|375:103|375:103|374:103|374:103|373:113|373:113|372:112|372:112|373:113|373:113|372:122|372:122|373:123|373:123|372:122|372:122|370:132|370:132|369:132|369:132|370:132|370:132|369:142|369:142|370:142|370:142|369:142|369:142|367:152|367:152|366:152|366:152|367:152|367:152|366:162|366:162|367:162|367:162|366:162|366:162|365:172|365:172|364:172|364:172|365:172|365:172|363:182|363:182|364:182|364:182|363:182|363:182|362:192|362:192|361:192|361:192|362:192|362:192|360:202|360:202|361:202|361:202|360:202|360:202|359:210,1,466.440760488395,0|0,3:0|0:0,0:0:0:0:
352,338,254655,2,0,B|457:330|457:330|470:305|503:291|503:291|207:312,1,451.500006889343,8|0,1:0|0:0,0:0:0:0:
52,280,255084,2,0,B|98:273|98:273|105:277|105:277|148:273,1,90.9999958343508,2|0,0:0|0:0,0:0:0:0:
219,311,255298,2,0,B|229:269|229:269|225:262|225:262|233:223,1,80.5000015354157,2|0,0:0|0:0,0:0:0:0:
282,20,255512,5,0,3:0:0:0:
413,37,255726,2,0,B|376:10|376:10|281:21,1,140,2|0,0:0|0:0,0:0:0:0:
148,9,255941,1,0,0:0:0:0:
159,92,256048,1,0,0:0:0:0:
173,174,256155,1,0,0:0:0:0:
173,174,256262,1,0,0:0:0:0:
136,340,256369,6,0,B|112:301|112:301|124:256,1,87.5,8|0,1:0|0:0,0:0:0:0:
243,239,256584,2,0,B|267:278|267:278|255:323,1,87.5,2|0,0:0|0:0,0:0:0:0:
125,342,256798,2,0,B|101:303|101:303|113:258,1,87.5,2|0,0:0|0:0,0:0:0:0:
148,9,257012,5,0,3:0:0:0:
314,111,257226,2,0,B|318:108|318:108|318:108|318:108|318:108|318:108|322:105|322:105|322:105|322:105|322:105|322:105|326:102|326:102|326:102|326:102|326:102|326:102|330:99|330:99|330:99|330:99|330:99|330:99|334:96|334:96|334:97|334:97|334:96|334:96|337:94|337:94|336:94|336:94|336:94|336:94|336:94|336:94|331:93|331:93|331:93|331:93|331:93|331:93|326:93|326:93|326:93|326:93|326:93|326:93|321:92|321:92|321:92|321:92|321:92|321:92|316:91|316:91|316:92|316:92|316:91|316:91|311:91|311:91|311:90|311:90|311:91|311:91|306:90|306:90|306:91|306:91|306:90|306:90|301:90|301:90|301:89|301:89|301:90|301:90|296:89|296:89|296:90|296:90|296:89|296:89|291:88|291:88|291:88|291:88|291:88|291:88|286:88|286:88|286:88|286:88|286:88|286:88|281:87|281:87|281:87|281:87|281:87|281:87|276:87|276:87|276:87|276:87|276:87|276:87|271:86|271:86|271:86|271:86|271:86|271:86|266:85|266:85|266:86|266:86|266:85|266:85|261:85|261:85|261:84|261:84|261:85|261:85|261:85,1,127.000004005432,2|0,0:0|0:0,0:0:0:0:
7,61,257441,2,0,B|3:64|3:64|3:63|3:63|3:64|3:64|-1:67|-1:67|-1:67|-1:67|-1:67|-1:67|-5:69|-5:69|-6:69|-6:69|-5:69|-5:69|-10:72|-10:72|-9:73|-9:73|-10:72|-10:72|-14:75|-14:75|-14:74|-14:74|-14:75|-14:75|-17:77|-17:77|-16:77|-16:77|-16:77|-16:77|-16:77|-16:77|-11:78|-11:78|-11:78|-11:78|-11:78|-11:78|-6:78|-6:78|-6:78|-6:78|-6:78|-6:78|-1:79|-1:79|-1:79|-1:79|-1:79|-1:79|4:80|4:80|4:79|4:79|4:80|4:80|9:80|9:80|9:81|9:81|9:80|9:80|14:81|14:81|14:80|14:80|14:81|14:81|19:81|19:81|19:82|19:82|19:81|19:81|24:82|24:82|24:81|24:81|24:82|24:82|29:83|29:83|29:83|29:83|29:83|29:83|34:83|34:83|34:83|34:83|34:83|34:83|39:84|39:84|39:84|39:84|39:84|39:84|44:84|44:84|44:84|44:84|44:84|44:84|49:85|49:85|49:85|49:85|49:85|49:85|54:86|54:86|54:85|54:85|54:86|54:86|59:86|59:86|59:87|59:87|59:86|59:86|59:86,1,127.000004005432,2|0,0:0|0:0,0:0:0:0:
148,9,257655,2,0,L|159:95,1,87.5
178,310,257869,5,0,3:0:0:0:
505,235,258084,2,0,B|405:198|337:274|361:279|285:358|175:309,1,357.000006809235,8|0,1:0|0:0,0:0:0:0:
48,274,258512,2,0,L|99:266,1,52.5000020027161,2|0,0:0|0:0,0:0:0:0:
98,354,258726,1,0,0:0:0:0:
243,36,258941,5,0,3:0:0:0:
298,115,259155,2,0,L|225:124,1,52.5000020027161,2|0,0:0|0:0,0:0:0:0:
40,155,259369,2,0,B|40:154|40:154|40:155|40:155|50:154|50:154|50:155|50:155|50:154|50:154|60:153|60:153|60:152|60:152|60:153|60:153|70:152|70:152|70:153|70:153|70:152|70:152|80:151|80:151|80:150|80:150|80:151|80:151|90:150|90:150|90:151|90:151|90:150|90:150|100:149|100:149|100:148|100:148|100:149|100:149|110:148|110:148|110:149|110:149|110:148|110:148|120:147|120:147|119:146|119:146|120:147|120:147|130:146|130:146|130:147|130:147|130:146|130:146|139:144|139:144|139:143|139:143|139:144|139:144|149:143|149:143|149:144|149:144|149:143|149:143|159:142|159:142|159:141|159:141|159:142|159:142|169:141|169:141|169:142|169:142|169:141|169:141|179:140|179:140|179:139|179:139|179:140|179:140|189:139|189:139|189:140|189:140|189:139|189:139|199:138|199:138|199:137|199:137|199:138|199:138|209:137|209:137|209:138|209:138|209:137|209:137|219:136|219:136|219:135|219:135|219:136|219:136|229:135|229:135|229:136|229:136|229:135|229:135|239:134|239:134|239:133|239:133|239:134|239:134|249:133|249:133|249:134|249:134|249:133|249:133|259:132|259:132|259:131|259:131|259:132|259:132|269:131|269:131|269:132|269:132|269:131|269:131|279:130|279:130|279:129|279:129|279:130|279:130|289:129|289:129|289:130|289:130|289:129|289:129|298:128,1,310.999999011993,2|0,0:0|0:0,0:0:0:0:
48,274,259798,2,0,B|73:85|73:85|52:62|52:62|37:177,1,315.000012016297,8|0,1:0|0:0,0:0:0:0:
57,280,260226,2,0,L|66:211,1,52.5000020027161,2|0,0:0|0:0,0:0:0:0:
226,42,260441,5,0,3:0:0:0:
199,127,260548,1,2,0:0:0:0:
224,201,260655,1,2,0:0:0:0:
260,258,260762,1,2,0:0:0:0:
265,315,260869,1,2,0:0:0:0:
249,359,260976,1,2,0:0:0:0:
167,289,261084,6,0,B|232:254|286:286|273:291|321:317|374:283,1,210,0|0,3:0|0:0,0:0:0:0:
512,6,261512,6,0,P|442:66|430:109,1,140,8|0,1:0|0:0,0:0:0:0:
340,156,261834,2,0,P|341:245|379:295,1,140,2|0,0:0|0:0,0:0:0:0:
512,318,262155,2,0,L|156:289,1,350,2|0,0:0|0:0,0:0:0:0:
305,286,263441,6,0,L|239:281,1,52.5000020027161,2|0,0:0|0:0,0:0:0:0:
78,268,263655,1,0,3:0:0:0:
0,73,263869,6,0,P|35:101|96:100,1,105.000004005432,2|0,0:0|0:0,0:0:0:0:
154,324,264298,2,0,P|174:290|171:250,1,52.5000020027161,2|0,0:0|0:0,0:0:0:0:
78,268,264512,2,0,B|78:267|78:267|78:268|78:268|84:267|84:267|84:268|84:268|84:267|84:267|90:267|90:267|90:266|90:266|90:267|90:267|96:266|96:266|96:267|96:267|96:266|96:266|102:266|102:266|102:265|102:265|102:266|102:266|108:265|108:265|108:266|108:266|108:265|108:265|114:265|114:265|114:264|114:264|114:265|114:265|120:264|120:264|120:265|120:265|120:264|120:264|126:264|126:264|126:263|126:263|126:264|126:264|132:263|132:263|132:264|132:264|132:263|132:263|138:263|138:263|138:262|138:262|138:263|138:263|144:262|144:262|144:263|144:263|144:262|144:262|150:262|150:262|150:261|150:261|150:262|150:262|156:261|156:261|156:262|156:262|156:261|156:261|162:260|162:260|162:259|162:259|162:260|162:260|168:260|168:260|168:261|168:261|168:260|168:260|174:259|174:259|174:258|174:258|174:259|174:259|180:259|180:259|180:260|180:260|180:259|180:259|186:258|186:258|185:257|185:257|186:258|186:258|192:258|192:258|192:259|192:259|192:258|192:258|198:257|198:257|197:256|197:256|198:257|198:257|203:257|203:257|204:258|204:258|203:257|203:257|209:256|209:256|209:255|209:255|209:256|209:256|215:256|215:256|216:257|216:257|215:256|215:256|221:255|221:255|221:254|221:254|221:255|221:255|227:255|227:255|227:256|227:256|227:255|227:255|233:254|233:254|233:253|233:253|233:254|233:254|239:253|239:253|239:254|239:254|239:253|239:253|245:253|245:253|245:252|245:252|245:253|245:253|251:252|251:252|251:253|251:253|251:252|251:252|257:252|257:252|257:251|257:251|257:252|257:252|263:251|263:251|263:252|263:252|263:251|263:251|269:251|269:251|269:250|269:250|269:251|269:251|275:250|275:250|275:251|275:251|275:250|275:250|281:250|281:250|281:249|281:249|281:250|281:250|287:249|287:249|287:250|287:250|287:249|287:249|293:249|293:249|293:248|293:248|293:249|293:249|299:248|299:248|299:249|299:249|299:248|299:248|305:248|305:248|305:247|305:247|305:248|305:248|311:247|311:247|311:248|311:248|311:247|311:247|317:247|317:247|317:246|317:246|317:247|317:247|323:246|323:246|323:247|323:247|323:246|323:246|329:245|329:245|329:244|329:244|329:245|329:245|335:245|335:245|335:246|335:246|335:245|335:245|339:244,1,350.500000000001
442,44,264941,6,0,B|473:50|473:50|440:72,1,63.0000002403259,8|0,1:0|0:0,0:0:0:0:
372,129,265084,6,0,B|350:151|350:151|347:111,1,63.0000002403259,2|0,0:0|0:0,0:0:0:0:
333,31,265226,6,0,B|322:0|322:0|358:17,1,63.0000002403259,2|0,0:0|0:0,0:0:0:0:
433,54,265369,6,0,B|459:61|459:61|429:78,1,55.9999982910157,2|0,0:0|0:0,0:0:0:0:
369,120,265512,6,0,B|348:138|348:138|349:104,1,55.9999982910157,2|0,0:0|0:0,0:0:0:0:
343,34,265654,6,0,B|337:6|337:6|366:24,1,55.9999982910157,2|0,0:0|0:0,0:0:0:0:
406,244,265798,6,0,B|430:276|487:266|508:231|498:177|460:163|427:166|427:166|228:182,1,398.999989345551,0|0,3:0|0:0,0:0:0:0:
202,18,266226,2,0,B|188:116|188:116|201:156|201:156|182:292|182:292|188:239|153:203,1,367.500003504753,0|0,3:0|0:0,0:0:0:0:
58,111,266655,2,0,L|267:94,1,210,8|0,1:0|0:0,0:0:0:0:
467,164,267084,2,0,B|467:166|467:166|467:164|467:164|433:167|433:167|433:169|433:169|433:167|433:167|399:169|399:169|399:171|399:171|399:169|399:169|365:172|365:172|365:174|365:174|365:172|365:172|331:175|331:175|332:177|332:177|331:175|331:175|298:178|298:178|298:179|298:179|298:178|298:178|264:180|264:180|264:182|264:182|264:180|264:180|230:183|230:183|230:185|230:185|230:183|230:183|196:186|196:186|196:188|196:188|196:186|196:186|162:188|162:188|162:190|162:190|162:188|162:188|128:191|128:191|128:193|128:193|128:191|128:191|94:194|94:194|94:196|94:196|94:194|94:194|80:195,1,436.49999851799,2|0,0:0|0:0,0:0:0:0:
0,254,267512,5,0,3:0:0:0:
103,382,267726,2,0,P|79:335|88:282,1,105.000004005432,2|0,0:0|0:0,0:0:0:0:
195,90,267941,1,0,3:0:0:0:
0,106,268155,2,0,L|133:96,1,105.000004005432
412,132,268369,5,8,1:0:0:0:
474,64,268584,2,0,B|443:43|443:43|381:48,1,87.5,2|0,0:0|0:0,0:0:0:0:
195,90,268798,2,0,P|182:56|189:22,1,70,2|0,0:0|0:0,0:0:0:0:
293,16,269012,2,0,P|304:48|297:82,1,70,2|0,0:0|0:0,0:0:0:0:
271,338,269226,5,0,3:0:0:0:
251,163,269441,2,0,L|259:232,1,70,2|0,0:0|0:0,0:0:0:0:
443,276,269655,2,0,B|443:277|443:277|443:276|443:276|428:274|428:274|428:273|428:273|428:274|428:274|413:273|413:273|413:274|413:274|413:273|413:273|398:271|398:271|398:270|398:270|398:271|398:271|383:269|383:269|383:270|383:270|383:269|383:269|368:267|368:267|369:266|369:266|368:267|368:267|354:266|354:266|353:267|353:267|354:266|354:266|339:264|339:264|339:263|339:263|339:264|339:264|324:262|324:262|324:263|324:263|324:262|324:262|309:261|309:261|309:260|309:260|309:261|309:261|294:259|294:259|294:260|294:260|294:259|294:259|279:257|279:257|279:256|279:256|279:257|279:257|264:256|264:256|264:257|264:257|264:256|264:256|249:254|249:254|249:253|249:253|249:254|249:254|234:252|234:252|234:253|234:253|234:252|234:252|219:250|219:250|220:249|220:249|219:250|219:250|205:249|205:249|204:250|204:250|205:249|205:249|190:247|190:247|190:246|190:246|190:247|190:247|182:246,1,298.500000000001,2|0,0:0|0:0,0:0:0:0:
2,89,270084,5,8,1:0:0:0:
76,265,270298,2,0,B|64:241|64:241|69:208,1,59.5000011348725
120,78,270512,2,0,L|-11:89,1,119.000002269745
327,66,270941,5,0,3:0:0:0:
291,272,271155,2,0,B|294:276|294:276|294:276|294:276|294:276|294:276|297:280|297:280|297:280|297:280|297:280|297:280|300:284|300:284|300:284|300:284|300:284|300:284|303:288|303:288|303:288|303:288|303:288|303:288|306:292|306:292|305:292|305:292|306:292|306:292|308:295|308:295|308:294|308:294|308:294|308:294|308:294|308:294|309:289|309:289|309:289|309:289|309:289|309:289|309:284|309:284|309:284|309:284|309:284|309:284|310:279|310:279|310:279|310:279|310:279|310:279|311:274|311:274|310:274|310:274|311:274|311:274|311:269|311:269|312:269|312:269|311:269|311:269|312:264|312:264|311:264|311:264|312:264|312:264|312:259|312:259|313:259|313:259|312:259|312:259|313:254|313:254|312:254|312:254|313:254|313:254|314:249|314:249|314:249|314:249|314:249|314:249|314:244|314:244|314:244|314:244|314:244|314:244|315:239|315:239|315:239|315:239|315:239|315:239|315:234|315:234|315:234|315:234|315:234|315:234|316:229|316:229|316:229|316:229|316:229|316:229|317:224|317:224|316:224|316:224|317:224|317:224|317:219|317:219|318:219|318:219|317:219|317:219|317:219,1,127.000004005433,2|0,0:0|0:0,0:0:0:0:
240,75,271369,2,0,L|332:65,1,87.5
456,272,271584,2,0,B|459:268|459:268|460:268|460:268|459:268|459:268|462:264|462:264|462:264|462:264|462:264|462:264|465:260|465:260|466:261|466:261|465:260|465:260|469:257|469:257|468:256|468:256|469:257|469:257|472:253|472:253|472:253|472:253|472:253|472:253|474:250|474:250|472:250|472:250|472:251|472:251|472:250|472:250|467:251|467:251|467:250|467:250|467:251|467:251|462:251|462:251|463:252|463:252|462:251|462:251|458:252|458:252|457:251|457:251|458:252|458:252|453:252|453:252|453:253|453:253|453:252|453:252|448:253|448:253|448:252|448:252|448:253|448:253|443:253|443:253|443:254|443:254|443:253|443:253|438:254|438:254|438:253|438:253|438:254|438:254|433:254|433:254|433:255|433:255|433:254|433:254|428:255|428:255|428:255|428:255|428:255|428:255|423:256|423:256|423:256|423:256|423:256|423:256|418:256|418:256|418:256|418:256|418:256|418:256|413:257|413:257|413:257|413:257|413:257|413:257|408:257|408:257|408:257|408:257|408:257|408:257|403:258|403:258|403:258|403:258|403:258|403:258|398:258|398:258|397:258|397:258|398:258|398:258|398:258,1,127.000004005432,0|0,3:0|0:0,0:0:0:0:
50,298,271798,2,0,B|50:297|50:297|50:298|50:298|55:297|55:297|55:298|55:298|55:297|55:297|60:297|60:297|60:296|60:296|60:297|60:297|65:296|65:296|65:297|65:297|65:296|65:296|70:296|70:296|70:295|70:295|70:296|70:296|75:295|75:295|75:296|75:296|75:295|75:295|80:295|80:295|80:294|80:294|80:295|80:295|85:294|85:294|85:295|85:295|85:294|85:294|90:294|90:294|90:293|90:293|90:294|90:294|95:293|95:293|95:294|95:294|95:293|95:293|100:293|100:293|100:292|100:292|100:293|100:293|105:292|105:292|105:293|105:293|105:292|105:292|110:291|110:291|110:290|110:290|110:291|110:291|115:291|115:291|115:292|115:292|115:291|115:291|120:290|120:290|119:289|119:289|120:290|120:290|125:290|125:290|125:291|125:291|125:290|125:290|130:289|130:289|129:288|129:288|130:289|130:289|134:289|134:289|135:290|135:290|134:289|134:289|139:288|139:288|139:287|139:287|139:288|139:288|144:288|144:288|145:289|145:289|144:288|144:288|149:287|149:287|149:286|149:286|149:287|149:287|154:287|154:287|154:288|154:288|154:287|154:287|159:286|159:286|159:285|159:285|159:286|159:286|164:285|164:285|164:286|164:286|164:285|164:285|169:285|169:285|169:284|169:284|169:285|169:285|174:284|174:284|174:285|174:285|174:284|174:284|179:284|179:284|179:283|179:283|179:284|179:284|184:283|184:283|184:284|184:284|184:283|184:283|189:283|189:283|189:282|189:282|189:283|189:283|194:282|194:282|194:283|194:283|194:282|194:282|199:282|199:282|199:281|199:281|199:282|199:282|204:281|204:281|204:282|204:282|204:281|204:281|209:281|209:281|209:280|209:280|209:281|209:281|214:280|214:280|214:281|214:281|214:280|214:280|219:280|219:280|219:279|219:279|219:280|219:280|224:279|224:279|224:280|224:280|224:279|224:279|229:278|229:278|229:277|229:277|229:278|229:278|234:278|234:278|234:279|234:279|234:278|234:278|239:277|239:277|239:276|239:276|239:277|239:277|244:277|244:277|244:278|244:278|244:277|244:277|249:276|249:276|249:275|249:275|249:276|249:276|254:276|254:276|254:277|254:277|254:276|254:276|259:275|259:275|259:274|259:274|259:275|259:275|264:275|264:275|264:276|264:276|264:275|264:275|269:274|269:274|269:273|269:273|269:274|269:274|274:274|274:274|274:275|274:275|274:274|274:274|279:273|279:273|279:272|279:272|279:273|279:273|284:272|284:272|284:273|284:273|284:272|284:272|289:272|289:272|288:271|288:271|289:272|289:272|294:271|294:271|294:272|294:272|294:271|294:271|294:271,1,345.000002336502,8|0,1:0|0:0,0:0:0:0:
188,24,272226,5,0,3:0:0:0:
240,75,272334,1,2,0:0:0:0:
235,148,272441,1,2,0:0:0:0:
176,193,272548,1,2,0:0:0:0:
61,141,272655,5,0,3:0:0:0:
50,298,272869,2,0,L|55:228,1,70,2|0,0:0|0:0,0:0:0:0:
152,105,273084,2,0,B|153:105|153:105|152:105|152:105|151:115|151:115|150:115|150:115|151:115|151:115|151:125|151:125|152:125|152:125|151:125|151:125|150:135|150:135|149:135|149:135|150:135|150:135|150:145|150:145|151:145|151:145|150:145|150:145|149:155|149:155|148:155|148:155|149:155|149:155|148:165|148:165|149:165|149:165|148:165|148:165|148:175|148:175|147:175|147:175|148:175|148:175|147:185|147:185|148:185|148:185|147:185|147:185|147:195|147:195|146:195|146:195|147:195|147:195|146:205|146:205|147:205|147:205|146:205|146:205|145:215|145:215|144:215|144:215|145:215|145:215|145:225|145:225|146:225|146:225|145:225|145:225|144:235|144:235|143:235|143:235|144:235|144:235|143:245|143:245|144:245|144:245|143:245|143:245|143:255|143:255|142:255|142:255|143:255|143:255|142:265|142:265|143:265|143:265|142:265|142:265|142:275|142:275|141:275|141:275|142:275|142:275|141:285|141:285|142:285|142:285|141:285|141:285|140:295|140:295|139:295|139:295|140:295|140:295|140:305|140:305|141:305|141:305|140:305|140:305|139:315|139:315|138:315|138:315|139:315|139:315|139:325|139:325|140:325|140:325|139:325|139:325|138:335|138:335|137:335|137:335|138:335|138:335|137:345|137:345|138:345|138:345|137:345|137:345|137:350,1,295.000002336502,2|0,0:0|0:0,0:0:0:0:
309,189,273512,6,0,B|348:134|475:151|454:290|397:345|229:315|170:211,1,437.5,8|0,1:0|0:0,0:0:0:0:
119,41,274155,2,0,B|80:-1|-23:-8|-61:156|59:181|144:172|204:141|263:76,1,437.5,0|0,3:0|0:0,0:0:0:0:
235,243,274798,6,0,L|254:86,1,157.500006008148,0|0,3:0|0:0,0:0:0:0:
466,342,275226,6,0,B|444:366|444:366|384:361,1,87.5,8|0,1:0|0:0,0:0:0:0:
449,232,275441,2,0,B|427:256|427:256|367:251,1,87.5,2|0,0:0|0:0,0:0:0:0:
432,124,275655,2,0,B|410:148|410:148|350:143,1,87.5,2|0,0:0|0:0,0:0:0:0:
118,102,276084,6,0,B|150:63|157:5|157:5|207:139|136:275,1,357.000006809235,0|0,3:0|0:0,0:0:0:0:
241,291,276941,2,0,P|186:254|126:253,2,105.000004005432,2|2|2,0:0|0:0|0:0,0:0:0:0:
41,312,277584,2,0,P|62:262|48:191,1,105.000004005432,2|2,0:0|0:0,0:0:0:0:
241,291,278012,2,0,B|214:216|269:111|326:160|305:214|270:227,1,210,2|0,0:0|0:0,0:0:0:0:
148,249,278441,5,2,0:0:0:0:
506,174,278655,1,8,1:0:0:0:
441,52,278869,2,0,P|440:99|458:123,1,62.9999980773926,2|0,0:0|0:0,0:0:0:0:
506,174,279084,2,0,P|463:154|382:158,1,125.999996154785,2|0,0:0|0:0,0:0:0:0:
74,253,279512,6,0,B|112:298|109:364|109:364|146:269|169:117|137:11|38:-83|-77:58|-86:134|-19:200|77:193|202:169|250:144,1,857.500008177757,0|0,3:0|0:0,0:0:0:0:
432,59,280369,5,8,1:0:0:0:
422,243,280584,2,0,L|436:124,1,105.000004005432,2|0,0:0|0:0,0:0:0:0:
432,59,280798,2,0,B|419:154,1,70,2|0,0:0|0:0,0:0:0:0:
424,353,281012,6,0,B|463:385|515:366|533:306|495:257|415:267|415:267|216:287,1,420,0|0,3:0|0:0,0:0:0:0:
86,330,281441,1,0,3:0:0:0:
86,330,281655,2,0,B|107:378|107:378|135:197,1,210,2|0,0:0|0:0,0:0:0:0:
470,107,282084,6,0,P|489:71|525:52,1,70.0000026702882,8|0,1:0|0:0,0:0:0:0:
379,82,282226,6,0,P|374:41|390:4,1,70.0000026702882,2|0,0:0|0:0,0:0:0:0:
290,108,282369,6,0,P|264:77|256:36,1,70.0000026702882,2|0,0:0|0:0,0:0:0:0:
224,187,282512,6,0,P|249:217|257:260,1,70.0000026702882,2|0,0:0|0:0,0:0:0:0:
132,213,282656,6,0,P|135:253|115:292,1,70.0000026702882,2|0,0:0|0:0,0:0:0:0:
44,177,282799,6,0,P|22:212|-14:232,1,70.0000026702882,2|0,0:0|0:0,0:0:0:0:
156,89,282941,6,0,B|170:1|63:-30|-3:53|2:127|44:239|159:236|153:199|252:272|295:357|226:420|129:490|50:413|23:333|55:273|143:193|241:184,1,857.500008177757,0|0,3:0|0:0,0:0:0:0:
401,248,283798,5,8,1:0:0:0:
314,112,284012,2,0,P|347:147|388:153,1,80.5000015354157,2|0,0:0|0:0,0:0:0:0:
421,8,284226,2,0,L|400:262,1,241.500004606247,2|0,0:0|0:0,0:0:0:0:
392,346,284655,5,0,3:0:0:0:
203,316,284869,2,0,B|181:358|210:404|253:395|290:353|278:287|198:198|194:245|60:223|79:78|151:-22|297:-12|314:120|286:172|243:196,1,577.500005507469,2|0,0:0|0:0,0:0:0:0:
83,305,285512,5,8,1:0:0:0:
145,210,285726,2,0,L|1:198,1,140,2|0,0:0|0:0,0:0:0:0:
4,187,286048,2,0,L|144:198,1,140,2|0,0:0|0:0,0:0:0:0:
378,123,286369,6,0,B|459:99|544:219|428:326|330:313|256:234|231:126|261:138|250:56|229:-29|139:-83|8:-7|-42:75|11:206|125:230|183:180,1,857.500008177757,0|0,3:0|0:0,0:0:0:0:
250,53,287226,2,0,B|249:63|249:63|248:63|248:63|249:63|249:63|248:73|248:73|248:73|248:73|248:73|248:73|247:83|247:83|246:83|246:83|247:83|247:83|246:93|246:93|246:93|246:93|246:93|246:93|245:103|245:103|244:103|244:103|245:103|245:103|243:113|243:113|244:113|244:113|243:113|243:113|242:123|242:123|242:123|242:123|242:123|242:123|241:133|241:133|242:133|242:133|241:133|241:133|240:142|240:142|240:142|240:142|240:142|240:142|239:152|239:152|240:152|240:152|239:152|239:152|238:162|238:162|237:162|237:162|238:162|238:162|237:172|237:172|237:172|237:172|237:172|237:172|236:182|236:182|235:182|235:182|236:182|236:182|235:192|235:192|235:192|235:192|235:192|235:192|234:202|234:202|233:202|233:202|234:202|234:202|232:212|232:212|233:212|233:212|232:212|232:212|231:222|231:222|231:222|231:222|231:222|231:222|230:232|230:232|231:232|231:232|230:232|230:232|229:242|229:242|229:242|229:242|229:242|229:242|228:252|228:252|229:252|229:252|228:252|228:252|227:262|227:262|226:262|226:262|227:262,1,232,8|0,1:0|0:0,0:0:0:0:
215,370,287655,2,0,B|181:374|181:374|139:378|110:337|134:294|172:289|172:289|384:268,1,367.500014019013
447,141,288512,6,0,B|383:210|373:317|417:372|517:358|535:290|493:237,1,336,0|0,3:0|0:0,0:0:0:0:
299,244,288941,1,8,1:0:0:0:
189,29,289155,2,0,L|506:58,1,318.499990280152,0|0,3:0|0:0,0:0:0:0:
289,125,290655,6,0,B|289:124|289:124|289:125|289:125|299:126|299:126|299:128|299:128|299:126|299:126|309:127|309:127|309:126|309:126|309:127|309:127|319:128|319:128|319:130|319:130|319:128|319:128|329:129|329:129|329:128|329:128|329:129|329:129|339:130|339:130|339:132|339:132|339:130|339:130|349:131|349:131|349:130|349:130|349:131|349:131|359:132|359:132|358:134|358:134|359:132|359:132|369:133|369:133|369:132|369:132|369:133|369:133|379:134|379:134|378:136|378:136|379:134|379:134|388:135|388:135|389:134|389:134|388:135|388:135|398:136|398:136|398:138|398:138|398:136|398:136|408:137|408:137|409:136|409:136|408:137|408:137|418:138|418:138|418:140|418:140|418:138|418:138|428:139|428:139|428:138|428:138|428:139|428:139|434:140|434:140|436:140|438:141|438:141|438:142|438:142|438:141|438:141|443:142|448:144|448:144|448:143|448:143|448:144|448:144|452:146|456:149|456:149|455:150|455:150|456:149|456:149|460:152|464:156|464:156|465:155|465:155|464:156|464:156|467:160|469:164|469:164|468:165|468:165|469:164|469:164|472:168|473:173|473:173|474:173|474:173|473:173|473:173|474:178|474:183|474:183|473:183|473:183|474:183|474:183|474:188|473:193|473:193|475:193|475:193|473:193|473:193|472:198|470:202|470:202|469:202|469:202|470:202|470:202|467:207|464:211|464:211|465:212|465:212|464:211|464:211|461:215|457:217|457:217|456:216|456:216|457:217|457:217|452:220|448:222|448:222|449:224|449:224|448:222|448:222|443:224|439:225|439:225|438:224|438:224|439:225|439:225|434:226|429:226|429:226|429:228|429:228|429:226|429:226|427:226|425:226|425:226|419:225|419:225|419:224|419:224|419:225|419:225|409:224|409:224|409:226|409:226|409:224|409:224|399:223|399:223|399:222|399:222|399:223|399:223|389:222|389:222|389:224|389:224|389:222|389:222|379:221|379:221|379:220|379:220|379:221|379:221|369:220|369:220|369:221|369:221|369:220|369:220|359:219|359:219|359:217|359:217|359:219|359:219|349:218|349:218|349:219|349:219|349:218|349:218|339:217|339:217|340:215|340:215|339:217|339:217|329:216|329:216|329:217|329:217|329:216|329:216|319:215|319:215|320:213|320:213|319:215|319:215|310:213|310:213|309:215|309:215|310:213|310:213|300:212|300:212|300:211|300:211|300:212|300:212|290:211|290:211|289:213|289:213|290:211|290:211|280:210|280:210|280:209|280:209|280:210|280:210|270:209|270:209|270:211|270:211|270:209|270:209|260:208|260:208|260:207|260:207|260:208|260:208|250:207|250:207|250:208|250:208|250:207|250:207|240:206|240:206|240:204|240:204|240:206|240:206|230:205|230:205|230:206|230:206|230:205|230:205|220:204|220:204|220:202|220:202|220:204|220:204|210:203|210:203|210:204|210:204|210:203|210:203|200:202|200:202|200:200|200:200|200:202|200:202|190:200|190:200|190:202|190:202|190:200|190:200|180:199|180:199|180:198|180:198|180:199|180:199|170:198|170:198|170:200|170:200|170:198|170:198|160:197|160:197|161:196|161:196|160:197|160:197|150:196|150:196|150:198|150:198|150:196|150:196|141:195|141:195|141:194|141:194|141:195|141:195|131:194|131:194|131:194|131:194|130:195|130:195|131:194|131:194|126:193|121:194|121:194|120:192|120:192|121:194|121:194|116:194|111:195|111:195|111:197|111:197|111:195|111:195|106:197|101:199|101:199|101:198|101:198|101:199|101:199|97:201|93:204|93:204|94:206|94:206|93:204|93:204|89:207|86:211|86:211|85:210|85:210|86:211|86:211|83:215|81:220|81:220|82:220|82:220|81:220|81:220|78:225|77:229|77:229|76:229|76:229|77:229|77:229|76:234|76:239|76:239|78:239|78:239|76:239|76:239|77:244|78:249|78:249|76:249|76:249|78:249|78:249|79:254|82:258|82:258|83:258|83:258|82:258|82:258|84:263|87:266|87:266|86:267|86:267|87:266|87:266|90:270|95:273|95:273|96:272|96:272|95:273|95:273|99:276|104:278|104:278|103:279|103:279|104:278|104:278|109:280|113:281|113:281|113:279|113:279|113:281|113:281|117:282|121:282|121:282|123:282|123:282|123:284|123:284|123:282|123:282|133:283|133:283|133:282|133:282|133:283|133:283|143:285|143:285|143:286|143:286|143:285|143:285|153:286|153:286|153:284|153:284|153:286|153:286|163:287|163:287|163:288|163:288|163:287|163:287|173:288|173:288|173:286|173:286|173:288|173:288|183:289|183:289|183:291|183:291|183:289|183:289|193:290|193:290|193:289|193:289|193:290|193:290|203:291|203:291|202:293|202:293|203:291|203:291|213:293|213:293|213:291|213:291|213:293|213:293|222:294|222:294|222:295|222:295|222:294|222:294|232:295|232:295|233:293|233:293|232:295|232:295|242:296|242:296|242:297|242:297|242:296|242:296|252:297|252:297|252:296|252:296|252:297|252:297|262:298|262:298|262:300|262:300|262:298|262:298|272:299|272:299|272:298|272:298|272:299|272:299|282:301|282:301|282:302|282:302|282:301|282:301|292:302|292:302|292:300|292:300|292:302|292:302|298:302,1,1179.37769727376,8|0,1:0|0:0,0:0:0:0:
412,244,291512,2,0,B|442:280|437:342|379:382|301:352|277:298|284:216|314:141|388:63|388:63|299:124|164:170|85:96|84:-2|188:-62|264:14|230:91,1,857.500008177757,0|0,3:0|0:0,0:0:0:0:
71,218,292369,5,8,1:0:0:0:
109,62,292584,2,0,P|122:96|119:130,1,52.5000020027161,2|0,0:0|0:0,0:0:0:0:
71,218,292798,2,0,P|119:193|178:200,1,105.000004005432,2|0,0:0|0:0,0:0:0:0:
397,272,293226,6,0,B|445:329|386:414|278:399|257:323|234:222|302:139|419:95|509:127|509:127|436:194|304:157|245:64,1,857.500008177757,0|0,3:0|0:0,0:0:0:0:
333,18,294084,2,0,B|29:45|29:45|55:58|64:83|64:83|164:74,1,451.500006889343,8|0,1:0|0:0,0:0:0:0:
169,83,294512,2,0,L|104:89,1,52.5000020027161,2|0,0:0|0:0,0:0:0:0:
5,247,294726,6,0,B|5:248|5:248|5:247|5:247|10:245|14:243|14:243|14:242|14:242|14:243|14:243|19:241|23:239|23:239|24:240|24:240|23:239|23:239|29:238|33:236|33:236|33:235|33:235|33:236|33:236|38:235|43:233|43:233|43:234|43:234|43:233|43:233|48:232|52:231|52:231|52:230|52:230|52:231|52:231|57:230|62:229|62:229|62:230|62:230|62:229|62:229|68:228|72:228|72:228|72:227|72:227|72:228|72:228|77:228|82:227|82:227|82:228|82:228|82:227|82:227|87:227|92:227|92:227|92:226|92:226|92:227|92:227|97:227|102:227|102:227|102:228|102:228|102:227|102:227|105:228|112:228|112:228|112:227|112:227|112:228|112:228|116:229|122:230|122:230|122:231|122:231|122:230|122:230|127:231|132:232|132:232|132:231|132:231|132:232|132:232|137:233|141:235|141:235|141:236|141:236|141:235|141:235|146:236|151:238|151:238|151:237|151:237|151:238|151:238|154:239|160:242|160:242|160:243|160:243|160:242|160:242|164:244|169:246|169:246|169:245|169:245|169:246|169:246|174:249|178:251|178:251|177:252|177:252|178:251|178:251|183:254|186:256|186:256|187:255|187:255|186:256|186:256|190:259|195:262|195:262|194:262|194:262|195:262|195:262|198:264|203:267|203:267|203:267|203:267|203:267|203:267|205:269|211:273|211:273|210:274|210:274|211:273|211:273|217:277|219:279|219:279|220:278|220:278|219:279|219:279|223:282|227:285|227:285|227:286|227:286|227:285|227:285|232:288|236:290|236:290|236:289|236:289|236:290|236:290|241:294|244:296|244:296|244:296|244:296|244:296|244:296|249:299|253:301|253:301|253:300|253:300|253:301|253:301|257:303|262:305|262:305|261:306|261:306|262:305|262:305|265:307|271:309|271:309|271:308|271:308|271:309|271:309|275:311|280:313|280:313|280:314|280:314|280:313|280:313|285:315|289:316|289:316|290:315|290:315|289:316|289:316|295:318|299:319|299:319|299:320|299:320|299:319|299:319|305:321|309:321|309:321|309:320|309:320|309:321|309:321|313:322|319:323|319:323|318:324|318:324|319:323|319:323|324:324|329:324|329:324|329:323|329:323|329:324|329:324|334:325|338:325|338:325|338:326|338:326|338:325|338:325|344:325|348:325|348:325|348:324|348:324|348:325|348:325|355:324|358:324|358:324|359:325|359:325|358:324|358:324|364:324|368:323|368:323|368:322|368:322|368:323|368:323|374:322|378:321|378:321|378:322|378:322|378:321|378:321|384:320|388:319|388:319|388:318|388:318|388:319|388:319|392:317|397:316|397:316|398:317|398:317|397:316|397:316|401:314|407:312|407:312|406:311|406:311|407:312|407:312|411:310|416:308|416:308|416:309|416:309|416:308|416:308|417:308,1,530.991125824802,0|0,3:0|0:0,0:0:0:0:
483,204,295155,2,0,P|449:290|464:372,1,175,0|0,3:0|0:0,0:0:0:0:
277,131,295798,5,8,1:0:0:0:
512,113,296012,2,0,L|273:132,1,236.250009012223,2|0,0:0|0:0,0:0:0:0:
194,137,296227,1,0,0:0:0:0:
383,52,296441,2,0,L|372:107,1,52.5000020027161
354,320,296655,6,0,B|409:380|491:357|535:310|542:174|429:140|305:170|232:251|264:262|200:341|96:400|0:351|-4:266|11:188|103:168|146:224,1,808.500007710457,0|0,3:0|0:0,0:0:0:0:
269,279,297512,1,8,1:0:0:0:
129,208,297726,2,0,B|117:305|117:305|114:333|137:350|160:337|163:308|163:308|186:86,1,385.000011749268,2|0,0:0|0:0,0:0:0:0:
57,51,298369,6,0,B|165:123|255:59|235:53|364:-38|476:9|498:100|454:186|376:216|294:138,1,612.5,0|0,3:0|0:0,0:0:0:0:
186,108,299226,2,0,P|213:169|207:211,2,105.000004005432,8|2|2,1:0|0:0|0:0,0:0:0:0:
35,311,300084,6,0,B|114:259|194:303|180:311|263:354|334:295,1,297.500005674362,0|0,3:0|0:0,0:0:0:0:
328,315,300726,2,0,P|299:331|271:336,1,59.5000011348725,2|0,0:0|0:0,0:0:0:0:
114,376,300941,2,0,L|131:245,1,125.999996154785,8|0,3:0|0:0,0:0:0:0:
78,104,301369,2,0,B|44:65|-6:95|1:182|115:187|203:129,1,269.500008224488,2|0,0:0|0:0,0:0:0:0:
296,51,302226,6,0,L|305:177,1,105,0|0,3:0|0:0,0:0:0:0:
320,368,302655,1,8,3:0:0:0:
429,279,302869,2,0,B|377:367|246:383|147:300|264:182|317:263,1,350,0|0,3:0|0:0,0:0:0:0:
256,192,304155,12,0,305869,0:0:0:0:
38,212,306084,6,0,L|119:219,1,70,2|0,0:0|0:0,0:0:0:0:
236,67,306298,1,2,0:0:0:0:
243,115,306405,1,2,0:0:0:0:
248,163,306512,2,0,L|159:154,1,70,2|0,0:0|0:0,0:0:0:0:
28,106,306726,2,0,L|109:113,1,70,2|0,0:0|0:0,0:0:0:0:
342,131,306941,5,0,3:0:0:0:
366,33,307155,1,0,0:0:0:0:
366,33,307262,2,0,P|338:97|348:147,1,105.000004005432,2|0,0:0|0:0,0:0:0:0:
402,208,307584,2,0,P|374:223|340:225,1,52.5000020027161,2|0,0:0|0:0,0:0:0:0:
101,33,307798,6,0,P|141:79|152:209,1,188.999994232178,8|0,1:0|0:0,0:0:0:0:
51,304,308226,2,0,L|99:311,1,48.9999985046387,2|0,0:0|0:0,0:0:0:0:
154,202,308441,2,0,L|105:194,1,48.9999985046387,2|0,0:0|0:0,0:0:0:0:
54,315,308655,2,0,L|181:332,1,105.000004005432,2|0,0:0|0:0,0:0:0:0:
254,345,308976,5,2,0:0:0:0:
234,245,309084,2,0,L|437:273,1,178.500003404617,0|0,3:0|0:0,0:0:0:0:
399,41,309512,1,8,1:0:0:0:
173,28,309941,6,0,L|181:89,1,52.5000020027161,2|0,0:0|0:0,0:0:0:0:
256,43,310155,2,0,L|264:104,1,52.5000020027161,2|0,0:0|0:0,0:0:0:0:
242,266,310369,1,0,3:0:0:0:
318,219,310584,2,0,L|333:340,1,105,2|0,0:0|0:0,0:0:0:0:
346,335,311012,1,2,0:0:0:0:
256,43,311226,5,8,1:0:0:0:
256,43,311334,2,0,P|306:37|360:72,1,105.000004005432,2|0,0:0|0:0,0:0:0:0:
318,219,311655,2,0,P|288:177|291:113,1,105.000004005432,2|0,0:0|0:0,0:0:0:0:
441,76,311976,2,0,P|419:122|363:152,1,105.000004005432,2|0,0:0|0:0,0:0:0:0:
256,43,312298,1,2,0:0:0:0:
242,266,312512,6,0,L|122:254,1,105,0|0,3:0|0:0,0:0:0:0:
99,32,312941,1,8,1:0:0:0:
49,270,313155,1,0,3:0:0:0:
49,270,313262,1,0,0:0:0:0:
49,270,313369,2,0,P|48:226|64:198,1,59.5000011348725,2|0,0:0|0:0,0:0:0:0:
169,110,313584,2,0,P|169:153|153:181,1,59.5000011348725,2|0,0:0|0:0,0:0:0:0:
51,369,313798,6,0,P|115:331|163:335,1,119.000002269745,0|0,3:0|0:0,0:0:0:0:
293,376,314119,2,0,P|254:312|258:264,1,119.000002269745,2|0,0:0|0:0,0:0:0:0:
291,182,314441,1,2,0:0:0:0:
51,369,314655,1,8,1:0:0:0:
51,369,314762,2,0,L|62:242,1,119.000002269745,2|0,0:0|0:0,0:0:0:0:
12,119,315084,2,0,P|59:154|127:154,1,119.000002269745,2|0,0:0|0:0,0:0:0:0:
326,106,315512,5,0,3:0:0:0:
308,7,315726,2,0,L|289:190,1,175,2|0,0:0|0:0,0:0:0:0:
351,260,316369,2,0,L|237:274,1,105,2|0,0:0|0:0,0:0:0:0:
130,302,316798,2,0,P|144:271|143:240,1,45.4999979171754,2|0,0:0|0:0,0:0:0:0:
141,305,317012,2,0,P|155:274|154:243,1,45.4999979171754
70,53,317226,5,0,3:0:0:0:
132,167,317441,2,0,L|129:114,1,45.4999979171754,2|0,0:0|0:0,0:0:0:0:
70,53,317655,2,0,P|126:93|217:93,1,157.500006008148,2|0,0:0|0:0,0:0:0:0:
407,37,318084,5,8,1:0:0:0:
407,37,318191,2,0,L|393:155,1,105.000004005432,2|0,0:0|0:0,0:0:0:0:
385,322,318512,2,0,P|343:273|292:256,1,105.000004005432,2|0,0:0|0:0,0:0:0:0:
247,157,318834,2,0,P|182:163|139:194,1,105.000004005432,2|0,0:0|0:0,0:0:0:0:
36,172,319155,2,0,P|16:195|6:222,1,52.5000020027161,2|0,0:0|0:0,0:0:0:0:
99,355,319369,6,0,L|95:235,1,105,0|0,3:0|0:0,0:0:0:0:
88,0,319798,1,8,1:0:0:0:
33,87,320012,1,2,0:0:0:0:
33,87,320119,1,2,0:0:0:0:
33,87,320226,2,0,L|97:97,1,52.5000020027161,2|0,0:0|0:0,0:0:0:0:
219,58,320441,2,0,L|167:49,1,52.5000020027161,2|0,0:0|0:0,0:0:0:0:
36,172,320655,2,0,L|233:201,1,196,0|0,3:0|0:0,0:0:0:0:
444,307,321512,5,8,1:0:0:0:
465,205,321726,1,2,0:0:0:0:
465,205,321834,1,2,0:0:0:0:
465,205,321941,2,0,L|407:210,1,45.4999979171754,2|0,0:0|0:0,0:0:0:0:
325,220,322155,1,0,0:0:0:0:
343,47,322369,2,0,P|360:120|350:151,1,90.9999958343508,2|0,0:0|0:0,0:0:0:0:
220,228,322691,5,2,0:0:0:0:
220,228,322798,2,0,L|349:218,1,105,0|0,3:0|0:0,0:0:0:0:
136,289,323226,2,0,P|176:238|176:136,1,146.999995513916,8|0,1:0|0:0,0:0:0:0:
104,58,323655,6,0,L|111:114,1,48.9999985046387,2|0,0:0|0:0,0:0:0:0:
181,24,323869,2,0,L|188:80,1,48.9999985046387,2|0,0:0|0:0,0:0:0:0:
324,219,324084,1,0,3:0:0:0:
338,72,324298,2,0,L|322:239,1,146.999995513916,2|0,0:0|0:0,0:0:0:0:
315,307,324726,1,2,0:0:0:0:
0,273,324941,5,8,1:0:0:0:
0,273,325048,2,0,L|105:260,1,90.9999958343508,2|0,0:0|0:0,0:0:0:0:
198,301,325369,2,0,P|175:246|182:205,1,90.9999958343508,2|0,0:0|0:0,0:0:0:0:
329,181,325691,2,0,P|292:228|253:242,1,90.9999958343508,2|0,0:0|0:0,0:0:0:0:
244,149,326012,1,2,0:0:0:0:
10,165,326226,6,0,L|131:158,1,105,0|0,3:0|0:0,0:0:0:0:
343,38,326655,1,8,1:0:0:0:
265,240,326869,1,0,3:0:0:0:
384,180,327084,2,0,P|354:177|328:189,1,45.4999979171754,2|0,0:0|0:0,0:0:0:0:
350,273,327298,2,0,P|379:275|405:263,1,45.4999979171754,2|0,0:0|0:0,0:0:0:0:
343,38,327512,6,0,P|293:68|189:68,2,146.999995513916,0|2|2,3:0|0:0|0:0,0:0:0:0:
104,22,328369,2,0,L|117:155,1,125.999996154785,8|0,1:0|0:0,0:0:0:0:
78,284,328798,2,0,P|116:255|185:253,1,97.9999970092774,2|0,0:0|0:0,0:0:0:0:
307,321,329226,5,0,3:0:0:0:
289,190,329441,2,0,L|514:211,1,224,2|0,0:0|0:0,0:0:0:0:
512,210,330512,2,0,P|496:185|498:152,1,45.4999979171754,2|0,0:0|0:0,0:0:0:0:
512,73,330726,2,0,P|464:94|421:89,1,90.9999958343508,2|0,0:0|0:0,0:0:0:0:
