osu file format v14

[General]
AudioFilename: audio.mp3
AudioLeadIn: 0
PreviewTime: 101647
Countdown: 1
SampleSet: Soft
StackLeniency: 0.7
Mode: 0
LetterboxInBreaks: 0
WidescreenStoryboard: 0

[Editor]
DistanceSpacing: 1.2
BeatDivisor: 8
GridSize: 8
TimelineZoom: 2.3

[Metadata]
Title:My Friend The Yellowtail (ft. Negitoro) (M-Project Remix)
TitleUnicode:My Friend The Yellowtail (ft. Negitoro) (M-Project Remix)
Artist:Foxsky
ArtistUnicode:Foxsky
Creator:Efso
Version:Efsane
Source:
Tags:Fosky, Negitoro, M-Project, Hardcore, Powerstomp
BeatmapID:1849553
BeatmapSetID:884902

[Difficulty]
HPDrainRate:7
CircleSize:4.5
OverallDifficulty:8
ApproachRate:9.4
SliderMultiplier:2.4
SliderTickRate:1

[Events]
//Background and Video events
0,0,"space_fox_starfox-70267.jpg!d.jpg",0,0
//Break Periods
//Storyboard Layer 0 (Background)
//Storyboard Layer 1 (Fail)
//Storyboard Layer 2 (Pass)
//Storyboard Layer 3 (Foreground)
//Storyboard Sound Samples

[TimingPoints]
0,352.941176470588,4,3,0,35,1,0
33882,-66.6666666666667,4,3,0,65,0,0
38294,-83.3333333333333,4,3,0,65,0,0
39529,-100,4,3,0,65,0,0
43764,-83.3333333333333,4,3,0,65,0,0
44823,-100,4,3,0,65,0,0
56117,-500,4,3,0,65,0,0
56470,-100,4,2,0,35,0,0
111424.338203407,-100,4,3,0,70,0,0
111431.456091207,-100,4,2,0,70,0,0
111432.575903929,-100,4,3,0,70,0,1
111436.505010447,-100,4,3,0,70,0,0
111439.905239964,-100,4,2,0,70,0,0
146823,-100,4,3,0,70,0,0

[HitObjects]
48,96,0,5,0,0:0:0:0:
119,96,176,1,0,0:0:0:0:
169,146,352,1,0,0:0:0:0:
241,146,529,1,0,0:0:0:0:
104,344,705,5,0,0:0:0:0:
120,272,882,1,0,0:0:0:0:
80,208,1058,1,0,0:0:0:0:
104,144,1235,1,0,0:0:0:0:
376,120,1411,5,0,0:0:0:0:
324,68,1588,1,0,0:0:0:0:
280,128,1764,1,0,0:0:0:0:
216,160,1941,1,0,0:0:0:0:
384,320,2117,5,0,0:0:0:0:
384,247,2294,1,0,0:0:0:0:
434,196,2470,1,0,0:0:0:0:
368,176,2647,1,0,0:0:0:0:
264,80,2823,5,0,0:0:0:0:
200,104,2999,1,0,0:0:0:0:
128,88,3176,1,0,0:0:0:0:
88,152,3352,1,0,0:0:0:0:
208,264,3529,5,0,0:0:0:0:
272,240,3705,1,0,0:0:0:0:
344,240,3882,1,0,0:0:0:0:
400,288,4058,1,0,0:0:0:0:
376,120,4235,5,0,0:0:0:0:
328,168,4411,1,0,0:0:0:0:
304,96,4588,1,0,0:0:0:0:
232,96,4764,1,0,0:0:0:0:
48,192,4941,5,0,0:0:0:0:
80,200,5029,2,0,L|112:216,2,30
64,128,5294,1,0,0:0:0:0:
88,56,5470,2,0,P|128:48|160:48,1,60
272,88,5647,5,0,0:0:0:0:
304,152,5823,1,0,0:0:0:0:
296,224,5999,1,0,0:0:0:0:
347,275,6176,1,0,0:0:0:0:
136,248,6352,5,0,0:0:0:0:
192,208,6529,1,0,0:0:0:0:
264,184,6705,1,0,0:0:0:0:
212,132,6882,1,0,0:0:0:0:
328,48,7058,5,0,0:0:0:0:
392,80,7235,1,0,0:0:0:0:
464,88,7411,1,0,0:0:0:0:
424,152,7588,1,0,0:0:0:0:
240,200,7764,5,0,0:0:0:0:
176,168,7941,1,0,0:0:0:0:
104,168,8117,1,0,0:0:0:0:
136,104,8294,1,0,0:0:0:0:
48,264,8470,5,0,0:0:0:0:
120,248,8647,1,0,0:0:0:0:
192,264,8823,1,0,0:0:0:0:
208,192,8999,1,0,0:0:0:0:
264,80,9176,5,0,0:0:0:0:
296,144,9352,1,0,0:0:0:0:
368,168,9529,1,0,0:0:0:0:
400,232,9705,1,0,0:0:0:0:
456,48,9882,5,0,0:0:0:0:
384,64,10058,1,0,0:0:0:0:
312,48,10235,1,0,0:0:0:0:
280,112,10411,1,0,0:0:0:0:
104,40,10588,5,0,0:0:0:0:
118,72,10676,2,0,L|142:136,1,60
168,192,10941,1,0,0:0:0:0:
200,184,11029,1,0,0:0:0:0:
232,192,11117,1,0,0:0:0:0:
424,256,11294,5,8,0:0:0:0:
424,39,11647,1,8,0:0:0:0:
208,39,11999,1,8,0:0:0:0:
208,255,12352,1,8,0:0:0:0:
408,168,12705,6,0,P|424:128|432:112,1,60,8|0,0:0|0:0,0:0:0:0:
272,80,13058,2,0,P|256:40|248:16,1,60,8|0,0:0|0:0,0:0:0:0:
192,88,13235,2,0,P|152:112|128:120,1,60
240,144,13411,1,8,0:0:0:0:
336,320,13588,6,0,P|368:304|400:280,1,60
272,240,13764,2,0,P|240:232|200:216,1,60,8|0,0:0|0:0,0:0:0:0:
344,40,14117,5,8,0:0:0:0:
264,112,14294,2,0,P|224:144|200:160,1,60
336,152,14470,2,0,P|368:144|400:144,1,60,8|0,0:0|0:0,0:0:0:0:
200,40,14823,6,0,L|208:112,1,60,8|0,0:0|0:0,0:0:0:0:
280,192,15176,2,0,L|288:272,1,60,8|0,0:0|0:0,0:0:0:0:
376,120,15529,6,0,P|392:88|408:56,1,60,8|0,0:0|0:0,0:0:0:0:
192,192,15882,2,0,P|152:224|136:232,1,60,8|0,0:0|0:0,0:0:0:0:
224,288,16058,2,0,P|264:320|288:344,1,60
360,296,16235,1,8,0:0:0:0:
416,160,16411,6,0,P|432:120|440:104,2,60,0|0|8,0:0|0:0|0:0,0:0:0:0:
272,80,16764,2,0,P|240:64|208:40,1,60
128,80,16941,1,8,0:0:0:0:
264,312,17117,6,0,P|272:272|280:240,1,60
216,208,17294,2,0,P|208:168|200:136,1,60,8|0,0:0|0:0,0:0:0:0:
336,136,17647,2,0,P|304:144|264:152,1,60,8|0,0:0|0:0,0:0:0:0:
392,72,17999,2,0,P|408:112|408:136,1,60,8|0,0:0|0:0,0:0:0:0:
104,192,18352,6,0,L|112:128,1,60,8|0,0:0|0:0,0:0:0:0:
224,240,18705,2,0,L|240:312,1,60,8|0,0:0|0:0,0:0:0:0:
288,184,18882,2,0,P|328:176|368:176,1,60
256,112,19058,1,8,0:0:0:0:
416,32,19235,6,0,L|440:112,1,60
376,184,19411,2,0,L|360:248,1,60,8|0,0:0|0:0,0:0:0:0:
208,32,19764,5,8,0:0:0:0:
144,128,19941,2,0,P|120:168|104:184,1,60
256,112,20117,2,0,P|304:104|344:104,1,60,8|0,0:0|0:0,0:0:0:0:
208,264,20470,6,0,L|224:192,1,60,8|0,0:0|0:0,0:0:0:0:
384,120,20823,2,0,L|392:192,1,60,8|0,0:0|0:0,0:0:0:0:
240,96,21176,6,0,P|208:64|192:48,1,60,8|0,0:0|0:0,0:0:0:0:
312,160,21529,2,0,P|320:216|320:248,1,60,8|0,0:0|0:0,0:0:0:0:
400,264,21705,2,0,P|440:248|472:240,1,60
336,288,21882,1,8,0:0:0:0:
240,200,22058,6,0,P|208:184|168:176,2,60,0|0|8,0:0|0:0|0:0,0:0:0:0:
376,120,22411,2,0,P|416:112|448:104,1,60
256,40,22588,5,8,0:0:0:0:
154,141,22764,1,0,0:0:0:0:
154,141,22852,1,0,0:0:0:0:
154,141,22941,1,8,0:0:0:0:
144,32,23117,5,0,0:0:0:0:
240,200,23294,1,8,0:0:0:0:
240,200,23382,1,0,0:0:0:0:
247,195,23470,1,0,0:0:0:0:
266,188,23558,1,0,0:0:0:0:
288,192,23647,2,0,P|336:200|360:208,1,60,8|0,0:0|0:0,0:0:0:0:
424,144,23823,2,0,P|392:120|368:96,1,60
432,304,23999,5,0,0:0:0:0:
288,272,24176,1,0,0:0:0:0:
288,272,24264,1,0,0:0:0:0:
288,272,24352,1,0,0:0:0:0:
424,216,24529,5,0,0:0:0:0:
360,88,24705,1,0,0:0:0:0:
360,88,24794,1,0,0:0:0:0:
336,80,24882,1,0,0:0:0:0:
304,80,24970,1,0,0:0:0:0:
272,96,25058,2,0,P|232:104|208:104,1,60
272,176,25235,2,0,P|280:216|280:248,1,60
456,320,25411,5,0,0:0:0:0:
232,344,25588,1,0,0:0:0:0:
232,344,25676,1,0,0:0:0:0:
232,344,25764,1,0,0:0:0:0:
136,248,25941,5,0,0:0:0:0:
184,128,26117,1,0,0:0:0:0:
184,128,26205,1,0,0:0:0:0:
176,112,26294,1,0,0:0:0:0:
160,96,26382,1,0,0:0:0:0:
136,80,26470,2,0,P|80:56|32:16,1,120
264,80,26823,5,0,0:0:0:0:
288,240,26999,1,0,0:0:0:0:
288,240,27088,1,0,0:0:0:0:
288,240,27176,1,0,0:0:0:0:
376,120,27352,5,0,0:0:0:0:
192,136,27529,1,0,0:0:0:0:
192,136,27617,1,0,0:0:0:0:
176,144,27705,1,0,0:0:0:0:
152,144,27794,1,0,0:0:0:0:
128,128,27882,2,0,P|56:160|8:200,1,120
72,344,28235,5,0,0:0:0:0:
72,344,28323,1,0,0:0:0:0:
72,344,28411,2,0,L|88:280,1,60
200,192,28588,5,0,0:0:0:0:
200,192,28676,1,0,0:0:0:0:
200,192,28764,2,0,L|208:272,1,60
304,336,28941,5,0,0:0:0:0:
304,336,29029,1,0,0:0:0:0:
304,336,29117,2,0,L|320:272,1,60
432,184,29294,5,0,0:0:0:0:
432,184,29382,1,0,0:0:0:0:
432,184,29470,2,0,L|440:264,1,60
376,112,29647,5,0,0:0:0:0:
376,112,29735,1,0,0:0:0:0:
376,112,29823,2,0,P|320:144|296:152,1,60
192,136,29999,5,0,0:0:0:0:
192,136,30087,1,0,0:0:0:0:
192,136,30175,2,0,P|248:168|272:176,1,60
128,56,30352,5,0,0:0:0:0:
128,56,30440,1,0,0:0:0:0:
128,56,30528,2,0,P|65:39|43:27,1,60
248,40,30705,5,0,0:0:0:0:
248,40,30794,1,0,0:0:0:0:
248,40,30882,2,0,P|264:102|276:124,1,60
168,248,31058,5,0,0:0:0:0:
213,231,31146,1,0,0:0:0:0:
260,222,31234,1,0,0:0:0:0:
307,219,31322,1,0,0:0:0:0:
355,224,31410,5,0,0:0:0:0:
401,237,31499,1,0,0:0:0:0:
445,257,31587,1,0,0:0:0:0:
408,288,31676,1,0,0:0:0:0:
386,244,31764,5,0,0:0:0:0:
374,198,31852,1,0,0:0:0:0:
370,150,31940,1,0,0:0:0:0:
374,103,32028,1,0,0:0:0:0:
400,64,32117,5,0,0:0:0:0:
354,48,32205,1,0,0:0:0:0:
307,41,32293,1,0,0:0:0:0:
259,45,32381,1,0,0:0:0:0:
224,72,32470,6,0,P|184:48|152:24,1,60
288,312,32823,6,0,P|320:344|344:376,1,60
200,328,32999,2,0,L|136:288,1,60
288,312,33352,2,0,P|320:328|368:344,1,60
224,192,33529,6,0,P|240:120|240:104,1,60
248,184,33705,2,0,L|264:120,1,60
448,56,33882,5,0,0:0:0:0:
400,144,33970,2,0,B|360:88|360:152|312:152,2,90.0000034332277
224,264,34235,5,0,0:0:0:0:
192,48,34323,2,0,P|136:48|96:80,2,90.0000034332277
80,192,34588,5,0,0:0:0:0:
262,125,34676,2,0,B|326:125|302:133|358:133,1,90.0000034332277
416,224,34852,2,0,B|368:232|368:248|320:248,1,90.0000034332277
208,280,35029,2,0,B|160:272|176:280|120:288,2,90.0000034332277
288,48,35294,5,0,0:0:0:0:
336,136,35382,2,0,B|336:168|336:192|336:192|360:216,1,90.0000034332277
256,152,35558,2,0,P|208:144|160:144,1,90.0000034332277
48,40,35735,2,0,P|88:56|152:64,2,90.0000034332277
40,224,35999,5,0,0:0:0:0:
184,256,36088,2,0,B|168:256|272:232,2,90.0000034332277
368,288,36352,5,0,0:0:0:0:
416,136,36441,2,0,P|432:208|432:232,2,90.0000034332277
304,32,36705,5,0,0:0:0:0:
240,96,36794,2,0,B|200:120|200:104|144:120,1,90.0000034332277
264,184,36970,2,0,B|312:208|304:184|360:208,1,90.0000034332277
184,256,37147,2,0,B|144:280|144:264|88:280,2,90.0000034332277
384,344,37411,5,0,0:0:0:0:
432,232,37499,2,0,P|440:168|440:128,2,90.0000034332277
256,24,37764,1,0,0:0:0:0:
192,64,37852,2,0,B|152:88|152:72|96:88,2,90.0000034332277
384,40,38117,5,0,0:0:0:0:
376,48,38205,1,0,0:0:0:0:
368,56,38294,2,0,P|336:80|296:96,1,71.9999978027344
408,144,38470,1,0,0:0:0:0:
404,154,38558,1,0,0:0:0:0:
400,165,38647,2,0,P|381:200|351:231,1,71.9999978027344
472,248,38823,1,0,0:0:0:0:
472,258,38911,1,0,0:0:0:0:
473,270,39000,2,0,P|470:309|457:350,1,71.9999978027344
64,248,39176,6,0,P|96:248|152:232,1,71.9999978027344
56,232,39352,2,0,P|112:216|136:208,1,71.9999978027344
216,48,39529,6,0,P|184:64|144:80,1,60
312,56,39705,1,0,0:0:0:0:
320,64,39794,1,0,0:0:0:0:
328,80,39882,2,0,P|336:120|336:152,1,60
256,248,40058,2,0,P|288:272|304:296,1,60
88,64,40235,5,0,0:0:0:0:
80,88,40323,2,0,P|96:136|104:168,1,60
216,176,40499,1,0,0:0:0:0:
400,104,40588,1,0,0:0:0:0:
376,112,40676,2,0,B|320:120|320:120|320:120|288:96|240:128,1,120
88,320,40941,5,0,0:0:0:0:
96,288,41029,2,0,P|104:248|120:216,1,60
152,136,41205,2,0,P|112:120|80:112,1,60
256,216,41426,6,0,P|296:232|352:240,1,90
480,72,41647,1,0,0:0:0:0:
448,96,41735,2,0,P|424:128|408:160,1,60
160,144,41911,5,0,0:0:0:0:
192,136,41999,2,0,P|216:88|224:56,1,60
240,200,42176,2,0,P|248:232|248:272,1,60
408,40,42352,5,0,0:0:0:0:
400,160,42441,2,0,B|400:200|400:184|400:184|416:224,2,60
352,96,42705,1,0,0:0:0:0:
272,48,42794,2,0,B|248:40|256:32|232:32|232:32|216:32,2,60
144,160,43058,5,0,0:0:0:0:
168,248,43147,2,0,P|168:280|168:320,1,60
240,184,43323,1,0,0:0:0:0:
280,168,43411,1,0,0:0:0:0:
328,168,43499,2,0,P|360:168|392:160,2,60
384,40,43764,5,0,0:0:0:0:
376,48,43852,1,0,0:0:0:0:
368,56,43941,2,0,P|336:80|296:96,1,71.9999978027344
408,144,44117,1,0,0:0:0:0:
404,154,44205,1,0,0:0:0:0:
400,165,44294,2,0,P|381:200|351:231,1,71.9999978027344
472,248,44470,1,0,0:0:0:0:
472,258,44558,1,0,0:0:0:0:
473,270,44647,2,0,P|470:309|457:350,1,71.9999978027344
200,192,44823,6,0,P|232:152|256:128,1,60
152,128,44999,2,0,B|64:128|120:104|32:104,1,120
256,48,45264,6,0,B|296:64|288:48|320:64,1,60
328,80,45441,1,0,0:0:0:0:
384,192,45529,1,0,0:0:0:0:
400,208,45617,2,0,B|440:224|432:216|464:216,2,60
256,288,45882,5,0,0:0:0:0:
272,304,45970,2,0,P|304:320|336:328,2,60
144,240,46235,5,0,0:0:0:0:
120,216,46323,2,0,B|87:195|127:203|95:163,2,60
256,80,46588,5,0,0:0:0:0:
272,88,46676,2,0,P|312:96|352:96,1,60
392,144,46852,2,0,P|416:176|432:192,1,60
304,216,47029,5,0,0:0:0:0:
288,240,47117,1,0,0:0:0:0:
288,272,47205,1,0,0:0:0:0:
160,112,47294,5,0,0:0:0:0:
176,96,47382,1,0,0:0:0:0:
192,88,47470,1,0,0:0:0:0:
208,88,47558,1,0,0:0:0:0:
96,192,47647,5,0,0:0:0:0:
112,224,47735,2,0,B|128:256|128:224|160:280,2,60
296,152,47999,5,0,0:0:0:0:
320,128,48088,2,0,B|356:112|327:114|387:88|398:99,2,60
208,32,48352,5,0,0:0:0:0:
216,40,48441,1,0,0:0:0:0:
208,56,48529,1,0,0:0:0:0:
216,72,48617,1,0,0:0:0:0:
152,192,48705,5,0,0:0:0:0:
144,184,48794,1,0,0:0:0:0:
152,168,48882,1,0,0:0:0:0:
144,152,48970,1,0,0:0:0:0:
40,48,49058,5,0,0:0:0:0:
64,64,49147,2,0,B|120:80|104:56|192:72,1,120
320,192,49411,5,0,0:0:0:0:
344,168,49499,1,0,0:0:0:0:
376,152,49588,1,0,0:0:0:0:
360,128,49676,1,0,0:0:0:0:
256,272,49764,5,0,0:0:0:0:
232,296,49852,1,0,0:0:0:0:
200,312,49941,1,0,0:0:0:0:
216,336,50029,1,0,0:0:0:0:
176,191,50117,5,0,0:0:0:0:
152,168,50205,1,0,0:0:0:0:
136,135,50294,1,0,0:0:0:0:
136,104,50382,1,0,0:0:0:0:
56,224,50470,6,0,P|96:248|128:256,1,60
56,240,50647,2,0,P|72:272|80:304,2,60
152,80,50911,6,0,P|192:72|216:72,1,60
232,56,51088,1,0,0:0:0:0:
304,240,51176,5,0,0:0:0:0:
384,192,51264,2,0,P|416:176|448:168,2,60
248,184,51529,5,0,0:0:0:0:
286,98,51617,2,0,P|303:66|324:41,2,60
173,232,51882,5,0,0:0:0:0:
154,139,51970,2,0,B|144:96|128:64|128:64|160:32,1,120
312,88,52235,5,0,0:0:0:0:
368,152,52323,2,0,B|392:184|400:192|400:192|320:192,1,120
256,280,52588,1,0,0:0:0:0:
184,216,52676,2,0,P|144:184|120:176,2,60
256,160,52941,5,0,0:0:0:0:
233,66,53029,2,0,P|218:16|203:-3,2,60
80,120,53294,5,0,0:0:0:0:
72,216,53382,2,0,B|80:264|72:272|72:272|104:320|144:304,1,120
224,248,53647,5,0,0:0:0:0:
283,238,53735,1,0,0:0:0:0:
343,240,53823,1,0,0:0:0:0:
401,252,53911,1,0,0:0:0:0:
360,296,53999,5,0,0:0:0:0:
343,238,54087,1,0,0:0:0:0:
337,178,54175,1,0,0:0:0:0:
342,118,54263,1,0,0:0:0:0:
368,64,54352,5,0,0:0:0:0:
309,49,54440,1,0,0:0:0:0:
250,47,54528,1,0,0:0:0:0:
191,58,54616,1,0,0:0:0:0:
216,112,54705,5,0,0:0:0:0:
215,170,54793,1,0,0:0:0:0:
204,229,54881,1,0,0:0:0:0:
198,289,54969,1,0,0:0:0:0:
80,192,55058,5,0,0:0:0:0:
88,168,55147,1,0,0:0:0:0:
88,136,55235,1,0,0:0:0:0:
80,112,55323,1,0,0:0:0:0:
171,47,55411,5,0,0:0:0:0:
178,71,55500,1,0,0:0:0:0:
196,97,55588,1,0,0:0:0:0:
216,112,55676,1,0,0:0:0:0:
312,184,55764,5,0,0:0:0:0:
320,208,55852,1,0,0:0:0:0:
320,240,55941,1,0,0:0:0:0:
304,264,56029,1,0,0:0:0:0:
368,352,56117,1,0,0:0:0:0:
448,192,56470,6,0,B|392:184|424:160|320:160,1,120
288,88,56823,1,0,0:0:0:0:
334,160,56999,1,0,0:0:0:0:
144,192,57176,6,0,B|128:248|128:272|104:272|128:288|104:288|160:288,1,120
192,136,57529,2,0,B|192:120|96:120|96:72,1,120
320,48,57882,5,0,0:0:0:0:
360,136,58058,1,0,0:0:0:0:
328,232,58235,1,0,0:0:0:0:
368,320,58411,1,0,0:0:0:0:
256,176,58588,5,0,0:0:0:0:
160,160,58764,1,0,0:0:0:0:
192,96,58941,2,0,B|168:64|168:24|168:24|120:24,1,120
208,264,59294,5,0,0:0:0:0:
296,232,59470,1,0,0:0:0:0:
392,256,59647,2,0,B|424:288|456:264|456:264|480:288|480:320,1,120
320,208,59999,6,0,B|328:152|296:128|296:128|296:88|296:88|296:88,1,120
248,184,60352,2,0,B|240:240|272:264|272:264|272:304|272:304|272:304,1,120
192,136,60705,6,0,B|128:136|160:104|96:104|56:136,1,120
272,72,61058,1,0,0:0:0:0:
344,112,61235,1,0,0:0:0:0:
192,64,61411,5,0,0:0:0:0:
232,160,61499,2,0,L|248:192,2,30
216,264,61764,1,0,0:0:0:0:
272,88,61941,1,0,0:0:0:0:
104,64,62117,5,0,0:0:0:0:
152,152,62294,1,0,0:0:0:0:
144,248,62470,1,0,0:0:0:0:
184,336,62647,1,0,0:0:0:0:
56,192,62823,5,0,0:0:0:0:
152,152,62999,1,0,0:0:0:0:
256,168,63176,2,0,B|304:192|344:176|344:176|376:192|376:208,1,120
200,112,63529,5,0,0:0:0:0:
232,248,63705,1,0,0:0:0:0:
176,192,63882,1,0,0:0:0:0:
248,328,64058,1,0,0:0:0:0:
104,160,64235,5,0,0:0:0:0:
200,112,64411,1,0,0:0:0:0:
288,128,64588,2,0,P|336:136|416:120,1,120
232,248,64941,5,0,0:0:0:0:
192,160,65117,1,0,0:0:0:0:
224,80,65294,1,0,0:0:0:0:
128,64,65470,1,0,0:0:0:0:
405,124,65647,5,0,0:0:0:0:
445,212,65823,1,0,0:0:0:0:
413,292,66000,1,0,0:0:0:0:
464,360,66176,1,0,0:0:0:0:
480,144,66352,5,0,0:0:0:0:
328,128,66529,1,0,0:0:0:0:
240,168,66705,1,0,0:0:0:0:
144,144,66882,1,0,0:0:0:0:
184,224,67058,2,0,P|192:272|184:344,1,120
256,152,67411,2,0,B|312:136|272:120|360:120|392:144|392:144|432:120|432:80|400:48,1,240
328,200,67941,5,0,0:0:0:0:
232,272,68117,2,0,B|208:248|256:192|176:240|176:240|112:184|160:96,1,240
176,32,68647,5,0,0:0:0:0:
224,152,68823,1,0,0:0:0:0:
144,312,68999,1,0,0:0:0:0:
272,240,69176,5,0,0:0:0:0:
319,231,69264,1,0,0:0:0:0:
367,228,69352,1,0,0:0:0:0:
414,233,69440,1,0,0:0:0:0:
464,248,69529,5,0,0:0:0:0:
445,190,69617,1,0,0:0:0:0:
442,131,69705,1,0,0:0:0:0:
463,75,69793,1,0,0:0:0:0:
432,24,69882,2,0,B|384:24|304:24|304:24,2,120
384,64,70323,5,0,0:0:0:0:
341,106,70411,1,0,0:0:0:0:
298,148,70499,1,0,0:0:0:0:
298,208,70588,5,0,0:0:0:0:
304,243,70676,1,0,0:0:0:0:
301,279,70764,1,0,0:0:0:0:
290,313,70852,1,0,0:0:0:0:
264,344,70941,5,0,0:0:0:0:
312,360,71029,1,0,0:0:0:0:
352,336,71117,1,0,0:0:0:0:
392,360,71205,1,0,0:0:0:0:
432,336,71294,5,0,0:0:0:0:
408,296,71382,1,0,0:0:0:0:
416,248,71470,2,0,P|408:208|408:176,1,60
424,144,71647,5,0,0:0:0:0:
355,122,71735,1,0,0:0:0:0:
283,122,71823,1,0,0:0:0:0:
215,145,71911,1,0,0:0:0:0:
160,192,71999,2,0,B|120:176|120:128|120:128|96:88|96:64|96:64|64:64|64:64,1,180
168,32,72352,2,0,B|208:64|248:40|248:40|248:88|280:88|280:88|312:112,1,180
368,176,72705,5,0,0:0:0:0:
350,232,72793,1,0,0:0:0:0:
368,264,72882,1,0,0:0:0:0:
357,321,72970,1,0,0:0:0:0:
336,344,73058,6,0,P|288:336|264:336,1,60
248,344,73235,2,0,P|216:352|176:352,1,60
152,336,73411,2,0,B|112:304|144:256|144:256|64:184|112:112,1,240
264,88,73941,1,0,0:0:0:0:
456,168,74117,2,0,B|416:192|360:192|360:192|328:264|328:264|248:264|248:192|248:192|248:216,1,300
200,112,74647,2,0,P|176:96|144:80,1,60
280,120,74823,5,0,0:0:0:0:
312,168,74911,1,0,0:0:0:0:
304,200,74999,1,0,0:0:0:0:
332,249,75087,1,0,0:0:0:0:
360,272,75176,5,0,0:0:0:0:
384,312,75264,1,0,0:0:0:0:
432,288,75352,1,0,0:0:0:0:
480,296,75440,1,0,0:0:0:0:
464,248,75529,6,0,P|448:200|448:112,1,120
392,40,75882,2,0,B|360:56|336:40|328:56|320:40|312:56|304:40|296:56|288:40|280:56|272:48,1,120
120,128,76235,5,0,0:0:0:0:
175,151,76323,1,0,0:0:0:0:
184,224,76411,1,0,0:0:0:0:
234,254,76499,1,0,0:0:0:0:
304,216,76588,5,0,0:0:0:0:
346,256,76676,1,0,0:0:0:0:
384,328,76764,1,0,0:0:0:0:
442,336,76852,1,0,0:0:0:0:
464,328,76941,5,0,0:0:0:0:
404,336,77029,1,0,0:0:0:0:
347,321,77117,1,0,0:0:0:0:
299,286,77205,1,0,0:0:0:0:
267,235,77294,5,0,0:0:0:0:
271,175,77382,1,0,0:0:0:0:
259,117,77470,1,0,0:0:0:0:
232,64,77558,1,0,0:0:0:0:
191,20,77646,1,0,0:0:0:0:
107,101,77823,6,0,P|147:117|187:125,1,60
259,117,77999,2,0,P|299:141|331:165,1,60
403,165,78176,1,0,0:0:0:0:
240,320,78352,6,0,P|208:320|176:328,1,60
304,240,78529,2,0,P|336:240|384:248,1,60
240,176,78705,2,0,B|168:168|208:152|112:152,2,120
