osu file format v14

[General]
AudioFilename: Foxsky - Kirby Smash.mp3
AudioLeadIn: 0
PreviewTime: 26705
Countdown: 0
SampleSet: Normal
StackLeniency: 0.7
Mode: 0
LetterboxInBreaks: 1
WidescreenStoryboard: 1

[Editor]
Bookmarks: 80316,89205
DistanceSpacing: 3
BeatDivisor: 8
GridSize: 8
TimelineZoom: 2.1

[Metadata]
Title:Kirby Smash
TitleUnicode:Kirby Smash
Artist:Foxsky
ArtistUnicode:Foxsky
Creator:Rekinaja
Version:the real Insane
Source:
Tags:
BeatmapID:2025829
BeatmapSetID:279939

[Difficulty]
HPDrainRate:6.5
CircleSize:4
OverallDifficulty:7
ApproachRate:9
SliderMultiplier:1.5
SliderTickRate:2

[Events]
//Background and Video events
0,0,"509904.jpg",0,0
//Break Periods
2,24961,26383
2,80516,88605
//Storyboard Layer 0 (Background)
//Storyboard Layer 1 (Fail)
//Storyboard Layer 2 (Pass)
//Storyboard Layer 3 (Foreground)
//Storyboard Sound Samples

[TimingPoints]
316.602971287809,555.555555555556,4,1,1,60,1,0
9205,-83.3333333333333,4,1,1,60,0,0
23511,-66.6666666666667,4,1,1,60,0,0
23927,-58.8235294117647,4,1,1,60,0,0
24350,-50,4,1,1,60,0,0
26983,-133.333333333333,4,1,1,60,0,0
29205,-66.6666666666667,4,1,1,60,0,0
31427,-133.333333333333,4,1,1,60,0,0
32538,-66.6666666666667,4,1,1,60,0,0
35872,-133.333333333333,4,1,1,60,0,0
36983,-66.6666666666667,4,1,1,60,0,0
40316,-133.333333333333,4,1,1,60,0,0
41427,-66.6666666666667,4,1,1,60,0,0
45038,-100,4,1,1,60,0,0
49205,-58.8235294117647,4,1,1,60,0,0
53649,-66.6666666666667,4,1,1,60,0,0
58094,-83.3333333333333,4,1,1,60,0,0
62538,-66.6666666666667,4,1,1,60,0,0
71427,-58.8235294117647,4,1,1,60,0,0
75872,-66.6666666666667,4,1,1,60,0,0
89205,-66.6666666666667,4,1,1,60,0,0
115872,-133.333333333333,4,1,1,60,0,0
118094,-66.6666666666667,4,1,1,60,0,0
120316,-133.333333333333,4,1,1,60,0,0
121427,-66.6666666666667,4,1,1,60,0,0
124761,-133.333333333333,4,1,1,60,0,0
125872,-66.6666666666667,4,1,1,60,0,0
129205,-133.333333333333,4,1,1,60,0,0
130316,-66.6666666666667,4,1,1,60,0,0
133649,-100,4,1,1,60,0,0
138094,-58.8235294117647,4,1,1,60,0,0

[Colours]
Combo1 : 221,0,0
Combo2 : 255,128,255
Combo3 : 0,128,255
Combo4 : 128,255,0
Combo5 : 255,128,0

[HitObjects]
110,76,316,6,0,L|199:103,1,75
221,110,733,1,0,0:0:0:0:
293,88,1011,6,0,L|242:105,1,37.5
222,110,1288,1,0,0:0:0:0:
110,76,1427,6,0,L|199:103,1,75
222,110,1844,1,0,0:0:0:0:
170,188,1983,2,0,L|126:198,2,37.5
387,129,2538,6,0,L|298:156,1,75
276,163,2955,1,0,0:0:0:0:
204,141,3233,22,0,L|255:158,1,37.5
275,163,3510,1,0,0:0:0:0:
387,129,3649,6,0,L|298:156,1,75
275,163,4066,1,0,0:0:0:0:
327,241,4205,2,0,L|371:251,2,37.5
50,179,4761,6,0,P|80:157|116:155,1,75
150,172,5177,1,0,0:0:0:0:
108,234,5455,6,0,P|147:247|175:242,1,37.5
180,244,5733,1,0,0:0:0:0:
150,172,5872,22,0,P|186:167|219:184,1,75
241,215,6288,1,0,0:0:0:0:
173,246,6427,2,0,P|200:276|227:286,2,37.5
372,140,6983,6,0,L|286:150,1,75
260,153,7399,1,0,0:0:0:0:
187,134,7677,6,0,L|228:145,1,37.5
260,153,7955,1,0,0:0:0:0:
321,196,8094,6,0,L|235:206,1,75
208,209,8511,1,0,0:0:0:0:
133,216,8649,2,0,L|73:221,2,37.5
209,52,9205,22,0,L|315:90,1,89.9999972534181
376,114,9622,1,0,0:0:0:0:
291,144,9761,2,0,B|255:157|255:157|251:150|251:150|254:157|254:157|206:175,1,89.9999972534181
135,200,10177,1,0,0:0:0:0:
187,324,10316,22,0,L|184:261,1,44.999998626709
274,292,10594,2,0,L|271:229,1,44.999998626709
362,248,10872,2,0,L|359:185,1,44.999998626709
449,202,11149,2,0,L|446:139,1,44.999998626709
439,66,11427,6,0,P|406:94|358:110,1,89.9999972534181
271,103,11844,1,0,0:0:0:0:
181,90,11983,2,0,B|136:83|136:83|138:75|138:75|136:83|136:83|91:77,1,89.9999972534181
25,115,12399,1,0,0:0:0:0:
36,249,12538,22,0,P|57:278|74:285,1,44.999998626709
110,220,12816,2,0,P|145:225|162:218,1,44.999998626709
134,147,13094,2,0,P|163:125|170:109,1,44.999998626709
102,74,13372,2,0,P|107:38|100:22,1,44.999998626709
19,135,13649,6,0,P|61:172|104:175,1,89.9999972534181
183,189,14066,1,0,0:0:0:0:
272,198,14205,2,0,B|301:201|301:201|303:191|303:191|301:201|301:201|346:208,1,89.9999972534181
430,223,14622,1,0,0:0:0:0:
361,300,14761,22,0,L|307:309,1,44.999998626709
209,224,15038,2,0,L|263:233,1,44.999998626709
363,151,15316,2,0,L|309:160,1,44.999998626709
203,85,15594,2,0,L|257:94,1,44.999998626709
368,153,15872,22,0,L|269:171,1,89.9999972534181
190,184,16288,1,0,0:0:0:0:
198,94,16427,2,0,B|162:103|162:103|159:93|159:93|163:103|163:103|132:111,1,89.9999972534181
44,132,16844,1,0,0:0:0:0:
75,263,16983,6,0,P|76:295|89:318,1,44.999998626709
196,227,17261,2,0,P|195:195|182:172,1,44.999998626709
63,136,17538,2,0,P|64:168|77:191,1,44.999998626709
177,97,17816,2,0,P|176:65|163:42,1,44.999998626709
61,134,18094,6,0,L|76:237,1,89.9999972534181
95,357,18511,1,0,0:0:0:0:
157,292,18649,2,0,L|172:189,1,89.9999972534181
191,69,19066,1,0,0:0:0:0:
253,133,19205,6,0,L|268:236,1,89.9999972534181
287,356,19622,1,0,0:0:0:0:
355,296,19761,2,0,L|370:193,1,89.9999972534181
389,73,20178,1,0,0:0:0:0:
328,138,20316,22,0,L|343:241,1,89.9999972534181
362,361,20733,1,0,0:0:0:0:
301,294,20872,2,0,L|316:191,1,89.9999972534181
335,71,21288,1,0,0:0:0:0:
275,138,21427,6,0,L|290:241,1,89.9999972534181
309,361,21844,1,0,0:0:0:0:
252,290,21983,2,0,L|267:187,1,89.9999972534181
286,67,22399,1,0,0:0:0:0:
157,5,22538,5,0,0:0:0:0:
178,138,22677,1,0,0:0:0:0:
228,12,22816,1,0,0:0:0:0:
164,75,22955,1,0,0:0:0:0:
294,108,23094,6,0,L|232:91,1,44.999998626709
164,75,23372,1,0,0:0:0:0:
216,196,23511,22,0,L|282:177,1,56.2500021457673
378,148,23789,1,0,0:0:0:0:
344,303,23927,6,0,L|264:276,1,63.7500012159348
162,240,24205,1,0,0:0:0:0:
215,371,24344,6,0,L|293:343,1,63.7500012159348
415,293,24622,1,0,0:0:0:0:
279,227,24761,1,0,0:0:0:0:
156,77,26983,22,0,L|214:98,1,56.2500021457673,8|0,0:0|0:0,0:0:0:0:
311,142,27538,2,0,L|253:163,1,56.2500021457673,2|0,0:0|0:0,0:0:0:0:
156,210,28094,2,0,L|214:231,2,56.2500021457673,8|0|2,0:0|0:0|0:0,0:0:0:0:
49,246,28927,1,0,0:0:0:0:
161,50,29205,6,0,L|231:65,1,56.2500021457673,8|0,0:0|0:0,0:0:0:0:
382,97,29483,2,0,L|334:150,1,56.2500021457673
226,261,29761,2,0,L|203:192,1,56.2500021457673,2|0,0:0|0:0,0:0:0:0:
170,101,30038,2,0,L|240:116,1,56.2500021457673,0|0,2:0|2:0,2:0:0:0:
337,130,30316,5,8,0:0:0:0:
264,216,30455,1,0,0:0:0:0:
429,184,30594,2,0,L|502:166,1,56.2500021457673
359,54,30872,2,0,L|244:84,1,112.500004291535,2|0,0:0|0:0,0:0:0:0:
136,207,31427,38,0,L|157:127,1,56.2500021457673,8|0,0:0|0:0,0:0:0:0:
216,60,31983,2,0,L|230:114,1,56.2500021457673,2|0,0:0|0:0,0:0:0:0:
247,168,32399,1,0,0:0:0:0:
276,276,32538,6,0,L|332:299,1,56.2500021457673,8|0,0:0|0:0,0:0:0:0:
487,237,32816,1,0,0:0:0:0:
368,116,32955,1,0,0:0:0:0:
414,278,33094,2,0,P|469:321|520:307,1,112.500004291535,2|0,0:0|0:0,0:0:0:0:
466,149,33511,1,0,0:0:0:0:
304,194,33649,6,0,L|230:184,1,56.2500021457673,8|0,0:0|0:0,0:0:0:0:
105,93,33927,2,0,L|179:83,1,56.2500021457673
327,120,34205,1,2,0:0:0:0:
210,242,34344,1,0,0:0:0:0:
236,127,34483,1,0,0:0:0:0:
285,228,34622,1,0,0:0:0:0:
232,327,34761,6,0,P|200:334|157:310,1,56.2500021457673,8|0,0:0|0:0,0:0:0:0:
105,175,35038,2,0,P|163:188|192:236,1,112.500004291535,0|2,0:0|0:0,0:0:0:0:
25,272,35455,1,0,0:0:0:0:
53,105,35594,1,0,0:0:0:0:
122,258,35733,1,0,0:0:0:0:
72,189,35872,22,0,L|132:170,1,56.2500021457673,8|0,0:0|0:0,0:0:0:0:
259,128,36288,1,8,0:0:0:0:
243,210,36427,2,0,L|254:143,1,56.2500021457673,2|0,0:0|0:0,0:0:0:0:
394,62,36983,5,0,0:0:0:0:
425,170,37122,1,0,0:0:0:0:
318,134,37261,2,0,L|249:158,1,56.2500021457673,8|0,0:0|0:0,0:0:0:0:
157,187,37538,2,0,P|191:239|252:248,1,112.500004291535,2|0,0:0|0:0,0:0:0:0:
149,42,38094,5,8,0:0:0:0:
75,194,38233,1,0,0:0:0:0:
38,29,38372,2,0,L|54:96,1,56.2500021457673,0|8,0:0|0:0,0:0:0:0:
86,248,38649,5,2,0:0:0:0:
208,317,38788,1,0,0:0:0:0:
67,326,38927,2,0,L|132:320,1,56.2500021457673,8|0,0:0|0:0,0:0:0:0:
264,311,39205,5,0,0:0:0:0:
309,195,39344,1,8,0:0:0:0:
334,316,39483,2,0,L|324:257,1,56.2500021457673,0|8,0:0|0:0,0:0:0:0:
303,137,39761,2,0,B|337:143|337:143|364:122|364:122|372:137|372:137|405:142,1,112.500004291535,2|0,0:0|0:0,0:0:0:0:
244,209,40316,6,0,L|173:195,1,56.2500021457673,8|0,0:0|0:0,0:0:0:0:
46,171,40733,1,8,0:0:0:0:
7,246,40872,2,0,L|36:189,1,56.2500021457673,2|0,0:0|0:0,0:0:0:0:
72,121,41288,1,0,0:0:0:0:
228,58,41427,6,0,L|295:47,1,56.2500021457673
234,211,41705,1,8,0:0:0:0:
175,114,41844,1,0,0:0:0:0:
325,189,41983,2,0,P|334:226|317:263,1,56.2500021457673,2|0,0:0|0:0,0:0:0:0:
267,337,42261,5,0,0:0:0:0:
234,211,42399,1,0,0:0:0:0:
374,304,42538,2,0,L|437:344,1,56.2500021457673,8|0,0:0|0:0,0:0:0:0:
439,164,42816,2,0,L|320:191,1,112.500004291535,0|2,0:0|0:0,0:0:0:0:
162,220,43233,2,0,L|167:170,2,28.1250010728836,0|0|8,0:0|0:0|0:0,0:0:0:0:
149,332,43511,1,0,0:0:0:0:
248,280,43649,6,0,P|266:248|259:201,1,56.2500021457673,0|8,0:0|0:0,0:0:0:0:
121,140,43927,1,0,0:0:0:0:
162,220,44066,1,8,0:0:0:0:
255,156,44205,2,0,L|305:122,1,56.2500021457673,2|0,0:0|0:0,0:0:0:0:
411,94,44483,6,0,L|312:165,1,112.500004291535,8|8,0:0|0:0,0:0:0:0:
247,291,45038,5,0,0:0:0:0:
234,179,45316,1,2,0:0:0:0:
175,317,45594,1,0,0:0:0:0:
299,232,45872,2,0,L|378:203,1,75,8|0,0:0|0:0,0:0:0:0:
278,86,46427,2,0,L|184:125,1,75,2|0,0:0|0:0,0:0:0:0:
109,228,46983,54,0,L|116:177,1,37.5,8|0,0:0|0:0,0:0:0:0:
195,142,47261,2,0,L|189:179,1,37.5
254,246,47538,2,0,L|261:195,1,37.5,2|0,0:0|0:0,0:0:0:0:
340,160,47816,2,0,L|334:197,1,37.5
320,290,48094,1,8,0:0:0:0:
211,320,48233,22,0,L|181:330,2,18.75
247,212,48511,1,0,0:0:0:0:
144,168,48649,2,0,P|126:205|147:257,1,75,2|0,0:0|0:0,0:0:0:0:
343,92,49205,6,0,L|206:106,1,127.50000243187,8|0,0:0|0:0,0:0:0:0:
130,200,49622,1,2,0:0:0:0:
130,200,49761,2,0,B|158:210|176:241|176:241|206:221|259:236,1,127.50000243187,8|2,0:0|0:0,0:0:0:0:
364,248,50177,1,0,0:0:0:0:
196,341,50316,6,0,P|125:323|92:262,1,127.50000243187,8|0,0:0|0:0,0:0:0:0:
220,133,50733,1,2,0:0:0:0:
220,133,50872,2,0,B|210:161|179:179|179:179|199:209|184:262,1,127.50000243187,8|2,0:0|0:0,0:0:0:0:
106,68,51288,1,0,0:0:0:0:
296,44,51427,6,0,P|331:103|318:168,1,127.50000243187,8|0,0:0|0:0,0:0:0:0:
240,332,51844,1,2,0:0:0:0:
240,332,51983,2,0,B|212:322|194:291|194:291|164:311|116:288,1,127.50000243187,8|2,0:0|0:0,0:0:0:0:
165,106,52399,1,0,0:0:0:0:
350,58,52538,22,0,L|318:182,1,127.50000243187,8|2,0:0|0:0,0:0:0:0:
286,305,52955,1,0,0:0:0:0:
395,238,53094,6,0,L|330:235,1,63.7500012159348,2|2,0:0|0:0,0:0:0:0:
222,302,53372,2,0,L|285:304,1,63.7500012159348,2|2,0:0|0:0,0:0:0:0:
140,218,53649,5,8,0:0:0:0:
286,305,53788,1,0,0:0:0:0:
368,157,53927,1,2,0:0:0:0:
222,242,54066,1,0,0:0:0:0:
390,251,54205,6,0,L|325:222,1,56.2500021457673,8|8,0:0|0:0,0:0:0:0:
210,116,54483,2,0,L|275:145,1,56.2500021457673,2|0,0:0|0:0,0:0:0:0:
286,305,54761,1,8,0:0:0:0:
133,236,54899,2,0,L|216:215,2,56.2500021457673,0|2|0,0:0|0:0|0:0,0:0:0:0:
239,103,55316,2,0,P|297:128|312:185,1,112.500004291535,0|2,0:0|0:0,0:0:0:0:
306,284,55733,1,0,0:0:0:0:
140,318,55872,22,0,P|132:282|137:252,1,56.2500021457673,8|0,0:0|0:0,0:0:0:0:
252,143,56149,2,0,P|260:179|255:209,1,56.2500021457673,2|0,0:0|0:0,0:0:0:0:
180,46,56427,2,0,P|237:19|297:38,1,112.500004291535,0|2,0:0|0:0,0:0:0:0:
397,154,56844,1,0,0:0:0:0:
351,256,56983,5,8,0:0:0:0:
397,154,57122,1,0,0:0:0:0:
285,170,57261,1,2,0:0:0:0:
245,274,57399,1,0,0:0:0:0:
317,359,57538,2,0,P|384:369|425:340,1,112.500004291535,0|2,0:0|0:0,0:0:0:0:
342,182,58094,6,0,L|240:157,1,89.9999972534181,8|0,0:0|0:0,0:0:0:0:
166,137,58511,1,2,0:0:0:0:
94,191,58649,1,8,0:0:0:0:
206,266,58788,2,0,L|193:218,2,44.999998626709,0|2|0,0:0|0:0|0:0,0:0:0:0:
323,334,59205,5,8,0:0:0:0:
188,342,59344,1,0,0:0:0:0:
291,255,59483,2,0,P|339:249|354:256,1,44.999998626709,2|0,0:0|0:0,0:0:0:0:
365,162,59761,2,0,P|317:168|302:161,1,44.999998626709,2|0,0:0|0:0,0:0:0:0:
333,79,60038,1,0,0:0:0:0:
448,148,60177,1,0,0:0:0:0:
359,249,60316,21,8,0:0:0:0:
391,117,60455,2,0,L|400:78,2,22.4999993133545
275,188,60733,2,0,L|204:227,2,44.999998626709,2|8|0,0:0|0:0|0:0,0:0:0:0:
391,119,61149,1,2,0:0:0:0:
256,103,61288,1,0,0:0:0:0:
136,165,61427,2,0,P|122:212|154:268,1,89.9999972534181,8|2,0:0|0:0,0:0:0:0:
256,103,61983,1,2,0:0:0:0:
256,103,62538,6,0,L|321:125,1,56.2500021457673,8|0,0:0|0:0,0:0:0:0:
335,132,62747,1,0,0:0:0:0:
361,141,62816,1,0,0:0:0:0:
411,241,62955,1,2,0:0:0:0:
299,258,63094,2,0,P|256:241|238:174,1,112.500004291535,8|2,0:0|0:0,0:0:0:0:
278,76,63511,1,0,0:0:0:0:
235,179,63649,6,0,L|184:211,1,56.2500021457673,8|0,0:0|0:0,0:0:0:0:
162,223,63858,1,0,0:0:0:0:
137,236,63927,1,2,0:0:0:0:
34,189,64066,1,0,0:0:0:0:
94,93,64205,1,8,0:0:0:0:
94,93,64761,6,0,L|59:150,1,56.2500021457673,8|0,0:0|0:0,0:0:0:0:
47,163,64969,1,0,0:0:0:0:
30,185,65038,1,0,0:0:0:0:
94,277,65177,1,2,0:0:0:0:
187,214,65316,2,0,P|200:161|167:117,1,112.500004291535,0|2,0:0|0:0,0:0:0:0:
67,63,65733,1,0,0:0:0:0:
166,115,65872,22,0,L|232:105,1,56.2500021457673,8|0,0:0|0:0,0:0:0:0:
249,102,66080,1,0,0:0:0:0:
276,98,66149,1,2,0:0:0:0:
377,145,66288,1,0,0:0:0:0:
349,254,66427,1,8,0:0:0:0:
265,107,66844,6,0,L|270:57,2,28.1250010728836,0|0|8,0:0|0:0|0:0,0:0:0:0:
179,181,67122,2,0,L|174:131,2,28.1250010728836
200,291,67399,1,0,0:0:0:0:
103,348,67538,2,0,L|119:287,1,56.2500021457673,2|0,0:0|0:0,0:0:0:0:
33,217,67816,2,0,L|18:162,1,56.2500021457673
76,64,68094,1,8,0:0:0:0:
186,87,68233,1,0,0:0:0:0:
251,178,68372,2,0,P|219:189|196:187,1,56.2500021457673
135,245,68649,2,0,P|205:268|256:261,2,112.500004291535,2|0|8,0:0|0:0|0:0,0:0:0:0:
71,151,69344,6,0,L|60:112,2,28.1250010728836
179,116,69622,1,0,0:0:0:0:
287,147,69761,2,0,L|298:207,1,56.2500021457673,2|0,0:0|0:0,0:0:0:0:
361,294,70038,2,0,L|372:234,1,56.2500021457673
392,127,70316,1,8,0:0:0:0:
306,53,70455,1,0,0:0:0:0:
275,161,70594,2,0,P|306:201|324:204,1,56.2500021457673
335,282,70872,2,0,P|269:268|230:235,2,112.500004291535,2|2|8,0:0|0:0|0:0,0:0:0:0:
413,181,71566,6,0,L|339:208,1,63.7500012159348
234,240,71844,1,2,0:0:0:0:
180,89,71983,2,0,B|201:66|240:78|240:78|264:53|302:64,1,127.50000243187,8|2,0:0|0:0,0:0:0:0:
187,178,72399,1,0,0:0:0:0:
59,189,72538,22,0,L|38:121,1,63.7500012159348,8|0,0:0|0:0,0:0:0:0:
143,51,72816,2,0,L|130:117,1,63.7500012159348,2|0,0:0|0:0,0:0:0:0:
102,239,73094,1,8,0:0:0:0:
102,239,73649,6,0,P|153:289|225:294,1,127.50000243187,8|0,0:0|0:0,0:0:0:0:
287,197,74066,1,2,0:0:0:0:
208,96,74205,2,0,B|193:132|215:159|215:159|192:196|212:228,1,127.50000243187,8|2,0:0|0:0,0:0:0:0:
285,115,74622,1,0,0:0:0:0:
128,144,74761,6,0,L|58:160,1,63.7500012159348,8|0,0:0|0:0,0:0:0:0:
176,43,75038,2,0,L|246:27,1,63.7500012159348,2|0,0:0|0:0,0:0:0:0:
377,108,75316,1,8,0:0:0:0:
336,208,75733,6,0,L|324:171,2,31.8750006079674,0|0|8,0:0|0:0|0:0,0:0:0:0:
388,339,76011,1,0,0:0:0:0:
253,300,76149,2,0,L|262:237,1,56.2500021457673
316,114,76427,2,0,L|323:169,1,56.2500021457673,2|0,0:0|0:0,0:0:0:0:
195,229,76705,1,0,0:0:0:0:
235,94,76844,1,0,0:0:0:0:
291,223,76983,22,0,L|250:177,1,56.2500021457673,8|0,0:0|0:0,0:0:0:0:
158,75,77261,1,0,0:0:0:0:
325,70,77399,1,0,0:0:0:0:
180,157,77538,2,0,L|116:168,1,56.2500021457673,2|0,0:0|0:0,0:0:0:0:
69,265,77816,2,0,L|133:254,1,56.2500021457673
236,240,78094,5,8,0:0:0:0:
283,77,78233,1,0,0:0:0:0:
406,192,78372,2,0,L|342:215,1,56.2500021457673
189,252,78649,5,8,0:0:0:0:
236,89,78788,1,0,0:0:0:0:
359,204,78927,2,0,L|295:227,1,56.2500021457673
142,271,79205,5,8,0:0:0:0:
189,108,79344,1,0,0:0:0:0:
216,246,79483,1,0,0:0:0:0:
136,165,79622,1,0,0:0:0:0:
219,177,79761,22,0,L|283:193,1,56.2500021457673,2|2,0:0|0:0,0:0:0:0:
296,300,80038,2,0,L|360:316,1,56.2500021457673,2|2,0:0|0:0,0:0:0:0:
456,274,80316,1,8,0:0:0:0:
187,124,89205,6,0,P|239:90|231:45,1,112.500004291535,8|0,0:0|0:0,0:0:0:0:
297,139,89622,1,2,0:0:0:0:
297,139,89761,2,0,L|228:38,1,112.500004291535,8|2,0:0|0:0,0:0:0:0:
155,257,90316,6,0,P|121:205|76:213,1,112.500004291535,8|0,0:0|0:0,0:0:0:0:
170,147,90733,1,2,0:0:0:0:
170,147,90872,2,0,L|69:216,1,112.500004291535,8|2,0:0|0:0,0:0:0:0:
296,261,91427,6,0,P|244:295|252:340,1,112.500004291535,8|0,0:0|0:0,0:0:0:0:
186,246,91844,1,2,0:0:0:0:
186,246,91983,2,0,L|255:347,1,112.500004291535,8|2,0:0|0:0,0:0:0:0:
335,130,92538,22,0,P|369:182|414:174,1,112.500004291535,8|0,0:0|0:0,0:0:0:0:
320,240,92955,1,2,0:0:0:0:
320,240,93094,2,0,L|421:171,1,112.500004291535,8|2,0:0|0:0,0:0:0:0:
196,114,93649,6,0,L|66:84,1,112.500004291535,8|0,0:0|0:0,0:0:0:0:
99,201,94066,1,2,0:0:0:0:
117,312,94205,2,0,L|99:194,1,112.500004291535,8|2,0:0|0:0,0:0:0:0:
316,135,94761,6,0,L|186:105,1,112.500004291535,8|0,0:0|0:0,0:0:0:0:
219,222,95178,1,2,0:0:0:0:
238,333,95317,2,0,L|219:214,1,112.500004291535,8|2,0:0|0:0,0:0:0:0:
436,160,95872,6,0,L|306:130,1,112.500004291535,8|0,0:0|0:0,0:0:0:0:
339,247,96289,1,2,0:0:0:0:
358,358,96428,2,0,L|339:239,1,112.500004291535,8|2,0:0|0:0,0:0:0:0:
119,203,96983,22,0,L|249:233,1,112.500004291535,8|0,0:0|0:0,0:0:0:0:
214,122,97400,1,2,0:0:0:0:
197,11,97539,2,0,L|216:130,1,112.500004291535,8|2,0:0|0:0,0:0:0:0:
255,343,98094,6,0,B|284:308|284:308|305:316|305:316|337:280,1,112.500004291535,8|0,0:0|0:0,0:0:0:0:
406,195,98511,1,2,0:0:0:0:
262,108,98649,2,0,P|239:156|257:220,1,112.500004291535,8|2,0:0|0:0,0:0:0:0:
162,141,99205,2,0,P|163:202|192:266,1,112.500004291535,8|0,0:0|0:0,0:0:0:0:
89,106,99622,1,2,0:0:0:0:
82,194,99761,2,0,P|89:245|123:312,1,112.500004291535,8|2,0:0|0:0,0:0:0:0:
338,319,100316,6,0,B|302:306|302:306|300:280|300:280|254:263,1,112.500004291535,8|0,0:0|0:0,0:0:0:0:
147,227,100733,1,2,0:0:0:0:
231,80,100872,2,0,P|252:132|226:190,1,112.500004291535,8|2,0:0|0:0,0:0:0:0:
329,124,101427,2,0,P|325:173|288:239,1,112.500004291535,8|0,0:0|0:0,0:0:0:0:
407,100,101844,1,2,0:0:0:0:
400,186,101983,2,0,B|384:249|344:291,1,112.500004291535,8|2,0:0|0:0,0:0:0:0:
168,150,102538,6,0,B|189:203|189:203|204:207|204:207|223:251,1,112.500004291535,8|0,0:0|0:0,0:0:0:0:
270,345,102955,1,2,0:0:0:0:
312,181,103094,2,0,P|303:136|250:94,1,112.500004291535,8|2,0:0|0:0,0:0:0:0:
366,95,103649,2,0,P|387:145|384:205,1,112.500004291535,8|0,0:0|0:0,0:0:0:0:
275,154,104066,1,2,0:0:0:0:
454,113,104205,2,0,P|438:64|396:18,1,112.500004291535,8|2,0:0|0:0,0:0:0:0:
357,315,104761,22,0,B|365:258|365:258|354:247|354:247|359:200,1,112.500004291535,8|0,0:0|0:0,0:0:0:0:
366,95,105178,1,2,0:0:0:0:
247,216,105317,2,0,P|232:259|257:322,1,112.500004291535,8|2,0:0|0:0,0:0:0:0:
158,263,105872,2,0,P|164:209|197:158,1,112.500004291535,8|0,0:0|0:0,0:0:0:0:
266,258,106289,1,2,0:0:0:0:
90,202,106428,2,0,P|79:253|92:314,1,112.500004291535,8|2,0:0|0:0,0:0:0:0:
175,102,106983,6,0,B|232:92|232:92|301:107,1,112.500004291535,8|0,0:0|0:0,0:0:0:0:
390,142,107399,1,2,0:0:0:0:
269,260,107538,2,0,L|206:247,1,56.2500021457673,8|0,0:0|0:0,0:0:0:0:
119,185,107816,2,0,L|182:172,1,56.2500021457673,2|0,0:0|0:0,0:0:0:0:
342,147,108094,1,8,0:0:0:0:
350,315,108233,2,0,P|335:259|337:196,1,112.500004291535,0|2,0:0|0:0,0:0:0:0:
357,37,108649,2,0,L|420:50,1,56.2500021457673,8|0,0:0|0:0,0:0:0:0:
507,112,108927,2,0,L|444:125,1,56.2500021457673,2|0,0:0|0:0,0:0:0:0:
358,265,109205,6,0,B|301:275|301:275|232:260,1,112.500004291535,8|0,0:0|0:0,0:0:0:0:
143,225,109621,1,2,0:0:0:0:
264,107,109760,2,0,L|327:120,1,56.2500021457673,8|0,0:0|0:0,0:0:0:0:
414,182,110038,2,0,L|351:195,1,56.2500021457673,2|0,0:0|0:0,0:0:0:0:
191,220,110316,1,8,0:0:0:0:
183,52,110455,2,0,P|198:108|196:171,1,112.500004291535,0|2,0:0|0:0,0:0:0:0:
176,330,110871,2,0,L|113:317,1,56.2500021457673,8|0,0:0|0:0,0:0:0:0:
26,255,111149,2,0,L|89:242,1,56.2500021457673,2|0,0:0|0:0,0:0:0:0:
248,213,111427,5,8,0:0:0:0:
330,65,111566,2,0,P|346:91|350:123,1,56.2500021457673,0|8,0:0|0:0,0:0:0:0:
295,277,111844,1,0,0:0:0:0:
387,185,111983,22,0,P|379:214|360:240,1,56.2500021457673,10|0,0:0|0:0,0:0:0:0:
213,311,112261,1,8,0:0:0:0:
347,313,112399,6,0,P|320:329|289:333,1,56.2500021457673,0|10,0:0|0:0,0:0:0:0:
135,279,112677,1,0,0:0:0:0:
229,375,112816,6,0,P|199:367|173:348,1,56.2500021457673,8|0,0:0|0:0,0:0:0:0:
103,201,113094,1,10,0:0:0:0:
96,335,113233,6,0,P|79:308|75:277,1,56.2500021457673,8|8,0:0|0:0,0:0:0:0:
130,123,113511,1,8,0:0:0:0:
243,246,113649,1,2,0:0:0:0:
171,106,115872,6,0,L|231:93,1,56.2500021457673,8|0,0:0|0:0,0:0:0:0:
294,183,116427,2,0,L|234:170,1,56.2500021457673,2|0,0:0|0:0,0:0:0:0:
175,264,116983,2,0,L|235:251,2,56.2500021457673,8|0|2,0:0|0:0|0:0,0:0:0:0:
270,323,117816,1,0,0:0:0:0:
423,158,118094,6,0,P|399:138|366:130,1,56.2500021457673,8|0,0:0|0:0,0:0:0:0:
288,276,118372,2,0,P|317:265|340:240,1,56.2500021457673
258,97,118649,2,0,P|252:127|262:160,1,56.2500021457673,2|0,0:0|0:0,0:0:0:0:
415,215,118927,2,0,P|420:184|410:151,1,56.2500021457673
245,149,119205,2,0,P|269:169|302:177,1,56.2500021457673,8|0,0:0|0:0,0:0:0:0:
382,32,119483,2,0,P|352:42|329:67,1,56.2500021457673
413,210,119761,2,0,P|416:151|385:97,1,112.500004291535,2|0,0:0|0:0,0:0:0:0:
228,144,120316,54,0,L|294:158,1,56.2500021457673,8|0,0:0|0:0,0:0:0:0:
377,218,120872,2,0,L|311:232,1,56.2500021457673,2|0,0:0|0:0,0:0:0:0:
266,239,121288,1,0,0:0:0:0:
156,264,121427,6,0,L|126:211,1,56.2500021457673,8|0,0:0|0:0,0:0:0:0:
42,67,121705,1,0,0:0:0:0:
190,146,121844,1,0,0:0:0:0:
21,147,121983,2,0,P|88:134|125:86,1,112.500004291535,2|0,0:0|0:0,0:0:0:0:
166,2,122399,1,0,0:0:0:0:
258,66,122538,6,0,P|279:92|283:124,1,56.2500021457673,8|0,0:0|0:0,0:0:0:0:
191,256,122816,2,0,P|170:230|166:198,1,56.2500021457673
324,267,123094,2,0,P|322:326|278:364,1,112.500004291535,2|0,0:0|0:0,0:0:0:0:
252,194,123511,1,0,0:0:0:0:
419,207,123649,6,0,L|489:223,1,56.2500021457673,8|0,0:0|0:0,0:0:0:0:
379,78,123927,2,0,L|244:88,1,112.500004291535,0|2,0:0|0:0,0:0:0:0:
198,242,124344,1,0,0:0:0:0:
237,77,124483,1,0,0:0:0:0:
268,214,124622,1,0,0:0:0:0:
188,134,124761,22,0,L|123:127,1,56.2500021457673,8|0,0:0|0:0,0:0:0:0:
271,144,125177,1,8,0:0:0:0:
237,221,125316,2,0,L|259:169,1,56.2500021457673,2|0,0:0|0:0,0:0:0:0:
448,46,125872,6,0,L|462:100,1,56.2500021457673
344,221,126149,1,8,0:0:0:0:
361,138,126288,1,0,0:0:0:0:
435,289,126427,2,0,P|398:331|339:332,1,112.500004291535,2|0,0:0|0:0,0:0:0:0:
96,103,126983,6,0,L|160:115,1,56.2500021457673,8|0,0:0|0:0,0:0:0:0:
317,149,127261,1,0,0:0:0:0:
235,167,127399,1,8,0:0:0:0:
124,39,127538,5,2,0:0:0:0:
206,57,127676,1,0,0:0:0:0:
370,99,127816,2,0,L|306:111,1,56.2500021457673,8|0,0:0|0:0,0:0:0:0:
146,133,128094,5,0,0:0:0:0:
119,213,128233,1,8,0:0:0:0:
247,322,128372,2,0,L|232:252,1,56.2500021457673,0|8,0:0|0:0,0:0:0:0:
72,311,128649,2,0,P|132:317|162:268,1,112.500004291535,2|8,0:0|0:0,0:0:0:0:
329,263,129205,6,0,L|391:283,1,56.2500021457673,8|0,0:0|0:0,0:0:0:0:
332,143,129622,1,8,0:0:0:0:
412,118,129761,2,0,L|350:138,1,56.2500021457673,2|0,0:0|0:0,0:0:0:0:
277,158,130177,1,0,0:0:0:0:
114,203,130316,6,0,P|115:147|123:130,1,56.2500021457673
268,75,130594,1,8,0:0:0:0:
188,155,130733,1,0,0:0:0:0:
152,48,130872,2,0,B|125:35|125:35|86:42,1,56.2500021457673,2|0,0:0|0:0,0:0:0:0:
104,152,131149,5,0,0:0:0:0:
216,161,131288,1,0,0:0:0:0:
318,64,131427,2,0,L|379:93,1,56.2500021457673,8|0,0:0|0:0,0:0:0:0:
365,229,131705,2,0,P|338:188|350:127,1,112.500004291535,0|2,0:0|0:0,0:0:0:0:
479,184,132122,2,0,L|518:200,2,28.1250010728836
349,128,132399,1,0,0:0:0:0:
192,162,132538,6,0,L|204:225,1,56.2500021457673,0|8,0:0|0:0,0:0:0:0:
295,323,132816,2,0,L|305:267,1,56.2500021457673,0|8,0:0|0:0,0:0:0:0:
269,130,133094,1,2,0:0:0:0:
129,109,133233,1,0,0:0:0:0:
177,241,133372,5,0,0:0:0:0:
351,172,133649,6,0,L|337:249,1,75,8|0,0:0|0:0,0:0:0:0:
171,334,134205,1,2,0:0:0:0:
204,226,134483,1,0,0:0:0:0:
323,316,134761,2,0,P|355:332|394:326,1,75,8|0,0:0|0:0,0:0:0:0:
375,177,135316,1,10,0:0:0:0:
286,246,135594,1,0,0:0:0:0:
253,138,135872,6,8,L|246:88,1,37.5,8|0,0:0|0:0,0:0:0:0:
135,102,136149,2,0,L|181:120,1,37.5
129,222,136427,2,0,L|122:172,1,37.5,2|0,0:0|0:0,0:0:0:0:
10,191,136705,2,0,L|56:209,1,37.5
151,243,136983,1,8,0:0:0:0:
244,180,137122,6,0,L|251:151,2,18.75
235,292,137399,1,0,0:0:0:0:
323,222,137538,2,0,P|348:179|343:149,1,75,2|0,0:0|0:0,0:0:0:0:
