osu file format v14

[General]
AudioFilename: Foxsky - Kirby Smash_short.mp3
AudioLeadIn: 0
PreviewTime: 37615
Countdown: 1
SampleSet: Normal
StackLeniency: 0.7
Mode: 0
LetterboxInBreaks: 1
WidescreenStoryboard: 1

[Editor]
DistanceSpacing: 1.5
BeatDivisor: 4
GridSize: 4
TimelineZoom: 1

[Metadata]
Title:Kirby Smash
TitleUnicode:Kirby Smash
Artist:Foxsky
ArtistUnicode:Foxsky
Creator:Neliel
Version:Extreme
Source:
Tags:
BeatmapID:917143
BeatmapSetID:306377

[Difficulty]
HPDrainRate:7
CircleSize:4.2
OverallDifficulty:9
ApproachRate:9.6
SliderMultiplier:2
SliderTickRate:2

[Events]
//Background and Video events
0,0,"39488-kirby_super_smash_bros_wallpaper.jpg",0,0
//Break Periods
//Storyboard Layer 0 (Background)
//Storyboard Layer 1 (Fail)
//Storyboard Layer 2 (Pass)
//Storyboard Layer 3 (Foreground)
//Storyboard Sound Samples

[TimingPoints]
10956.3867025712,555.555555555556,4,2,0,100,1,0
37615,-100,4,1,0,100,0,0
64289,-80,4,1,0,100,0,0

[Colours]
Combo1 : 242,24,57
Combo2 : 255,128,192
Combo3 : 0,0,255

[HitObjects]
136,128,10956,6,0,P|180:104|244:96,1,100
304,96,11373,1,0,0:0:0:0:
324,168,11511,2,0,P|368:136|376:84,1,100
304,96,11928,1,0,0:0:0:0:
256,156,12067,2,0,P|264:208|324:236,1,100
376,248,12484,1,0,0:0:0:0:
436,296,12623,1,0,0:0:0:0:
408,364,12761,1,0,0:0:0:0:
332,360,12900,1,0,0:0:0:0:
316,288,13039,1,0,0:0:0:0:
376,248,13178,6,0,P|340:216|276:228,1,100
232,268,13595,1,0,0:0:0:0:
232,268,13734,2,0,P|212:208|236:164,1,100
292,144,14150,1,0,0:0:0:0:
292,144,14289,2,0,P|256:108|200:108,1,100
152,156,14706,1,0,0:0:0:0:
140,84,14845,1,0,0:0:0:0:
196,36,14984,1,0,0:0:0:0:
268,60,15123,1,0,0:0:0:0:
284,132,15261,1,0,0:0:0:0:
224,180,15400,6,0,L|160:272,1,100
124,324,15817,1,0,0:0:0:0:
200,332,15956,2,0,L|320:352,1,100
372,360,16373,1,0,0:0:0:0:
356,288,16511,2,0,L|320:188,1,100
300,120,16928,1,0,0:0:0:0:
232,148,17067,1,0,0:0:0:0:
240,72,17206,1,0,0:0:0:0:
172,104,17345,1,0,0:0:0:0:
180,28,17484,1,0,0:0:0:0:
112,60,17623,6,0,P|96:104|120:156,1,100
172,104,18039,1,0,0:0:0:0:
184,180,18178,2,0,P|144:224|88:224,1,100
116,152,18595,1,0,0:0:0:0:
184,180,18734,2,0,P|216:232|212:276,1,100
144,296,19150,1,0,0:0:0:0:
204,344,19289,1,0,0:0:0:0:
272,312,19428,1,0,0:0:0:0:
280,236,19567,2,0,P|328:260|348:320,1,100
452,192,20123,5,0,0:0:0:0:
400,140,20261,1,0,0:0:0:0:
328,124,20400,2,0,B|268:120|268:120|220:80,1,100
172,56,20817,1,0,0:0:0:0:
172,56,20956,1,0,0:0:0:0:
44,136,21234,1,0,0:0:0:0:
48,212,21373,1,0,0:0:0:0:
116,244,21511,1,0,0:0:0:0:
112,168,21650,1,0,0:0:0:0:
48,212,21789,1,0,0:0:0:0:
52,288,21928,1,0,0:0:0:0:
120,320,22067,6,0,P|168:300|192:240,1,100
212,188,22484,1,0,0:0:0:0:
212,188,22623,2,0,P|252:216|264:236,2,50
188,260,23039,1,0,0:0:0:0:
140,204,23178,2,0,P|148:152|200:116,1,100
252,96,23595,1,0,0:0:0:0:
252,96,23734,1,0,0:0:0:0:
328,104,23873,1,0,0:0:0:0:
328,104,24011,2,0,B|308:152|308:152|256:172,2,100
252,92,24706,5,0,0:0:0:0:
296,32,24845,2,0,B|348:28|348:28|408:72,1,100
432,116,25261,1,0,0:0:0:0:
432,116,25400,1,0,0:0:0:0:
308,200,25678,2,0,L|284:244,1,50
352,280,25956,2,0,L|380:332,1,50
304,344,26234,2,0,L|184:344,2,100
376,324,26928,5,0,0:0:0:0:
424,264,27067,2,0,L|456:216,2,50
376,324,27484,1,0,0:0:0:0:
344,256,27623,1,0,0:0:0:0:
344,256,27900,1,0,0:0:0:0:
280,220,28039,1,0,0:0:0:0:
204,212,28178,2,0,P|168:172|168:156,2,50
356,220,28734,6,0,P|396:184|408:136,1,100
332,148,29150,1,0,0:0:0:0:
356,220,29289,6,0,P|416:256|460:260,1,100
480,328,29706,1,0,0:0:0:0:
444,260,29845,6,0,P|444:192|456:152,1,100
484,96,30261,1,0,0:0:0:0:
452,161,30400,6,0,P|388:169|320:153,1,100
312,100,30817,1,0,0:0:0:0:
353,164,30956,6,0,P|341:228|301:264,1,100
244,248,31373,1,0,0:0:0:0:
320,252,31511,6,0,P|372:264|412:320,1,100
332,328,31928,1,0,0:0:0:0:
320,252,32067,6,0,P|304:204|240:172,1,100
244,248,32484,1,0,0:0:0:0:
320,252,32623,6,0,P|372:248|412:200,1,100
340,176,33039,1,0,0:0:0:0:
320,252,33178,6,0,L|304:300,1,50
244,248,33456,2,0,L|228:296,1,50
168,248,33734,2,0,L|152:296,1,50
96,240,34011,1,0,0:0:0:0:
52,180,34150,1,0,0:0:0:0:
68,108,34289,1,0,0:0:0:0:
136,72,34428,1,0,0:0:0:0:
204,104,34567,1,0,0:0:0:0:
252,160,34706,1,0,0:0:0:0:
324,172,34845,1,0,0:0:0:0:
392,144,34984,1,0,0:0:0:0:
436,84,35123,1,0,0:0:0:0:
436,84,35261,1,0,0:0:0:0:
392,144,35400,6,0,P|420:172|396:220,1,100
396,219,35817,1,0,0:0:0:0:
180,256,35956,1,0,0:0:0:0:
396,219,36095,1,0,0:0:0:0:
180,256,36234,2,0,P|128:240|104:216,2,50
256,248,36650,1,0,0:0:0:0:
380,269,36789,1,0,0:0:0:0:
332,160,36928,1,0,0:0:0:0:
256,248,37067,2,0,P|308:292|392:252,1,150
324,216,37623,6,0,L|300:352,1,100
172,248,38178,2,0,L|196:136,1,100
224,4,38734,1,0,0:0:0:0:
348,88,39011,1,0,0:0:0:0:
300,232,39289,2,0,P|348:280|424:288,1,100
476,176,39845,5,0,0:0:0:0:
400,164,39984,1,0,0:0:0:0:
476,176,40123,1,0,0:0:0:0:
328,152,40261,1,0,0:0:0:0:
476,176,40400,1,0,0:0:0:0:
256,140,40539,1,0,0:0:0:0:
476,176,40678,1,0,0:0:0:0:
188,128,40817,1,0,0:0:0:0:
476,176,40956,5,0,0:0:0:0:
308,300,41095,1,0,0:0:0:0:
476,176,41234,1,0,0:0:0:0:
188,128,41373,1,0,0:0:0:0:
476,176,41511,2,0,B|380:164|380:164|352:240|256:208,1,200
156,256,42345,5,0,0:0:0:0:
96,120,42623,2,0,P|140:120|188:80,1,100
120,48,43039,1,0,0:0:0:0:
96,120,43178,2,0,L|72:176,1,50
148,184,43456,2,0,L|160:240,1,50
222,266,43734,2,0,P|274:290|350:302,1,100
472,204,44150,5,0,0:0:0:0:
320,128,44289,1,0,0:0:0:0:
316,300,44428,1,0,0:0:0:0:
472,204,44567,1,0,0:0:0:0:
320,128,44706,5,0,0:0:0:0:
164,196,44845,1,0,0:0:0:0:
320,128,44984,1,0,0:0:0:0:
164,196,45123,1,0,0:0:0:0:
320,264,45261,1,0,0:0:0:0:
472,336,45400,6,0,L|384:336,1,50
348,336,45678,2,0,L|240:336,1,100
40,336,46095,1,0,0:0:0:0:
248,336,46234,1,0,0:0:0:0:
144,180,46373,1,0,0:0:0:0:
144,180,46511,6,0,P|192:152|280:164,1,100
248,336,46974,1,0,0:0:0:0:
248,336,47067,2,0,P|176:364|136:360,1,100
104,128,47623,5,0,0:0:0:0:
256,200,47761,1,0,0:0:0:0:
408,104,47900,1,0,0:0:0:0:
256,28,48039,1,0,0:0:0:0:
256,200,48178,2,0,B|268:248|328:260|328:260|328:336|276:348,1,200
120,308,48873,5,0,0:0:0:0:
64,148,49011,2,0,L|84:92,1,50
200,136,49289,2,0,L|220:64,1,50
340,72,49567,1,0,0:0:0:0:
436,152,49706,1,0,0:0:0:0:
320,200,49845,1,0,0:0:0:0:
200,136,49984,2,0,L|144:116,1,50
56,196,50261,1,0,0:0:0:0:
320,200,50400,2,0,B|360:144|328:100|328:100|264:100|224:48,1,200
112,140,51234,5,0,0:0:0:0:
136,236,51419,1,0,0:0:0:0:
136,236,51511,2,0,P|176:216|204:164,1,100
112,140,51974,1,0,0:0:0:0:
112,140,52067,2,0,P|132:104|164:80,1,50
212,84,52345,1,0,0:0:0:0:
288,148,52530,1,0,0:0:0:0:
288,148,52623,2,0,P|316:192|384:196,1,100
360,128,53039,5,0,0:0:0:0:
264,248,53178,1,0,0:0:0:0:
448,256,53317,1,0,0:0:0:0:
360,203,53456,2,0,L|292:239,1,50
264,248,53641,5,0,0:0:0:0:
216,264,53734,1,0,0:0:0:0:
168,264,53826,1,0,0:0:0:0:
124,244,53919,1,0,0:0:0:0:
96,204,54011,1,0,0:0:0:0:
88,156,54104,1,0,0:0:0:0:
100,108,54197,1,0,0:0:0:0:
136,76,54289,2,0,L|184:104,1,50
256,108,54567,2,0,L|320:88,1,50
376,116,54845,2,0,L|440:148,1,50
480,92,55123,2,0,P|500:152|492:180,1,50
472,208,55400,6,0,L|416:308,1,100
280,252,55956,2,0,L|164:288,1,100
112,152,56511,2,0,L|24:64,1,100
188,120,57067,2,0,P|192:184|144:236,1,100
316,264,57623,5,0,0:0:0:0:
400,208,57808,2,0,L|412:148,1,33.3333333333333
316,132,58086,2,0,L|304:80,1,33.3333333333333
212,76,58363,2,0,L|188:20,1,33.3333333333333
88,48,58641,2,0,L|60:16,1,33.3333333333333
68,92,58826,1,0,0:0:0:0:
88,136,58919,1,0,0:0:0:0:
68,180,59011,1,0,0:0:0:0:
88,228,59104,1,0,0:0:0:0:
68,276,59197,1,0,0:0:0:0:
76,324,59289,2,0,B|132:328|172:296|172:296|212:328|292:328,1,200
368,220,60123,5,0,0:0:0:0:
308,176,60261,1,0,0:0:0:0:
308,176,60400,2,0,P|304:120|344:68,1,100
376,140,60817,1,0,0:0:0:0:
308,176,60956,2,0,P|256:192|200:164,1,100
260,116,61373,1,0,0:0:0:0:
308,176,61511,2,0,P|316:228|296:272,1,100
148,260,62067,6,0,P|132:208|152:156,1,100
208,212,62484,1,0,0:0:0:0:
148,260,62623,2,0,P|96:268|48:240,1,100
108,196,63039,1,0,0:0:0:0:
148,260,63178,2,0,P|144:316|112:356,1,100
108,196,63734,5,0,0:0:0:0:
348,228,63873,1,0,0:0:0:0:
108,196,64011,1,0,0:0:0:0:
348,228,64150,1,0,0:0:0:0:
108,196,64289,1,0,0:0:0:0:
280,56,64428,5,0,0:0:0:0:
348,228,64567,1,0,0:0:0:0:
472,104,64706,1,0,0:0:0:0:
280,56,64845,2,0,L|196:40,1,62.5
108,196,65123,2,0,L|76:256,1,62.5
348,228,65400,2,0,L|432:248,1,62.5
472,104,65678,2,0,L|504:44,2,62.5
412,240,66095,1,0,0:0:0:0:
268,156,66234,5,0,0:0:0:0:
268,156,66373,1,0,0:0:0:0:
268,156,66511,1,0,0:0:0:0:
116,68,66650,1,0,0:0:0:0:
252,184,66789,1,0,0:0:0:0:
96,96,66927,1,0,0:0:0:0:
236,216,67067,1,0,0:0:0:0:
76,124,67206,1,0,0:0:0:0:
224,240,67345,6,0,P|284:272|332:276,1,62.5
364,284,67623,2,0,P|352:240|360:180,1,62.5
344,136,67900,2,0,L|392:104,1,41.6666666666667
378,112,68086,1,0,0:0:0:0:
378,112,68178,2,0,L|340:56,1,62.5
256,68,68456,2,0,P|192:80|124:72,1,125
84,172,68873,5,0,0:0:0:0:
84,172,69011,1,0,0:0:0:0:
104,364,69150,1,0,0:0:0:0:
143,187,69289,5,0,0:0:0:0:
44,348,69428,1,0,0:0:0:0:
182,234,69567,5,0,0:0:0:0:
5,301,69706,1,0,0:0:0:0:
186,295,69845,5,0,0:0:0:0:
1,240,69984,1,0,0:0:0:0:
152,347,70123,5,0,0:0:0:0:
35,188,70261,1,0,0:0:0:0:
104,364,70400,5,0,0:0:0:0:
84,172,70539,1,0,0:0:0:0:
104,364,70678,1,0,0:0:0:0:
84,172,70817,1,0,0:0:0:0:
104,364,70956,6,0,P|136:344|172:336,1,62.5
320,332,71234,1,0,0:0:0:0:
240,200,71373,1,0,0:0:0:0:
84,172,71511,2,0,L|64:108,1,62.5
196,120,71789,2,0,L|200:44,1,62.5
344,96,72067,2,0,P|360:148|280:216,1,125
160,252,72623,2,0,P|180:320|256:356,2,125
184,196,73271,6,0,P|184:152|172:128,2,41.6666666666667
64,252,73595,1,0,0:0:0:0:
92,144,73734,2,0,P|104:100|140:80,1,62.5
236,72,74011,1,0,0:0:0:0:
328,156,74150,1,0,0:0:0:0:
328,292,74289,2,0,P|304:312|264:324,1,62.5
236,328,74474,1,0,0:0:0:0:
188,328,74567,1,0,0:0:0:0:
84,280,74706,1,0,0:0:0:0:
84,280,74845,1,0,0:0:0:0:
84,280,75400,6,0,P|64:236|68:208,1,62.5
72,184,75586,1,0,0:0:0:0:
88,140,75678,1,0,0:0:0:0:
164,84,75817,1,0,0:0:0:0:
240,212,75956,1,0,0:0:0:0:
84,280,76095,1,0,0:0:0:0:
164,84,76234,1,0,0:0:0:0:
336,196,76373,1,0,0:0:0:0:
240,212,76511,2,0,P|240:168|248:148,1,62.5
246,151,76697,1,0,0:0:0:0:
246,151,76789,1,0,0:0:0:0:
372,36,76928,1,0,0:0:0:0:
192,272,77067,1,0,0:0:0:0:
372,36,77484,5,0,0:0:0:0:
372,36,77530,1,0,0:0:0:0:
372,36,77623,2,0,P|340:68|288:84,1,62.5
296,88,77808,1,0,0:0:0:0:
256,96,77900,1,0,0:0:0:0:
132,64,78039,1,0,0:0:0:0:
48,168,78178,1,0,0:0:0:0:
176,200,78317,1,0,0:0:0:0:
68,304,78456,1,0,0:0:0:0:
208,336,78595,1,0,0:0:0:0:
324,236,78734,5,0,0:0:0:0:
68,304,78873,1,0,0:0:0:0:
324,236,79011,1,0,0:0:0:0:
176,200,79150,5,0,0:0:0:0:
432,132,79289,1,0,0:0:0:0:
176,200,79428,1,0,0:0:0:0:
324,236,79567,5,0,0:0:0:0:
68,304,79706,1,0,0:0:0:0:
176,200,79845,2,0,P|184:168|204:144,1,62.5
202,145,80030,1,0,0:0:0:0:
202,145,80123,1,0,0:0:0:0:
324,236,80261,5,0,0:0:0:0:
288,320,80400,1,0,0:0:0:0:
202,145,80539,1,0,0:0:0:0:
232,56,80678,1,0,0:0:0:0:
308,112,80817,1,0,0:0:0:0:
232,56,80956,1,0,0:0:0:0:
288,320,81095,1,0,0:0:0:0:
232,56,81234,1,0,0:0:0:0:
202,145,81373,1,0,0:0:0:0:
308,112,81511,2,0,L|412:72,2,62.5
132,180,82067,2,0,P|136:220|168:248,1,62.5
260,284,82345,1,0,0:0:0:0:
352,208,82484,1,0,0:0:0:0:
148,236,82623,2,0,P|136:280|144:312,1,62.5
260,284,82900,1,0,0:0:0:0:
352,208,83039,1,0,0:0:0:0:
272,120,83178,1,0,0:0:0:0:
352,208,83317,1,0,0:0:0:0:
420,112,83456,1,0,0:0:0:0:
272,120,83595,1,0,0:0:0:0:
48,132,83734,1,0,0:0:0:0:
392,284,84289,5,0,0:0:0:0:
176,312,84428,1,0,0:0:0:0:
384,216,84567,1,0,0:0:0:0:
164,236,84706,1,0,0:0:0:0:
384,216,84845,1,0,0:0:0:0:
268,128,84984,1,0,0:0:0:0:
164,236,85123,1,0,0:0:0:0:
392,284,85261,1,0,0:0:0:0:
176,312,85400,1,0,0:0:0:0:
176,312,85539,1,0,0:0:0:0:
176,312,85678,1,0,0:0:0:0:
176,312,85817,1,0,0:0:0:0:
392,284,85956,1,0,0:0:0:0:
