osu file format v14

[General]
AudioFilename: Foxsky - Kirby Smash_short.mp3
AudioLeadIn: 0
PreviewTime: 37615
Countdown: 1
SampleSet: Normal
StackLeniency: 0.7
Mode: 0
LetterboxInBreaks: 1
WidescreenStoryboard: 0

[Editor]
DistanceSpacing: 2
BeatDivisor: 8
GridSize: 4
TimelineZoom: 1

[Metadata]
Title:Kirby Smash
TitleUnicode:Kirby Smash
Artist:Foxsky
ArtistUnicode:Foxsky
Creator:Neliel
Version:Extra
Source:
Tags:
BeatmapID:685822
BeatmapSetID:306377

[Difficulty]
HPDrainRate:6
CircleSize:4
OverallDifficulty:8
ApproachRate:9
SliderMultiplier:2.4
SliderTickRate:2

[Events]
//Background and Video events
0,0,"39488-kirby_super_smash_bros_wallpaper.jpg",0,0
//Break Periods
//Storyboard Layer 0 (Background)
//Storyboard Layer 1 (Fail)
//Storyboard Layer 2 (Pass)
//Storyboard Layer 3 (Foreground)
//Storyboard Sound Samples

[TimingPoints]
10956.3867025712,555.555555555556,4,2,0,100,1,0
37615,-100,4,1,0,100,0,0
64289,-80,4,1,0,100,0,0

[Colours]
Combo1 : 242,24,57
Combo2 : 255,128,192
Combo3 : 0,0,255

[HitObjects]
104,144,10956,6,0,L|208:60,1,120,8|0,0:0|0:0,0:0:0:0:
264,144,11511,2,0,L|360:64,1,120,8|0,0:0|0:0,0:0:0:0:
416,144,12067,1,8,0:0:0:0:
488,80,12345,1,0,0:0:0:0:
416,144,12623,2,0,L|316:232,1,120,8|0,0:0|0:0,0:0:0:0:
228,228,13178,5,8,0:0:0:0:
152,288,13456,1,0,0:0:0:0:
84,220,13734,2,0,P|72:156|100:80,2,120,8|0|8,0:0|0:0|0:0,0:0:0:0:
152,288,14567,1,0,0:0:0:0:
248,300,14845,1,8,0:0:0:0:
212,212,15123,1,0,0:0:0:0:
308,228,15400,6,0,P|376:240|424:268,2,120,8|0|8,0:0|0:0|0:0,0:0:0:0:
212,212,16234,1,0,0:0:0:0:
136,268,16511,2,0,P|116:208|148:144,1,120,8|0,0:0|0:0,0:0:0:0:
220,112,17067,1,8,0:0:0:0:
304,160,17345,1,0,0:0:0:0:
384,104,17623,6,0,P|404:164|372:228,1,120,8|0,0:0|0:0,0:0:0:0:
376,312,18178,2,0,P|324:288|292:204,1,120,8|0,0:0|0:0,0:0:0:0:
268,144,18734,1,8,0:0:0:0:
268,144,19011,1,0,0:0:0:0:
268,144,19289,1,8,0:0:0:0:
268,144,19567,2,0,P|224:96|152:76,1,120,0|8,0:0|0:0,0:0:0:0:
80,92,20123,6,0,P|96:152|176:160,1,120,0|8,0:0|0:0,0:0:0:0:
268,144,20678,2,0,P|320:184|328:244,1,120,0|8,0:0|0:0,0:0:0:0:
388,312,21234,2,0,P|332:332|264:304,1,120,8|8,0:0|0:0,0:0:0:0:
184,336,21789,2,0,P|184:272|240:228,1,120,0|8,0:0|0:0,0:0:0:0:
316,236,22345,6,0,P|296:184|228:148,1,120,0|8,0:0|0:0,0:0:0:0:
148,172,22900,2,0,P|152:116|204:60,1,120,0|8,0:0|0:0,0:0:0:0:
364,172,23456,2,0,P|360:116|308:60,1,120,8|8,0:0|0:0,0:0:0:0:
256,248,24011,2,0,L|256:120,2,120,0|8|0,0:0|0:0|0:0,0:0:0:0:
256,344,24845,1,8,0:0:0:0:
404,220,25400,1,8,0:0:0:0:
308,220,25678,1,8,0:0:0:0:
108,220,25956,1,8,0:0:0:0:
124,124,26234,1,0,0:0:0:0:
200,68,26511,5,8,0:0:0:0:
308,220,27067,1,8,0:0:0:0:
420,64,27623,1,8,0:0:0:0:
472,144,27900,1,8,0:0:0:0:
376,144,28178,1,8,0:0:0:0:
272,120,28456,1,0,0:0:0:0:
184,172,28734,6,0,P|152:224|136:296,1,120,8|0,0:0|0:0,0:0:0:0:
232,256,29289,2,0,P|236:316|256:376,1,120,8|0,0:0|0:0,0:0:0:0:
324,304,29845,2,0,P|368:356|424:376,2,120,8|8|8,0:0|0:0|0:0,0:0:0:0:
312,208,30678,1,0,0:0:0:0:
340,116,30956,2,0,P|396:84|476:96,1,120,8|0,0:0|0:0,0:0:0:0:
184,116,31511,2,0,P|128:84|48:96,1,120,8|0,0:0|0:0,0:0:0:0:
72,180,32067,5,8,0:0:0:0:
40,316,32345,1,8,0:0:0:0:
84,180,32623,1,8,0:0:0:0:
112,316,32900,1,8,0:0:0:0:
168,180,33178,5,8,0:0:0:0:
168,180,33317,2,0,P|220:224|328:244,1,180,0|8,0:0|0:0,0:0:0:0:
372,228,33873,1,8,0:0:0:0:
412,200,34011,1,8,0:0:0:0:
444,160,34150,2,0,B|464:152|456:132|476:112,1,60,8|8,0:0|0:0,0:0:0:0:
480,64,34428,5,8,0:0:0:0:
440,40,34567,1,8,0:0:0:0:
400,68,34706,1,8,0:0:0:0:
360,40,34845,1,8,0:0:0:0:
320,68,34984,1,8,0:0:0:0:
280,40,35123,1,8,0:0:0:0:
244,68,35261,1,8,0:0:0:0:
208,36,35400,2,0,L|136:36,1,60
40,48,35678,5,0,0:0:0:0:
140,116,35817,1,0,0:0:0:0:
40,184,35956,1,0,0:0:0:0:
136,264,36095,1,0,0:0:0:0:
40,332,36234,1,0,0:0:0:0:
40,332,36511,5,0,0:0:0:0:
136,264,36650,1,0,0:0:0:0:
232,336,36789,1,0,0:0:0:0:
328,264,36928,1,0,0:0:0:0:
288,152,37067,2,0,P|280:88|368:24,1,180
424,32,37623,6,0,P|420:92|352:112,1,120
280,132,38178,1,0,0:0:0:0:
160,120,38456,1,0,0:0:0:0:
44,148,38734,2,0,P|56:212|76:224,1,60
100,236,39011,2,0,P|120:264|120:300,1,60
120,348,39289,2,0,P|180:360|208:356,1,60,0|0,0:0|0:0,0:0:0:0:
236,344,39567,2,0,B|264:328|264:328|316:324,1,60
416,296,39845,6,0,B|384:280|384:280|344:240,1,60
216,192,40123,2,0,B|244:192|244:192|284:160,1,60
424,120,40400,2,0,B|396:120|396:120|356:88,1,60
268,40,40678,1,0,0:0:0:0:
156,80,40817,1,0,0:0:0:0:
116,192,40956,1,0,0:0:0:0:
168,300,41095,1,0,0:0:0:0:
284,336,41234,1,0,0:0:0:0:
388,276,41373,1,0,0:0:0:0:
420,160,41511,2,0,P|404:92|384:72,1,60
388,44,41789,2,0,P|356:60|320:64,1,60
272,72,42067,6,0,P|208:64|132:92,1,120
48,128,42623,2,0,P|108:172|160:172,1,120
272,156,43178,1,0,0:0:0:0:
392,180,43317,1,0,0:0:0:0:
432,292,43456,1,0,0:0:0:0:
328,348,43595,1,0,0:0:0:0:
240,268,43734,2,0,P|184:244|84:248,1,120
20,180,44150,1,0,0:0:0:0:
64,68,44289,6,0,L|116:112,1,60
228,80,44567,2,0,L|284:136,1,60
392,116,44845,2,0,L|464:180,1,60
496,260,45123,2,0,P|436:280|356:248,1,120
276,208,45539,1,0,0:0:0:0:
160,176,45678,2,0,P|152:240|208:296,1,120
280,356,46095,1,0,0:0:0:0:
368,276,46234,1,0,0:0:0:0:
360,156,46373,1,0,0:0:0:0:
268,80,46511,6,0,B|208:76|208:76|136:104,1,120
24,200,46974,1,0,0:0:0:0:
24,200,47067,2,0,P|40:252|108:280,1,120
336,284,47623,2,0,P|368:232|360:192,1,60
340,120,47900,1,0,0:0:0:0:
192,56,48086,1,0,0:0:0:0:
192,56,48178,2,0,P|132:80|96:136,1,120
56,360,48734,6,0,L|132:304,1,60
196,248,49011,1,0,0:0:0:0:
316,140,49197,1,0,0:0:0:0:
316,140,49289,2,0,P|368:188|376:220,1,80
380,276,49567,1,0,0:0:0:0:
284,344,49706,1,0,0:0:0:0:
168,312,49845,2,0,P|140:292|128:260,1,60
108,152,50123,5,0,0:0:0:0:
116,32,50261,2,0,B|144:48|144:48|172:48,1,60
412,60,50678,2,0,P|408:120|364:176,1,120
52,332,51419,1,0,0:0:0:0:
52,332,51511,2,0,P|56:272|100:216,1,120
248,44,52067,6,0,P|292:80|312:120,1,60
372,176,52345,1,0,0:0:0:0:
316,280,52484,1,0,0:0:0:0:
200,304,52623,2,0,P|196:264|220:228,1,60
288,104,52900,5,0,0:0:0:0:
176,24,53039,1,0,0:0:0:0:
176,180,53178,1,0,0:0:0:0:
68,100,53317,1,0,0:0:0:0:
68,100,53456,2,0,P|52:168|60:204,1,80
32,256,53734,2,0,P|76:256|132:204,1,120
130,207,54104,5,0,0:0:0:0:
130,207,54197,1,0,0:0:0:0:
280,80,54289,1,0,0:0:0:0:
440,184,54428,1,0,0:0:0:0:
296,328,54567,1,0,0:0:0:0:
280,80,54706,1,0,0:0:0:0:
130,207,54845,1,0,0:0:0:0:
296,328,54984,1,0,0:0:0:0:
440,184,55123,2,0,L|300:192,1,120
80,220,55678,5,0,0:0:0:0:
220,24,55956,2,0,P|280:64|296:108,1,120
268,344,56511,2,0,P|216:300|192:248,1,120
136,20,57067,1,0,0:0:0:0:
308,160,57345,1,0,0:0:0:0:
108,272,57623,5,0,0:0:0:0:
144,152,57808,2,0,L|156:104,1,40
308,160,58086,2,0,L|324:88,1,40
268,272,58363,2,0,L|280:224,1,40
108,272,58641,2,0,L|124:220,1,40
132,196,58826,1,0,0:0:0:0:
144,156,58919,1,0,0:0:0:0:
156,116,59011,1,0,0:0:0:0:
168,80,59104,1,0,0:0:0:0:
180,40,59197,1,0,0:0:0:0:
180,40,59289,2,0,B|228:80|296:60|296:60|284:128|352:168,1,240
136,288,60123,5,0,0:0:0:0:
32,344,60261,1,0,0:0:0:0:
32,344,60400,2,0,P|20:280|36:224,1,120
88,120,60817,1,0,0:0:0:0:
196,168,60956,2,0,P|208:104|172:48,1,120
88,120,61373,1,0,0:0:0:0:
196,168,61511,2,0,P|260:176|320:164,1,120
88,120,62067,6,0,P|80:188|112:256,1,120
208,280,62484,1,0,0:0:0:0:
300,204,62623,2,0,P|308:136|276:68,1,120
188,148,63039,1,0,0:0:0:0:
300,204,63178,2,0,P|360:180|404:128,2,120
184,240,63873,1,0,0:0:0:0:
72,284,64011,1,0,0:0:0:0:
168,356,64150,1,0,0:0:0:0:
184,240,64289,5,0,0:0:0:0:
84,128,64428,1,0,0:0:0:0:
196,28,64567,1,0,0:0:0:0:
288,148,64706,1,0,0:0:0:0:
400,48,64845,1,0,0:0:0:0:
472,180,64984,1,0,0:0:0:0:
360,284,65123,1,0,0:0:0:0:
288,148,65261,1,0,0:0:0:0:
176,248,65400,6,0,L|124:304,1,75
288,148,65678,1,0,0:0:0:0:
360,284,65817,2,0,L|396:368,2,75
288,148,66234,2,0,L|324:0,1,150
288,148,66650,5,0,0:0:0:0:
176,248,66789,1,0,0:0:0:0:
360,284,66928,1,0,0:0:0:0:
288,148,67067,1,0,0:0:0:0:
112,104,67206,1,0,0:0:0:0:
8,256,67345,5,0,0:0:0:0:
184,320,67484,1,0,0:0:0:0:
288,148,67623,1,0,0:0:0:0:
436,284,67761,1,0,0:0:0:0:
184,320,67900,1,0,0:0:0:0:
184,320,67993,1,0,0:0:0:0:
184,320,68086,1,0,0:0:0:0:
184,320,68178,2,0,P|136:312|108:272,1,75
16,184,68456,2,0,B|68:200|68:200|116:152|200:160,1,150
440,76,69011,5,0,0:0:0:0:
352,196,69150,1,0,0:0:0:0:
448,312,69289,1,0,0:0:0:0:
304,348,69428,1,0,0:0:0:0:
352,196,69567,5,0,0:0:0:0:
228,292,69706,1,0,0:0:0:0:
268,148,69845,1,0,0:0:0:0:
148,240,69984,1,0,0:0:0:0:
200,100,70123,1,0,0:0:0:0:
76,172,70261,5,0,0:0:0:0:
352,208,70400,1,0,0:0:0:0:
76,172,70539,1,0,0:0:0:0:
352,208,70678,1,0,0:0:0:0:
76,172,70817,1,0,0:0:0:0:
224,140,70956,6,0,L|208:228,1,75
176,360,71234,1,0,0:0:0:0:
210,213,71373,1,0,0:0:0:0:
240,68,71511,1,0,0:0:0:0:
368,148,71650,1,0,0:0:0:0:
496,228,71789,1,0,0:0:0:0:
344,312,71928,1,0,0:0:0:0:
344,312,72067,2,0,L|256:104,1,225
180,144,72623,2,0,P|216:28|340:80,1,225
256,104,73178,6,0,L|312:160,1,75
309,157,73363,1,0,0:0:0:0:
309,157,73456,1,0,0:0:0:0:
424,252,73595,1,0,0:0:0:0:
304,344,73734,1,0,0:0:0:0:
184,252,73873,1,0,0:0:0:0:
64,164,74011,1,0,0:0:0:0:
304,344,74150,1,0,0:0:0:0:
184,252,74289,2,0,L|104:192,1,75
124,207,74474,1,0,0:0:0:0:
124,207,74567,1,0,0:0:0:0:
4,116,74706,1,0,0:0:0:0:
304,344,74845,1,0,0:0:0:0:
304,344,75400,6,0,L|388:264,1,75
358,292,75586,1,0,0:0:0:0:
358,292,75678,1,0,0:0:0:0:
468,192,75817,1,0,0:0:0:0:
320,160,75956,1,0,0:0:0:0:
320,160,76095,1,0,0:0:0:0:
348,12,76234,1,0,0:0:0:0:
496,36,76373,1,0,0:0:0:0:
320,160,76511,2,0,L|252:224,1,75
265,211,76697,1,0,0:0:0:0:
265,211,76789,1,0,0:0:0:0:
152,312,76928,1,0,0:0:0:0:
496,36,77067,1,0,0:0:0:0:
496,36,77484,5,0,0:0:0:0:
496,36,77530,2,0,L|428:88,1,50
332,152,77761,1,0,0:0:0:0:
332,152,77808,2,0,L|288:188,1,50
172,272,78039,1,0,0:0:0:0:
40,204,78178,2,0,P|56:172|112:160,1,75
172,272,78456,2,0,P|148:312|104:324,1,75
92,156,78734,1,0,0:0:0:0:
172,272,78873,1,0,0:0:0:0:
260,152,79011,2,0,B|288:128|288:128|356:160,1,75
384,284,79289,2,0,B|436:144|436:144|368:0,1,300
232,64,79984,6,0,L|196:120,1,37.5
168,160,80123,1,0,0:0:0:0:
88,284,80261,1,0,0:0:0:0:
236,304,80400,1,0,0:0:0:0:
360,220,80539,1,0,0:0:0:0:
504,260,80678,1,0,0:0:0:0:
360,220,80817,5,0,0:0:0:0:
456,104,80956,1,0,0:0:0:0:
308,76,81095,1,0,0:0:0:0:
196,176,81234,1,0,0:0:0:0:
196,176,81373,1,0,0:0:0:0:
48,192,81511,2,0,L|72:268,1,75
204,336,81789,2,0,L|288:316,1,75
196,176,82067,6,0,L|232:96,1,75
204,336,82345,1,0,0:0:0:0:
70,263,82484,1,0,0:0:0:0:
228,108,82623,1,0,0:0:0:0:
356,184,82761,1,0,0:0:0:0:
444,60,82900,1,0,0:0:0:0:
228,108,83039,1,0,0:0:0:0:
144,232,83178,1,0,0:0:0:0:
272,312,83317,1,0,0:0:0:0:
356,184,83456,1,0,0:0:0:0:
356,184,83595,1,0,0:0:0:0:
144,232,83734,1,0,0:0:0:0:
144,232,84289,5,0,0:0:0:0:
356,184,84428,1,0,0:0:0:0:
144,232,84567,1,0,0:0:0:0:
356,184,84706,1,0,0:0:0:0:
284,332,84845,5,0,0:0:0:0:
224,100,84984,1,0,0:0:0:0:
284,332,85123,1,0,0:0:0:0:
224,100,85261,1,0,0:0:0:0:
284,332,85400,5,0,0:0:0:0:
428,296,85539,1,0,0:0:0:0:
384,152,85678,1,0,0:0:0:0:
384,152,85817,1,0,0:0:0:0:
88,216,85956,1,0,0:0:0:0:
